osu file format v14

[General]
AudioFilename: audio.mp3
AudioLeadIn: 0
PreviewTime: 9184
Countdown: 0
SampleSet: Soft
StackLeniency: 0.7
Mode: 0
LetterboxInBreaks: 0
WidescreenStoryboard: 0

[Editor]
Bookmarks: 19234,28834,38434,48034,57634,67234,76834,86434,96034,105634,115234,124834,134434,144034
DistanceSpacing: 1.7
BeatDivisor: 8
GridSize: 16
TimelineZoom: 2.499999

[Metadata]
Title:spy?
TitleUnicode:spy?
Artist:WHOKILLEDXIX
ArtistUnicode:WHOKILLEDXIX
Creator:wafer
Version:sus? w/mimari
Source:
Tags:english hyper pop hyperpop punk rap hip hop mimari goopert kami no kotoba karm the tool yung skayda ducky- alwayschoke azinlen
BeatmapID:3057478
BeatmapSetID:1491610

[Difficulty]
HPDrainRate:5
CircleSize:4
OverallDifficulty:8.8
ApproachRate:9.2
SliderMultiplier:2.8
SliderTickRate:1

[Events]
//Background and Video events
0,0,"epic bg.jpg",0,0
//Break Periods
//Storyboard Layer 0 (Background)
//Storyboard Layer 1 (Fail)
//Storyboard Layer 2 (Pass)
//Storyboard Layer 3 (Foreground)
//Storyboard Layer 4 (Overlay)
//Storyboard Sound Samples
Sample,4834,0,"wafer pitched.wav",30
Sample,143734,0,"we_love_you_mimari.wav",25

[TimingPoints]
34,600,4,2,1,50,1,0
8734,-100,4,2,1,50,0,0
9334,-50,4,2,1,55,0,0
9634,-40,4,2,99,65,0,0
9709,-40,4,2,1,65,0,0
10084,-100,4,2,1,65,0,0
10534,-50,4,2,1,65,0,0
11284,-100,4,2,1,65,0,0
11734,-50,4,2,1,65,0,0
13234,-200,4,2,1,65,0,0
13684,-66.6666666666667,4,2,1,40,0,0
14434,-40,4,2,1,65,0,0
14884,-100,4,2,1,65,0,0
15334,-50,4,2,1,65,0,0
15634,-66.6666666666667,4,2,1,65,0,0
16084,-100,4,2,1,65,0,0
16534,-50,4,2,1,65,0,0
16834,-50,4,2,2,65,0,0
17284,-50,4,2,1,65,0,0
18034,-200,4,2,1,40,0,0
19234,-40,4,2,1,70,0,0
19684,-100,4,2,1,70,0,0
19834,-50,4,2,1,70,0,0
20134,-50,4,2,1,70,0,0
20434,-35.7142857142857,4,2,1,70,0,0
20884,-100,4,2,1,70,0,0
21034,-50,4,2,1,70,0,0
21334,-50,4,2,1,70,0,0
21634,-133.333333333333,4,2,1,70,0,0
22084,-40,4,2,1,70,0,0
22384,-50,4,2,1,70,0,0
22534,-100,4,2,1,70,0,0
22834,-40,4,2,1,70,0,0
23284,-66.6666666666667,4,2,1,70,0,0
23734,-50,4,2,1,70,0,0
24034,-40,4,2,1,70,0,0
24484,-100,4,2,1,70,0,0
24634,-50,4,2,1,70,0,0
24934,-50,4,2,1,70,0,0
25234,-40,4,2,1,70,0,0
25684,-100,4,2,1,70,0,0
25834,-50,4,2,1,70,0,0
26134,-50,4,2,1,70,0,0
26434,-50,4,2,2,70,0,0
26884,-50,4,2,1,70,0,0
27034,-45.4545454545455,4,2,1,70,0,0
27334,-100,4,2,1,70,0,0
27634,-200,4,2,1,40,0,0
28234,-50,4,2,1,40,0,0
28309,-50,4,2,1,5,0,0
28384,-50,4,2,1,40,0,0
28834,-100,4,2,1,45,0,0
30934,-100,4,2,2,45,0,0
31684,-100,4,2,1,45,0,0
32434,-133.333333333333,4,2,1,45,0,0
33634,-100,4,2,1,45,0,0
35734,-100,4,2,2,45,0,0
36484,-100,4,2,1,45,0,0
37234,-133.333333333333,4,2,1,45,0,0
38434,-133.333333333333,4,2,1,50,0,0
38734,-83.3333333333333,4,2,1,50,0,0
41284,-71.4285714285714,4,2,1,50,0,0
41734,-62.5,4,2,1,50,0,0
42034,-83.3333333333333,4,2,1,50,0,0
42484,-71.4285714285714,4,2,1,50,0,0
47284,-71.4285714285714,4,2,1,40,0,0
47584,-222.222222222221,4,2,1,40,0,0
48034,-62.5,4,2,1,55,0,0
50434,-83.3333333333333,4,2,1,55,0,0
51634,-71.4285714285714,4,2,1,55,0,0
51934,-68.9655172413793,4,2,1,55,0,0
52234,-66.6666666666667,4,2,1,55,0,0
52534,-62.5,4,2,1,55,0,0
55234,-83.3333333333333,4,2,1,55,0,0
56434,-71.4285714285714,4,2,1,55,0,0
56734,-68.9655172413793,4,2,1,55,0,0
57034,-66.6666666666667,4,2,1,55,0,0
57334,-62.5,4,2,1,55,0,0
57634,-62.5,4,2,99,40,0,0
57784,-62.5,4,2,1,40,0,0
58084,-100,4,2,1,40,0,0
59734,-66.6666666666667,4,2,2,40,0,0
60034,-100,4,2,2,40,0,0
60334,-100,4,2,1,40,0,0
60784,-100,4,2,2,40,0,0
62284,-100,4,2,1,40,0,0
64534,-66.6666666666667,4,2,2,40,0,0
64834,-100,4,2,2,40,0,0
65284,-100,4,2,1,40,0,0
66934,-83.3333333333333,4,2,1,50,0,0
67233,-40,4,2,1,65,0,0
67683,-100,4,2,1,65,0,0
68133,-50,4,2,1,65,0,0
68883,-100,4,2,1,65,0,0
69333,-66.6666666666667,4,2,1,65,0,0
69634,-45.4545454545455,4,2,1,65,0,0
69934,-66.6666666666667,4,2,1,65,0,0
70084,-45.4545454545455,4,2,1,65,0,0
70833,-200,4,2,1,65,0,0
71283,-66.6666666666667,4,2,1,65,0,0
71734,-50,4,2,1,65,0,0
72033,-40,4,2,1,65,0,0
72483,-100,4,2,1,65,0,0
72933,-50,4,2,1,65,0,0
73233,-66.6666666666667,4,2,1,65,0,0
73683,-100,4,2,1,65,0,0
74133,-50,4,2,1,65,0,0
74434,-50,4,2,2,65,0,0
74884,-50,4,2,1,65,0,0
75334,-100,4,2,1,65,0,0
75633,-133.333333333333,4,2,1,65,0,0
76234,-66.6666666666667,4,2,1,65,0,0
76534,-50,4,2,1,65,0,0
76834,-40,4,2,1,70,0,0
77284,-100,4,2,1,70,0,0
77434,-50,4,2,1,70,0,0
77734,-50,4,2,1,70,0,0
78034,-35.7142857142857,4,2,1,70,0,0
78484,-100,4,2,1,70,0,0
78634,-50,4,2,1,70,0,0
78934,-50,4,2,1,70,0,0
79234,-133.333333333333,4,2,1,70,0,0
79684,-40,4,2,1,70,0,0
79984,-50,4,2,1,70,0,0
80134,-100,4,2,1,70,0,0
80434,-40,4,2,1,70,0,0
80884,-66.6666666666667,4,2,1,70,0,0
81034,-50,4,2,1,70,0,0
81334,-50,4,2,1,70,0,0
81634,-35.7142857142857,4,2,1,70,0,0
82084,-100,4,2,1,70,0,0
82234,-50,4,2,1,70,0,0
82534,-50,4,2,1,70,0,0
82834,-40,4,2,1,70,0,0
83284,-100,4,2,1,70,0,0
83434,-50,4,2,1,70,0,0
83734,-50,4,2,1,70,0,0
84034,-50,4,2,2,70,0,0
84484,-50,4,2,1,70,0,0
84634,-45.4545454545455,4,2,1,70,0,0
84934,-66.6666666666667,4,2,1,70,0,0
85234,-40,4,2,1,70,0,0
86434,-40,4,2,1,30,0,0
86734,-166.666666666667,4,2,1,30,0,0
87334,-83.3333333333333,4,2,1,30,0,0
87634,-166.666666666667,4,2,1,30,0,0
87709,-166.666666666667,4,2,1,30,0,0
88534,-83.3333333333333,4,2,1,30,0,0
88834,-125,4,2,1,30,0,0
89434,-250,4,2,1,30,0,0
91234,-43.4782608695652,4,2,1,55,0,0
91684,-100,4,2,1,55,0,0
92134,-66.6666666666667,4,2,1,55,0,0
92884,-40,4,2,1,55,0,0
93334,-66.6666666666667,4,2,1,55,0,0
93634,-83.3333333333333,4,2,1,55,0,0
94234,-41.6666666666667,4,2,1,55,0,0
94534,-100,4,2,1,55,0,0
94834,-40,4,2,1,55,0,0
95284,-100,4,2,1,55,0,0
95734,-66.6666666666667,4,2,1,55,0,0
96034,-133.333333333333,4,2,1,40,0,0
99634,-200,4,2,1,40,0,0
100834,-55.5555555555556,4,2,1,50,0,0
101284,-66.6666666666667,4,2,1,50,0,0
101584,-55.5555555555556,4,2,1,50,0,0
101734,-66.6666666666667,4,2,1,50,0,0
102034,-58.8235294117647,4,2,1,50,0,0
102334,-83.3333333333333,4,2,1,50,0,0
102934,-66.6666666666667,4,2,1,50,0,0
103234,-55.5555555555556,4,2,1,50,0,0
103684,-66.6666666666667,4,2,1,50,0,0
103984,-55.5555555555556,4,2,1,50,0,0
104284,-83.3333333333333,4,2,1,50,0,0
104434,-100,4,2,1,45,0,0
105634,-50,4,2,1,55,0,0
106084,-66.6666666666667,4,2,1,55,0,0
106534,-100,4,2,1,55,0,0
106834,-50,4,2,1,55,0,0
107434,-66.6666666666667,4,2,1,55,0,0
108034,-50,4,2,1,55,0,0
108484,-66.6666666666667,4,2,1,55,0,0
109234,-100,4,2,1,55,0,0
109534,-66.6666666666667,4,2,1,55,0,0
109684,-50,4,2,1,55,0,0
110884,-66.6666666666667,4,2,1,55,0,0
111334,-100,4,2,1,55,0,0
111634,-50,4,2,1,55,0,0
112534,-66.6666666666667,4,2,2,55,0,0
112834,-100,4,2,2,55,0,0
113134,-50,4,2,2,55,0,0
113284,-66.6666666666667,4,2,1,55,0,0
114484,-100,4,2,1,55,0,0
114934,-66.6666666666667,4,2,1,55,0,0
115234,-133.333333333333,4,2,1,45,0,0
120034,-52.6315789473684,4,2,1,55,0,0
120334,-66.6666666666667,4,2,1,55,0,0
120634,-58.8235294117647,4,2,1,55,0,0
120934,-66.6666666666667,4,2,1,55,0,0
121234,-76.9230769230769,4,2,1,55,0,0
122134,-66.6666666666667,4,2,1,55,0,0
122434,-50,4,2,1,55,0,0
123034,-71.4285714285714,4,2,1,55,0,0
123334,-66.6666666666667,4,2,1,55,0,0
123634,-55.5555555555556,4,2,1,55,0,0
123934,-66.6666666666667,4,2,1,55,0,0
124534,-133.333333333333,4,2,1,50,0,0
124834,-40,4,2,1,65,0,0
125283,-100,4,2,1,65,0,0
125733,-50,4,2,1,65,0,0
126483,-100,4,2,1,65,0,0
126933,-66.6666666666667,4,2,1,65,0,0
127234,-45.4545454545455,4,2,1,65,0,0
127533,-66.6666666666667,4,2,1,65,0,0
127684,-45.4545454545455,4,2,1,65,0,0
127984,-58.8235294117647,4,2,1,65,0,0
128433,-200,4,2,1,65,0,0
128883,-66.6666666666667,4,2,1,65,0,0
129334,-50,4,2,1,65,0,0
129633,-40,4,2,1,65,0,0
130083,-100,4,2,1,65,0,0
130533,-50,4,2,1,65,0,0
130833,-66.6666666666667,4,2,1,65,0,0
131283,-100,4,2,1,65,0,0
131733,-50,4,2,1,65,0,0
132034,-50,4,2,2,65,0,0
132484,-50,4,2,1,65,0,0
132934,-100,4,2,1,65,0,0
133233,-133.333333333333,4,2,1,40,0,0
133834,-66.6666666666667,4,2,1,40,0,0
134134,-50,4,2,1,40,0,0
134433,-66.6666666666667,4,2,1,70,0,0
134434,-40,4,2,1,70,0,0
134884,-100,4,2,1,70,0,0
135034,-50,4,2,1,70,0,0
135334,-50,4,2,1,70,0,0
135634,-35.7142857142857,4,2,1,70,0,0
136084,-100,4,2,1,70,0,0
136234,-50,4,2,1,70,0,0
136534,-50,4,2,1,70,0,0
136834,-133.333333333333,4,2,1,70,0,0
137284,-40,4,2,1,70,0,0
137584,-50,4,2,1,70,0,0
137734,-100,4,2,1,70,0,0
138034,-40,4,2,1,70,0,0
138484,-76.9230769230769,4,2,1,70,0,0
138634,-50,4,2,1,70,0,0
138934,-50,4,2,1,70,0,0
139234,-35.7142857142857,4,2,1,70,0,0
139684,-100,4,2,1,70,0,0
139834,-50,4,2,1,70,0,0
140134,-50,4,2,1,70,0,0
140434,-40,4,2,1,70,0,0
140884,-100,4,2,1,70,0,0
141034,-50,4,2,1,70,0,0
141334,-50,4,2,1,70,0,0
141634,-50,4,2,2,70,0,0
142084,-50,4,2,1,70,0,0
142234,-45.4545454545455,4,2,1,70,0,0
142534,-66.6666666666667,4,2,1,70,0,0
142834,-80,4,2,1,70,0,0
143434,-40,4,2,1,70,0,0
143734,-66.6666666666667,4,2,1,70,0,0
144034,-40,4,2,1,45,0,0
144334,-166.666666666667,4,2,1,45,0,0

[Colours]
Combo1 : 235,124,112
Combo2 : 174,125,219
Combo3 : 167,231,124
Combo4 : 151,79,238

[HitObjects]
79,100,8734,6,0,B|71:82|57:72|57:72|88:75|102:98,1,70,2|2,0:1|3:1,0:0:0:0:
153,45,9034,2,0,B|161:27|175:17|175:17|144:20|130:43,1,70,2|0,0:1|0:0,0:0:0:0:
52,173,9334,6,0,B|111:210|165:141|127:150|187:80|256:122,1,210,4|0,3:3|0:0,0:0:0:0:
275,216,9634,6,0,B|346:219|405:78|284:45|284:45|335:91|305:187,1,350,6|8,3:2|0:0,0:0:0:0:
204,335,10084,6,0,L|216:258,1,70,2|2,3:2|0:2,0:0:0:0:
214,265,10384,1,2,3:2:0:0:
61,262,10534,6,0,P|36:286|2:292,1,70,10|0,0:2|0:0,0:0:0:0:
0,217,10684,1,2,0:2:0:0:
291,289,10834,6,0,P|388:369|537:343,1,280,2|8,3:2|0:0,0:0:0:0:
138,252,11284,6,0,L|126:328,1,70,2|2,3:2|0:2,0:0:0:0:
127,321,11584,1,2,3:2:0:0:
440,302,11734,6,0,P|404:299|378:275,1,70,10|0,0:2|0:0,0:0:0:0:
434,230,11884,1,2,0:2:0:0:
342,64,12034,6,0,P|356:140|366:219,1,140,2|2,3:2|0:2,0:0:0:0:
495,20,12334,1,10,0:2:0:0:
277,146,12484,6,0,P|213:189|150:238,1,140,2|2,3:2|0:2,0:0:0:0:
23,149,12784,6,0,P|42:110|96:113,1,70,0|0,3:2|0:0,0:0:0:0:
64,27,12934,2,0,P|107:27|127:77,1,70,10|0,0:2|0:0,0:0:0:0:
138,120,13084,5,2,0:2:0:0:
10,377,13234,2,0,L|-2:300,1,70,2|0,0:2|0:0,0:0:0:0:
204,78,13684,6,0,B|211:67|221:62|221:62|200:60|189:74,1,52.5000020027162,2|0,0:0|0:0,1:0:0:0:
71,200,13834,6,0,B|47:195|28:202|28:202|52:173|84:175,1,105.000004005432,2|0,0:0|0:0,1:1:0:0:
153,341,14134,6,0,B|176:336|195:343|195:343|171:314|139:316,1,105.000004005432,2|0,0:0|0:0,1:1:0:0:
411,234,14434,6,0,B|370:169|290:195|290:195|159:231|159:231|208:219|251:242,1,350,6|8,3:2|0:0,0:0:0:0:
465,291,14884,6,0,P|486:261|473:211,1,70,2|2,3:2|0:2,0:0:0:0:
485,229,15184,1,2,3:2:0:0:
212,364,15334,6,0,P|191:334|204:284,1,70,10|0,0:2|0:0,0:0:0:0:
233,234,15484,1,2,0:2:0:0:
446,163,15634,6,0,B|477:97|477:97|336:174,1,210.000008010865,2|8,3:2|0:0,0:0:0:0:
113,115,16084,6,0,L|101:38,1,70,2|2,3:2|0:2,0:0:0:0:
102,46,16384,1,2,3:2:0:0:
330,92,16534,6,0,P|298:107|282:137,1,70,10|0,0:2|0:0,0:0:0:0:
356,162,16684,1,2,0:2:0:0:
497,90,16834,5,2,3:2:0:0:
488,79,16909,1,2,0:2:0:0:
477,70,16984,1,2,0:2:0:0:
463,66,17059,1,2,0:2:0:0:
448,69,17134,6,0,L|436:140,1,70,10|0,0:2|0:0,0:0:0:0:
418,211,17284,1,2,3:2:0:0:
206,119,17434,6,0,P|206:161|294:214,1,140,2|0,0:2|3:2,0:0:0:0:
494,195,17734,1,10,0:2:0:0:
494,195,17884,1,2,0:2:0:0:
30,13,18034,6,0,P|26:53|18:89,1,70,2|2,0:2|0:2,0:0:0:0:
66,148,18484,1,2,0:2:0:0:
19,82,18634,6,0,P|26:47|30:13,1,70,2|2,0:2|0:1,0:0:0:0:
493,368,19234,6,0,B|498:304|448:235|353:232|323:274|259:342|378:405|418:326,1,350,6|8,3:2|0:0,0:0:0:0:
271,148,19684,6,0,L|277:197,1,35,2|0,3:2|0:0,0:0:0:0:
341,119,19834,2,0,L|352:195,1,70,2|0,0:3|0:0,0:0:0:0:
357,194,19984,1,2,3:2:0:0:
180,379,20134,6,0,L|191:303,1,70,8|0,0:2|0:0,0:0:0:0:
250,264,20284,1,2,0:2:0:0:
109,46,20434,6,0,B|96:25|71:17|49:26|49:26|27:36|16:60|23:84|23:84|29:106|52:120|76:116|76:116|92:110|111:116|121:131|121:131|130:145|129:165|117:178|117:178|105:190|86:193|70:184|70:184|55:175|48:157|53:140,1,391.99998803711,2|8,3:2|0:2,0:0:0:0:
179,84,20884,6,0,L|228:90,1,35,2|0,3:2|0:0,0:0:0:0:
200,162,21034,2,0,L|276:173,1,70,2|0,0:3|0:0,0:0:0:0:
275,178,21184,1,2,3:2:0:0:
447,21,21334,6,0,L|371:32,1,70,8|0,0:2|0:0,0:0:0:0:
326,85,21484,1,2,0:2:0:0:
405,342,21634,6,0,L|410:294,2,26.2500010013581,2|0|2,3:2|0:0|0:3,0:0:0:0:
464,269,21934,1,10,0:0:0:0:
184,247,22084,6,0,P|282:260|340:351,1,175,2|2,3:2|0:3,0:0:0:0:
500,154,22384,6,0,P|464:182|407:168,1,70,2|0,3:2|0:0,0:0:0:0:
366,191,22534,6,0,L|370:156,1,35,10|0,3:2|0:0,0:0:0:0:
376,149,22684,1,2,0:3:0:0:
151,9,22834,6,0,B|132:-7|105:-7|86:9|86:9|67:25|62:52|74:73|74:73|87:94|113:104|136:95|136:95|178:83|178:83|216:70|244:80|268:94|278:135,1,350,2|8,3:2|0:2,0:0:0:0:
200,162,23284,6,0,B|211:169|216:179|216:179|218:158|204:147,1,52.5000020027162,2|0,3:2|0:0,1:0:0:0:
361,60,23434,6,0,B|356:36|363:17|363:17|334:41|336:73,1,105.000004005432,2|0,0:0|3:0,1:0:0:0:
435,236,23734,6,0,L|515:220,2,70,10|0|0,0:0|0:0|0:0,1:0:0:0:
256,361,24034,6,0,B|238:371|216:368|201:354|201:354|186:340|183:318|192:300|192:300|202:282|222:272|242:277|242:277|359:295|359:295|327:294|309:301|292:331|292:331,1,350,6|8,3:2|0:0,0:0:0:0:
122,271,24484,6,0,L|116:222,1,35,2|0,3:2|0:0,0:0:0:0:
40,233,24634,2,0,L|51:309,1,70,2|0,0:3|0:0,0:0:0:0:
56,308,24784,1,2,3:2:0:0:
274,140,24934,6,0,L|285:64,1,70,8|0,0:2|0:0,0:0:0:0:
248,5,25084,1,2,0:2:0:0:
229,226,25234,6,0,B|289:264|349:225|360:181|371:163|371:163|407:89|499:92|538:147,1,350,2|8,3:2|0:2,0:0:0:0:
467,335,25684,6,0,L|458:282,1,35,2|0,3:2|0:0,0:0:0:0:
395,366,25834,2,0,L|384:296,1,70,2|0,0:3|0:0,0:0:0:0:
376,287,25984,1,2,3:2:0:0:
284,70,26134,6,0,L|273:146,1,70,8|0,0:2|0:0,0:0:0:0:
309,206,26284,1,2,0:2:0:0:
82,336,26434,5,2,3:2:0:0:
92,348,26509,1,2,0:2:0:0:
104,358,26584,1,2,0:2:0:0:
120,363,26659,1,2,0:2:0:0:
137,358,26734,6,0,L|146:281,1,70,10|0,0:2|0:0,0:0:0:0:
112,222,26884,1,2,3:2:0:0:
242,2,27034,6,0,P|152:21|147:97,1,154.000004699707,2|2,0:3|3:2,0:0:0:0:
222,353,27334,6,0,L|227:305,2,35,10|0|2,3:2|0:0|0:3,0:0:0:0:
17,128,27634,6,0,P|53:134|93:140,1,70,2|2,0:2|0:2,0:0:0:0:
163,156,28084,1,2,0:2:0:0:
86,139,28234,6,0,P|51:133|9:126,1,70,2|0,0:2|0:0,0:0:0:0:
399,33,28834,6,0,L|468:44,1,70,2|0,3:2|0:0,0:0:0:0:
506,111,29134,1,2,0:2:0:0:
433,180,29284,6,0,L|419:108,2,70,2|2|2,3:2|0:2|0:2,0:0:0:0:
469,310,29734,2,0,L|480:240,1,70,2|2,3:2|0:2,0:0:0:0:
346,91,30034,6,0,L|193:115,1,140,2|2,3:2|0:2,0:0:0:0:
207,112,30484,1,2,3:2:0:0:
93,25,30634,6,0,L|153:76,1,70,2|2,0:2|0:2,0:0:0:0:
188,188,30934,6,0,L|177:220,5,23.3333333333333,2|2|2|2|2|2,3:2|0:2|0:2|0:2|0:2|0:2,0:0:0:0:
112,168,31234,6,0,L|96:123,4,35,2|2|2|2|2,3:2|0:2|0:2|0:2|0:2,0:0:0:0:
39,180,31684,1,2,3:2:0:0:
231,269,31834,6,0,L|302:244,1,70,2|2,0:2|0:2,0:0:0:0:
115,245,32134,1,2,3:2:0:0:
115,245,32284,1,2,0:2:0:0:
298,329,32434,6,0,L|366:352,1,52.5000020027161,2|2,3:2|0:2,0:0:0:0:
347,346,32884,5,2,3:2:0:0:
407,301,33034,2,0,L|391:247,1,52.5000020027161,2|2,0:2|0:2,0:0:0:0:
265,174,33334,2,0,L|281:120,1,52.5000020027161,2|2,3:2|0:2,0:0:0:0:
113,33,33634,6,0,L|43:44,1,70,2|0,3:2|0:0,0:0:0:0:
6,111,33934,1,2,0:2:0:0:
79,180,34084,6,0,L|93:108,2,70,2|2|2,3:2|0:2|0:2,0:0:0:0:
43,310,34534,2,0,L|31:240,1,70,2|2,3:2|0:2,0:0:0:0:
166,91,34834,6,0,L|318:115,1,140,2|2,3:2|0:2,0:0:0:0:
304,112,35284,1,2,3:2:0:0:
418,25,35434,6,0,L|358:76,1,70,2|2,0:2|0:2,0:0:0:0:
323,188,35734,6,0,L|334:220,5,23.3333333333333,2|2|2|2|2|2,3:2|0:2|0:2|0:2|0:2|0:2,0:0:0:0:
399,168,36034,6,0,L|414:123,3,35,2|2|2|2,3:2|0:2|0:2|0:2,0:0:0:0:
445,231,36334,6,0,L|516:206,1,70,2|2,0:2|3:2,0:0:0:0:
385,276,36634,1,2,0:2:0:0:
385,276,36784,1,2,0:2:0:0:
307,290,36934,6,0,L|235:265,1,70,2|2,3:2|0:2,0:0:0:0:
456,307,37234,6,0,L|473:356,1,52.5000020027161,2|2,3:2|0:2,0:0:0:0:
244,349,37684,6,0,L|194:366,1,52.5000020027161,2|2,3:2|0:2,0:0:0:0:
194,366,37984,1,2,0:2:0:0:
105,273,38134,6,0,P|138:267|172:295,1,78.7500030040742,2|0,3:2|0:0,0:0:0:0:
115,352,38434,5,2,3:2:0:0:
61,70,38734,6,0,L|51:162,1,83.9999974365235,8|2,0:0|3:2,0:0:0:0:
51,153,39034,1,2,0:3:0:0:
202,7,39184,6,0,L|210:75,1,41.9999987182618,0|0,3:0|0:0,0:0:0:0:
273,101,39334,5,10,0:2:0:0:
273,101,39484,1,2,0:3:0:0:
133,128,39634,6,0,L|224:153,1,83.9999974365235,2|2,3:2|0:3,0:0:0:0:
321,10,39934,6,0,L|268:19,1,41.9999987182618,8|0,0:2|0:0,0:0:0:0:
279,17,40084,1,2,3:2:0:0:
410,221,40234,6,0,L|419:137,1,83.9999974365235,2|2,0:2|3:2,0:0:0:0:
481,85,40534,5,10,0:0:0:0:
481,85,40684,1,2,0:3:0:0:
324,267,40834,6,0,L|316:199,1,41.9999987182618,2|0,3:2|0:0,0:0:0:0:
263,175,40984,5,2,0:3:0:0:
263,175,41134,1,8,0:2:0:0:
280,332,41284,6,0,L|327:349,1,48.9999985046387,2|0,3:2|0:0,0:0:0:0:
399,317,41434,5,2,0:3:0:0:
399,317,41584,1,2,3:2:0:0:
244,258,41734,6,0,L|112:291,1,112,10|2,0:2|0:3,0:0:0:0:
135,285,42034,1,2,3:2:0:0:
64,200,42184,6,0,L|126:211,1,41.9999987182618,2|0,0:3|0:0,0:0:0:0:
167,159,42334,1,8,0:2:0:0:
79,25,42484,6,0,L|91:125,1,97.9999970092774,2|2,3:2|0:2,0:0:0:0:
90,122,42784,1,0,3:2:0:0:
282,48,42934,6,0,L|210:35,1,48.9999985046387,10|0,0:2|0:0,0:0:0:0:
169,79,43084,1,2,0:2:0:0:
322,249,43234,6,0,L|334:149,1,97.9999970092774,2|2,3:2|0:2,0:0:0:0:
333,152,43534,1,8,0:0:0:0:
209,235,43684,6,0,L|216:297,1,48.9999985046387,2|0,3:2|0:0,0:0:0:0:
271,345,43834,1,2,0:3:0:0:
271,345,43984,1,0,3:0:0:0:
249,165,44134,6,0,L|168:148,1,48.9999985046387,10|0,0:2|0:0,0:0:0:0:
138,197,44284,1,2,0:3:0:0:
350,331,44434,6,0,L|456:310,1,97.9999970092774,2|2,3:2|0:3,0:0:0:0:
446,311,44734,1,8,0:2:0:0:
511,167,44884,6,0,L|434:152,1,48.9999985046387,2|0,3:2|0:0,0:0:0:0:
407,215,45034,5,2,0:2:0:0:
407,215,45184,1,2,3:2:0:0:
284,75,45334,6,0,L|277:16,2,48.9999985046387,10|0|2,0:0|0:0|0:3,0:0:0:0:
323,245,45634,6,0,L|332:116,1,97.9999970092774,2|2,3:2|0:3,0:0:0:0:
329,147,45934,1,8,0:2:0:0:
124,65,46084,6,0,L|184:78,1,48.9999985046387,2|0,3:2|0:0,0:0:0:0:
224,142,46234,1,2,0:3:0:0:
224,142,46384,1,2,3:2:0:0:
121,278,46534,6,0,L|101:219,1,48.9999985046387,10|0,0:2|0:0,0:0:0:0:
135,159,46684,1,2,0:3:0:0:
337,319,46834,6,0,L|294:363,1,48.9999985046387,2|0,3:2|0:0,0:0:0:0:
0,158,47284,5,2,0:2:0:0:
0,158,47584,2,0,L|60:172,1,62.9999980773926,2|2,0:2|0:2,0:0:0:0:
457,258,48034,6,0,B|466:225|496:207|496:207|306:263,1,224,6|8,3:2|0:2,0:0:0:0:
135,159,48484,1,2,3:2:0:0:
323,320,48634,6,0,P|283:294|278:268,1,56,2|0,0:2|0:0,0:0:0:0:
344,252,48784,1,0,3:2:0:0:
449,118,48934,6,0,B|469:104|474:77|474:77|487:116|463:145,1,112,8|0,0:2|0:0,0:0:0:0:
216,98,49234,6,0,P|249:49|412:90,1,224,2|10,3:2|0:2,0:0:0:0:
457,258,49684,1,0,3:2:0:0:
146,122,49834,6,0,P|172:162|198:167,1,56,2|0,0:2|0:0,0:0:0:0:
216,98,49984,1,0,3:2:0:0:
468,138,50134,6,0,B|487:116|474:77|474:77|469:104|449:118,1,112,10|0,0:2|0:0,0:0:0:0:
157,47,50434,6,0,L|83:28,1,41.9999987182618,2|0,3:1|0:0,1:0:0:0:
333,141,50734,6,0,L|251:161,1,83.9999974365235,10|0,0:1|0:0,1:0:0:0:
457,258,51034,6,0,L|375:237,1,83.9999974365235,2|0,0:1|3:0,1:0:0:0:
512,355,51334,6,0,L|438:374,1,41.9999987182618,10|0,0:1|0:0,1:0:0:0:
465,360,51634,6,0,L|549:338,1,48.9999985046387,2|0,3:1|0:0,1:0:0:0:
365,243,51934,6,0,L|464:269,1,101.500003097534,10|0,0:1|3:0,1:0:0:0:
236,152,52234,6,0,L|338:126,1,105.000004005432,2|0,0:1|3:0,1:0:0:0:
108,45,52534,6,0,L|209:71,1,56,10|0,0:1|0:0,1:0:0:0:
236,73,52684,1,2,0:0:0:0:
50,162,52834,6,0,B|41:195|11:213|11:213|201:157,1,224,2|8,3:2|0:2,0:0:0:0:
426,101,53284,1,2,3:2:0:0:
258,253,53434,6,0,P|218:227|213:201,1,56,2|0,0:2|0:0,0:0:0:0:
236,152,53584,1,0,3:2:0:0:
157,275,53734,6,0,B|137:289|132:316|132:316|119:277|143:248,1,112,8|0,0:2|0:0,0:0:0:0:
327,218,54034,6,0,P|336:261|295:320,1,112,2|2,3:2|0:3,0:0:0:0:
208,330,54334,1,10,0:2:0:0:
236,152,54484,1,0,3:2:0:0:
388,175,54634,6,0,P|371:152|345:143,1,56,2|0,0:2|0:0,0:0:0:0:
327,218,54784,1,0,3:2:0:0:
137,255,54934,6,0,B|118:277|131:316|131:316|136:289|156:275,1,112,10|0,0:2|0:0,0:0:0:0:
40,355,55234,6,0,L|-34:374,1,41.9999987182618,2|0,3:1|0:0,1:0:0:0:
137,255,55534,6,0,L|55:235,1,83.9999974365235,10|0,0:1|0:0,1:0:0:0:
236,73,55834,6,0,L|154:94,1,83.9999974365235,2|0,0:1|3:0,1:0:0:0:
366,10,56134,6,0,L|325:0,1,41.9999987182618,10|0,0:1|0:0,1:0:0:0:
319,8,56434,6,0,L|403:30,1,48.9999985046387,2|0,3:1|0:0,1:0:0:0:
152,101,56734,6,0,L|110:54,1,50.7500015487671,10|0,0:1|0:0,1:0:0:0:
71,10,56884,1,2,3:1:0:0:
45,222,57034,6,0,L|149:247,1,105.000004005432,2|0,0:1|3:0,1:0:0:0:
50,362,57334,6,0,L|89:312,1,56,10|0,0:1|0:0,1:0:0:0:
184,175,57484,1,2,0:1:0:0:
456,305,57634,5,4,3:0:0:0:
456,305,58084,6,0,L|365:323,1,70,2|2,3:2|0:2,0:0:0:0:
387,318,58384,1,2,0:2:0:0:
463,218,58534,6,0,L|510:231,1,35,0|0,3:0|0:0,0:0:0:0:
293,306,58834,6,0,P|220:309|160:360,1,140,2|2,3:2|0:2,0:0:0:0:
168,347,59284,1,0,3:2:0:0:
74,64,59584,5,2,0:2:0:0:
128,116,59734,2,0,L|186:130,5,35.0000013351441,2|2|2|2|2|2,3:2|0:2|0:2|0:2|0:2|0:2,0:0:0:0:
71,173,60034,6,0,L|17:187,3,35,2|2|2|2,3:2|0:2|0:2|0:2,0:0:0:0:
153,239,60334,6,0,L|144:172,1,35,2|0,0:1|0:0,0:0:0:0:
97,293,60484,5,2,3:1:0:0:
97,293,60634,1,2,0:1:0:0:
235,171,60784,6,0,L|226:238,1,35,0|0,3:1|0:0,0:0:0:0:
283,263,60934,2,0,P|356:266|416:317,1,140,2|2,3:1|3:1,0:0:0:0:
250,384,61534,6,0,B|244:323,1,35,2|0,0:1|0:0,0:0:0:0:
172,306,61834,6,0,B|168:341,2,35,2|0|0,0:1|0:0|0:0,0:0:0:0:
333,364,62134,6,0,B|336:329,1,35,2|0,3:1|0:0,0:0:0:0:
336,329,62284,1,2,0:1:0:0:
103,149,62434,6,0,B|230:206,1,140,4|0,3:0|0:0,0:0:0:0:
395,155,62884,2,0,L|465:134,2,70,2|2|2,3:2|0:2|0:2,0:0:0:0:
307,275,63334,6,0,B|292:243,1,35,0|0,3:0|0:0,0:0:0:0:
72,223,63634,6,0,L|4:252,2,70,2|0|2,3:2|0:0|0:2,0:0:0:0:
103,149,64084,2,0,L|117:81,1,70,0|2,3:2|0:2,0:0:0:0:
75,13,64384,1,2,0:2:0:0:
185,223,64534,6,0,L|127:209,5,35.0000013351441,2|2|2|2|2|2,3:2|0:2|0:2|0:2|0:2|0:2,0:0:0:0:
243,174,64834,6,0,L|293:143,3,35,2|2|2|2,3:2|0:2|0:2|0:2,0:0:0:0:
258,248,65134,6,0,L|288:323,1,70,2|2,0:2|3:2,0:0:0:0:
178,145,65434,5,2,0:2:0:0:
178,145,65584,1,2,3:2:0:0:
359,301,65734,6,0,L|407:310,1,35,2|0,3:1|0:0,0:0:0:0:
325,213,66034,6,0,L|373:204,1,35,2|0,3:1|0:0,0:0:0:0:
314,99,66334,6,0,L|362:108,1,35,2|0,0:1|0:0,0:0:0:0:
348,105,66484,1,0,0:0:0:0:
268,21,66634,6,0,L|316:12,1,35,2|0,0:1|0:0,0:0:0:0:
502,160,66934,6,0,P|463:131|412:146,1,83.9999974365235,2|0,3:2|0:0,0:0:0:0:
325,248,67234,6,0,B|280:306|375:375|449:281|389:205|389:205|359:174|324:136|375:72,1,350,6|8,3:2|0:0,0:0:0:0:
510,0,67684,6,0,L|498:77,1,70,2|2,3:2|0:2,0:0:0:0:
499,69,67984,1,2,3:2:0:0:
264,184,68134,6,0,L|253:115,1,70,10|0,0:2|0:0,0:0:0:0:
289,49,68284,1,2,0:2:0:0:
394,308,68434,6,0,B|416:316|433:321|450:308|450:308|467:296|473:273|465:254|465:254|456:234|436:223|414:227|414:227|310:247,1,280,2|8,3:2|0:0,0:0:0:0:
134,346,68884,6,0,L|210:366,1,70,2|2,3:2|0:2,0:0:0:0:
201,363,69184,1,2,3:2:0:0:
95,148,69334,6,0,B|85:174|85:174|106:206,1,52.5000020027161,10|0,0:2|0:0,0:0:0:0:
105,196,69484,2,0,B|115:170|115:170|101:149,1,52.5000020027161,2|0,0:2|0:0,0:0:0:0:
5,291,69634,6,0,L|180:255,1,154.000004699707,2|2,3:2|0:2,0:0:0:0:
360,366,69934,2,0,L|373:289,1,52.5000020027161,10|0,0:2|0:0,0:0:0:0:
282,196,70084,6,0,B|240:258|240:258|237:258|237:258|240:258|240:258|291:332,1,154.000004699707,2|2,3:2|0:2,0:0:0:0:
505,260,70384,6,0,P|486:221|429:224,1,77.0000023498536,2|0,3:2|0:0,0:0:0:0:
459,135,70534,2,0,P|416:135|397:187,1,77.0000023498536,10|0,0:2|0:0,0:0:0:0:
382,234,70684,5,2,0:2:0:0:
436,384,70834,6,0,L|447:314,1,70,2|8,3:2|0:2,0:0:0:0:
193,21,71284,6,0,L|199:96,1,52.5000020027161,2|0,3:2|0:0,1:0:0:0:
23,191,71434,6,0,L|95:165,1,52.5000020027161,2|0,0:0|0:0,1:1:0:0:
145,192,71584,1,0,3:3:0:0:
301,81,71734,6,0,B|305:54|322:37|322:37|266:49|272:127,1,140,10|2,0:0|0:0,1:1:0:0:
107,260,72034,6,0,B|141:289|196:281|233:237|206:224|235:174|287:153|323:188|323:188|345:212|334:238|321:263|283:249,1,350,6|8,3:2|0:0,0:0:0:0:
254,378,72484,6,0,P|241:344|253:298,1,70,2|2,3:2|0:2,0:0:0:0:
245,311,72784,1,2,3:2:0:0:
410,170,72934,6,0,P|424:203|411:250,1,70,10|0,0:2|0:0,0:0:0:0:
366,285,73084,1,2,0:2:0:0:
97,86,73234,6,0,B|45:39|45:39|186:79,1,210.000008010865,2|8,3:2|0:0,0:0:0:0:
41,195,73684,6,0,P|36:160|21:123,1,70,2|2,3:2|0:2,0:0:0:0:
24,128,73984,1,2,3:2:0:0:
248,20,74134,6,0,P|253:55|270:96,1,70,10|0,0:2|0:0,0:0:0:0:
333,124,74284,1,2,0:2:0:0:
136,233,74434,5,2,3:2:0:0:
130,220,74509,1,2,0:2:0:0:
126,206,74584,1,2,0:2:0:0:
128,191,74659,1,2,0:2:0:0:
136,178,74734,6,0,L|208:194,1,70,10|0,0:2|0:0,0:0:0:0:
256,251,74884,1,2,3:2:0:0:
40,383,75034,6,0,B|25:328|25:328|35:298|35:298|16:221,1,140,2|0,0:2|3:2,0:0:0:0:
160,62,75334,2,0,L|150:122,2,35,10|0|2,0:2|0:0|0:2,0:0:0:0:
346,209,75634,6,0,P|386:213|458:229,1,105.000004005432,2|10,3:2|0:2,0:0:0:0:
330,49,76084,1,2,3:2:0:0:
449,226,76234,6,0,P|398:214|346:209,1,105.000004005432,2|0,0:2|0:0,0:0:0:0:
186,381,76534,6,0,P|173:284|128:162,1,210,2|0,0:1|0:0,0:0:0:0:
3,25,76834,6,0,B|-18:85|12:165|103:192|142:159|222:110|122:11|64:84,1,350,6|8,3:2|0:0,0:0:0:0:
255,262,77284,6,0,L|289:269,1,35,2|0,3:2|0:0,0:0:0:0:
318,198,77434,2,0,L|243:182,1,70,2|0,0:3|0:0,0:0:0:0:
240,181,77584,1,2,3:2:0:0:
464,17,77734,6,0,L|479:91,1,70,8|0,0:2|0:0,0:0:0:0:
492,159,77884,1,2,0:2:0:0:
366,258,78034,6,0,B|476:334|476:334|355:60,1,391.99998803711,2|8,3:2|0:2,0:0:0:0:
202,26,78484,6,0,L|222:72,1,35,2|0,3:2|0:0,0:0:0:0:
283,103,78634,2,0,L|308:37,1,70,2|0,0:3|0:0,0:0:0:0:
315,25,78784,1,2,3:2:0:0:
155,108,78934,6,0,L|81:84,1,70,8|0,0:2|0:0,0:0:0:0:
17,62,79084,1,2,0:2:0:0:
206,200,79234,6,0,P|219:178|218:149,1,52.5000020027161,2|2,3:2|0:3,0:0:0:0:
17,62,79534,1,10,0:0:0:0:
184,270,79684,6,0,P|226:276|264:240,1,87.5,2|0,3:2|0:0,0:0:0:0:
267,253,79834,1,2,0:3:0:0:
72,244,79984,6,0,P|108:216|165:230,1,70,2|0,3:2|0:0,0:0:0:0:
329,293,80134,6,0,P|365:321|422:307,1,70,10|2,3:2|0:3,0:0:0:0:
306,122,80434,6,0,B|336:127|360:149|369:178|369:178|378:157|400:144|423:146|423:146|446:147|465:164|471:186|471:186|477:208|468:232|449:245|449:245|430:258|404:257|386:243,1,350,2|8,3:2|0:2,0:0:0:0:
242,83,80884,6,0,B|226:84|214:77|214:77|229:106|271:92,1,52.5000020027161,2|0,3:2|0:0,1:0:0:0:
206,200,81034,2,0,B|183:207|171:224|171:224|176:167|240:168,1,140,2|0,0:0|3:0,1:0:0:0:
473,76,81334,6,0,L|489:-4,2,70,10|0|2,0:0|0:0|0:0,1:0:0:0:
458,370,81634,6,0,B|429:331|385:344|385:344|403:309|395:268|365:243|365:243|334:219|291:220|262:246|262:246|297:247|326:272|331:308|331:308|334:343|312:375|279:383,1,392,6|8,3:2|0:0,0:0:0:0:
74,346,82084,6,0,L|123:340,1,35,2|0,3:2|0:0,0:0:0:0:
257,319,82234,2,0,L|181:330,1,70,2|0,0:3|0:0,0:0:0:0:
180,333,82384,1,2,3:2:0:0:
0,230,82534,6,0,L|76:219,1,70,8|0,0:2|0:0,0:0:0:0:
143,206,82684,1,2,0:2:0:0:
473,76,82834,6,0,B|402:104|359:203|359:203|372:96|325:36,1,350,2|8,3:2|0:2,0:0:0:0:
399,273,83284,6,0,L|447:296,1,35,2|0,3:2|0:0,0:0:0:0:
413,364,83434,2,0,L|340:328,1,70,2|0,0:3|0:0,0:0:0:0:
341,336,83584,1,2,3:2:0:0:
238,138,83734,6,0,L|277:212,1,70,8|0,0:2|0:0,0:0:0:0:
309,265,83884,1,2,0:2:0:0:
95,362,84034,5,2,3:2:0:0:
69,352,84109,1,2,0:2:0:0:
53,330,84184,1,2,0:2:0:0:
52,302,84259,1,2,0:2:0:0:
68,279,84334,6,0,L|170:249,1,70,10|0,0:2|0:0,0:0:0:0:
209,240,84484,1,2,3:2:0:0:
203,69,84634,6,0,B|172:57|154:13|154:13|159:60|139:87,1,154.000004699707,2|2,0:3|3:2,0:0:0:0:
465,182,84934,6,0,B|475:202|466:232|466:232|483:205|506:201,1,105.000004005432,10|0,3:2|0:0,1:0:0:0:
345,75,85234,6,0,B|287:30|218:125|312:199|388:139|388:139|419:109|457:74|521:125,1,350,2|10,3:2|0:1,0:0:0:0:
483,103,85684,1,0,3:0:0:0:
315,265,85834,6,0,B|352:273|381:319|381:319|366:267|384:233,1,175,2|0,0:2|3:0,1:0:0:0:
194,113,86134,2,0,B|175:80|191:28|191:28|162:73|124:81,1,175,8|2,0:2|0:0,1:0:0:0:
23,191,86434,5,0,0:0:0:0:
68,338,86734,6,0,L|77:281,1,41.9999987182618,8|0,0:0|0:0,0:0:0:0:
193,319,87034,2,0,L|139:339,1,41.9999987182618
114,223,87334,6,0,L|155:255,1,41.9999987182618,8|0,0:0|0:0,0:0:0:0:
307,381,87634,6,0,L|322:281,1,84,0|8,0:0|0:0,0:0:0:0:
216,100,88234,2,0,L|223:160,1,41.9999987182618
335,161,88534,6,0,L|284:187,1,41.9999987182618,8|0,0:0|0:0,0:0:0:0:
119,87,88834,5,0,0:0:0:0:
264,34,89134,6,0,L|211:14,1,56,8|0,0:0|0:0,0:0:0:0:
113,172,89434,2,0,L|148:162,2,28
454,241,91234,6,0,B|531:245|584:103|463:70|463:70|450:150,1,322.000006141663,2|8,3:2|0:0,0:0:0:0:
286,14,91684,6,0,L|306:104,1,70,2|2,3:2|0:2,0:0:0:0:
301,82,91984,1,0,3:2:0:0:
369,325,92134,6,0,L|382:254,1,52.5000020027161,10|0,0:2|0:0,0:0:0:0:
329,213,92284,1,2,0:2:0:0:
116,246,92434,6,0,P|59:256|25:298,1,105.000004005432,2|2,3:2|0:2,0:0:0:0:
64,363,92659,1,2,0:0:0:0:
64,363,92734,2,0,P|95:366|122:390,1,52.5000020027161,8|0,0:2|0:0,0:0:0:0:
209,103,92884,6,0,B|196:82|171:74|149:83|149:83|127:93|116:117|123:141|123:141|129:163|152:177|176:173|176:173|192:167|211:173|221:188|221:188|230:202|229:222|217:235|217:235|206:244|206:244|190:258|196:286,1,350,2|0,3:2|3:2,0:0:0:0:
222,338,93334,6,0,L|215:399,1,52.5000020027161,8|0,0:2|0:0,0:0:0:0:
453,35,93634,6,0,L|465:134,1,83.9999974365235,2|2,3:2|0:0,0:0:0:0:
463,118,93934,1,10,0:0:0:0:
326,256,94084,6,0,L|341:192,1,41.9999987182618,2|0,3:2|0:0,0:0:0:0:
421,347,94234,2,0,L|406:261,1,83.9999974365235,2|0,0:2|0:0,0:0:0:0:
415,255,94384,5,0,3:2:0:0:
143,357,94534,1,10,0:2:0:0:
143,357,94609,2,0,L|76:345,1,35,2|2,0:0|0:2,0:0:0:0:
52,52,94834,6,0,B|63:90|37:118|37:118|7:143|0:184|17:219|17:219|37:253|82:272|115:251|115:251|89:180,1,350,2|10,3:2|0:2,0:0:0:0:
294,84,95284,6,0,L|204:64,1,70,2|2,3:2|0:2,0:0:0:0:
226,69,95584,1,0,3:2:0:0:
180,205,95734,6,0,L|247:191,1,52.5000020027161,10|0,0:2|0:0,0:0:0:0:
299,234,95884,1,2,0:2:0:0:
512,213,96034,6,0,P|466:174|413:193,1,105.000004005432,0|2,3:0|0:3,0:0:0:0:
356,154,96484,2,0,L|333:100,1,52.5000020027161,0|2,3:0|0:0,0:0:0:0:
462,12,96934,5,2,3:2:0:0:
462,12,97084,1,2,0:0:0:0:
390,47,97234,2,0,L|336:24,2,52.5000020027161,2|2|2,3:0|0:0|0:3,0:0:0:0:
450,252,97684,2,0,L|427:306,1,52.5000020027161,2|2,3:2|0:0,0:0:0:0:
429,300,97984,1,2,0:0:0:0:
298,255,98134,6,0,P|346:251|365:210,1,78.7500030040742,2|0,3:2|0:0,0:0:0:0:
361,216,98434,6,0,L|354:177,1,26.2500010013581,0|0,3:0|0:0,0:0:0:0:
266,142,98884,6,0,L|303:155,1,26.2500010013581,0|0,3:0|0:0,0:0:0:0:
421,111,99334,6,0,L|390:136,1,26.2500010013581,0|0,3:2|0:0,0:0:0:0:
199,191,99634,6,0,L|149:203,1,35,0|0,3:0|0:0,0:0:0:0:
78,139,100084,6,0,L|112:176,1,35,0|0,3:2|0:0,0:0:0:0:
106,288,100534,6,0,L|120:239,1,35,0|2,3:2|0:0,0:0:0:0:
255,43,100834,6,0,B|201:61|166:130|166:130|180:52|149:7,1,251.999992309571,6|8,3:3|0:0,0:0:0:0:
23,186,101284,2,0,P|3:133|31:86,1,105.000004005432,0|2,3:3|0:3,0:0:0:0:
256,138,101584,6,0,P|258:168|243:196,1,62.9999980773926,0|0,3:2|0:0,0:0:0:0:
206,268,101734,2,0,P|117:281|72:318,1,105.000004005432,10|0,0:0|0:0,0:0:0:0:
311,90,102034,6,0,P|400:77|432:25,1,119.000002269745,2|2,3:2|0:3,0:0:0:0:
179,155,102334,6,0,L|107:144,1,41.9999987182618,10|0,0:0|0:0,0:0:0:0:
137,148,102484,1,2,3:2:0:0:
281,263,102634,2,0,L|295:356,1,83.9999974365235,2|2,0:2|3:2,0:0:0:0:
235,61,102934,5,10,0:0:0:0:
12,195,103234,6,0,B|-34:152|34:50|100:88|100:88|70:98|62:143,1,251.999992309571,2|8,3:2|0:0,0:0:0:0:
337,172,103684,2,0,P|376:212|431:207,1,105.000004005432,0|2,3:3|0:3,0:0:0:0:
329,29,103984,6,0,P|331:59|316:87,1,62.9999980773926,0|0,3:2|0:0,0:0:0:0:
258,131,104134,2,0,P|243:211|232:297,1,125.999996154785,10|0,0:0|0:0,0:0:0:0:
395,124,104434,6,0,P|445:127|477:91,1,70,4|0,3:3|0:0,0:0:0:0:
420,210,104884,6,0,P|449:230|462:262,1,70,0|0,3:3|0:0,0:0:0:0:
419,328,105334,5,2,0:0:0:0:
72,248,105634,6,0,B|7:222|22:89|130:110|130:110|112:199,1,280,2|8,3:2|0:0,0:0:0:0:
205,371,106084,6,0,L|197:257,1,105.000004005432,0|2,3:3|0:3,0:0:0:0:
197,266,106384,1,0,3:2:0:0:
317,101,106534,6,0,L|310:162,1,35,10|0,0:0|0:0,0:0:0:0:
313,135,106684,1,2,0:3:0:0:
118,168,106834,6,0,P|196:165|250:224,1,140,2|2,3:2|0:3,0:0:0:0:
444,21,107134,2,0,P|401:24|373:57,1,70,10|0,0:0|0:0,0:0:0:0:
434,96,107284,1,2,3:2:0:0:
222,28,107434,6,0,L|231:99,2,52.5000020027161,2|0|2,0:2|0:0|3:2,0:0:0:0:
315,373,107734,5,10,0:0:0:0:
315,373,107884,1,2,0:3:0:0:
482,170,108034,6,0,B|424:192|389:272|389:272|400:186|362:137,1,280,2|8,3:2|0:0,0:0:0:0:
132,310,108484,6,0,P|186:317|232:352,1,105.000004005432,0|2,3:3|0:3,0:0:0:0:
226,345,108784,1,0,3:2:0:0:
318,220,108934,6,0,P|297:238|248:238,1,52.5000020027161,10|0,0:0|0:0,0:0:0:0:
273,243,109084,1,2,0:3:0:0:
129,10,109234,6,0,L|139:110,1,70,2|2,3:2|0:3,0:0:0:0:
30,128,109534,6,0,L|86:148,1,52.5000020027161,10|0,0:0|0:0,0:0:0:0:
245,164,109684,2,0,B|261:145|261:118|245:99|245:99|229:80|202:75|181:87|181:87|160:100|150:126|158:150|158:150|178:224|178:224,1,280,0|2,3:2|0:2,0:0:0:0:
199,283,110134,5,0,0:0:0:0:
479,84,110434,6,0,B|521:10|521:10|324:86,1,280,2|8,3:2|0:0,0:0:0:0:
413,249,110884,6,0,L|534:284,1,105.000004005432,0|2,3:3|0:3,0:0:0:0:
512,278,111184,1,0,3:2:0:0:
377,150,111334,6,0,L|319:163,1,35,10|0,0:0|0:0,0:0:0:0:
337,163,111484,1,2,0:3:0:0:
226,361,111634,6,0,B|211:323|211:323|322:371,1,140,2|2,3:2|0:3,0:0:0:0:
372,330,111934,1,10,0:0:0:0:
142,101,112084,6,0,B|91:83|24:108|1:185|29:217|70:285|153:201|92:152,1,280,2|2,3:2|3:2,0:0:0:0:
110,182,112534,6,0,L|56:175,5,35.0000013351441,10|2|2|2|2|2,0:2|0:2|0:2|0:2|0:2|0:2,0:0:0:0:
178,231,112834,6,0,L|233:218,3,35,2|2|2|2,3:2|0:2|0:2|0:2,0:0:0:0:
94,331,113134,6,0,L|108:236,1,70,10|0,0:2|0:0,0:0:0:0:
234,134,113284,6,0,P|279:163|346:158,1,105.000004005432,0|2,3:3|0:3,0:0:0:0:
329,163,113584,1,0,3:2:0:0:
122,8,113734,6,0,L|132:91,1,52.5000020027161,10|0,0:0|0:0,0:0:0:0:
334,382,114034,6,0,L|345:271,1,105.000004005432,2|2,3:2|0:3,0:0:0:0:
345,278,114334,1,10,0:0:0:0:
504,219,114484,6,0,L|452:231,1,35,0|0,3:2|0:0,0:0:0:0:
394,217,114634,1,2,0:3:0:0:
204,58,114784,6,0,L|256:70,1,35,0|0,3:2|0:0,0:0:0:0:
382,43,114934,2,0,P|333:64|300:123,1,105.000004005432,8|2,0:0|0:0,0:0:0:0:
242,382,115234,6,0,P|239:362|229:328,1,52.5000020027161,2|2,3:2|0:0,0:0:0:0:
276,193,115534,2,0,L|267:227,1,26.2500010013581,10|0,0:0|0:0,0:0:0:0:
209,261,115684,1,2,3:2:0:0:
94,210,115834,6,0,P|114:213|148:223,1,52.5000020027161,2|2,0:0|3:0,0:0:0:0:
305,290,116134,2,0,L|339:281,1,26.2500010013581,10|0,0:2|0:0,0:0:0:0:
382,43,116434,6,0,P|379:63|369:97,1,52.5000020027161,2|2,3:2|0:0,0:0:0:0:
469,226,116734,2,0,L|460:192,1,26.2500010013581,10|0,0:0|0:0,0:0:0:0:
398,165,116884,1,2,3:2:0:0:
276,193,117034,6,0,P|296:190|330:180,1,52.5000020027161,2|2,0:0|3:0,0:0:0:0:
458,120,117334,2,0,L|492:129,1,26.2500010013581,10|0,0:2|0:0,0:0:0:0:
211,156,117634,6,0,L|155:141,1,52.5000020027161,2|2,3:2|0:0,0:0:0:0:
22,190,117934,2,0,L|56:181,1,26.2500010013581,10|0,0:0|0:0,0:0:0:0:
90,123,118084,1,2,3:2:0:0:
39,8,118234,6,0,L|58:62,1,52.5000020027161,2|2,0:0|3:0,0:0:0:0:
122,219,118534,2,0,L|113:253,1,26.2500010013581,10|0,0:2|0:0,0:0:0:0:
228,369,118834,6,0,L|215:315,1,52.5000020027161,2|2,3:2|0:0,0:0:0:0:
315,186,119134,2,0,L|306:220,1,26.2500010013581,10|0,0:0|0:0,0:0:0:0:
244,247,119284,1,2,3:2:0:0:
122,219,119434,6,0,L|176:232,1,52.5000020027161,2|2,0:0|3:0,0:0:0:0:
304,292,119734,2,0,L|338:283,1,26.2500010013581,10|0,0:2|0:0,0:0:0:0:
339,288,119884,1,2,0:2:0:0:
496,157,120034,6,0,P|431:193|363:236,1,132.999996448517,2|2,3:2|0:0,0:0:0:0:
201,133,120334,2,0,P|220:98|263:89,1,52.5000020027161,8|0,0:0|0:0,0:0:0:0:
304,114,120484,1,2,3:2:0:0:
138,303,120634,6,0,P|78:295|47:236,1,119.000002269745,2|0,0:3|3:2,0:0:0:0:
260,178,120934,6,0,L|334:198,1,52.5000020027161,10|0,0:0|0:0,0:0:0:0:
311,192,121084,1,2,0:3:0:0:
148,70,121234,6,0,B|115:49|82:70|76:94|70:104|70:104|51:144|1:142|-20:112,1,181.999991668702,2|10,3:2|0:0,0:0:0:0:
216,30,121684,2,0,L|234:92,1,45.4999979171754,2|0,3:2|0:0,0:0:0:0:
235,79,121834,5,2,0:2:0:0:
373,144,121984,1,2,3:2:0:0:
373,7,122134,6,0,L|334:73,1,52.5000020027161,10|0,0:0|0:0,0:0:0:0:
304,114,122284,1,2,0:3:0:0:
493,286,122434,6,0,B|504:301|504:325|490:342|490:342|475:359|452:363|433:352|433:352|415:341|406:318|414:298|414:298|424:261|424:261|431:225|427:203|415:181|378:173,1,280,2|8,3:2|0:0,0:0:0:0:
235,79,122884,1,0,3:3:0:0:
471,150,123034,6,0,P|486:168|495:191,2,48.9999985046387,2|0|0,0:2|0:0|3:2,0:0:0:0:
296,253,123334,6,0,L|370:233,1,52.5000020027161,10|0,0:0|0:0,0:0:0:0:
346,239,123484,1,2,0:3:0:0:
141,342,123634,6,0,P|49:317|55:243,1,125.999996154785,2|2,3:2|0:3,0:0:0:0:
192,181,123934,2,0,P|227:200|236:243,1,52.5000020027161,10|0,0:0|0:0,0:0:0:0:
226,286,124084,1,2,3:2:0:0:
27,224,124234,6,0,P|62:205|71:162,1,52.5000020027161,2|0,0:3|0:0,0:0:0:0:
111,135,124384,2,0,P|108:95|73:68,1,52.5000020027161,2|0,3:2|0:0,0:0:0:0:
0,19,124534,6,0,P|20:45|57:44,1,52.5000020027161,2|0,0:0|0:0,0:0:0:0:
273,62,124834,6,0,B|268:37|248:20|224:20|224:20|200:22|181:40|179:65|179:65|176:87|192:109|216:114|216:114|233:114|248:127|252:145|252:145|255:161|246:179|230:187|230:187|215:194|196:189|185:175|185:175,1,350,6|8,3:2|0:0,0:0:0:0:
398,135,125284,6,0,L|300:118,1,70,2|2,3:2|0:2,0:0:0:0:
329,123,125584,1,2,3:2:0:0:
226,286,125734,6,0,P|251:310|285:316,1,70,10|0,0:2|0:0,0:0:0:0:
280,237,125884,1,2,0:2:0:0:
59,328,126034,6,0,B|8:346|8:346|-12:313|4:267|40:248|40:248|75:231|116:238|141:268,1,280,2|8,3:2|0:0,0:0:0:0:
355,366,126484,6,0,L|368:288,1,70,2|2,3:2|0:2,0:0:0:0:
366,297,126784,1,2,3:2:0:0:
171,90,126934,6,0,L|182:160,1,52.5000020027161,10|0,0:2|0:0,0:0:0:0:
194,215,127084,1,2,0:2:0:0:
413,75,127234,6,0,B|424:42|408:0|358:-15|337:2|294:28|348:82|379:43,1,154.000004699707,2|2,3:2|0:2,0:0:0:0:
457,271,127534,2,0,L|469:195,1,52.5000020027161,10|0,0:2|0:0,0:0:0:0:
510,154,127684,6,0,P|412:163|388:216,1,154.000004699707,2|2,3:2|0:2,0:0:0:0:
273,309,127984,6,0,P|288:284|274:242,1,59.5000011348725,2|0,3:2|0:0,0:0:0:0:
275,254,128134,2,0,P|260:279|274:321,1,59.5000011348725,10|0,0:2|0:0,0:0:0:0:
259,384,128284,5,2,0:2:0:0:
413,75,128434,6,0,L|345:94,1,70,2|8,3:2|0:2,0:0:0:0:
114,19,128884,6,0,L|182:32,1,52.5000020027161,2|0,3:2|0:0,1:0:0:0:
138,144,129034,6,0,L|198:86,1,52.5000020027161,2|0,0:0|0:0,1:1:0:0:
269,0,129184,1,0,3:3:0:0:
376,198,129334,6,0,L|231:140,1,140,10|2,0:0|0:0,1:1:0:0:
57,139,129634,6,0,B|37:124|10:126|-6:142|-6:142|-22:160|-23:186|-8:206|-8:206|5:224|31:228|52:216|52:216|65:204|85:203|99:213|99:213|113:222|120:241|113:258|113:258|107:270|107:270|97:283|106:314,1,350,6|8,3:2|0:0,0:0:0:0:
0,377,130084,6,0,L|81:362,1,70,2|2,3:2|0:2,0:0:0:0:
68,364,130384,1,2,3:2:0:0:
321,245,130534,6,0,L|214:222,1,70,10|0,0:2|0:0,0:0:0:0:
187,265,130684,1,2,0:2:0:0:
363,384,130834,6,0,B|413:341|398:266|398:266|381:319|331:319,1,210.000008010865,2|8,3:2|0:0,0:0:0:0:
315,88,131284,6,0,P|298:121|304:166,1,70,2|2,3:2|0:2,0:0:0:0:
299,153,131584,1,2,3:2:0:0:
456,129,131734,6,0,L|360:145,1,70,10|0,0:2|0:0,0:0:0:0:
386,140,131884,1,2,0:2:0:0:
150,36,132034,5,2,3:2:0:0:
163,30,132109,1,2,0:2:0:0:
177,26,132184,1,2,0:2:0:0:
192,28,132259,1,2,0:2:0:0:
205,36,132334,6,0,L|215:108,1,70,10|0,0:2|0:0,0:0:0:0:
235,257,132484,1,2,3:2:0:0:
10,145,132634,6,0,P|92:166|129:207,1,140,2|0,0:2|3:2,0:0:0:0:
264,342,132934,2,0,L|254:402,2,35,10|0|2,0:2|0:0|0:2,0:0:0:0:
340,262,133234,6,0,P|333:209|328:157,1,105.000004005432,2|2,0:2|0:2,0:0:0:0:
405,311,133684,1,2,0:2:0:0:
328,157,133834,6,0,P|333:209|340:262,1,105.000004005432,2|0,0:2|0:0,0:0:0:0:
511,79,134134,6,0,B|464:93|441:155|441:155|454:91|415:57,1,210,2|0,0:1|0:0,0:0:0:0:
298,36,134434,6,0,B|317:3|364:12|364:12|390:55|369:115|322:139|322:139|277:162|223:152|191:113,1,350,6|8,3:2|0:0,0:0:0:0:
59,228,134884,6,0,L|93:235,1,35,2|0,3:2|0:0,0:0:0:0:
130,166,135034,2,0,L|55:150,1,70,2|0,0:3|0:0,0:0:0:0:
52,149,135184,1,2,3:2:0:0:
195,372,135334,6,0,L|180:298,1,70,8|0,0:2|0:0,0:0:0:0:
167,230,135484,1,2,0:2:0:0:
431,194,135634,6,0,B|387:173|331:196|304:253|336:259|320:320|271:357|223:330|223:330|193:311|198:281|204:251|248:255,1,391.99998803711,2|8,3:2|0:2,0:0:0:0:
437,279,136084,6,0,L|390:260,1,35,2|0,3:2|0:0,0:0:0:0:
404,266,136234,1,2,0:3:0:0:
239,254,136384,1,2,3:2:0:0:
487,144,136534,6,0,L|454:64,1,70,8|0,0:2|0:0,0:0:0:0:
426,15,136684,1,2,0:2:0:0:
280,194,136834,6,0,P|301:208|312:235,1,52.5000020027161,2|2,3:2|0:3,0:0:0:0:
263,324,137134,1,10,0:0:0:0:
212,162,137284,6,0,P|237:128|289:126,1,87.5,2|0,3:2|0:0,0:0:0:0:
282,115,137434,1,2,0:3:0:0:
139,188,137584,6,0,P|93:182|63:132,1,70,2|0,3:2|0:0,0:0:0:0:
174,53,137734,6,0,P|147:90|159:134,1,70,10|2,3:2|0:3,0:0:0:0:
133,374,138034,6,0,B|154:313|123:233|32:206|-6:239|-86:288|12:379|71:314,1,350,2|8,3:2|0:2,0:0:0:0:
193,246,138484,6,0,L|261:259,1,45.4999979171754,2|0,3:2|0:0,1:0:0:0:
262,341,138634,6,0,L|322:283,1,70,2|0,0:0|0:0,1:0:0:0:
365,236,138784,1,0,3:0:0:0:
139,188,138934,6,0,L|49:157,2,70,8|2|0,0:0|0:0|0:0,1:0:0:0:
421,102,139234,6,0,B|438:93|453:96|477:93|497:115|497:115|518:136|520:169|505:193|505:193|488:218|458:228|428:218|428:218|290:165,1,391.99998803711,6|8,3:2|0:0,0:0:0:0:
141,105,139684,6,0,L|204:83,1,35,2|0,3:2|0:0,0:0:0:0:
160,24,139834,2,0,L|46:63,1,70,2|0,0:3|0:0,0:0:0:0:
83,54,139984,1,2,3:2:0:0:
187,279,140134,6,0,L|209:212,1,70,8|0,0:2|0:0,0:0:0:0:
233,139,140284,1,2,0:2:0:0:
482,306,140434,6,0,B|443:295|419:313|414:319|412:327|390:351|349:357|315:341|315:341|280:321|262:276|282:243|282:243|296:273|354:269,1,350,2|8,3:2|0:2,0:0:0:0:
461,176,140884,6,0,L|454:141,1,35,2|0,3:2|0:0,0:0:0:0:
377,139,141034,2,0,L|392:218,1,70,2|0,0:3|0:0,0:0:0:0:
386,216,141184,1,2,3:2:0:0:
248,64,141334,6,0,L|327:79,1,70,8|0,0:2|0:0,0:0:0:0:
325,84,141484,1,2,0:2:0:0:
457,249,141634,5,2,3:2:0:0:
483,259,141709,1,2,0:2:0:0:
499,281,141784,1,2,0:2:0:0:
500,309,141859,1,2,0:2:0:0:
484,332,141934,6,0,L|404:347,1,70,10|0,0:2|0:0,0:0:0:0:
343,358,142084,1,2,3:2:0:0:
140,288,142234,6,0,L|219:303,1,77.0000023498536,2|0,0:3|0:0,0:0:0:0:
290,305,142384,1,2,3:2:0:0:
77,341,142534,6,0,L|55:288,2,52.5000020027161,10|0|2,0:2|0:0|0:2,0:0:0:0:
189,222,142834,6,0,L|252:2,1,175,2|10,3:2|0:2,0:0:0:0:
164,8,143284,1,2,3:2:0:0:
237,53,143434,6,0,L|189:222,1,175,2|0,0:2|3:2,0:0:0:0:
8,224,143734,6,0,L|71:197,1,52.5000020027161,8|0,0:2|0:0,0:0:0:0:
70,205,143884,1,2,0:0:0:0:
