osu file format v14

[General]
AudioFilename: audio.mp3
AudioLeadIn: 0
PreviewTime: 9184
Countdown: 0
SampleSet: Soft
StackLeniency: 0.5
Mode: 0
LetterboxInBreaks: 0
WidescreenStoryboard: 1

[Editor]
Bookmarks: 86434,90109,144034
DistanceSpacing: 1.1
BeatDivisor: 4
GridSize: 16
TimelineZoom: 3.099998

[Metadata]
Title:spy?
TitleUnicode:spy?
Artist:WHOKILLEDXIX
ArtistUnicode:WHOKILLEDXIX
Creator:wafer
Version:normal?
Source:
Tags:english hyper pop hyperpop punk rap hip hop mimari goopert kami no kotoba karm the tool yung skayda ducky- alwayschoke azinlen
BeatmapID:3189689
BeatmapSetID:1491610

[Difficulty]
HPDrainRate:3
CircleSize:3
OverallDifficulty:4
ApproachRate:5.5
SliderMultiplier:1.6
SliderTickRate:1

[Events]
//Background and Video events
0,0,"epic bg.jpg",0,0
//Break Periods
2,86334,90109
//Storyboard Layer 0 (Background)
//Storyboard Layer 1 (Fail)
//Storyboard Layer 2 (Pass)
//Storyboard Layer 3 (Foreground)
//Storyboard Layer 4 (Overlay)
//Storyboard Sound Samples
Sample,4834,0,"wafer pitched.wav",30

[TimingPoints]
34,600,4,2,1,50,1,0
9334,-100,4,2,1,55,0,0
9634,-86.9565217391304,4,2,99,65,0,0
9709,-86.9565217391304,4,2,1,65,0,0
13684,-86.9565217391304,4,2,1,40,0,0
14434,-86.9565217391304,4,2,1,65,0,0
16834,-86.9565217391304,4,2,2,65,0,0
17284,-86.9565217391304,4,2,1,65,0,0
18034,-86.9565217391304,4,2,1,40,0,0
19234,-86.9565217391304,4,2,1,70,0,0
26434,-86.9565217391304,4,2,2,70,0,0
26884,-86.9565217391304,4,2,1,70,0,0
27634,-86.9565217391304,4,2,1,40,0,0
28834,-111.111111111111,4,2,1,45,0,0
30934,-111.111111111111,4,2,2,45,0,0
31684,-111.111111111111,4,2,1,45,0,0
35734,-111.111111111111,4,2,2,45,0,0
36484,-111.111111111111,4,2,1,45,0,0
38434,-100,4,2,1,50,0,0
47284,-100,4,2,1,40,0,0
48034,-95.2380952380952,4,2,1,55,0,0
57634,-111.111111111111,4,2,99,40,0,0
57784,-111.111111111111,4,2,1,40,0,0
59734,-111.111111111111,4,2,2,40,0,0
60334,-111.111111111111,4,2,1,40,0,0
60784,-111.111111111111,4,2,2,40,0,0
62284,-111.111111111111,4,2,1,40,0,0
64534,-111.111111111111,4,2,2,40,0,0
65284,-111.111111111111,4,2,1,40,0,0
66934,-111.111111111111,4,2,1,50,0,0
67234,-86.9565217391304,4,2,1,65,0,0
74434,-86.9565217391304,4,2,2,65,0,0
74884,-86.9565217391304,4,2,1,65,0,0
76834,-86.9565217391304,4,2,1,70,0,0
84034,-86.9565217391304,4,2,2,70,0,0
84484,-86.9565217391304,4,2,1,70,0,0
86434,-86.9565217391304,4,2,1,30,0,0
91234,-86.9565217391304,4,2,1,55,0,0
96034,-111.111111111111,4,2,1,40,0,0
100834,-100,4,2,1,50,0,0
104434,-100,4,2,1,45,0,0
105634,-100,4,2,1,55,0,0
112534,-100,4,2,2,55,0,0
113284,-100,4,2,1,55,0,0
115234,-111.111111111111,4,2,1,45,0,0
120034,-100,4,2,1,55,0,0
124534,-100,4,2,1,50,0,0
124834,-86.9565217391304,4,2,1,65,0,0
132034,-86.9565217391304,4,2,2,65,0,0
132484,-86.9565217391304,4,2,1,65,0,0
133234,-86.9565217391304,4,2,1,40,0,0
134434,-86.9565217391304,4,2,1,70,0,0
141634,-86.9565217391304,4,2,2,70,0,0
142084,-86.9565217391304,4,2,1,70,0,0
144034,-86.9565217391304,4,2,1,45,0,0

[Colours]
Combo1 : 235,124,112
Combo2 : 174,125,219
Combo3 : 167,231,124
Combo4 : 151,79,238

[HitObjects]
33,64,8734,6,0,L|41:103,1,40,2|2,0:1|3:1,0:0:0:0:
49,146,9034,1,2,0:1:0:0:
46,234,9334,1,4,3:3:0:0:
28,333,9634,6,0,P|78:273|134:281,1,138.000002632141,6|2,3:2|3:2,0:0:0:0:
180,289,10234,2,0,L|243:280,1,46.0000008773804,2|2,0:2|3:2,0:0:0:0:
275,273,10534,1,10,0:2:0:0:
349,341,10834,6,0,P|357:280|367:238,1,92.0000017547608,2|8,3:2|0:0,0:0:0:0:
409,224,11284,1,2,3:2:0:0:
409,224,11434,1,2,0:2:0:0:
499,178,11734,2,0,P|508:144|496:112,1,46.0000008773804,10|2,0:2|0:2,0:0:0:0:
461,110,12034,6,0,P|415:132|371:115,1,92.0000017547608,2|10,3:2|0:2,0:0:0:0:
331,125,12484,1,2,3:2:0:0:
331,125,12634,2,0,P|273:149|264:161,1,46.0000008773804,2|0,0:2|3:2,0:0:0:0:
238,124,12934,1,10,0:2:0:0:
138,108,13234,1,2,0:2:0:0:
40,228,13684,5,2,0:0:0:0:
40,228,13834,1,2,0:0:0:0:
138,251,14134,1,2,0:0:0:0:
207,182,14434,6,0,B|228:93|199:175|232:37,1,138.000002632141,6|2,3:2|3:2,0:0:0:0:
265,10,15034,2,0,P|296:26|301:46,1,46.0000008773804,2|2,0:2|3:2,0:0:0:0:
328,76,15334,1,10,0:2:0:0:
402,136,15634,6,0,P|461:150|464:209,1,92.0000017547608,2|8,3:2|0:0,0:0:0:0:
499,223,16084,1,2,3:2:0:0:
499,223,16234,2,0,L|486:282,1,46.0000008773804,2|2,0:2|3:2,0:0:0:0:
511,313,16534,1,10,0:2:0:0:
414,342,16834,6,0,L|363:330,1,46.0000008773804,2|2,3:2|0:2,0:0:0:0:
329,298,17134,1,10,0:2:0:0:
329,298,17284,2,0,L|317:247,2,46.0000008773804,2|2|0,3:2|0:2|3:2,0:0:0:0:
286,325,17734,1,10,0:2:0:0:
185,313,18034,1,2,0:2:0:0:
86,288,18334,6,0,L|94:229,2,46.0000008773804,2|2|2,0:2|0:2|0:2,0:0:0:0:
286,325,19234,6,0,B|299:328|299:328|399:285,1,92.0000017547608,6|8,3:2|0:0,0:0:0:0:
414,270,19684,1,2,3:2:0:0:
414,270,19834,2,0,P|415:219|390:201,1,46.0000008773804,2|2,0:3|3:2,0:0:0:0:
394,181,20134,2,0,P|393:130|418:112,1,46.0000008773804,8|2,0:2|0:2,0:0:0:0:
421,98,20434,2,0,P|407:36|356:31,1,92.0000017547608,2|8,3:2|0:2,0:0:0:0:
288,55,21034,6,0,L|229:39,1,46.0000008773804,2|2,0:3|3:2,0:0:0:0:
206,66,21334,1,8,0:2:0:0:
206,66,21484,1,2,0:2:0:0:
206,66,21634,2,0,B|125:71|180:81|94:89,1,92.0000017547608,2|10,3:2|0:0,0:0:0:0:
28,135,22234,2,0,P|19:177|17:187,1,46.0000008773804,2|2,0:3|3:2,0:0:0:0:
54,216,22534,2,0,P|63:258|65:268,1,46.0000008773804,10|2,3:2|0:3,0:0:0:0:
88,305,22834,6,0,P|147:327|157:380,1,92.0000017547608,2|8,3:2|0:2,0:0:0:0:
236,286,23434,1,2,0:0:0:0:
314,222,23734,1,10,0:0:0:0:
379,144,24034,6,0,P|388:92|393:48,1,92.0000017547608,6|8,3:2|0:0,0:0:0:0:
437,27,24484,1,2,3:2:0:0:
437,27,24634,2,0,P|474:62|469:92,1,46.0000008773804,2|2,0:3|3:2,0:0:0:0:
506,91,24934,2,0,P|494:139|466:150,1,46.0000008773804,8|2,0:2|0:2,0:0:0:0:
483,182,25234,2,0,P|474:227|469:272,1,92.0000017547608,2|8,3:2|0:2,0:0:0:0:
398,345,25834,6,0,P|377:343|347:338,1,46.0000008773804,2|2,0:3|3:2,0:0:0:0:
322,298,26134,1,8,0:2:0:0:
235,245,26434,2,0,L|184:257,1,46.0000008773804,2|2,3:2|0:2,0:0:0:0:
151,289,26734,1,10,0:2:0:0:
151,289,26884,2,0,L|139:340,2,46.0000008773804,2|2|2,3:2|0:3|3:2,0:0:0:0:
108,262,27334,5,10,3:2:0:0:
62,171,27634,1,2,0:2:0:0:
2,38,28084,1,2,0:2:0:0:
2,38,28234,1,2,0:2:0:0:
210,48,28834,6,0,P|171:82|195:131,2,107.999996704102,2|2|2,3:2|3:2|3:2,0:0:0:0:
290,31,30034,1,2,3:2:0:0:
408,99,30484,2,0,L|388:216,1,107.999996704102,2|2,3:2|3:2,0:0:0:0:
332,264,31234,2,0,L|341:340,2,71.9999978027344,2|2|2,3:2|0:2|0:2,0:0:0:0:
262,222,32134,1,2,3:2:0:0:
188,257,32434,1,2,3:2:0:0:
332,264,32884,6,0,L|449:244,1,107.999996704102,2|2,3:2|3:2,0:0:0:0:
475,168,33634,2,0,P|485:123|419:73,2,107.999996704102,2|2|2,3:2|3:2|3:2,0:0:0:0:
393,169,34834,1,2,3:2:0:0:
286,243,35284,2,0,L|169:223,1,107.999996704102,2|2,3:2|3:2,0:0:0:0:
120,171,36034,1,2,3:2:0:0:
137,93,36334,6,0,P|178:99|198:122,1,71.9999978027344,2|2,0:2|0:2,0:0:0:0:
259,64,36934,2,0,P|283:97|281:127,1,71.9999978027344,2|2,3:2|3:2,0:0:0:0:
393,193,37684,2,0,L|483:177,2,71.9999978027344,2|2|2,3:2|0:2|0:2,0:0:0:0:
365,232,38434,6,0,L|352:296,1,40,2|2,3:2|0:2,0:0:0:0:
347,318,38734,1,8,0:0:0:0:
347,318,38884,2,0,L|296:336,1,40,2|2,3:2|0:3,0:0:0:0:
265,351,39184,2,0,L|214:333,1,40,0|10,3:0|0:2,0:0:0:0:
147,283,39634,2,0,B|122:254|122:254|79:276,1,80,2|8,3:2|0:2,0:0:0:0:
56,311,40084,2,0,L|45:363,2,40,2|2|2,3:2|0:2|3:2,0:0:0:0:
23,275,40534,1,10,0:0:0:0:
68,187,40834,5,2,3:2:0:0:
68,187,40984,2,0,L|113:194,1,40,2|8,0:3|0:2,0:0:0:0:
150,169,41284,1,2,3:2:0:0:
150,169,41434,2,0,L|195:162,1,40,2|2,0:3|3:2,0:0:0:0:
233,182,41734,1,10,0:2:0:0:
317,137,42034,2,0,B|342:166|342:166|385:144,1,80,2|8,3:2|0:2,0:0:0:0:
420,170,42484,2,0,L|431:222,2,40,2|2|0,3:2|0:2|3:2,0:0:0:0:
475,91,43084,1,2,0:2:0:0:
439,59,43234,6,0,L|394:66,1,40,2|2,3:2|0:2,0:0:0:0:
360,46,43534,1,8,0:0:0:0:
360,46,43684,2,0,L|315:39,1,40,2|2,3:2|0:3,0:0:0:0:
282,68,43984,2,0,L|237:75,1,40,0|10,3:0|0:2,0:0:0:0:
159,26,44434,2,0,B|132:-4|132:-4|77:8,1,80,2|8,3:2|0:2,0:0:0:0:
43,86,45034,5,2,0:2:0:0:
43,86,45184,2,0,L|35:125,1,40,2|10,3:2|0:0,0:0:0:0:
10,167,45484,1,2,0:3:0:0:
10,167,45634,2,0,L|21:219,1,40,2|2,3:2|0:3,0:0:0:0:
58,232,45934,1,8,0:2:0:0:
58,232,46084,1,2,3:2:0:0:
40,326,46384,1,2,3:2:0:0:
83,345,46534,2,0,L|135:334,1,40,10|2,0:2|0:3,0:0:0:0:
168,348,46834,1,2,3:2:0:0:
304,299,47284,5,2,0:2:0:0:
395,271,47584,1,2,0:2:0:0:
487,244,47884,1,2,0:2:0:0:
487,244,48034,6,0,B|494:207|494:207|454:152,1,83.9999974365235,6|8,3:2|0:2,0:0:0:0:
426,139,48484,1,2,3:2:0:0:
378,121,48634,2,0,L|288:113,1,83.9999974365235,2|8,0:2|0:2,0:0:0:0:
210,57,49234,2,0,B|186:74|186:74|177:149,1,83.9999974365235,2|10,3:2|0:2,0:0:0:0:
151,170,49684,1,0,3:2:0:0:
121,210,49834,2,0,P|101:250|138:297,1,83.9999974365235,2|10,0:2|0:2,0:0:0:0:
205,327,50434,5,2,3:1:0:0:
293,300,50734,1,10,0:1:0:0:
293,208,51034,1,2,0:1:0:0:
205,179,51334,1,10,0:1:0:0:
214,78,51634,5,2,3:1:0:0:
313,60,51934,1,10,0:1:0:0:
412,45,52234,1,2,0:1:0:0:
492,106,52534,1,10,0:1:0:0:
473,196,52834,6,0,B|439:201|439:201|434:207|434:207|378:217,1,83.9999974365235,2|8,3:2|0:2,0:0:0:0:
360,252,53284,1,2,3:2:0:0:
312,269,53434,2,0,P|281:238|285:190,1,83.9999974365235,2|8,0:2|0:2,0:0:0:0:
238,107,54034,2,0,B|221:131|221:131|146:140,1,83.9999974365235,2|10,3:2|0:2,0:0:0:0:
116,141,54484,1,0,3:2:0:0:
70,162,54634,2,0,P|41:207|51:234,1,83.9999974365235,2|10,0:2|0:2,0:0:0:0:
135,285,55234,5,2,3:1:0:0:
216,344,55534,1,10,0:1:0:0:
306,299,55834,1,2,0:1:0:0:
324,199,56134,1,10,0:1:0:0:
388,121,56434,5,2,3:1:0:0:
486,143,56734,2,0,L|477:198,2,41.9999987182618,10|2|2,0:1|3:1|0:1,0:0:0:0:
388,121,57334,2,0,L|397:69,1,41.9999987182618,10|2,0:1|0:1,0:0:0:0:
369,44,57634,6,0,P|326:18|251:31,2,107.999996704102,4|2|0,3:0|3:2|3:0,0:0:0:0:
388,121,58834,1,2,3:2:0:0:
329,178,59134,1,2,0:2:0:0:
329,178,59284,2,0,L|235:160,1,71.9999978027344,0|2,3:2|0:2,0:0:0:0:
215,171,59734,1,2,3:2:0:0:
148,124,60034,1,2,3:2:0:0:
74,161,60334,2,0,L|21:154,2,35.9999989013672,2|2|2,0:1|3:1|0:1,0:0:0:0:
103,242,60934,5,2,3:1:0:0:
124,321,61234,1,2,3:1:0:0:
202,349,61534,1,2,0:1:0:0:
276,311,61834,1,2,0:1:0:0:
300,232,62134,2,0,L|281:186,1,35.9999989013672,2|2,3:1|0:1,0:0:0:0:
299,156,62434,6,0,P|341:117|401:126,2,107.999996704102,4|2|0,3:0|3:2|3:0,0:0:0:0:
241,215,63634,1,2,3:2:0:0:
182,272,63934,1,2,0:2:0:0:
182,272,64084,2,0,L|83:251,1,71.9999978027344,0|2,3:2|0:2,0:0:0:0:
74,235,64534,2,0,L|48:163,1,71.9999978027344,2|2,3:2|3:2,0:0:0:0:
100,101,65134,1,2,0:2:0:0:
100,101,65284,2,0,L|111:52,2,35.9999989013672,2|2|2,3:2|0:2|3:2,0:0:0:0:
139,127,65734,5,2,3:1:0:0:
209,170,66034,1,2,3:1:0:0:
278,216,66334,1,2,0:1:0:0:
351,255,66634,1,2,0:1:0:0:
422,217,66934,1,2,3:2:0:0:
460,129,67234,6,0,B|478:120|489:118|489:118|370:91,1,138.000002632141,6|2,3:2|3:2,0:0:0:0:
345,80,67834,2,0,P|317:77|282:89,1,46.0000008773804,2|2,0:2|3:2,0:0:0:0:
263,115,68134,1,10,0:2:0:0:
179,171,68434,6,0,P|171:110|161:68,1,92.0000017547608,2|8,3:2|0:0,0:0:0:0:
127,47,68884,1,2,3:2:0:0:
127,47,69034,1,2,0:2:0:0:
30,79,69334,2,0,P|21:113|33:145,1,46.0000008773804,10|2,0:2|0:2,0:0:0:0:
58,158,69634,6,0,P|86:212|77:252,1,92.0000017547608,2|10,3:2|0:2,0:0:0:0:
120,282,70084,1,2,3:2:0:0:
120,282,70234,2,0,P|178:306|187:318,1,46.0000008773804,2|2,0:2|3:2,0:0:0:0:
213,282,70534,1,10,0:2:0:0:
300,332,70834,2,0,P|348:301|349:264,1,92.0000017547608,2|8,3:2|0:2,0:0:0:0:
376,228,71284,5,2,3:2:0:0:
376,228,71434,1,2,0:0:0:0:
473,201,71734,1,10,0:0:0:0:
491,96,72034,6,0,P|442:59|364:53,1,138.000002632141,6|2,3:2|3:2,0:0:0:0:
324,79,72634,2,0,P|280:69|267:53,1,46.0000008773804,2|2,0:2|3:2,0:0:0:0:
234,49,72934,1,10,0:2:0:0:
132,52,73234,6,0,P|73:66|70:125,1,92.0000017547608,2|8,3:2|0:0,0:0:0:0:
35,134,73684,1,2,3:2:0:0:
35,134,73834,2,0,L|48:193,1,46.0000008773804,2|2,0:2|3:2,0:0:0:0:
58,227,74134,1,10,0:2:0:0:
128,299,74434,6,0,L|179:287,1,46.0000008773804,2|2,3:2|0:2,0:0:0:0:
211,264,74734,1,10,0:2:0:0:
211,264,74884,2,0,L|223:213,2,46.0000008773804,2|2|0,3:2|0:2|3:2,0:0:0:0:
257,285,75334,2,0,L|313:295,1,46.0000008773804,10|2,0:2|0:2,0:0:0:0:
352,306,75634,1,2,3:2:0:0:
410,223,75934,2,0,L|354:213,1,46.0000008773804,10|2,0:2|3:2,0:0:0:0:
317,200,76234,1,2,0:2:0:0:
271,129,76534,1,2,0:1:0:0:
315,37,76834,6,0,B|359:29|359:29|428:77,1,92.0000017547608,6|8,3:2|0:0,0:0:0:0:
452,62,77284,1,2,3:2:0:0:
452,62,77434,2,0,P|453:113|428:131,1,46.0000008773804,2|2,0:3|3:2,0:0:0:0:
432,151,77734,2,0,P|431:202|456:220,1,46.0000008773804,8|2,0:2|0:2,0:0:0:0:
401,238,78034,2,0,P|339:224|269:221,1,92.0000017547608,2|8,3:2|0:2,0:0:0:0:
239,292,78634,6,0,L|180:276,1,46.0000008773804,2|2,0:3|3:2,0:0:0:0:
157,303,78934,1,8,0:2:0:0:
157,303,79084,1,2,0:2:0:0:
157,303,79234,2,0,P|111:347|67:342,1,92.0000017547608,2|10,3:2|0:0,0:0:0:0:
8,282,79834,2,0,P|-1:240|-3:230,1,46.0000008773804,2|2,0:3|3:2,0:0:0:0:
34,201,80134,2,0,P|43:159|45:149,1,46.0000008773804,10|2,3:2|0:3,0:0:0:0:
75,116,80434,6,0,L|169:97,1,92.0000017547608,2|8,3:2|0:2,0:0:0:0:
213,187,81034,1,2,0:0:0:0:
135,251,81334,1,10,0:0:0:0:
182,340,81634,6,0,P|234:331|278:326,1,92.0000017547608,6|8,3:2|0:0,0:0:0:0:
324,347,82084,1,2,3:2:0:0:
324,347,82234,2,0,P|361:312|356:282,1,46.0000008773804,2|2,0:3|3:2,0:0:0:0:
393,283,82534,2,0,P|381:235|353:224,1,46.0000008773804,8|2,0:2|0:2,0:0:0:0:
345,203,82834,2,0,P|338:161|331:113,1,92.0000017547608,2|8,3:2|0:2,0:0:0:0:
241,23,83434,6,0,P|220:25|190:30,1,46.0000008773804,2|2,0:3|3:2,0:0:0:0:
166,70,83734,1,8,0:2:0:0:
86,133,84034,2,0,L|98:184,1,46.0000008773804,2|2,3:2|0:2,0:0:0:0:
130,217,84334,1,10,0:2:0:0:
130,217,84484,2,0,L|181:229,2,46.0000008773804,2|2|2,3:2|0:3|3:2,0:0:0:0:
99,257,84934,6,0,B|86:283|86:283|116:347,1,92.0000017547608,10|2,3:2|3:2,0:0:0:0:
210,314,85534,2,0,L|268:328,1,46.0000008773804,10|0,0:1|3:0,1:0:0:0:
285,284,85834,2,0,L|343:270,1,46.0000008773804,2|0,0:2|3:0,1:0:0:0:
348,226,86134,1,8,0:2:0:0:
97,37,91234,6,0,L|111:148,1,92.0000017547608,2|8,3:2|0:0,0:0:0:0:
82,171,91684,1,2,3:2:0:0:
82,171,91834,2,0,L|71:229,1,46.0000008773804,2|0,0:2|3:2,0:0:0:0:
100,259,92134,1,10,0:2:0:0:
184,314,92434,1,2,3:2:0:0:
184,314,92584,2,0,L|235:306,1,46.0000008773804,2|8,0:2|0:2,0:0:0:0:
320,352,93034,2,0,L|336:299,1,46.0000008773804,2|0,0:2|3:2,0:0:0:0:
376,281,93334,1,8,0:2:0:0:
385,180,93634,6,0,L|375:125,2,46.0000008773804,2|2|10,3:2|0:0|0:0,0:0:0:0:
437,201,94084,1,2,3:2:0:0:
437,201,94234,2,0,L|495:190,1,46.0000008773804,2|0,0:2|3:2,0:0:0:0:
503,146,94534,1,10,0:2:0:0:
461,53,94834,2,0,L|410:45,1,46.0000008773804,2|0,3:2|0:0,0:0:0:0:
376,13,95134,2,0,L|325:21,1,46.0000008773804,10|2,0:2|3:2,0:0:0:0:
291,52,95434,2,0,L|178:67,1,92.0000017547608,2|10,0:2|0:2,0:0:0:0:
147,128,96034,6,0,P|124:66|82:57,2,107.999996704102,0|0|2,3:0|3:0|3:2,0:0:0:0:
218,175,97234,6,0,P|245:114|222:78,2,107.999996704102,2|2|2,3:0|3:2|3:2,0:0:0:0:
268,242,98434,5,0,3:0:0:0:
386,241,98884,1,0,3:0:0:0:
456,145,99334,1,0,3:2:0:0:
383,100,99634,5,0,3:0:0:0:
386,241,100084,1,0,3:2:0:0:
490,316,100534,1,0,3:2:0:0:
490,316,100684,1,2,0:0:0:0:
490,316,100834,6,0,P|440:327|406:343,1,80,6|8,3:3|0:0,0:0:0:0:
329,313,101434,2,0,P|306:321|276:321,1,40,2|0,0:3|3:2,0:0:0:0:
252,345,101734,2,0,P|230:334|208:313,1,40,10|0,0:0|0:0,0:0:0:0:
175,315,102034,2,0,P|160:272|173:230,1,80,2|10,3:2|0:0,0:0:0:0:
198,207,102484,1,2,3:2:0:0:
198,207,102634,1,2,0:2:0:0:
133,146,102934,2,0,L|136:99,1,40,10|2,0:0|0:3,0:0:0:0:
155,67,103234,6,0,P|205:56|239:40,1,80,2|8,3:2|0:0,0:0:0:0:
316,70,103834,2,0,P|339:62|369:62,1,40,2|0,0:3|3:2,0:0:0:0:
393,38,104134,2,0,P|414:48|436:69,1,40,10|0,0:0|0:0,0:0:0:0:
470,68,104434,2,0,P|485:111|472:153,1,80,4|0,3:3|0:0,0:0:0:0:
447,176,104884,1,0,3:3:0:0:
447,176,105034,2,0,L|455:228,1,40
364,314,105634,6,0,P|314:325|280:341,1,80,2|8,3:2|0:0,0:0:0:0:
200,326,106234,2,0,P|192:303|192:273,1,40,2|0,0:3|3:2,0:0:0:0:
160,255,106534,2,0,P|170:233|191:211,1,40,10|2,0:0|0:3,0:0:0:0:
209,187,106834,2,0,P|224:144|211:102,1,80,2|10,3:2|0:0,0:0:0:0:
178,101,107284,1,2,3:2:0:0:
178,101,107434,1,2,0:2:0:0:
91,118,107734,2,0,P|95:142|94:165,1,40,10|2,0:0|0:3,0:0:0:0:
58,184,108034,6,0,P|46:229|43:268,1,80,2|8,3:2|0:0,0:0:0:0:
88,338,108634,2,0,P|111:346|141:346,1,40,2|0,0:3|3:2,0:0:0:0:
164,325,108934,2,0,P|182:315|211:322,1,40,10|2,0:0|0:3,0:0:0:0:
239,337,109234,2,0,P|280:355|323:346,1,80,2|10,3:2|0:0,0:0:0:0:
355,332,109684,1,0,3:2:0:0:
355,332,109834,2,0,L|363:280,1,40,2|2,0:3|0:2,0:0:0:0:
478,231,110434,6,0,P|428:220|394:204,1,80,2|8,3:2|0:0,0:0:0:0:
315,190,111034,2,0,P|307:167|307:137,1,40,2|0,0:3|3:2,0:0:0:0:
262,142,111334,2,0,P|252:120|231:98,1,40,10|2,0:0|0:3,0:0:0:0:
219,69,111634,2,0,P|176:54|134:67,1,80,2|10,3:2|0:0,0:0:0:0:
109,88,112084,1,2,3:2:0:0:
109,88,112234,1,2,0:2:0:0:
52,155,112534,1,10,0:2:0:0:
90,234,112834,6,0,P|135:222|174:219,1,80,2|10,3:2|0:2,0:0:0:0:
248,182,113434,2,0,P|256:205|256:235,1,40,2|0,0:3|3:2,0:0:0:0:
291,248,113734,2,0,P|281:266|288:295,1,40,10|2,0:0|0:3,0:0:0:0:
321,305,114034,2,0,P|358:296|417:286,1,80,2|10,3:2|0:0,0:0:0:0:
446,302,114484,1,0,3:2:0:0:
446,302,114634,2,0,L|454:250,1,40,2|0,0:3|3:2,0:0:0:0:
475,224,114934,1,8,0:0:0:0:
407,163,115234,6,0,P|430:101|472:92,2,107.999996704102,2|2|10,3:2|3:2|0:2,0:0:0:0:
338,211,116434,6,0,P|311:150|334:114,2,107.999996704102,2|2|10,3:2|3:2|0:2,0:0:0:0:
289,279,117634,5,2,3:2:0:0:
171,278,118084,1,2,3:2:0:0:
101,182,118534,1,10,0:2:0:0:
174,137,118834,5,2,3:2:0:0:
171,278,119284,1,2,3:2:0:0:
67,351,119734,1,10,0:2:0:0:
67,351,119884,1,2,0:2:0:0:
67,351,120034,6,0,L|72:311,1,40,2|2,3:2|0:0,0:0:0:0:
43,277,120334,2,0,L|36:236,1,40,8|2,0:0|3:2,0:0:0:0:
56,198,120634,1,2,0:3:0:0:
75,112,120934,2,0,L|115:117,1,40,10|2,0:0|0:3,0:0:0:0:
149,88,121234,2,0,L|190:81,1,40,2|2,3:2|0:3,0:0:0:0:
228,101,121534,1,10,0:0:0:0:
286,166,121834,2,0,L|326:161,1,40,2|2,0:2|3:2,0:0:0:0:
360,190,122134,2,0,L|401:197,1,40,10|2,0:0|0:3,0:0:0:0:
439,213,122434,6,0,P|465:251|431:318,1,120,2|0,3:2|3:3,0:0:0:0:
397,331,123034,1,2,0:2:0:0:
310,315,123334,2,0,L|305:261,1,40,10|2,0:0|0:3,0:0:0:0:
269,251,123634,2,0,L|264:197,1,40,2|2,3:2|0:3,0:0:0:0:
241,173,123934,2,0,L|252:125,1,40,10|2,0:0|3:2,0:0:0:0:
305,66,124384,1,2,3:2:0:0:
325,27,124534,1,2,0:0:0:0:
426,30,124834,6,0,P|429:110|373:102,1,138.000002632141,6|2,3:2|3:2,0:0:0:0:
360,154,125434,2,0,L|369:217,1,46.0000008773804,2|2,0:2|3:2,0:0:0:0:
397,239,125734,1,10,0:2:0:0:
335,319,126034,6,0,P|274:311|232:301,1,92.0000017547608,2|8,3:2|0:0,0:0:0:0:
215,264,126484,1,2,3:2:0:0:
215,264,126634,1,2,0:2:0:0:
123,307,126934,2,0,P|89:298|57:310,1,46.0000008773804,10|2,0:2|0:2,0:0:0:0:
39,268,127234,6,0,P|18:211|40:178,1,92.0000017547608,2|10,3:2|0:2,0:0:0:0:
75,160,127684,1,2,3:2:0:0:
75,160,127834,2,0,P|51:102|39:93,1,46.0000008773804,2|2,0:2|3:2,0:0:0:0:
94,76,128134,1,10,0:2:0:0:
195,74,128434,1,2,3:2:0:0:
341,131,128884,5,2,3:2:0:0:
341,131,129034,1,2,0:0:0:0:
436,93,129334,1,10,0:0:0:0:
498,172,129634,6,0,B|477:261|506:179|473:317,1,138.000002632141,6|2,3:2|3:2,0:0:0:0:
433,335,130234,2,0,P|402:319|397:299,1,46.0000008773804,2|2,0:2|3:2,0:0:0:0:
349,321,130534,1,10,0:2:0:0:
259,274,130834,6,0,P|200:288|197:347,1,92.0000017547608,2|8,3:2|0:0,0:0:0:0:
146,335,131284,1,2,3:2:0:0:
146,335,131434,2,0,L|133:276,1,46.0000008773804,2|2,0:2|3:2,0:0:0:0:
99,255,131734,1,10,0:2:0:0:
150,168,132034,6,0,L|201:156,1,46.0000008773804,2|2,3:2|0:2,0:0:0:0:
228,112,132334,1,10,0:2:0:0:
228,112,132484,2,0,L|240:61,2,46.0000008773804,2|2|0,3:2|0:2|3:2,0:0:0:0:
271,139,132934,1,10,0:2:0:0:
372,127,133234,1,2,0:2:0:0:
471,107,133534,6,0,L|463:48,2,46.0000008773804,2|2|2,0:2|0:2|0:2,0:0:0:0:
425,304,134434,6,0,B|412:307|412:307|312:264,1,92.0000017547608,6|8,3:2|0:0,0:0:0:0:
313,239,134884,1,2,3:2:0:0:
313,239,135034,2,0,P|262:238|244:263,1,46.0000008773804,2|2,0:3|3:2,0:0:0:0:
224,259,135334,2,0,P|173:260|155:235,1,46.0000008773804,8|2,0:2|0:2,0:0:0:0:
131,248,135634,2,0,P|145:186|196:181,1,92.0000017547608,2|8,3:2|0:2,0:0:0:0:
196,80,136234,6,0,L|255:96,1,46.0000008773804,2|2,0:3|3:2,0:0:0:0:
278,69,136534,1,8,0:2:0:0:
278,69,136684,1,2,0:2:0:0:
278,69,136834,2,0,B|359:64|304:54|390:46,1,92.0000017547608,2|10,3:2|0:0,0:0:0:0:
455,98,137434,2,0,P|464:140|466:150,1,46.0000008773804,2|2,0:3|3:2,0:0:0:0:
429,179,137734,2,0,P|420:221|418:231,1,46.0000008773804,10|2,3:2|0:3,0:0:0:0:
395,268,138034,6,0,P|336:290|326:343,1,92.0000017547608,2|8,3:2|0:2,0:0:0:0:
229,345,138634,1,2,0:0:0:0:
151,281,138934,1,10,0:0:0:0:
52,256,139234,6,0,P|61:204|66:160,1,92.0000017547608,6|8,3:2|0:0,0:0:0:0:
120,162,139684,1,2,3:2:0:0:
120,162,139834,2,0,P|157:127|152:97,1,46.0000008773804,2|2,0:3|3:2,0:0:0:0:
189,98,140134,2,0,P|177:50|149:39,1,46.0000008773804,8|2,0:2|0:2,0:0:0:0:
222,25,140434,2,0,P|267:34|312:39,1,92.0000017547608,2|8,3:2|0:2,0:0:0:0:
404,81,141034,6,0,P|402:102|397:132,1,46.0000008773804,2|2,0:3|3:2,0:0:0:0:
357,157,141334,1,8,0:2:0:0:
290,233,141634,2,0,L|302:284,1,46.0000008773804,2|2,3:2|0:2,0:0:0:0:
337,313,141934,1,10,0:2:0:0:
337,313,142084,2,0,L|388:325,2,46.0000008773804,2|2|2,3:2|0:3|3:2,0:0:0:0:
321,361,142534,5,10,0:2:0:0:
229,326,142834,1,2,3:2:0:0:
131,299,143134,2,0,L|79:310,1,46.0000008773804,10|2,0:2|3:2,0:0:0:0:
35,302,143434,1,2,0:0:0:0:
57,206,143734,1,8,0:2:0:0:
57,206,143884,1,2,0:0:0:0:
