osu file format v14

[General]
AudioFilename: audio.mp3
AudioLeadIn: 0
PreviewTime: 66806
Countdown: 0
SampleSet: Normal
StackLeniency: 0.7
Mode: 1
LetterboxInBreaks: 0
WidescreenStoryboard: 0

[Editor]
DistanceSpacing: 1
BeatDivisor: 4
GridSize: 32
TimelineZoom: 2.2

[Metadata]
Title:spy?
TitleUnicode:spy?
Artist:WHOKILLEDXIX
ArtistUnicode:WHOKILLEDXIX
Creator:Nifty
Version:oni!
Source:
Tags:hyperpop english pop hip hop rap 19 karm the tool yung skayda
BeatmapID:3201382
BeatmapSetID:1484545

[Difficulty]
HPDrainRate:6
CircleSize:2
OverallDifficulty:5.5
ApproachRate:10
SliderMultiplier:1.4
SliderTickRate:1

[Events]
//Background and Video events
0,0,"spyyyyyyyyyyyyyyyy.jpg",0,0
//Break Periods
//Storyboard Layer 0 (Background)
//Storyboard Layer 1 (Fail)
//Storyboard Layer 2 (Pass)
//Storyboard Layer 3 (Foreground)
//Storyboard Layer 4 (Overlay)
//Storyboard Sound Samples

[TimingPoints]
32,300,4,1,0,70,1,0
9632,-100,4,1,0,70,0,1
13232,-125,4,1,0,70,0,0
14432,-100,4,1,0,70,0,1
18032,-125,4,1,0,70,0,0
19232,-100,4,1,0,70,0,1
27632,-125,4,1,0,70,0,0
37607,-129.87012987013,4,1,0,70,0,0
37982,-135.135135135135,4,1,0,70,0,0
38282,-142.045454545455,4,1,0,50,0,0
38432,-142.857142857143,4,1,0,50,0,0
38582,-143.958010327548,4,1,0,50,0,0
38732,-145.075976288782,4,1,0,50,0,0
38882,-146.211442215045,4,1,0,50,0,0
39032,-147.36503941278,4,1,0,50,0,0
39182,-148.53676433454,4,1,0,50,0,0
39332,-149.727271774463,4,1,0,50,0,0
39482,-150.937017001546,4,1,0,50,0,0
39632,-152.166470118309,4,1,0,50,0,0
39782,-153.416116669888,4,1,0,50,0,0
39932,-154.686697562756,4,1,0,50,0,0
40082,-155.978256631026,4,1,0,50,0,0
40232,-157.291565082531,4,1,0,50,0,0
40382,-158.62717695972,4,1,0,50,0,0
40532,-159.985665284391,4,1,0,50,0,0
40682,-161.367622877411,4,1,0,50,0,0
40832,-162.773928174376,4,1,0,50,0,0
40982,-164.204690999612,4,1,0,50,0,0
41132,-165.660829331244,4,1,0,50,0,0
41282,-167.143024285881,4,1,0,50,0,0
41432,-168.651981576458,4,1,0,50,0,0
41582,-170.188432632611,4,1,0,50,0,0
41732,-171.75343077478,4,1,0,50,0,0
41882,-173.347177994616,4,1,0,50,0,0
42032,-174.97077987976,4,1,0,50,0,0
42182,-176.62508323457,4,1,0,50,0,0
42332,-178.310967194348,4,1,0,50,0,0
42482,-180.0293447832,4,1,0,50,0,0
42632,-181.781164562853,4,1,0,50,0,0
42782,-183.567749349252,4,1,0,50,0,0
42932,-185.389456901586,4,1,0,50,0,0
43082,-187.247683746152,4,1,0,50,0,0
43232,-189.143539140418,4,1,0,50,0,0
43382,-191.078177725635,4,1,0,50,0,0
43532,-193.05280187184,4,1,0,50,0,0
43682,-195.069044688367,4,1,0,50,0,0
43832,-197.127458672228,4,1,0,50,0,0
43982,-199.229777679491,4,1,0,50,0,0
44132,-201.377421563494,4,1,0,50,0,0
44282,-203.571872067293,4,1,0,50,0,0
44432,-205.814676232933,4,1,0,50,0,0
44582,-208.107883126613,4,1,0,50,0,0
44732,-210.452325182515,4,1,0,50,0,0
44882,-212.850191778023,4,1,0,50,0,0
45032,-215.303330096607,4,1,0,50,0,0
45182,-217.813673471166,4,1,0,50,0,0
45332,-220.383246465604,4,1,0,50,0,0
45482,-223.014667674693,4,1,0,50,0,0
45632,-225.709178238024,4,1,0,50,0,0
45782,-228.469596408458,4,1,0,50,0,0
45932,-231.298370271683,4,1,0,50,0,0
46082,-234.198070676294,4,1,0,50,0,0
46232,-237.171399026649,4,1,0,50,0,0
46382,-240.221195676979,4,1,0,50,0,0
46532,-243.35104117743,4,1,0,50,0,0
46682,-246.562912992879,4,1,0,50,0,0
46832,-249.860702658268,4,1,0,50,0,0
48032,-111.111111111111,4,1,0,70,0,0
50469,-114.942528735632,4,1,0,70,0,0
50507,-111.111111111111,4,1,0,70,0,0
50750,-114.942528735632,4,1,0,70,0,0
50788,-111.111111111111,4,1,0,70,0,0
51050,-114.942528735632,4,1,0,70,0,0
51088,-111.111111111111,4,1,0,70,0,0
51350,-114.942528735632,4,1,0,70,0,0
51388,-111.111111111111,4,1,0,70,0,0
51650,-114.942528735632,4,1,0,70,0,0
51688,-111.111111111111,4,1,0,70,0,0
51950,-114.942528735632,4,1,0,70,0,0
51988,-111.111111111111,4,1,0,70,0,0
52250,-114.942528735632,4,1,0,70,0,0
52288,-111.111111111111,4,1,0,70,0,0
52550,-114.942528735632,4,1,0,70,0,0
52588,-111.111111111111,4,1,0,70,0,0
55250,-114.942528735632,4,1,0,70,0,0
55288,-111.111111111111,4,1,0,70,0,0
55550,-114.942528735632,4,1,0,70,0,0
55588,-111.111111111111,4,1,0,70,0,0
55850,-114.942528735632,4,1,0,70,0,0
55888,-111.111111111111,4,1,0,70,0,0
56150,-114.942528735632,4,1,0,70,0,0
56188,-111.111111111111,4,1,0,70,0,0
56450,-114.942528735632,4,1,0,70,0,0
56488,-111.111111111111,4,1,0,70,0,0
56750,-114.942528735632,4,1,0,70,0,0
56788,-111.111111111111,4,1,0,70,0,0
56900,-114.942528735632,4,1,0,70,0,0
56938,-111.111111111111,4,1,0,70,0,0
57050,-114.942528735632,4,1,0,70,0,0
57088,-111.111111111111,4,1,0,70,0,0
57350,-114.942528735632,4,1,0,70,0,0
57388,-111.111111111111,4,1,0,70,0,0
57500,-114.942528735632,4,1,0,70,0,0
57538,-111.111111111111,4,1,0,70,0,0
57632,-111.111111111111,4,1,0,70,0,0
58082,-113.551458114274,4,1,0,70,0,0
58532,-116.101407613466,4,1,0,70,0,0
58832,-117.865873350762,4,1,0,70,0,0
59282,-120.615622135379,4,1,0,70,0,0
59732,-123.496735981268,4,1,0,70,0,0
60032,-125.495078083038,4,1,0,70,0,0
60332,-127.559318271979,4,1,0,70,0,0
60482,-128.617032496379,4,1,0,70,0,0
60632,-129.692602593333,4,1,0,70,0,0
60932,-131.898280046428,4,1,0,70,0,0
61232,-134.180459299712,4,1,0,70,0,0
61532,-136.542817779513,4,1,0,70,0,0
61832,-138.990042753337,4,1,0,70,0,0
62132,-141.526390426023,4,1,0,70,0,0
62282,-142.829801152351,4,1,0,70,0,0
62432,-144.157235179555,4,1,0,70,0,0
62882,-148.292046356094,4,1,0,70,0,0
63332,-152.671056468444,4,1,0,70,0,0
63632,-155.736798580926,4,1,0,70,0,0
64082,-160.573697707168,4,1,0,70,0,0
64532,-165.720677797572,4,1,0,70,0,0
64832,-169.339120215535,4,1,0,70,0,0
65282,-175.07339952275,4,1,0,70,0,0
65732,-181.209646876761,4,1,0,70,0,0
66032,-185.545280470246,4,1,0,70,0,0
66332,-190.093107604104,4,1,0,70,0,0
66632,-194.869856166559,4,1,0,70,0,0
66932,-199.892457857673,4,1,0,70,0,0
67232,-100,4,1,0,70,0,1
86432,-125,4,1,0,70,0,0
86732,-111.111111111111,4,1,0,70,0,0
87557,-142.857142857143,4,1,0,70,0,0
87844,-111.111111111111,4,1,0,70,0,0
88691,-166.666666666666,4,1,0,70,0,0
88998,-111.111111111111,4,1,0,70,0,0
89957,-200,4,1,0,70,0,0
91232,-111.111111111111,4,1,0,70,0,0
96107,-125,4,1,0,70,0,0
98282,-142.857142857143,4,1,0,70,0,0
100832,-111.111111111111,4,1,0,70,0,0
124832,-99.9999999999999,4,1,0,70,0,1
133232,-99.9999999999999,4,1,0,70,0,0
134432,-99.9999999999999,4,1,0,70,0,1
144032,-99.9999999999999,4,1,0,70,0,0

[HitObjects]
336,98,9632,5,0,0:0:0:0:
336,98,9707,1,0,0:0:0:0:
336,98,9782,1,0,0:0:0:0:
335,91,9932,1,8,0:0:0:0:
340,97,10082,1,0,0:0:0:0:
337,86,10232,1,8,0:0:0:0:
336,98,10382,1,0,0:0:0:0:
344,81,10532,1,8,0:0:0:0:
338,77,10682,1,8,0:0:0:0:
337,79,10832,1,0,0:0:0:0:
336,75,10907,1,0,0:0:0:0:
332,78,10982,1,0,0:0:0:0:
332,77,11132,1,8,0:0:0:0:
339,78,11282,1,0,0:0:0:0:
338,75,11432,1,0,0:0:0:0:
338,77,11582,1,8,0:0:0:0:
338,77,11732,1,8,0:0:0:0:
343,77,11882,1,0,0:0:0:0:
342,76,12032,1,8,0:0:0:0:
344,74,12107,1,8,0:0:0:0:
341,69,12182,1,0,0:0:0:0:
339,78,12332,1,8,0:0:0:0:
338,75,12482,1,0,0:0:0:0:
338,77,12632,1,8,0:0:0:0:
338,77,12707,1,0,0:0:0:0:
350,81,12782,1,0,0:0:0:0:
351,78,12932,1,8,0:0:0:0:
349,88,14432,1,0,0:0:0:0:
356,77,14507,1,0,0:0:0:0:
356,77,14582,1,0,0:0:0:0:
355,72,14732,1,8,0:0:0:0:
354,71,14882,1,0,0:0:0:0:
347,73,15032,1,8,0:0:0:0:
347,69,15182,1,0,0:0:0:0:
356,74,15332,1,8,0:0:0:0:
356,74,15482,1,8,0:0:0:0:
356,77,15632,1,0,0:0:0:0:
355,72,15707,1,0,0:0:0:0:
354,71,15782,1,0,0:0:0:0:
347,73,15932,1,8,0:0:0:0:
347,69,16082,1,0,0:0:0:0:
355,71,16232,1,8,0:0:0:0:
365,73,16382,1,0,0:0:0:0:
366,72,16532,1,8,0:0:0:0:
355,72,16682,1,8,0:0:0:0:
360,64,16832,1,0,0:0:0:0:
356,69,16907,1,0,0:0:0:0:
356,68,16982,1,0,0:0:0:0:
355,69,17057,1,0,0:0:0:0:
361,70,17132,1,8,0:0:0:0:
365,73,17282,1,0,0:0:0:0:
365,73,17432,1,8,0:0:0:0:
367,64,17582,1,8,0:0:0:0:
360,64,17732,1,0,0:0:0:0:
354,61,19232,1,0,0:0:0:0:
354,61,19307,1,0,0:0:0:0:
354,61,19382,1,0,0:0:0:0:
362,64,19532,1,8,0:0:0:0:
361,62,19682,1,0,0:0:0:0:
354,61,19832,1,8,0:0:0:0:
355,54,19907,1,8,0:0:0:0:
355,51,19982,1,0,0:0:0:0:
359,50,20132,1,8,0:0:0:0:
363,51,20282,1,8,0:0:0:0:
360,49,20432,1,0,0:0:0:0:
352,49,20507,1,0,0:0:0:0:
357,49,20582,1,0,0:0:0:0:
347,49,20732,1,8,0:0:0:0:
346,49,20882,1,0,0:0:0:0:
355,51,21032,1,8,0:0:0:0:
359,50,21182,1,0,0:0:0:0:
352,50,21257,1,0,0:0:0:0:
360,49,21332,1,8,0:0:0:0:
360,49,21482,1,8,0:0:0:0:
357,49,21632,1,0,0:0:0:0:
347,49,21707,1,0,0:0:0:0:
347,49,21782,1,8,0:0:0:0:
346,49,21932,1,0,0:0:0:0:
350,51,22082,1,8,0:0:0:0:
352,50,22232,1,0,0:0:0:0:
360,49,22382,1,8,0:0:0:0:
360,49,22457,1,8,0:0:0:0:
360,49,22532,1,0,0:0:0:0:
357,50,22682,1,8,0:0:0:0:
346,49,22832,1,0,0:0:0:0:
350,55,22907,1,0,0:0:0:0:
343,55,22982,1,0,0:0:0:0:
345,58,23132,1,8,0:0:0:0:
344,67,23282,1,0,0:0:0:0:
348,66,23432,1,0,0:0:0:0:
360,49,23507,1,0,0:0:0:0:
357,50,23582,1,8,0:0:0:0:
359,56,23732,1,0,0:0:0:0:
363,49,23807,1,0,0:0:0:0:
363,49,23882,1,8,0:0:0:0:
362,50,24032,1,0,0:0:0:0:
362,52,24107,1,0,0:0:0:0:
362,52,24182,1,0,0:0:0:0:
362,52,24332,1,8,0:0:0:0:
364,89,24482,1,0,0:0:0:0:
371,61,24632,1,8,0:0:0:0:
371,51,24707,1,0,0:0:0:0:
376,57,24782,1,0,0:0:0:0:
370,51,24932,1,8,0:0:0:0:
374,61,25082,1,8,0:0:0:0:
371,64,25232,1,0,0:0:0:0:
377,62,25307,1,0,0:0:0:0:
374,63,25382,1,0,0:0:0:0:
374,56,25532,1,8,0:0:0:0:
371,61,25682,1,0,0:0:0:0:
376,57,25832,1,8,0:0:0:0:
375,56,25982,1,0,0:0:0:0:
365,48,26057,1,8,0:0:0:0:
374,61,26132,1,8,0:0:0:0:
362,49,26282,1,0,0:0:0:0:
374,64,26432,1,8,0:0:0:0:
368,63,26507,1,8,0:0:0:0:
384,57,26582,1,0,0:0:0:0:
379,55,26657,1,0,0:0:0:0:
376,57,26732,1,8,0:0:0:0:
366,64,26882,1,0,0:0:0:0:
375,50,27032,1,8,0:0:0:0:
368,56,27182,1,8,0:0:0:0:
368,56,27332,1,0,0:0:0:0:
356,112,28832,1,0,0:0:0:0:
360,89,29132,1,8,0:0:0:0:
360,89,29282,1,0,0:0:0:0:
363,95,29432,1,8,0:0:0:0:
361,92,29582,1,0,0:0:0:0:
364,86,29732,1,8,0:0:0:0:
363,86,29882,1,8,0:0:0:0:
360,89,30032,1,0,0:0:0:0:
370,90,30332,1,8,0:0:0:0:
368,80,30482,1,0,0:0:0:0:
367,80,30782,1,0,0:0:0:0:
363,86,30932,1,8,0:0:0:0:
363,83,31007,1,8,0:0:0:0:
361,81,31082,1,0,0:0:0:0:
340,99,31232,1,8,0:0:0:0:
340,99,31307,1,8,0:0:0:0:
377,73,31382,1,0,0:0:0:0:
382,67,31457,1,0,0:0:0:0:
368,71,31532,1,8,0:0:0:0:
367,80,31682,1,8,0:0:0:0:
363,71,31832,1,0,0:0:0:0:
376,72,31982,1,0,0:0:0:0:
377,74,32132,1,8,0:0:0:0:
377,73,32432,1,0,0:0:0:0:
394,75,32882,1,0,0:0:0:0:
400,85,33182,1,0,0:0:0:0:
401,79,33482,1,8,0:0:0:0:
399,80,33632,1,0,0:0:0:0:
386,73,33932,1,8,0:0:0:0:
387,73,34082,1,0,0:0:0:0:
408,73,34232,1,8,0:0:0:0:
408,73,34382,1,0,0:0:0:0:
407,73,34532,1,8,0:0:0:0:
395,74,34682,1,8,0:0:0:0:
400,75,34832,1,0,0:0:0:0:
386,75,35132,1,8,0:0:0:0:
386,75,35282,1,0,0:0:0:0:
387,72,35582,1,0,0:0:0:0:
387,72,35732,1,8,0:0:0:0:
386,75,35807,1,8,0:0:0:0:
391,70,35882,1,0,0:0:0:0:
391,70,36032,1,8,0:0:0:0:
379,87,36107,1,8,0:0:0:0:
380,85,36182,1,0,0:0:0:0:
396,62,36257,1,0,0:0:0:0:
394,62,36332,1,8,0:0:0:0:
389,57,36482,1,8,0:0:0:0:
389,57,36632,1,0,0:0:0:0:
389,57,36782,1,0,0:0:0:0:
390,57,36932,1,8,0:0:0:0:
391,56,37082,1,0,0:0:0:0:
392,52,37232,1,8,0:0:0:0:
395,58,37682,1,0,0:0:0:0:
393,47,37982,1,0,0:0:0:0:
394,63,38282,1,8,0:0:0:0:
395,58,38432,1,0,0:0:0:0:
395,58,38582,1,0,0:0:0:0:
394,68,38732,1,8,0:0:0:0:
393,59,38882,1,0,0:0:0:0:
389,55,39032,1,0,0:0:0:0:
390,55,39182,1,0,0:0:0:0:
395,58,39332,1,8,0:0:0:0:
388,43,39482,1,0,0:0:0:0:
388,44,39632,1,0,0:0:0:0:
388,45,39782,1,0,0:0:0:0:
402,54,39932,1,8,0:0:0:0:
402,53,40082,1,0,0:0:0:0:
390,55,40232,1,0,0:0:0:0:
395,58,40382,1,0,0:0:0:0:
392,52,40532,1,8,0:0:0:0:
388,51,40682,1,0,0:0:0:0:
399,54,40832,1,0,0:0:0:0:
402,54,40982,1,0,0:0:0:0:
394,74,41132,1,8,0:0:0:0:
396,73,41282,1,0,0:0:0:0:
397,72,41432,1,0,0:0:0:0:
397,72,41582,1,0,0:0:0:0:
397,64,41732,1,8,0:0:0:0:
400,63,41882,1,0,0:0:0:0:
400,63,42032,1,0,0:0:0:0:
401,63,42182,1,0,0:0:0:0:
397,72,42332,1,8,0:0:0:0:
397,72,42482,1,0,0:0:0:0:
397,72,42632,1,0,0:0:0:0:
397,64,42782,1,0,0:0:0:0:
400,63,42932,1,8,0:0:0:0:
400,63,43082,1,0,0:0:0:0:
401,63,43232,1,0,0:0:0:0:
406,67,43382,1,0,0:0:0:0:
376,71,43532,1,8,0:0:0:0:
399,72,43682,1,0,0:0:0:0:
399,72,43832,1,0,0:0:0:0:
399,72,43982,1,0,0:0:0:0:
400,72,44132,1,8,0:0:0:0:
399,72,44282,1,0,0:0:0:0:
401,72,44432,1,0,0:0:0:0:
397,75,44582,1,0,0:0:0:0:
400,72,44732,1,8,0:0:0:0:
399,72,44882,1,0,0:0:0:0:
399,72,45032,1,0,0:0:0:0:
400,72,45182,1,0,0:0:0:0:
400,72,45332,1,8,0:0:0:0:
408,71,45482,1,0,0:0:0:0:
408,70,45632,1,0,0:0:0:0:
408,70,45782,1,0,0:0:0:0:
400,72,45932,1,8,0:0:0:0:
408,70,46082,1,0,0:0:0:0:
406,68,46232,1,0,0:0:0:0:
408,71,46382,1,0,0:0:0:0:
400,72,46532,1,8,0:0:0:0:
395,67,46682,1,0,0:0:0:0:
397,66,46832,1,0,0:0:0:0:
408,71,47282,1,0,0:0:0:0:
404,71,47582,1,0,0:0:0:0:
404,71,47882,1,8,0:0:0:0:
443,91,48032,1,0,0:0:0:0:
408,71,48182,1,0,0:0:0:0:
420,84,48257,1,0,0:0:0:0:
391,69,48332,1,8,0:0:0:0:
417,77,48482,1,0,0:0:0:0:
417,77,48632,1,8,0:0:0:0:
420,67,48707,1,8,0:0:0:0:
425,67,48782,1,0,0:0:0:0:
424,66,48932,1,8,0:0:0:0:
424,68,49082,1,8,0:0:0:0:
420,87,49232,1,0,0:0:0:0:
423,69,49307,1,8,0:0:0:0:
429,61,49382,1,0,0:0:0:0:
425,60,49457,1,0,0:0:0:0:
422,58,49532,1,8,0:0:0:0:
423,57,49682,1,0,0:0:0:0:
433,62,49832,1,8,0:0:0:0:
414,65,49982,1,0,0:0:0:0:
415,64,50057,1,0,0:0:0:0:
413,63,50132,1,8,0:0:0:0:
408,68,50432,1,0,0:0:0:0:
390,75,50732,1,0,0:0:0:0:
395,75,51032,1,0,0:0:0:0:
397,78,51332,1,0,0:0:0:0:
399,75,51632,1,8,0:0:0:0:
395,75,51932,1,8,0:0:0:0:
397,78,52232,1,8,0:0:0:0:
399,75,52532,1,8,0:0:0:0:
412,76,52832,1,0,0:0:0:0:
402,74,52982,1,0,0:0:0:0:
397,78,53057,1,0,0:0:0:0:
397,78,53132,1,8,0:0:0:0:
397,78,53282,1,0,0:0:0:0:
399,75,53432,1,8,0:0:0:0:
399,75,53507,1,8,0:0:0:0:
399,75,53582,1,0,0:0:0:0:
397,71,53732,1,8,0:0:0:0:
397,71,53882,1,8,0:0:0:0:
401,61,54032,1,0,0:0:0:0:
400,66,54107,1,0,0:0:0:0:
397,78,54182,1,8,0:0:0:0:
398,64,54257,1,0,0:0:0:0:
403,63,54332,1,8,0:0:0:0:
382,63,54482,1,0,0:0:0:0:
378,65,54632,1,8,0:0:0:0:
384,67,54707,1,8,0:0:0:0:
395,63,54782,1,0,0:0:0:0:
401,61,54932,1,8,0:0:0:0:
391,65,55232,1,0,0:0:0:0:
380,88,55532,1,0,0:0:0:0:
381,88,55832,1,0,0:0:0:0:
382,87,56132,1,0,0:0:0:0:
388,77,56432,1,8,0:0:0:0:
381,88,56732,1,8,0:0:0:0:
382,87,56882,1,8,0:0:0:0:
382,87,57032,1,8,0:0:0:0:
380,88,57332,1,8,0:0:0:0:
383,90,57482,1,8,0:0:0:0:
381,88,57632,1,0,0:0:0:0:
402,89,58082,1,0,0:0:0:0:
402,89,58532,1,0,0:0:0:0:
402,89,58832,1,0,0:0:0:0:
402,89,59282,1,0,0:0:0:0:
402,89,59732,1,0,0:0:0:0:
391,86,60032,1,0,0:0:0:0:
391,86,60332,1,0,0:0:0:0:
391,86,60482,1,0,0:0:0:0:
391,86,60632,1,0,0:0:0:0:
399,88,60932,1,8,0:0:0:0:
399,88,61232,1,8,0:0:0:0:
399,88,61532,1,8,0:0:0:0:
399,88,61832,1,8,0:0:0:0:
399,88,62132,1,8,0:0:0:0:
399,88,62282,1,8,0:0:0:0:
399,88,62432,1,0,0:0:0:0:
410,99,62882,1,0,0:0:0:0:
410,99,63332,1,0,0:0:0:0:
410,99,63632,1,0,0:0:0:0:
410,99,64082,1,0,0:0:0:0:
410,99,64532,1,0,0:0:0:0:
410,99,64832,1,0,0:0:0:0:
410,99,65282,1,0,0:0:0:0:
412,102,65732,1,8,0:0:0:0:
412,102,66032,1,8,0:0:0:0:
404,96,66332,1,8,0:0:0:0:
398,95,66632,1,8,0:0:0:0:
403,84,66932,1,8,0:0:0:0:
336,98,67232,5,0,0:0:0:0:
336,98,67307,1,0,0:0:0:0:
336,98,67382,1,0,0:0:0:0:
335,91,67532,1,8,0:0:0:0:
340,97,67682,1,0,0:0:0:0:
337,86,67832,1,8,0:0:0:0:
336,98,67982,1,0,0:0:0:0:
344,81,68132,1,8,0:0:0:0:
338,77,68282,1,8,0:0:0:0:
337,79,68432,1,0,0:0:0:0:
336,75,68507,1,0,0:0:0:0:
332,78,68582,1,0,0:0:0:0:
332,77,68732,1,8,0:0:0:0:
339,78,68882,1,0,0:0:0:0:
338,75,69032,1,0,0:0:0:0:
338,77,69182,1,8,0:0:0:0:
338,77,69332,1,8,0:0:0:0:
343,77,69482,1,0,0:0:0:0:
342,76,69632,1,8,0:0:0:0:
344,74,69707,1,8,0:0:0:0:
341,69,69782,1,0,0:0:0:0:
339,78,69932,1,8,0:0:0:0:
338,75,70082,1,0,0:0:0:0:
338,77,70232,1,8,0:0:0:0:
338,77,70307,1,0,0:0:0:0:
350,81,70382,1,0,0:0:0:0:
351,78,70532,1,8,0:0:0:0:
344,85,70682,1,8,0:0:0:0:
346,84,70832,1,0,0:0:0:0:
338,77,71132,1,8,0:0:0:0:
350,67,71282,1,0,0:0:0:0:
345,72,71432,1,8,0:0:0:0:
328,83,71507,1,0,0:0:0:0:
342,71,71582,1,0,0:0:0:0:
342,66,71732,1,8,0:0:0:0:
338,65,71807,1,0,0:0:0:0:
344,61,71882,1,0,0:0:0:0:
349,88,72032,1,8,0:0:0:0:
356,77,72107,1,8,0:0:0:0:
356,77,72182,1,0,0:0:0:0:
355,72,72332,1,8,0:0:0:0:
354,71,72482,1,0,0:0:0:0:
347,73,72632,1,8,0:0:0:0:
347,69,72782,1,0,0:0:0:0:
356,74,72932,1,8,0:0:0:0:
356,74,73082,1,8,0:0:0:0:
356,77,73232,1,0,0:0:0:0:
355,72,73307,1,0,0:0:0:0:
354,71,73382,1,0,0:0:0:0:
347,73,73532,1,8,0:0:0:0:
347,69,73682,1,0,0:0:0:0:
355,71,73832,1,8,0:0:0:0:
365,73,73982,1,0,0:0:0:0:
366,72,74132,1,8,0:0:0:0:
355,72,74282,1,8,0:0:0:0:
360,64,74432,1,0,0:0:0:0:
356,69,74507,1,0,0:0:0:0:
356,68,74582,1,0,0:0:0:0:
355,69,74657,1,0,0:0:0:0:
361,70,74732,1,8,0:0:0:0:
365,73,74882,1,0,0:0:0:0:
365,73,75032,1,8,0:0:0:0:
369,57,75107,1,8,0:0:0:0:
367,64,75182,1,8,0:0:0:0:
360,64,75332,1,0,0:0:0:0:
368,58,75482,1,8,0:0:0:0:
369,59,75632,1,0,0:0:0:0:
374,58,75707,1,0,0:0:0:0:
377,51,75782,1,8,0:0:0:0:
383,54,75932,1,0,0:0:0:0:
382,54,76082,1,0,0:0:0:0:
376,56,76232,1,8,0:0:0:0:
376,55,76307,1,8,0:0:0:0:
374,55,76382,1,0,0:0:0:0:
369,59,76532,1,8,0:0:0:0:
354,61,76832,1,0,0:0:0:0:
354,61,76907,1,0,0:0:0:0:
354,61,76982,1,0,0:0:0:0:
362,64,77132,1,8,0:0:0:0:
361,62,77282,1,0,0:0:0:0:
354,61,77432,1,8,0:0:0:0:
355,54,77507,1,8,0:0:0:0:
355,51,77582,1,0,0:0:0:0:
359,50,77732,1,8,0:0:0:0:
363,51,77882,1,8,0:0:0:0:
360,49,78032,1,0,0:0:0:0:
352,49,78107,1,0,0:0:0:0:
357,49,78182,1,0,0:0:0:0:
347,49,78332,1,8,0:0:0:0:
346,49,78482,1,0,0:0:0:0:
355,51,78632,1,8,0:0:0:0:
359,50,78782,1,0,0:0:0:0:
352,50,78857,1,0,0:0:0:0:
360,49,78932,1,8,0:0:0:0:
360,49,79082,1,8,0:0:0:0:
357,49,79232,1,0,0:0:0:0:
347,49,79307,1,0,0:0:0:0:
347,49,79382,1,8,0:0:0:0:
346,49,79532,1,0,0:0:0:0:
350,51,79682,1,8,0:0:0:0:
352,50,79832,1,0,0:0:0:0:
363,61,79907,1,8,0:0:0:0:
360,49,79982,1,8,0:0:0:0:
360,49,80132,1,0,0:0:0:0:
357,50,80282,1,8,0:0:0:0:
346,49,80432,1,0,0:0:0:0:
345,58,80732,1,8,0:0:0:0:
344,67,80882,1,0,0:0:0:0:
348,66,81032,1,0,0:0:0:0:
360,49,81107,1,0,0:0:0:0:
357,50,81182,1,8,0:0:0:0:
359,56,81332,1,0,0:0:0:0:
363,49,81407,1,0,0:0:0:0:
363,49,81482,1,8,0:0:0:0:
362,50,81632,1,0,0:0:0:0:
362,52,81707,1,0,0:0:0:0:
362,52,81782,1,0,0:0:0:0:
362,52,81932,1,8,0:0:0:0:
364,89,82082,1,0,0:0:0:0:
371,61,82232,1,8,0:0:0:0:
371,51,82307,1,0,0:0:0:0:
376,57,82382,1,0,0:0:0:0:
370,51,82532,1,8,0:0:0:0:
374,61,82682,1,8,0:0:0:0:
371,64,82832,1,0,0:0:0:0:
377,62,82907,1,0,0:0:0:0:
374,63,82982,1,0,0:0:0:0:
374,56,83132,1,8,0:0:0:0:
371,61,83282,1,0,0:0:0:0:
376,57,83432,1,8,0:0:0:0:
375,56,83582,1,0,0:0:0:0:
365,48,83657,1,0,0:0:0:0:
374,61,83732,1,8,0:0:0:0:
362,49,83882,1,0,0:0:0:0:
374,64,84032,1,8,0:0:0:0:
368,63,84107,1,8,0:0:0:0:
384,57,84182,1,0,0:0:0:0:
379,55,84257,1,0,0:0:0:0:
376,57,84332,1,8,0:0:0:0:
366,64,84482,1,0,0:0:0:0:
375,50,84632,1,8,0:0:0:0:
384,60,84707,1,8,0:0:0:0:
368,56,84782,1,8,0:0:0:0:
368,56,84932,1,0,0:0:0:0:
368,63,85082,1,0,0:0:0:0:
378,62,85232,1,8,0:0:0:0:
361,44,85307,1,8,0:0:0:0:
373,48,85382,1,0,0:0:0:0:
375,50,85532,1,8,0:0:0:0:
373,44,85682,1,0,0:0:0:0:
373,44,85832,1,8,0:0:0:0:
373,44,85907,1,8,0:0:0:0:
373,44,85982,1,0,0:0:0:0:
377,43,86132,1,8,0:0:0:0:
378,62,86282,1,8,0:0:0:0:
396,62,86732,1,8,0:0:0:0:
396,62,87332,1,8,0:0:0:0:
396,62,87932,1,8,0:0:0:0:
396,62,88532,1,8,0:0:0:0:
396,62,89132,1,8,0:0:0:0:
342,89,91232,1,0,0:0:0:0:
363,75,91382,1,0,0:0:0:0:
363,75,91457,1,0,0:0:0:0:
353,88,91532,1,8,0:0:0:0:
354,75,91682,1,0,0:0:0:0:
358,76,91832,1,8,0:0:0:0:
358,73,91907,1,8,0:0:0:0:
360,74,91982,1,0,0:0:0:0:
361,73,92132,1,8,0:0:0:0:
356,71,92282,1,0,0:0:0:0:
363,75,92432,1,0,0:0:0:0:
354,75,92582,1,8,0:0:0:0:
362,86,92657,1,0,0:0:0:0:
364,73,92732,1,8,0:0:0:0:
358,73,92882,1,0,0:0:0:0:
373,68,92957,1,0,0:0:0:0:
369,78,93107,1,0,0:0:0:0:
363,74,93182,1,0,0:0:0:0:
363,75,93332,1,8,0:0:0:0:
363,75,93482,1,8,0:0:0:0:
365,69,93632,1,0,0:0:0:0:
364,73,93782,1,0,0:0:0:0:
363,78,93857,1,0,0:0:0:0:
358,73,93932,1,8,0:0:0:0:
369,65,94082,1,0,0:0:0:0:
367,64,94157,1,8,0:0:0:0:
367,64,94232,1,0,0:0:0:0:
357,64,94382,1,0,0:0:0:0:
359,64,94532,1,8,0:0:0:0:
364,73,94682,1,8,0:0:0:0:
351,73,94832,1,0,0:0:0:0:
352,64,94982,1,8,0:0:0:0:
369,65,95057,1,0,0:0:0:0:
367,64,95132,1,8,0:0:0:0:
367,64,95282,1,0,0:0:0:0:
372,77,95357,1,0,0:0:0:0:
359,64,95507,1,8,0:0:0:0:
375,69,95582,1,0,0:0:0:0:
360,57,95732,1,8,0:0:0:0:
362,69,95882,1,8,0:0:0:0:
363,68,96032,1,0,0:0:0:0:
365,75,96482,1,0,0:0:0:0:
366,75,96932,1,0,0:0:0:0:
365,75,97232,1,0,0:0:0:0:
366,75,97682,1,0,0:0:0:0:
365,75,98132,1,0,0:0:0:0:
374,80,98432,1,0,0:0:0:0:
385,80,98882,1,0,0:0:0:0:
379,71,99332,1,0,0:0:0:0:
380,71,99632,1,0,0:0:0:0:
379,71,100082,1,0,0:0:0:0:
380,71,100532,1,0,0:0:0:0:
390,74,100832,1,0,0:0:0:0:
379,90,100982,1,0,0:0:0:0:
379,71,101057,1,0,0:0:0:0:
375,86,101132,1,8,0:0:0:0:
380,71,101282,1,0,0:0:0:0:
380,71,101432,1,8,0:0:0:0:
380,71,101507,1,8,0:0:0:0:
372,73,101582,1,0,0:0:0:0:
374,79,101732,1,8,0:0:0:0:
383,80,101882,1,8,0:0:0:0:
379,71,102032,1,0,0:0:0:0:
380,71,102182,1,8,0:0:0:0:
380,71,102257,1,0,0:0:0:0:
380,71,102332,1,8,0:0:0:0:
380,71,102482,1,0,0:0:0:0:
388,73,102557,1,0,0:0:0:0:
382,77,102707,1,8,0:0:0:0:
383,80,102782,1,0,0:0:0:0:
383,80,102932,1,8,0:0:0:0:
379,71,103082,1,8,0:0:0:0:
380,71,103232,1,0,0:0:0:0:
380,71,103382,1,0,0:0:0:0:
391,67,103457,1,0,0:0:0:0:
388,73,103532,1,8,0:0:0:0:
382,68,103682,1,0,0:0:0:0:
391,69,103832,1,8,0:0:0:0:
391,69,103907,1,0,0:0:0:0:
392,69,103982,1,0,0:0:0:0:
394,69,104132,1,8,0:0:0:0:
395,69,104282,1,8,0:0:0:0:
391,67,104432,1,0,0:0:0:0:
392,69,104882,1,0,0:0:0:0:
401,64,105632,1,0,0:0:0:0:
400,65,105782,1,0,0:0:0:0:
392,69,105857,1,0,0:0:0:0:
399,71,105932,1,8,0:0:0:0:
399,71,106082,1,0,0:0:0:0:
399,71,106232,1,8,0:0:0:0:
416,61,106307,1,8,0:0:0:0:
415,61,106382,1,0,0:0:0:0:
401,73,106532,1,8,0:0:0:0:
400,65,106682,1,8,0:0:0:0:
392,69,106832,1,0,0:0:0:0:
376,79,106982,1,8,0:0:0:0:
396,79,107057,1,0,0:0:0:0:
399,71,107132,1,8,0:0:0:0:
399,71,107282,1,0,0:0:0:0:
391,78,107357,1,8,0:0:0:0:
401,73,107507,1,0,0:0:0:0:
396,69,107582,1,0,0:0:0:0:
389,63,107732,1,8,0:0:0:0:
386,66,107807,1,8,0:0:0:0:
387,67,107882,1,8,0:0:0:0:
386,66,108032,1,0,0:0:0:0:
389,67,108182,1,0,0:0:0:0:
390,67,108257,1,0,0:0:0:0:
399,71,108332,1,8,0:0:0:0:
393,74,108482,1,0,0:0:0:0:
396,69,108632,1,8,0:0:0:0:
396,73,108707,1,8,0:0:0:0:
400,72,108782,1,0,0:0:0:0:
400,71,108932,1,8,0:0:0:0:
399,72,109082,1,0,0:0:0:0:
395,72,109232,1,0,0:0:0:0:
397,78,109382,1,8,0:0:0:0:
393,74,109457,1,0,0:0:0:0:
393,74,109532,1,8,0:0:0:0:
396,73,109682,1,0,0:0:0:0:
408,86,109832,1,8,0:0:0:0:
397,78,110432,1,0,0:0:0:0:
397,80,110582,1,0,0:0:0:0:
396,73,110657,1,0,0:0:0:0:
396,73,110732,1,8,0:0:0:0:
397,78,110882,1,0,0:0:0:0:
402,84,110957,1,0,0:0:0:0:
406,77,111032,1,8,0:0:0:0:
406,77,111182,1,0,0:0:0:0:
403,64,111332,1,8,0:0:0:0:
403,64,111407,1,8,0:0:0:0:
380,90,111482,1,8,0:0:0:0:
396,73,111632,1,0,0:0:0:0:
396,73,111782,1,8,0:0:0:0:
397,78,111857,1,0,0:0:0:0:
399,73,111932,1,8,0:0:0:0:
395,73,112082,1,0,0:0:0:0:
365,85,112232,1,8,0:0:0:0:
403,64,112307,1,0,0:0:0:0:
399,76,112382,1,0,0:0:0:0:
388,73,112532,1,8,0:0:0:0:
396,73,112607,1,8,0:0:0:0:
396,73,112682,1,0,0:0:0:0:
391,70,112832,1,8,0:0:0:0:
389,85,112907,1,8,0:0:0:0:
395,73,112982,1,0,0:0:0:0:
395,73,113057,1,0,0:0:0:0:
409,72,113132,1,8,0:0:0:0:
403,64,113282,1,8,0:0:0:0:
399,69,113432,1,0,0:0:0:0:
399,70,113507,1,8,0:0:0:0:
396,73,113582,1,0,0:0:0:0:
399,66,113732,1,8,0:0:0:0:
402,55,113882,1,8,0:0:0:0:
395,61,114032,1,0,0:0:0:0:
393,64,114182,1,0,0:0:0:0:
393,75,114257,1,0,0:0:0:0:
388,61,114332,1,8,0:0:0:0:
388,61,114482,1,0,0:0:0:0:
412,61,114632,1,8,0:0:0:0:
411,63,114782,1,0,0:0:0:0:
403,62,114932,1,8,0:0:0:0:
409,69,115082,1,8,0:0:0:0:
409,69,115232,1,0,0:0:0:0:
409,77,115532,1,8,0:0:0:0:
409,79,115682,1,0,0:0:0:0:
410,80,115982,1,0,0:0:0:0:
396,70,116132,1,8,0:0:0:0:
396,70,116432,1,0,0:0:0:0:
397,78,116732,1,8,0:0:0:0:
410,80,116882,1,0,0:0:0:0:
409,79,117182,1,0,0:0:0:0:
409,79,117332,1,8,0:0:0:0:
415,80,117632,1,0,0:0:0:0:
409,79,117932,1,8,0:0:0:0:
409,79,118082,1,0,0:0:0:0:
400,75,118382,1,0,0:0:0:0:
399,73,118532,1,8,0:0:0:0:
394,76,118832,1,8,0:0:0:0:
394,74,119132,1,0,0:0:0:0:
393,64,119282,1,8,0:0:0:0:
396,64,119582,1,8,0:0:0:0:
392,64,119732,1,0,0:0:0:0:
369,72,119882,1,8,0:0:0:0:
394,74,120032,1,0,0:0:0:0:
402,68,120182,1,0,0:0:0:0:
402,68,120257,1,0,0:0:0:0:
393,70,120332,1,8,0:0:0:0:
402,71,120482,1,0,0:0:0:0:
399,69,120632,1,8,0:0:0:0:
392,64,120707,1,8,0:0:0:0:
397,67,120782,1,0,0:0:0:0:
399,67,120932,1,8,0:0:0:0:
399,67,121082,1,0,0:0:0:0:
402,68,121232,1,0,0:0:0:0:
407,66,121382,1,8,0:0:0:0:
414,63,121457,1,0,0:0:0:0:
410,69,121532,1,8,0:0:0:0:
410,69,121682,1,0,0:0:0:0:
411,75,121832,1,8,0:0:0:0:
406,75,121982,1,0,0:0:0:0:
405,74,122057,1,0,0:0:0:0:
409,80,122132,1,8,0:0:0:0:
411,83,122282,1,0,0:0:0:0:
410,72,122432,1,0,0:0:0:0:
411,77,122582,1,0,0:0:0:0:
410,69,122657,1,0,0:0:0:0:
411,75,122732,1,8,0:0:0:0:
411,75,122882,1,0,0:0:0:0:
413,72,123032,1,8,0:0:0:0:
405,74,123107,1,8,0:0:0:0:
413,73,123182,1,0,0:0:0:0:
419,73,123332,1,8,0:0:0:0:
427,84,123482,1,0,0:0:0:0:
418,79,123632,1,8,0:0:0:0:
411,75,123782,1,0,0:0:0:0:
411,75,123857,1,0,0:0:0:0:
413,72,123932,1,8,0:0:0:0:
418,76,124082,1,0,0:0:0:0:
416,75,124232,1,8,0:0:0:0:
419,73,124382,1,0,0:0:0:0:
336,98,124832,5,0,0:0:0:0:
336,98,124907,1,0,0:0:0:0:
336,98,124982,1,0,0:0:0:0:
335,91,125132,1,8,0:0:0:0:
340,97,125282,1,0,0:0:0:0:
337,86,125432,1,8,0:0:0:0:
336,98,125507,1,0,0:0:0:0:
336,98,125582,1,0,0:0:0:0:
344,81,125732,1,8,0:0:0:0:
338,77,125882,1,8,0:0:0:0:
337,79,126032,1,0,0:0:0:0:
336,75,126107,1,0,0:0:0:0:
332,78,126182,1,0,0:0:0:0:
332,77,126332,1,8,0:0:0:0:
339,78,126482,1,0,0:0:0:0:
338,75,126632,1,0,0:0:0:0:
338,77,126782,1,8,0:0:0:0:
338,77,126857,1,0,0:0:0:0:
338,77,126932,1,8,0:0:0:0:
343,77,127082,1,0,0:0:0:0:
342,76,127232,1,8,0:0:0:0:
344,74,127307,1,8,0:0:0:0:
341,69,127382,1,0,0:0:0:0:
339,78,127532,1,8,0:0:0:0:
338,75,127682,1,0,0:0:0:0:
338,77,127832,1,8,0:0:0:0:
338,77,127907,1,0,0:0:0:0:
350,81,127982,1,0,0:0:0:0:
351,78,128132,1,8,0:0:0:0:
344,85,128282,1,8,0:0:0:0:
346,84,128432,1,0,0:0:0:0:
338,77,128732,1,8,0:0:0:0:
350,67,128882,1,0,0:0:0:0:
345,72,129032,1,8,0:0:0:0:
328,83,129107,1,0,0:0:0:0:
342,71,129182,1,0,0:0:0:0:
342,66,129332,1,8,0:0:0:0:
338,65,129407,1,0,0:0:0:0:
344,61,129482,1,0,0:0:0:0:
349,88,129632,1,8,0:0:0:0:
356,77,129707,1,8,0:0:0:0:
356,77,129782,1,0,0:0:0:0:
355,72,129932,1,8,0:0:0:0:
354,71,130082,1,0,0:0:0:0:
347,73,130232,1,8,0:0:0:0:
347,69,130307,1,0,0:0:0:0:
347,69,130382,1,0,0:0:0:0:
356,74,130532,1,8,0:0:0:0:
356,74,130682,1,8,0:0:0:0:
356,77,130832,1,0,0:0:0:0:
355,72,130907,1,0,0:0:0:0:
354,71,130982,1,0,0:0:0:0:
347,73,131132,1,8,0:0:0:0:
347,69,131282,1,0,0:0:0:0:
355,71,131432,1,8,0:0:0:0:
365,73,131582,1,0,0:0:0:0:
365,73,131657,1,0,0:0:0:0:
366,72,131732,1,8,0:0:0:0:
355,72,131882,1,8,0:0:0:0:
360,64,132032,1,0,0:0:0:0:
356,69,132107,1,0,0:0:0:0:
356,68,132182,1,0,0:0:0:0:
355,69,132257,1,0,0:0:0:0:
361,70,132332,1,8,0:0:0:0:
365,73,132482,1,0,0:0:0:0:
365,73,132632,1,8,0:0:0:0:
369,57,132707,1,8,0:0:0:0:
367,64,132782,1,8,0:0:0:0:
360,64,132932,1,0,0:0:0:0:
368,58,133082,1,0,0:0:0:0:
369,59,133232,1,8,0:0:0:0:
354,61,134432,1,0,0:0:0:0:
354,61,134507,1,0,0:0:0:0:
354,61,134582,1,0,0:0:0:0:
362,64,134732,1,8,0:0:0:0:
361,62,134882,1,0,0:0:0:0:
354,61,135032,1,8,0:0:0:0:
355,54,135107,1,8,0:0:0:0:
355,51,135182,1,0,0:0:0:0:
359,50,135332,1,8,0:0:0:0:
363,51,135482,1,8,0:0:0:0:
360,49,135632,1,0,0:0:0:0:
352,49,135707,1,0,0:0:0:0:
357,49,135782,1,0,0:0:0:0:
347,49,135932,1,8,0:0:0:0:
346,49,136082,1,0,0:0:0:0:
355,51,136232,1,8,0:0:0:0:
359,50,136382,1,0,0:0:0:0:
352,50,136457,1,0,0:0:0:0:
360,49,136532,1,8,0:0:0:0:
360,49,136682,1,8,0:0:0:0:
357,49,136832,1,0,0:0:0:0:
347,49,136907,1,0,0:0:0:0:
347,49,136982,1,8,0:0:0:0:
346,49,137132,1,0,0:0:0:0:
350,51,137282,1,8,0:0:0:0:
352,50,137432,1,0,0:0:0:0:
363,61,137507,1,8,0:0:0:0:
360,49,137582,1,8,0:0:0:0:
360,49,137732,1,0,0:0:0:0:
357,50,137882,1,8,0:0:0:0:
346,49,138032,1,0,0:0:0:0:
345,58,138332,1,8,0:0:0:0:
344,67,138482,1,0,0:0:0:0:
348,66,138632,1,0,0:0:0:0:
360,49,138707,1,0,0:0:0:0:
357,50,138782,1,8,0:0:0:0:
359,56,138932,1,0,0:0:0:0:
363,49,139007,1,0,0:0:0:0:
363,49,139082,1,8,0:0:0:0:
362,50,139232,1,0,0:0:0:0:
362,52,139307,1,0,0:0:0:0:
362,52,139382,1,0,0:0:0:0:
362,52,139532,1,8,0:0:0:0:
364,89,139682,1,0,0:0:0:0:
371,61,139832,1,8,0:0:0:0:
371,51,139907,1,0,0:0:0:0:
376,57,139982,1,0,0:0:0:0:
370,51,140132,1,8,0:0:0:0:
374,61,140282,1,8,0:0:0:0:
371,64,140432,1,0,0:0:0:0:
377,62,140507,1,0,0:0:0:0:
374,63,140582,1,0,0:0:0:0:
374,56,140732,1,8,0:0:0:0:
371,61,140882,1,0,0:0:0:0:
376,57,141032,1,8,0:0:0:0:
375,56,141182,1,0,0:0:0:0:
365,48,141257,1,0,0:0:0:0:
374,61,141332,1,8,0:0:0:0:
362,49,141482,1,0,0:0:0:0:
374,64,141632,1,8,0:0:0:0:
368,63,141707,1,8,0:0:0:0:
384,57,141782,1,0,0:0:0:0:
379,55,141857,1,0,0:0:0:0:
376,57,141932,1,8,0:0:0:0:
366,64,142082,1,0,0:0:0:0:
375,50,142232,1,8,0:0:0:0:
384,60,142307,1,8,0:0:0:0:
368,56,142382,1,8,0:0:0:0:
368,56,142532,1,0,0:0:0:0:
368,63,142682,1,0,0:0:0:0:
378,62,142832,1,8,0:0:0:0:
361,44,142907,1,8,0:0:0:0:
373,48,142982,1,0,0:0:0:0:
375,50,143132,1,8,0:0:0:0:
373,44,143282,1,0,0:0:0:0:
373,44,143432,1,8,0:0:0:0:
373,44,143507,1,8,0:0:0:0:
373,44,143582,1,0,0:0:0:0:
377,43,143732,1,8,0:0:0:0:
370,75,143882,1,8,0:0:0:0:
376,49,144032,1,0,0:0:0:0:
