osu file format v14

[General]
AudioFilename: audio.mp3
AudioLeadIn: 0
PreviewTime: 66806
Countdown: 0
SampleSet: Normal
StackLeniency: 0.7
Mode: 1
LetterboxInBreaks: 0
WidescreenStoryboard: 0

[Editor]
DistanceSpacing: 1
BeatDivisor: 2
GridSize: 32
TimelineZoom: 1.8

[Metadata]
Title:spy?
TitleUnicode:spy?
Artist:WHOKILLEDXIX
ArtistUnicode:WHOKILLEDXIX
Creator:Nifty
Version:kantan!
Source:
Tags:hyperpop english pop hip hop rap 19 karm the tool yung skayda
BeatmapID:3201370
BeatmapSetID:1484545

[Difficulty]
HPDrainRate:7.5
CircleSize:2
OverallDifficulty:3
ApproachRate:10
SliderMultiplier:1.4
SliderTickRate:1

[Events]
//Background and Video events
0,0,"spyyyyyyyyyyyyyyyy.jpg",0,0
//Break Periods
//Storyboard Layer 0 (Background)
//Storyboard Layer 1 (Fail)
//Storyboard Layer 2 (Pass)
//Storyboard Layer 3 (Foreground)
//Storyboard Layer 4 (Overlay)
//Storyboard Sound Samples

[TimingPoints]
32,300,4,1,0,70,1,0
9632,-125,4,1,0,70,0,1
13232,-125,4,1,0,70,0,0
14432,-125,4,1,0,70,0,1
18032,-125,4,1,0,70,0,0
19232,-125,4,1,0,70,0,1
27632,-125,4,1,0,70,0,0
37607,-125,4,1,0,70,0,0
37982,-125,4,1,0,70,0,0
38282,-125,4,1,0,50,0,0
38432,-125,4,1,0,50,0,0
38582,-125,4,1,0,50,0,0
38732,-125,4,1,0,50,0,0
38882,-125,4,1,0,50,0,0
39032,-125,4,1,0,50,0,0
39182,-125,4,1,0,50,0,0
39332,-125,4,1,0,50,0,0
39482,-125,4,1,0,50,0,0
39632,-125,4,1,0,50,0,0
39782,-125,4,1,0,50,0,0
39932,-125,4,1,0,50,0,0
40082,-125,4,1,0,50,0,0
40232,-125,4,1,0,50,0,0
40382,-125,4,1,0,50,0,0
40532,-125,4,1,0,50,0,0
40682,-125,4,1,0,50,0,0
40832,-125,4,1,0,50,0,0
40982,-125,4,1,0,50,0,0
41132,-125,4,1,0,50,0,0
41282,-125,4,1,0,50,0,0
41432,-125,4,1,0,50,0,0
41582,-125,4,1,0,50,0,0
41732,-125,4,1,0,50,0,0
41882,-125,4,1,0,50,0,0
42032,-125,4,1,0,50,0,0
42182,-125,4,1,0,50,0,0
42332,-125,4,1,0,50,0,0
42482,-125,4,1,0,50,0,0
42632,-125,4,1,0,50,0,0
42782,-125,4,1,0,50,0,0
42932,-125,4,1,0,50,0,0
43082,-125,4,1,0,50,0,0
43232,-125,4,1,0,50,0,0
43382,-125,4,1,0,50,0,0
43532,-125,4,1,0,50,0,0
43682,-125,4,1,0,50,0,0
43832,-125,4,1,0,50,0,0
43982,-125,4,1,0,50,0,0
44132,-125,4,1,0,50,0,0
44282,-125,4,1,0,50,0,0
44432,-125,4,1,0,50,0,0
44582,-125,4,1,0,50,0,0
44732,-125,4,1,0,50,0,0
44882,-125,4,1,0,50,0,0
45032,-125,4,1,0,50,0,0
45182,-125,4,1,0,50,0,0
45332,-125,4,1,0,50,0,0
45482,-125,4,1,0,50,0,0
45632,-125,4,1,0,50,0,0
45782,-125,4,1,0,50,0,0
45932,-125,4,1,0,50,0,0
46082,-125,4,1,0,50,0,0
46232,-125,4,1,0,50,0,0
46382,-125,4,1,0,50,0,0
46532,-125,4,1,0,50,0,0
46682,-125,4,1,0,50,0,0
46832,-125,4,1,0,50,0,0
48032,-125,4,1,0,70,0,0
50469,-125,4,1,0,70,0,0
50507,-125,4,1,0,70,0,0
50750,-125,4,1,0,70,0,0
50788,-125,4,1,0,70,0,0
51050,-125,4,1,0,70,0,0
51088,-125,4,1,0,70,0,0
51350,-125,4,1,0,70,0,0
51388,-125,4,1,0,70,0,0
51650,-125,4,1,0,70,0,0
51688,-125,4,1,0,70,0,0
51950,-125,4,1,0,70,0,0
51988,-125,4,1,0,70,0,0
52250,-125,4,1,0,70,0,0
52288,-125,4,1,0,70,0,0
52550,-125,4,1,0,70,0,0
52588,-125,4,1,0,70,0,0
55250,-125,4,1,0,70,0,0
55288,-125,4,1,0,70,0,0
55550,-125,4,1,0,70,0,0
55588,-125,4,1,0,70,0,0
55850,-125,4,1,0,70,0,0
55888,-125,4,1,0,70,0,0
56150,-125,4,1,0,70,0,0
56188,-125,4,1,0,70,0,0
56450,-125,4,1,0,70,0,0
56488,-125,4,1,0,70,0,0
56750,-125,4,1,0,70,0,0
56788,-125,4,1,0,70,0,0
56900,-125,4,1,0,70,0,0
56938,-125,4,1,0,70,0,0
57050,-125,4,1,0,70,0,0
57088,-125,4,1,0,70,0,0
57350,-125,4,1,0,70,0,0
57388,-125,4,1,0,70,0,0
57500,-125,4,1,0,70,0,0
57538,-125,4,1,0,70,0,0
57632,-125,4,1,0,70,0,0
58082,-125,4,1,0,70,0,0
58532,-125,4,1,0,70,0,0
58832,-125,4,1,0,70,0,0
59282,-125,4,1,0,70,0,0
59732,-125,4,1,0,70,0,0
60032,-125,4,1,0,70,0,0
60332,-125,4,1,0,70,0,0
60482,-125,4,1,0,70,0,0
60632,-125,4,1,0,70,0,0
60932,-125,4,1,0,70,0,0
61232,-125,4,1,0,70,0,0
61532,-125,4,1,0,70,0,0
61832,-125,4,1,0,70,0,0
62132,-125,4,1,0,70,0,0
62282,-125,4,1,0,70,0,0
62432,-125,4,1,0,70,0,0
62882,-125,4,1,0,70,0,0
63332,-125,4,1,0,70,0,0
63632,-125,4,1,0,70,0,0
64082,-125,4,1,0,70,0,0
64532,-125,4,1,0,70,0,0
64832,-125,4,1,0,70,0,0
65282,-125,4,1,0,70,0,0
65732,-125,4,1,0,70,0,0
66032,-125,4,1,0,70,0,0
66332,-125,4,1,0,70,0,0
66632,-125,4,1,0,70,0,0
66932,-125,4,1,0,70,0,0
67232,-125,4,1,0,70,0,1
86432,-125,4,1,0,70,0,0
86732,-125,4,1,0,70,0,0
87557,-125,4,1,0,70,0,0
87844,-125,4,1,0,70,0,0
88691,-125,4,1,0,70,0,0
88998,-125,4,1,0,70,0,0
89957,-125,4,1,0,70,0,0
91232,-125,4,1,0,70,0,0
96107,-125,4,1,0,70,0,0
98282,-125,4,1,0,70,0,0
100832,-125,4,1,0,70,0,0
124832,-125,4,1,0,70,0,1
133232,-125,4,1,0,70,0,0
134432,-125,4,1,0,70,0,1
144032,-125,4,1,0,70,0,0

[HitObjects]
384,143,9632,5,0,0:0:0:0:
373,136,10232,1,8,0:0:0:0:
384,143,10532,1,8,0:0:0:0:
391,136,10832,1,0,0:0:0:0:
391,136,11432,1,0,0:0:0:0:
408,137,12032,1,8,0:0:0:0:
408,137,12332,1,0,0:0:0:0:
408,137,12632,1,8,0:0:0:0:
405,143,14432,1,0,0:0:0:0:
405,143,15032,1,8,0:0:0:0:
405,143,15332,1,8,0:0:0:0:
405,143,15632,1,0,0:0:0:0:
405,143,16232,1,8,0:0:0:0:
405,143,16532,1,0,0:0:0:0:
405,143,16832,1,8,0:0:0:0:
405,143,17432,1,0,0:0:0:0:
405,140,19232,1,8,0:0:0:0:
405,128,19832,1,0,0:0:0:0:
400,135,20132,1,0,0:0:0:0:
406,138,20432,1,8,0:0:0:0:
407,138,21032,1,0,0:0:0:0:
407,138,21632,1,8,0:0:0:0:
407,138,21932,1,0,0:0:0:0:
406,138,22232,1,8,0:0:0:0:
407,138,22832,1,0,0:0:0:0:
407,138,23432,1,8,0:0:0:0:
407,138,24032,1,8,0:0:0:0:
407,138,24632,1,0,0:0:0:0:
407,138,24932,1,0,0:0:0:0:
407,138,25232,1,8,0:0:0:0:
407,138,25832,1,8,0:0:0:0:
407,138,26132,1,8,0:0:0:0:
407,138,26432,1,0,0:0:0:0:
407,138,27032,1,8,0:0:0:0:
402,136,28832,1,0,0:0:0:0:
402,136,29282,1,0,0:0:0:0:
402,136,30032,1,0,0:0:0:0:
402,136,30482,1,0,0:0:0:0:
402,136,31232,1,8,0:0:0:0:
394,136,31832,1,8,0:0:0:0:
401,125,32132,1,8,0:0:0:0:
394,136,32432,1,0,0:0:0:0:
392,138,33632,1,0,0:0:0:0:
392,138,34082,1,0,0:0:0:0:
392,138,34832,1,0,0:0:0:0:
384,135,35282,1,0,0:0:0:0:
384,135,36032,1,8,0:0:0:0:
384,135,36632,1,8,0:0:0:0:
389,118,36932,1,8,0:0:0:0:
384,135,37232,1,0,0:0:0:0:
366,113,38432,1,0,0:0:0:0:
373,113,38882,1,8,0:0:0:0:
373,110,39332,1,0,0:0:0:0:
373,113,39632,1,8,0:0:0:0:
373,110,40082,1,0,0:0:0:0:
373,110,40832,1,0,0:0:0:0:
373,110,41282,1,8,0:0:0:0:
373,110,41732,1,8,0:0:0:0:
373,110,42032,1,0,0:0:0:0:
373,110,42482,1,0,0:0:0:0:
373,110,43232,1,8,0:0:0:0:
373,110,43682,1,0,0:0:0:0:
373,110,44132,1,0,0:0:0:0:
373,110,44432,1,8,0:0:0:0:
373,110,44882,1,8,0:0:0:0:
373,110,45632,1,0,0:0:0:0:
373,110,46082,1,8,0:0:0:0:
373,110,46532,1,8,0:0:0:0:
373,110,46832,1,0,0:0:0:0:
373,107,48032,1,8,0:0:0:0:
373,107,48332,1,0,0:0:0:0:
373,107,48632,1,8,0:0:0:0:
373,107,49232,1,0,0:0:0:0:
373,107,49532,1,0,0:0:0:0:
373,107,49832,1,8,0:0:0:0:
386,104,50432,1,0,0:0:0:0:
386,104,51032,1,0,0:0:0:0:
386,104,51632,1,8,0:0:0:0:
388,103,52832,1,8,0:0:0:0:
388,103,53132,1,0,0:0:0:0:
388,103,53432,1,8,0:0:0:0:
388,103,54032,1,0,0:0:0:0:
388,103,54332,1,0,0:0:0:0:
388,103,54632,1,8,0:0:0:0:
388,103,55232,1,0,0:0:0:0:
388,103,55832,1,0,0:0:0:0:
388,103,56432,1,8,0:0:0:0:
386,114,57032,1,8,0:0:0:0:
344,107,57632,1,0,0:0:0:0:
344,107,58082,1,0,0:0:0:0:
344,107,58832,1,0,0:0:0:0:
344,107,59282,1,0,0:0:0:0:
344,107,60032,1,8,0:0:0:0:
344,107,60632,1,8,0:0:0:0:
344,107,61232,1,0,0:0:0:0:
338,107,62432,1,0,0:0:0:0:
338,107,62882,1,0,0:0:0:0:
338,107,63632,1,0,0:0:0:0:
338,107,64082,1,0,0:0:0:0:
338,107,64832,1,8,0:0:0:0:
338,107,65432,1,8,0:0:0:0:
338,107,66032,1,0,0:0:0:0:
338,107,67232,1,8,0:0:0:0:
338,107,67832,1,0,0:0:0:0:
338,107,68132,1,0,0:0:0:0:
338,107,68432,1,8,0:0:0:0:
338,107,69032,1,0,0:0:0:0:
338,107,69632,1,8,0:0:0:0:
338,107,69932,1,8,0:0:0:0:
338,107,70232,1,0,0:0:0:0:
338,107,70532,1,0,0:0:0:0:
338,107,70832,1,8,0:0:0:0:
338,107,71432,1,0,0:0:0:0:
338,107,72032,1,8,0:0:0:0:
338,107,72632,1,0,0:0:0:0:
340,96,72932,1,8,0:0:0:0:
338,107,73232,1,0,0:0:0:0:
339,105,73832,1,8,0:0:0:0:
338,107,74132,1,8,0:0:0:0:
339,105,74432,1,0,0:0:0:0:
338,107,75032,1,8,0:0:0:0:
338,107,75632,1,0,0:0:0:0:
350,105,76832,1,8,0:0:0:0:
350,105,77432,1,0,0:0:0:0:
358,108,77732,1,0,0:0:0:0:
359,109,78032,1,8,0:0:0:0:
358,108,78632,1,0,0:0:0:0:
358,108,79232,1,8,0:0:0:0:
358,108,79532,1,8,0:0:0:0:
358,108,79832,1,0,0:0:0:0:
371,118,80132,1,8,0:0:0:0:
366,116,80432,1,8,0:0:0:0:
371,118,81032,1,0,0:0:0:0:
361,115,81632,1,8,0:0:0:0:
361,115,82232,1,0,0:0:0:0:
361,115,82532,1,8,0:0:0:0:
361,115,82832,1,0,0:0:0:0:
361,115,83432,1,0,0:0:0:0:
363,123,84032,1,8,0:0:0:0:
365,121,84332,1,8,0:0:0:0:
363,123,84632,1,0,0:0:0:0:
363,123,84932,1,8,0:0:0:0:
365,121,85232,1,0,0:0:0:0:
362,112,85832,1,8,0:0:0:0:
367,105,86732,1,8,0:0:0:0:
367,105,87332,1,8,0:0:0:0:
367,105,87932,1,8,0:0:0:0:
367,105,88532,1,8,0:0:0:0:
367,105,89132,1,8,0:0:0:0:
377,104,91232,1,0,0:0:0:0:
377,104,91532,1,8,0:0:0:0:
368,100,91832,1,0,0:0:0:0:
368,100,92432,1,8,0:0:0:0:
368,100,92732,1,8,0:0:0:0:
368,100,93032,1,0,0:0:0:0:
368,100,93632,1,8,0:0:0:0:
368,100,94232,1,0,0:0:0:0:
368,100,94532,1,0,0:0:0:0:
368,100,94832,1,8,0:0:0:0:
368,100,95132,1,0,0:0:0:0:
368,100,95432,1,8,0:0:0:0:
368,100,96032,1,0,0:0:0:0:
329,125,97232,1,0,0:0:0:0:
357,104,98432,1,0,0:0:0:0:
362,103,100832,1,0,0:0:0:0:
362,103,101432,1,8,0:0:0:0:
362,103,101732,1,8,0:0:0:0:
362,103,102032,1,0,0:0:0:0:
362,103,102632,1,8,0:0:0:0:
362,103,102932,1,0,0:0:0:0:
362,103,103232,1,8,0:0:0:0:
362,103,103832,1,0,0:0:0:0:
362,103,104432,1,8,0:0:0:0:
370,103,105632,1,0,0:0:0:0:
370,103,106232,1,8,0:0:0:0:
362,104,106532,1,0,0:0:0:0:
361,105,106832,1,8,0:0:0:0:
361,105,107132,1,8,0:0:0:0:
362,104,107432,1,0,0:0:0:0:
361,105,108032,1,0,0:0:0:0:
361,105,108632,1,8,0:0:0:0:
361,105,108932,1,8,0:0:0:0:
361,105,109232,1,0,0:0:0:0:
361,105,109532,1,0,0:0:0:0:
361,105,109832,1,8,0:0:0:0:
361,105,110432,1,0,0:0:0:0:
361,105,111032,1,8,0:0:0:0:
361,105,111332,1,8,0:0:0:0:
361,105,111632,1,0,0:0:0:0:
361,105,111932,1,8,0:0:0:0:
361,105,112232,1,8,0:0:0:0:
361,105,112832,1,0,0:0:0:0:
361,105,113432,1,8,0:0:0:0:
361,105,113732,1,0,0:0:0:0:
361,105,114032,1,8,0:0:0:0:
361,105,114332,1,8,0:0:0:0:
361,105,114632,1,8,0:0:0:0:
361,105,115232,1,0,0:0:0:0:
361,105,115682,1,0,0:0:0:0:
361,114,116432,1,0,0:0:0:0:
361,114,116882,1,0,0:0:0:0:
361,114,117632,1,8,0:0:0:0:
361,114,118082,1,8,0:0:0:0:
361,114,118832,1,0,0:0:0:0:
368,112,120032,1,0,0:0:0:0:
368,112,120332,1,0,0:0:0:0:
368,112,120632,1,8,0:0:0:0:
368,112,121232,1,0,0:0:0:0:
368,112,121832,1,8,0:0:0:0:
361,118,122132,1,0,0:0:0:0:
361,118,122432,1,8,0:0:0:0:
361,118,123032,1,0,0:0:0:0:
361,118,123632,1,8,0:0:0:0:
338,107,124832,1,8,0:0:0:0:
338,107,125432,1,0,0:0:0:0:
338,107,125732,1,0,0:0:0:0:
338,107,126032,1,8,0:0:0:0:
338,107,126632,1,0,0:0:0:0:
338,107,127232,1,8,0:0:0:0:
338,107,127532,1,8,0:0:0:0:
338,107,127832,1,0,0:0:0:0:
338,107,128132,1,0,0:0:0:0:
338,107,128432,1,8,0:0:0:0:
338,107,129032,1,0,0:0:0:0:
338,107,129632,1,8,0:0:0:0:
338,107,130232,1,0,0:0:0:0:
340,96,130532,1,8,0:0:0:0:
338,107,130832,1,0,0:0:0:0:
339,105,131432,1,8,0:0:0:0:
338,107,131732,1,8,0:0:0:0:
339,105,132032,1,0,0:0:0:0:
338,107,132632,1,8,0:0:0:0:
338,107,133232,1,0,0:0:0:0:
350,105,134432,1,8,0:0:0:0:
350,105,135032,1,0,0:0:0:0:
358,108,135332,1,0,0:0:0:0:
359,109,135632,1,8,0:0:0:0:
358,108,136232,1,0,0:0:0:0:
358,108,136832,1,8,0:0:0:0:
358,108,137132,1,8,0:0:0:0:
358,108,137432,1,0,0:0:0:0:
371,118,137732,1,8,0:0:0:0:
366,116,138032,1,8,0:0:0:0:
371,118,138632,1,0,0:0:0:0:
361,115,139232,1,8,0:0:0:0:
361,115,139832,1,0,0:0:0:0:
361,115,140132,1,8,0:0:0:0:
361,115,140432,1,0,0:0:0:0:
361,115,141032,1,0,0:0:0:0:
363,123,141632,1,8,0:0:0:0:
365,121,141932,1,8,0:0:0:0:
363,123,142232,1,0,0:0:0:0:
363,123,142532,1,8,0:0:0:0:
365,121,142832,1,0,0:0:0:0:
362,112,143432,1,8,0:0:0:0:
367,105,144032,1,0,0:0:0:0:
