osu file format v14

[General]
AudioFilename: audio.mp3
AudioLeadIn: 0
PreviewTime: 178980
Countdown: 0
SampleSet: Normal
StackLeniency: 0.7
Mode: 1
LetterboxInBreaks: 0
WidescreenStoryboard: 1

[Editor]
DistanceSpacing: 1
BeatDivisor: 4
GridSize: 32
TimelineZoom: 2.1

[Metadata]
Title:Paralyzed Ash
TitleUnicode:Paralyzed Ash
Artist:WHITEFISTS feat. Sennzai
ArtistUnicode:WHITEFISTS feat. Sennzai
Creator:Esutarosa
Version:Muzukashii
Source:
Tags:Tødestrieb Ryxliee Japanese jpop j-pop pop rock j-rock jrock 常盤 featured artist fa mappers' guild mpg female vocals vocalist paralysed
BeatmapID:3544010
BeatmapSetID:1733940

[Difficulty]
HPDrainRate:6
CircleSize:2
OverallDifficulty:5
ApproachRate:9
SliderMultiplier:1.4
SliderTickRate:1

[Events]
//Background and Video events
0,0,"bg.jpg",0,0
//Break Periods
2,179635,187627
//Storyboard Layer 0 (Background)
//Storyboard Layer 1 (Fail)
//Storyboard Layer 2 (Pass)
//Storyboard Layer 3 (Foreground)
//Storyboard Layer 4 (Overlay)
//Storyboard Sound Samples

[TimingPoints]
2548,291.26213592233,4,1,0,65,1,0
2548,-111.111111111111,4,1,0,65,0,0
2839,-107.693933629254,4,1,0,65,0,0
2984,-106.068491724784,4,1,0,65,0,0
3130,-104.480672613555,4,1,0,65,0,0
3203,-103.704457561571,4,1,0,65,0,0
3276,-102.939690877866,4,1,0,65,0,0
3421,-101.453604141776,4,1,0,65,0,0
3567,-100,4,1,0,75,0,0
21916,-103.903047585101,4,1,0,75,0,0
22062,-108.123145400593,4,1,0,75,0,0
22208,-112.667890617451,4,1,0,75,0,0
22353,-117.647058823529,4,1,0,45,0,0
31674,-100,4,1,0,65,0,0
40484,-101.890756302521,4,1,0,65,0,0
40557,-103.882195448461,4,1,0,65,0,0
40703,-108.108108108108,4,1,0,65,0,0
40848,-112.659698025552,4,1,0,65,0,0
40994,-117.647058823529,4,1,0,55,0,0
48567,-115.784908933218,4,1,0,55,0,0
48713,-113.980789754536,4,1,0,55,0,0
48785,-113.111628892184,4,1,0,55,0,0
48858,-112.243825538623,4,1,0,55,0,0
49004,-110.547562364144,4,1,0,55,0,0
49149,-108.912910462982,4,1,0,65,0,0
49441,-105.763517528223,4,1,0,65,0,0
49586,-104.266328224153,4,1,0,65,0,0
49732,-102.801039561074,4,1,0,65,0,0
49878,-101.376364499288,4,1,0,65,0,0
50023,-100,4,1,0,65,0,0
59052,-102.032235459005,4,1,0,65,0,0
59125,-103.08694420844,4,1,0,65,0,0
59198,-104.163685791959,4,1,0,65,0,0
59344,-106.386087973111,4,1,0,65,0,0
59489,-108.689160943565,4,1,0,65,0,0
59635,-111.111111111111,4,1,0,55,0,0
61965,-95.2380952380952,4,1,0,85,0,1
77693,-96.3875340993635,4,1,0,85,0,1
77984,-98.7633406742334,4,1,0,85,0,1
78130,-100,4,1,0,65,0,0
82790,-100,4,1,0,75,0,0
100994,-103.079646017699,4,1,0,75,0,0
101140,-106.378315189596,4,1,0,75,0,0
101285,-109.895086421617,4,1,0,75,0,0
101431,-113.625721866708,4,1,0,75,0,0
101577,-117.647058823529,4,1,0,45,0,0
110897,-111.111111111111,4,1,0,65,0,0
111043,-107.134101495465,4,1,0,65,0,0
111188,-103.456439393939,4,1,0,65,0,0
111334,-100,4,1,0,65,0,0
119635,-102.032235459005,4,1,0,65,0,0
119708,-103.101543690695,4,1,0,65,0,0
119781,-104.17859187178,4,1,0,65,0,0
119926,-106.386087973111,4,1,0,65,0,0
120072,-108.705390473346,4,1,0,65,0,0
120217,-111.111111111111,4,1,0,55,0,0
122547,-95.2380952380952,4,1,0,85,0,1
138130,-97.0873786407767,4,1,0,85,0,1
138203,-98.0392156862745,4,1,0,85,0,1
138276,-99.0152801358234,4,1,0,85,0,1
138567,-107.514195118354,4,1,0,85,0,1
138858,-117.647058823529,4,1,0,55,0,0
153130,-115.386520081216,4,1,0,55,0,0
153421,-113.211214226714,4,1,0,55,0,0
153713,-111.109344947624,4,1,0,55,0,0
154004,-109.090909090909,4,1,0,55,0,0
154295,-107.144499455847,4,1,0,55,0,0
154586,-105.266328328539,4,1,0,55,0,0
154878,-103.446744905359,4,1,0,55,0,0
155169,-101.694915254237,4,1,0,55,0,0
155314,-100.843973165981,4,1,0,55,0,0
155460,-100.001430635631,4,1,0,55,0,0
155606,-99.1728501908261,4,1,0,55,0,0
155751,-98.3634240040527,4,1,0,55,0,0
155897,-97.561656454562,4,1,0,55,0,0
156043,-96.7728537608506,4,1,0,55,0,0
156115,-96.3885326604062,4,1,0,55,0,0
156188,-96.0019777231462,4,1,0,55,0,0
156334,-95.2380952380952,4,1,0,55,0,0
156916,-95.2380952380952,4,1,0,45,0,0
157499,-100,4,1,0,65,0,0
176140,-100,4,1,0,55,0,0
188227,-117.647058823529,4,1,0,45,0,0
195946,-95.2380952380952,4,1,0,85,0,1
216480,-96.7777654744768,4,1,0,85,0,1
216625,-98.3569660139545,4,1,0,85,0,1
216771,-100,4,1,0,75,0,0

[HitObjects]
256,192,2548,5,8,1:0:0:0:
256,192,2839,1,8,1:0:0:0:
256,192,2984,1,0,1:0:0:0:
256,192,3130,1,8,1:0:0:0:
256,192,3203,1,8,1:0:0:0:
256,192,3276,1,8,1:0:0:0:
256,192,3421,1,0,1:0:0:0:
256,192,3567,1,12,1:0:0:0:
256,192,4004,1,8,1:0:0:0:
256,192,4149,1,0,1:0:0:0:
256,192,4222,1,0,1:0:0:0:
256,192,4295,1,0,1:0:0:0:
256,192,4441,1,8,1:0:0:0:
256,192,4586,1,8,1:0:0:0:
256,192,4732,1,0,1:0:0:0:
256,192,4878,1,8,1:0:0:0:
256,192,5169,1,0,1:0:0:0:
256,192,5460,1,8,1:0:0:0:
256,192,5606,1,0,1:0:0:0:
256,192,5751,1,0,1:0:0:0:
256,192,5897,1,12,1:0:0:0:
256,192,6188,1,0,1:0:0:0:
256,192,6334,1,0,1:0:0:0:
256,192,6625,1,8,1:0:0:0:
256,192,6771,1,8,1:0:0:0:
256,192,6916,1,0,1:0:0:0:
256,192,6989,1,0,1:0:0:0:
256,192,7062,1,0,1:0:0:0:
256,192,7353,1,0,1:0:0:0:
256,192,7499,1,8,1:0:0:0:
256,192,7645,1,0,1:0:0:0:
256,192,7790,1,8,1:0:0:0:
256,192,7936,1,8,1:0:0:0:
256,192,8081,1,0,1:0:0:0:
256,192,8227,1,12,1:0:0:0:
256,192,8664,1,0,1:0:0:0:
256,192,8810,1,8,1:0:0:0:
256,192,8882,1,8,1:0:0:0:
256,192,8955,1,8,1:0:0:0:
256,192,9101,1,0,1:0:0:0:
256,192,9247,1,8,1:0:0:0:
256,192,9392,1,8,1:0:0:0:
256,192,9538,1,0,1:0:0:0:
256,192,9829,1,8,1:0:0:0:
256,192,10120,1,0,1:0:0:0:
256,192,10266,1,8,1:0:0:0:
256,192,10412,1,8,1:0:0:0:
256,192,10557,1,4,1:0:0:0:
256,192,10848,1,0,1:0:0:0:
256,192,10994,1,8,1:0:0:0:
256,192,11285,1,8,1:0:0:0:
256,192,11431,1,8,1:0:0:0:
256,192,11577,1,0,1:0:0:0:
256,192,11649,1,0,1:0:0:0:
256,192,11722,1,0,1:0:0:0:
256,192,12014,1,0,1:0:0:0:
256,192,12159,1,8,1:0:0:0:
256,192,12305,1,0,1:0:0:0:
256,192,12450,1,8,1:0:0:0:
256,192,12523,1,8,1:0:0:0:
256,192,12596,1,8,1:0:0:0:
256,192,12742,1,0,1:0:0:0:
256,192,12887,1,12,1:0:0:0:
256,192,13324,1,8,1:0:0:0:
256,192,13470,1,0,1:0:0:0:
256,192,13543,1,0,1:0:0:0:
256,192,13615,1,0,1:0:0:0:
256,192,13761,1,8,1:0:0:0:
256,192,13907,1,8,1:0:0:0:
256,192,14052,1,0,1:0:0:0:
256,192,14198,1,8,1:0:0:0:
256,192,14489,1,0,1:0:0:0:
256,192,14781,1,8,1:0:0:0:
256,192,14926,1,0,1:0:0:0:
256,192,15072,1,0,1:0:0:0:
256,192,15217,1,12,1:0:0:0:
256,192,15509,1,0,1:0:0:0:
256,192,15654,1,0,1:0:0:0:
256,192,15946,1,8,1:0:0:0:
256,192,16091,1,8,1:0:0:0:
256,192,16237,1,0,1:0:0:0:
256,192,16310,1,0,1:0:0:0:
256,192,16382,1,0,1:0:0:0:
256,192,16674,1,0,1:0:0:0:
256,192,16819,1,8,1:0:0:0:
256,192,16965,1,0,1:0:0:0:
256,192,17111,1,8,1:0:0:0:
256,192,17256,1,8,1:0:0:0:
256,192,17402,1,0,1:0:0:0:
256,192,17547,1,12,1:0:0:0:
256,192,17984,1,0,1:0:0:0:
256,192,18130,1,8,1:0:0:0:
256,192,18203,1,8,1:0:0:0:
256,192,18276,1,8,1:0:0:0:
256,192,18421,1,0,1:0:0:0:
256,192,18567,1,8,1:0:0:0:
256,192,18713,1,8,1:0:0:0:
256,192,18858,1,0,1:0:0:0:
256,192,19149,1,8,1:0:0:0:
256,192,19441,1,0,1:0:0:0:
256,192,19586,1,8,1:0:0:0:
256,192,19732,1,8,1:0:0:0:
256,192,19878,1,4,1:0:0:0:
256,192,20169,1,0,1:0:0:0:
256,192,20314,1,8,1:0:0:0:
256,192,20606,1,8,1:0:0:0:
256,192,20751,1,8,1:0:0:0:
256,192,20897,1,0,1:0:0:0:
256,192,20970,1,0,1:0:0:0:
256,192,21043,1,0,1:0:0:0:
256,192,21334,1,0,1:0:0:0:
256,192,21480,1,8,1:0:0:0:
256,192,21625,1,0,1:0:0:0:
256,192,21698,1,0,1:0:0:0:
256,192,21771,1,0,1:0:0:0:
256,192,21916,1,8,1:0:0:0:
256,192,22062,1,0,1:0:0:0:
256,192,22208,1,8,1:0:0:0:
256,192,22353,1,0,1:0:0:0:
256,192,22790,1,0,1:0:0:0:
256,192,23227,1,0,1:0:0:0:
256,192,23373,1,8,1:0:0:0:
256,192,23518,1,0,1:0:0:0:
256,192,24392,1,0,1:0:0:0:
256,192,24683,1,8,1:0:0:0:
256,192,25412,1,0,1:0:0:0:
256,192,25848,1,0,1:0:0:0:
256,192,26285,1,0,1:0:0:0:
256,192,26431,1,8,1:0:0:0:
256,192,27014,1,0,1:0:0:0:
256,192,27450,1,8,1:0:0:0:
256,192,27887,1,0,1:0:0:0:
256,192,28033,1,0,1:0:0:0:
256,192,28179,1,8,1:0:0:0:
256,192,28470,1,0,1:0:0:0:
256,192,28761,1,0,1:0:0:0:
256,192,29052,1,8,1:0:0:0:
256,192,29198,1,0,1:0:0:0:
256,192,29344,1,8,1:0:0:0:
256,192,30072,1,0,1:0:0:0:
256,192,30509,1,0,1:0:0:0:
256,192,31091,1,0,1:0:0:0:
256,192,31674,1,12,1:0:0:0:
256,192,31965,1,0,1:0:0:0:
256,192,32111,1,0,1:0:0:0:
256,192,32402,1,0,1:0:0:0:
256,192,32547,1,8,1:0:0:0:
256,192,32693,1,0,1:0:0:0:
256,192,33130,1,0,1:0:0:0:
256,192,33421,1,0,1:0:0:0:
256,192,33713,1,8,1:0:0:0:
256,192,33858,1,0,1:0:0:0:
256,192,34004,1,12,1:0:0:0:
256,192,34295,1,0,1:0:0:0:
256,192,34441,1,8,1:0:0:0:
256,192,34732,1,0,1:0:0:0:
256,192,34878,1,8,1:0:0:0:
256,192,35023,1,8,1:0:0:0:
256,192,35169,1,0,1:0:0:0:
256,192,35460,1,8,1:0:0:0:
256,192,35751,1,0,1:0:0:0:
256,192,35897,1,8,1:0:0:0:
256,192,36043,1,8,1:0:0:0:
256,192,36188,1,0,1:0:0:0:
256,192,36334,1,12,1:0:0:0:
256,192,36625,1,0,1:0:0:0:
256,192,36771,1,0,1:0:0:0:
256,192,37062,1,8,1:0:0:0:
256,192,37208,1,0,1:0:0:0:
256,192,37353,1,8,1:0:0:0:
256,192,37790,1,8,1:0:0:0:
256,192,37936,1,0,1:0:0:0:
256,192,38081,1,8,1:0:0:0:
256,192,38373,1,8,1:0:0:0:
256,192,38518,1,0,1:0:0:0:
256,192,38664,1,12,1:0:0:0:
256,192,38955,1,0,1:0:0:0:
256,192,39101,1,8,1:0:0:0:
256,192,39392,1,0,1:0:0:0:
256,192,39538,1,0,1:0:0:0:
256,192,39683,1,8,1:0:0:0:
256,192,39829,1,0,1:0:0:0:
256,192,39902,1,0,1:0:0:0:
256,192,39975,1,0,1:0:0:0:
256,192,40120,1,8,1:0:0:0:
256,192,40412,1,0,1:0:0:0:
256,192,40484,1,0,1:0:0:0:
256,192,40557,1,0,1:0:0:0:
256,192,40703,1,8,1:0:0:0:
256,192,40848,1,8,1:0:0:0:
256,192,40994,1,0,1:0:0:0:
256,192,41285,1,0,1:0:0:0:
256,192,41431,1,0,1:0:0:0:
256,192,41577,1,8,1:0:0:0:
256,192,41868,1,0,1:0:0:0:
256,192,42159,1,8,1:0:0:0:
256,192,42450,1,0,1:0:0:0:
256,192,42596,1,0,1:0:0:0:
256,192,42742,1,8,1:0:0:0:
256,192,43033,1,0,1:0:0:0:
256,192,43179,1,0,1:0:0:0:
256,192,43324,1,8,1:0:0:0:
256,192,43470,1,8,1:0:0:0:
256,192,43615,1,8,1:0:0:0:
256,192,43761,1,0,1:0:0:0:
256,192,43907,1,8,1:0:0:0:
256,192,44198,1,0,1:0:0:0:
256,192,44489,1,8,1:0:0:0:
256,192,44635,1,0,1:0:0:0:
256,192,44781,1,8,1:0:0:0:
256,192,44926,1,0,1:0:0:0:
256,192,45072,1,8,1:0:0:0:
256,192,45654,1,4,1:0:0:0:
256,192,46091,1,0,1:0:0:0:
256,192,46237,1,8,1:0:0:0:
256,192,46674,1,8,1:0:0:0:
256,192,46819,1,0,1:0:0:0:
256,192,47111,1,0,1:0:0:0:
256,192,47256,1,8,1:0:0:0:
256,192,47402,1,0,1:0:0:0:
256,192,47693,1,0,1:0:0:0:
256,192,47839,1,0,1:0:0:0:
256,192,47984,1,8,1:0:0:0:
256,192,48130,1,8,1:0:0:0:
256,192,48421,1,8,1:0:0:0:
256,192,48567,1,0,1:0:0:0:
256,192,48713,1,8,1:0:0:0:
256,192,48785,1,8,1:0:0:0:
256,192,48858,1,8,1:0:0:0:
256,192,49004,1,0,1:0:0:0:
256,192,49149,1,12,1:0:0:0:
256,192,49441,1,8,1:0:0:0:
256,192,49586,1,4,1:0:0:0:
256,192,49732,1,8,1:0:0:0:
256,192,49878,1,8,1:0:0:0:
256,192,50023,1,4,1:0:0:0:
256,192,50314,1,8,1:0:0:0:
256,192,50460,1,0,1:0:0:0:
256,192,50533,1,0,1:0:0:0:
256,192,50606,1,0,1:0:0:0:
256,192,50897,1,8,1:0:0:0:
256,192,51043,1,0,1:0:0:0:
256,192,51188,1,8,1:0:0:0:
256,192,51334,1,0,1:0:0:0:
256,192,51480,1,8,1:0:0:0:
256,192,51771,1,0,1:0:0:0:
256,192,51916,1,0,1:0:0:0:
256,192,52208,1,8,1:0:0:0:
256,192,52281,1,8,1:0:0:0:
256,192,52353,1,8,1:0:0:0:
256,192,52499,1,0,1:0:0:0:
256,192,52645,1,8,1:0:0:0:
256,192,52717,1,8,1:0:0:0:
256,192,52790,1,8,1:0:0:0:
256,192,52936,1,0,1:0:0:0:
256,192,53227,1,8,1:0:0:0:
256,192,53518,1,8,1:0:0:0:
256,192,53810,1,8,1:0:0:0:
256,192,54392,1,0,1:0:0:0:
256,192,54683,1,8,1:0:0:0:
256,192,54829,1,0,1:0:0:0:
256,192,54975,1,12,1:0:0:0:
256,192,55412,1,0,1:0:0:0:
256,192,55557,1,8,1:0:0:0:
256,192,55994,1,8,1:0:0:0:
256,192,56140,1,8,1:0:0:0:
256,192,56577,1,0,1:0:0:0:
256,192,56722,1,0,1:0:0:0:
256,192,57159,1,8,1:0:0:0:
256,192,57305,1,0,1:0:0:0:
256,192,57450,1,0,1:0:0:0:
256,192,57596,1,8,1:0:0:0:
256,192,57887,1,8,1:0:0:0:
256,192,58033,1,8,1:0:0:0:
256,192,58179,1,8,1:0:0:0:
256,192,58470,1,8,1:0:0:0:
256,192,58615,1,0,1:0:0:0:
256,192,58761,1,8,1:0:0:0:
256,192,58907,1,0,1:0:0:0:
256,192,59052,1,8,1:0:0:0:
256,192,59125,1,8,1:0:0:0:
256,192,59198,1,8,1:0:0:0:
256,192,59344,1,0,1:0:0:0:
256,192,59489,1,0,1:0:0:0:
256,192,59635,1,8,1:0:0:0:
256,192,59853,1,0,1:0:0:0:
256,192,60072,1,0,1:0:0:0:
256,192,60217,1,0,1:0:0:0:
256,192,60363,1,8,1:0:0:0:
256,192,60436,1,8,1:0:0:0:
256,192,60509,1,8,1:0:0:0:
256,192,60654,1,0,1:0:0:0:
256,192,60946,1,8,1:0:0:0:
256,192,61091,1,8,1:0:0:0:
256,192,61382,1,0,1:0:0:0:
256,192,61965,1,12,1:0:0:0:
256,192,62256,1,0,1:0:0:0:
256,192,62402,1,0,1:0:0:0:
256,192,62693,1,0,1:0:0:0:
256,192,62839,1,8,1:0:0:0:
256,192,62912,1,8,1:0:0:0:
256,192,62984,1,8,1:0:0:0:
256,192,63130,1,0,1:0:0:0:
256,192,63421,1,8,1:0:0:0:
256,192,63567,1,8,1:0:0:0:
256,192,63858,1,0,1:0:0:0:
256,192,64004,1,8,1:0:0:0:
256,192,64077,1,8,0:0:0:0:
256,192,64149,1,8,1:0:0:0:
256,192,64295,1,0,1:0:0:0:
256,192,64586,1,0,1:0:0:0:
256,192,64732,1,0,1:0:0:0:
256,192,65023,1,8,1:0:0:0:
256,192,65169,1,0,1:0:0:0:
256,192,65314,1,8,1:0:0:0:
256,192,65606,1,0,1:0:0:0:
256,192,65751,1,0,1:0:0:0:
256,192,65897,1,8,1:0:0:0:
256,192,65970,1,8,0:0:0:0:
256,192,66043,1,8,1:0:0:0:
256,192,66334,1,0,1:0:0:0:
256,192,66625,1,12,1:0:0:0:
256,192,66916,1,0,1:0:0:0:
256,192,67062,1,0,1:0:0:0:
256,192,67353,1,0,1:0:0:0:
256,192,67499,1,8,1:0:0:0:
256,192,67790,1,8,1:0:0:0:
256,192,67936,1,0,1:0:0:0:
256,192,68009,1,0,1:0:0:0:
256,192,68081,1,0,1:0:0:0:
256,192,68227,1,8,1:0:0:0:
256,192,68518,1,8,1:0:0:0:
256,192,68664,1,0,1:0:0:0:
256,192,68810,1,0,1:0:0:0:
256,192,68955,1,8,1:0:0:0:
256,192,69028,1,8,1:0:0:0:
256,192,69101,1,8,1:0:0:0:
256,192,69247,1,0,1:0:0:0:
256,192,69538,1,8,1:0:0:0:
256,192,69611,1,8,1:0:0:0:
256,192,69683,1,8,1:0:0:0:
256,192,69829,1,0,1:0:0:0:
256,192,69975,1,8,1:0:0:0:
256,192,70266,1,0,1:0:0:0:
256,192,70412,1,8,1:0:0:0:
256,192,70703,1,8,1:0:0:0:
256,192,70848,1,0,1:0:0:0:
256,192,71285,1,12,1:0:0:0:
256,192,71577,1,0,1:0:0:0:
256,192,71868,1,8,1:0:0:0:
256,192,72014,1,0,1:0:0:0:
256,192,72159,1,8,1:0:0:0:
256,192,72450,1,0,1:0:0:0:
256,192,72742,1,0,1:0:0:0:
256,192,73033,1,8,1:0:0:0:
256,192,73106,1,8,0:0:0:0:
256,192,73179,1,8,1:0:0:0:
256,192,73324,1,0,1:0:0:0:
256,192,73615,1,0,1:0:0:0:
256,192,73834,1,8,1:0:0:0:
256,192,73907,1,8,1:0:0:0:
256,192,74198,1,0,1:0:0:0:
256,192,74416,1,8,1:0:0:0:
256,192,74489,1,8,1:0:0:0:
256,192,74781,1,8,1:0:0:0:
256,192,75072,1,0,1:0:0:0:
256,192,75363,1,8,1:0:0:0:
256,192,75654,1,0,1:0:0:0:
256,192,75946,1,8,1:0:0:0:
256,192,76091,1,0,1:0:0:0:
256,192,76164,1,0,0:0:0:0:
256,192,76237,1,0,1:0:0:0:
256,192,76528,1,8,1:0:0:0:
256,192,76674,1,0,1:0:0:0:
256,192,76819,1,8,1:0:0:0:
256,192,77111,1,8,1:0:0:0:
256,192,77402,1,0,1:0:0:0:
256,192,77547,1,8,1:0:0:0:
256,192,77693,1,0,1:0:0:0:
256,192,77984,1,0,1:0:0:0:
256,192,78130,1,12,1:0:0:0:
256,192,78421,1,0,1:0:0:0:
256,192,78567,1,8,1:0:0:0:
256,192,78858,1,8,1:0:0:0:
256,192,79149,1,8,1:0:0:0:
256,192,79295,1,4,1:0:0:0:
256,192,79586,1,0,1:0:0:0:
256,192,79732,1,0,1:0:0:0:
256,192,80023,1,0,1:0:0:0:
256,192,80169,1,8,1:0:0:0:
256,192,80314,1,0,1:0:0:0:
256,192,80460,1,12,1:0:0:0:
256,192,80751,1,8,1:0:0:0:
256,192,80897,1,8,1:0:0:0:
256,192,81188,1,0,1:0:0:0:
256,192,81334,1,0,1:0:0:0:
256,192,81480,1,8,1:0:0:0:
256,192,81625,1,12,1:0:0:0:
256,192,81916,1,0,1:0:0:0:
256,192,82062,1,8,1:0:0:0:
256,192,82208,1,0,1:0:0:0:
256,192,82790,1,12,1:0:0:0:
256,192,83227,1,8,1:0:0:0:
256,192,83373,1,0,1:0:0:0:
256,192,83446,1,0,1:0:0:0:
256,192,83518,1,0,1:0:0:0:
256,192,83664,1,8,1:0:0:0:
256,192,83810,1,8,1:0:0:0:
256,192,83955,1,0,1:0:0:0:
256,192,84101,1,8,1:0:0:0:
256,192,84392,1,0,1:0:0:0:
256,192,84683,1,8,1:0:0:0:
256,192,84829,1,0,1:0:0:0:
256,192,84975,1,0,1:0:0:0:
256,192,85120,1,12,1:0:0:0:
256,192,85412,1,0,1:0:0:0:
256,192,85557,1,0,1:0:0:0:
256,192,85848,1,8,1:0:0:0:
256,192,85994,1,8,1:0:0:0:
256,192,86140,1,0,1:0:0:0:
256,192,86213,1,0,1:0:0:0:
256,192,86285,1,0,1:0:0:0:
256,192,86577,1,0,1:0:0:0:
256,192,86722,1,8,1:0:0:0:
256,192,86868,1,0,1:0:0:0:
256,192,87014,1,8,1:0:0:0:
256,192,87159,1,8,1:0:0:0:
256,192,87305,1,0,1:0:0:0:
256,192,87450,1,12,1:0:0:0:
256,192,87887,1,0,1:0:0:0:
256,192,88033,1,8,1:0:0:0:
256,192,88106,1,8,1:0:0:0:
256,192,88179,1,8,1:0:0:0:
256,192,88324,1,0,1:0:0:0:
256,192,88470,1,8,1:0:0:0:
256,192,88615,1,8,1:0:0:0:
256,192,88761,1,0,1:0:0:0:
256,192,89052,1,8,1:0:0:0:
256,192,89344,1,0,1:0:0:0:
256,192,89489,1,8,1:0:0:0:
256,192,89635,1,8,1:0:0:0:
256,192,89781,1,4,1:0:0:0:
256,192,90072,1,0,1:0:0:0:
256,192,90217,1,8,1:0:0:0:
256,192,90509,1,8,1:0:0:0:
256,192,90654,1,8,1:0:0:0:
256,192,90800,1,0,1:0:0:0:
256,192,90873,1,0,1:0:0:0:
256,192,90946,1,0,1:0:0:0:
256,192,91237,1,0,1:0:0:0:
256,192,91382,1,8,1:0:0:0:
256,192,91528,1,0,1:0:0:0:
256,192,91674,1,8,1:0:0:0:
256,192,91747,1,8,1:0:0:0:
256,192,91819,1,8,1:0:0:0:
256,192,91965,1,0,1:0:0:0:
256,192,92111,1,12,1:0:0:0:
256,192,92547,1,8,1:0:0:0:
256,192,92693,1,0,1:0:0:0:
256,192,92766,1,0,1:0:0:0:
256,192,92839,1,0,1:0:0:0:
256,192,92984,1,8,1:0:0:0:
256,192,93130,1,8,1:0:0:0:
256,192,93276,1,0,1:0:0:0:
256,192,93421,1,8,1:0:0:0:
256,192,93713,1,0,1:0:0:0:
256,192,94004,1,8,1:0:0:0:
256,192,94149,1,0,1:0:0:0:
256,192,94295,1,0,1:0:0:0:
256,192,94441,1,12,1:0:0:0:
256,192,94732,1,0,1:0:0:0:
256,192,94878,1,0,1:0:0:0:
256,192,95169,1,8,1:0:0:0:
256,192,95314,1,8,1:0:0:0:
256,192,95460,1,0,1:0:0:0:
256,192,95533,1,0,1:0:0:0:
256,192,95606,1,0,1:0:0:0:
256,192,95897,1,0,1:0:0:0:
256,192,96043,1,8,1:0:0:0:
256,192,96188,1,0,1:0:0:0:
256,192,96334,1,8,1:0:0:0:
256,192,96480,1,8,1:0:0:0:
256,192,96625,1,0,1:0:0:0:
256,192,96771,1,12,1:0:0:0:
256,192,97208,1,0,1:0:0:0:
256,192,97353,1,8,1:0:0:0:
256,192,97426,1,8,1:0:0:0:
256,192,97499,1,8,1:0:0:0:
256,192,97645,1,0,1:0:0:0:
256,192,97790,1,8,1:0:0:0:
256,192,97936,1,8,1:0:0:0:
256,192,98081,1,0,1:0:0:0:
256,192,98373,1,8,1:0:0:0:
256,192,98664,1,0,1:0:0:0:
256,192,98810,1,8,1:0:0:0:
256,192,98955,1,8,1:0:0:0:
256,192,99101,1,4,1:0:0:0:
256,192,99392,1,0,1:0:0:0:
256,192,99538,1,8,1:0:0:0:
256,192,99829,1,8,1:0:0:0:
256,192,99975,1,8,1:0:0:0:
256,192,100120,1,0,1:0:0:0:
256,192,100193,1,0,1:0:0:0:
256,192,100266,1,0,1:0:0:0:
256,192,100557,1,0,1:0:0:0:
256,192,100703,1,8,1:0:0:0:
256,192,100848,1,0,1:0:0:0:
256,192,100994,1,0,1:0:0:0:
256,192,101140,1,8,1:0:0:0:
256,192,101285,1,0,1:0:0:0:
256,192,101431,1,8,1:0:0:0:
256,192,101577,1,0,1:0:0:0:
256,192,102014,1,0,1:0:0:0:
256,192,102450,1,0,1:0:0:0:
256,192,102596,1,8,1:0:0:0:
256,192,103033,1,0,1:0:0:0:
256,192,103324,1,0,1:0:0:0:
256,192,103615,1,8,1:0:0:0:
256,192,103761,1,0,1:0:0:0:
256,192,103907,1,8,1:0:0:0:
256,192,104635,1,0,1:0:0:0:
256,192,104781,1,0,1:0:0:0:
256,192,105072,1,8,1:0:0:0:
256,192,105509,1,0,1:0:0:0:
256,192,105654,1,8,1:0:0:0:
256,192,106237,1,0,1:0:0:0:
256,192,106674,1,8,1:0:0:0:
256,192,107111,1,0,1:0:0:0:
256,192,107256,1,0,1:0:0:0:
256,192,107402,1,8,1:0:0:0:
256,192,107693,1,8,1:0:0:0:
256,192,107839,1,0,1:0:0:0:
256,192,107984,1,8,1:0:0:0:
256,192,108276,1,0,1:0:0:0:
256,192,108421,1,0,1:0:0:0:
256,192,108567,1,8,1:0:0:0:
256,192,109295,1,8,1:0:0:0:
256,192,109441,1,0,1:0:0:0:
256,192,109732,1,8,1:0:0:0:
256,192,110169,1,0,1:0:0:0:
256,192,110314,1,0,1:0:0:0:
256,192,110460,1,0,1:0:0:0:
256,192,110606,1,8,1:0:0:0:
256,192,110897,1,12,1:0:0:0:
256,192,111043,1,0,1:0:0:0:
256,192,111188,1,0,1:0:0:0:
256,192,111334,1,8,1:0:0:0:
256,192,111625,1,8,1:0:0:0:
256,192,111771,1,0,1:0:0:0:
256,192,111916,1,8,1:0:0:0:
256,192,112208,1,0,1:0:0:0:
256,192,112353,1,0,1:0:0:0:
256,192,112645,1,8,1:0:0:0:
256,192,112936,1,8,1:0:0:0:
256,192,113081,1,0,1:0:0:0:
256,192,113227,1,12,1:0:0:0:
256,192,113518,1,0,1:0:0:0:
256,192,113664,1,8,1:0:0:0:
256,192,113955,1,0,1:0:0:0:
256,192,114101,1,8,1:0:0:0:
256,192,114247,1,8,1:0:0:0:
256,192,114392,1,0,1:0:0:0:
256,192,114829,1,0,1:0:0:0:
256,192,114975,1,8,1:0:0:0:
256,192,115266,1,8,1:0:0:0:
256,192,115557,1,12,1:0:0:0:
256,192,115848,1,0,1:0:0:0:
256,192,115994,1,0,1:0:0:0:
256,192,116285,1,8,1:0:0:0:
256,192,116431,1,0,1:0:0:0:
256,192,116577,1,8,1:0:0:0:
256,192,116868,1,0,1:0:0:0:
256,192,117014,1,0,1:0:0:0:
256,192,117305,1,8,1:0:0:0:
256,192,117596,1,8,1:0:0:0:
256,192,117742,1,0,1:0:0:0:
256,192,117887,1,8,1:0:0:0:
256,192,118179,1,0,1:0:0:0:
256,192,118324,1,0,1:0:0:0:
256,192,118761,1,8,1:0:0:0:
256,192,118907,1,8,1:0:0:0:
256,192,119052,1,0,1:0:0:0:
256,192,119344,1,0,1:0:0:0:
256,192,119489,1,8,1:0:0:0:
256,192,119635,1,0,1:0:0:0:
256,192,119708,1,0,1:0:0:0:
256,192,119781,1,0,1:0:0:0:
256,192,119926,1,8,1:0:0:0:
256,192,120072,1,0,1:0:0:0:
256,192,120217,1,8,1:0:0:0:
256,192,120436,1,0,1:0:0:0:
256,192,120654,1,0,1:0:0:0:
256,192,120800,1,0,1:0:0:0:
256,192,120946,1,8,1:0:0:0:
256,192,121018,1,8,1:0:0:0:
256,192,121091,1,8,1:0:0:0:
256,192,121237,1,0,1:0:0:0:
256,192,121528,1,8,1:0:0:0:
256,192,121674,1,8,1:0:0:0:
256,192,121965,1,0,1:0:0:0:
256,192,122547,1,12,1:0:0:0:
256,192,122838,1,0,1:0:0:0:
256,192,122984,1,0,1:0:0:0:
256,192,123275,1,0,1:0:0:0:
256,192,123421,1,8,1:0:0:0:
256,192,123494,1,8,1:0:0:0:
256,192,123566,1,8,1:0:0:0:
256,192,123712,1,0,1:0:0:0:
256,192,124003,1,8,1:0:0:0:
256,192,124149,1,8,1:0:0:0:
256,192,124440,1,0,1:0:0:0:
256,192,124586,1,8,1:0:0:0:
256,192,124659,1,8,0:0:0:0:
256,192,124731,1,8,1:0:0:0:
256,192,124877,1,0,1:0:0:0:
256,192,125168,1,0,1:0:0:0:
256,192,125314,1,0,1:0:0:0:
256,192,125605,1,8,1:0:0:0:
256,192,125751,1,0,1:0:0:0:
256,192,125896,1,8,1:0:0:0:
256,192,126188,1,0,1:0:0:0:
256,192,126333,1,0,1:0:0:0:
256,192,126479,1,8,1:0:0:0:
256,192,126552,1,8,0:0:0:0:
256,192,126625,1,8,1:0:0:0:
256,192,126916,1,0,1:0:0:0:
256,192,127207,1,12,1:0:0:0:
256,192,127498,1,0,1:0:0:0:
256,192,127644,1,0,1:0:0:0:
256,192,127935,1,0,1:0:0:0:
256,192,128081,1,8,1:0:0:0:
256,192,128372,1,8,1:0:0:0:
256,192,128518,1,0,1:0:0:0:
256,192,128591,1,0,1:0:0:0:
256,192,128663,1,0,1:0:0:0:
256,192,128809,1,8,1:0:0:0:
256,192,129100,1,8,1:0:0:0:
256,192,129246,1,0,1:0:0:0:
256,192,129392,1,0,1:0:0:0:
256,192,129537,1,8,1:0:0:0:
256,192,129610,1,8,1:0:0:0:
256,192,129683,1,8,1:0:0:0:
256,192,129829,1,0,1:0:0:0:
256,192,130120,1,8,1:0:0:0:
256,192,130193,1,8,1:0:0:0:
256,192,130265,1,8,1:0:0:0:
256,192,130411,1,0,1:0:0:0:
256,192,130703,1,8,0:0:0:0:
256,192,130776,1,8,0:0:0:0:
256,192,130848,1,8,1:0:0:0:
256,192,130994,1,0,1:0:0:0:
256,192,131285,1,8,1:0:0:0:
256,192,131430,1,0,1:0:0:0:
256,192,131867,1,12,1:0:0:0:
256,192,132159,1,0,1:0:0:0:
256,192,132450,1,8,1:0:0:0:
256,192,132596,1,0,1:0:0:0:
256,192,132741,1,8,1:0:0:0:
256,192,133032,1,0,1:0:0:0:
256,192,133324,1,0,1:0:0:0:
256,192,133615,1,8,1:0:0:0:
256,192,133688,1,8,0:0:0:0:
256,192,133761,1,8,1:0:0:0:
256,192,133906,1,0,1:0:0:0:
256,192,134197,1,0,1:0:0:0:
256,192,134416,1,8,1:0:0:0:
256,192,134489,1,8,1:0:0:0:
256,192,134780,1,0,1:0:0:0:
256,192,134998,1,8,1:0:0:0:
256,192,135071,1,8,1:0:0:0:
256,192,135363,1,8,1:0:0:0:
256,192,135654,1,0,1:0:0:0:
256,192,135945,1,8,1:0:0:0:
256,192,136236,1,0,1:0:0:0:
256,192,136528,1,12,1:0:0:0:
256,192,136673,1,0,1:0:0:0:
256,192,136746,1,0,0:0:0:0:
256,192,136819,1,0,1:0:0:0:
256,192,137110,1,8,1:0:0:0:
256,192,137256,1,0,1:0:0:0:
256,192,137401,1,8,1:0:0:0:
256,192,137693,1,8,1:0:0:0:
256,192,137984,1,0,1:0:0:0:
256,192,138130,1,8,1:0:0:0:
256,192,138203,1,8,0:0:0:0:
256,192,138276,1,8,1:0:0:0:
256,192,138567,1,0,1:0:0:0:
256,192,138858,1,4,1:0:0:0:
256,192,140023,1,8,1:0:0:0:
256,192,141188,1,0,1:0:0:0:
256,192,142353,1,8,1:0:0:0:
256,192,143518,1,0,1:0:0:0:
256,192,144683,1,8,1:0:0:0:
256,192,145848,1,0,1:0:0:0:
256,192,147014,1,8,1:0:0:0:
256,192,148179,1,0,1:0:0:0:
256,192,148761,1,0,1:0:0:0:
256,192,149344,1,8,1:0:0:0:
256,192,149926,1,0,1:0:0:0:
256,192,150509,1,8,1:0:0:0:
256,192,151091,1,0,1:0:0:0:
256,192,151674,1,8,1:0:0:0:
256,192,152256,1,0,1:0:0:0:
256,192,152839,1,8,1:0:0:0:
256,192,153130,1,0,1:0:0:0:
256,192,153421,1,0,1:0:0:0:
256,192,153713,1,0,1:0:0:0:
256,192,154004,1,8,1:0:0:0:
256,192,154295,1,0,1:0:0:0:
256,192,154586,1,0,1:0:0:0:
256,192,154878,1,0,1:0:0:0:
256,192,155169,1,8,1:0:0:0:
256,192,155314,1,0,1:0:0:0:
256,192,155460,1,0,1:0:0:0:
256,192,155606,1,8,1:0:0:0:
256,192,155751,1,0,1:0:0:0:
256,192,155897,1,8,1:0:0:0:
256,192,156043,1,0,1:0:0:0:
256,192,156115,1,0,1:0:0:0:
256,192,156188,1,0,1:0:0:0:
256,192,156334,1,12,1:0:0:0:
256,192,156916,1,8,1:0:0:0:
256,192,157499,1,8,1:0:0:0:
256,192,157936,1,0,1:0:0:0:
256,192,158227,1,8,1:0:0:0:
256,192,158373,1,0,1:0:0:0:
256,192,158518,1,0,1:0:0:0:
256,192,158664,1,8,1:0:0:0:
256,192,158955,1,8,1:0:0:0:
256,192,159101,1,8,1:0:0:0:
256,192,159247,1,0,1:0:0:0:
256,192,159829,1,8,1:0:0:0:
256,192,159975,1,0,1:0:0:0:
256,192,160266,1,8,1:0:0:0:
256,192,160412,1,0,1:0:0:0:
256,192,160703,1,8,1:0:0:0:
256,192,160994,1,0,1:0:0:0:
256,192,161140,1,0,1:0:0:0:
256,192,161285,1,8,1:0:0:0:
256,192,161431,1,8,1:0:0:0:
256,192,161577,1,0,1:0:0:0:
256,192,161722,1,8,1:0:0:0:
256,192,161868,1,0,1:0:0:0:
256,192,162159,1,8,1:0:0:0:
256,192,162596,1,8,1:0:0:0:
256,192,162887,1,0,1:0:0:0:
256,192,163033,1,0,1:0:0:0:
256,192,163324,1,8,1:0:0:0:
256,192,163615,1,0,1:0:0:0:
256,192,163761,1,8,1:0:0:0:
256,192,163907,1,0,1:0:0:0:
256,192,164489,1,12,1:0:0:0:
256,192,164781,1,8,1:0:0:0:
256,192,164926,1,0,1:0:0:0:
256,192,165072,1,8,1:0:0:0:
256,192,165363,1,8,1:0:0:0:
256,192,165654,1,12,1:0:0:0:
256,192,165946,1,0,1:0:0:0:
256,192,166018,1,0,1:0:0:0:
256,192,166091,1,0,1:0:0:0:
256,192,166382,1,8,1:0:0:0:
256,192,166455,1,8,1:0:0:0:
256,192,166528,1,8,1:0:0:0:
256,192,166674,1,0,1:0:0:0:
256,192,166819,1,8,1:0:0:0:
256,192,167256,1,0,1:0:0:0:
256,192,167547,1,0,1:0:0:0:
256,192,167693,1,8,1:0:0:0:
256,192,167766,1,8,1:0:0:0:
256,192,167839,1,8,1:0:0:0:
256,192,168130,1,0,1:0:0:0:
256,192,168276,1,8,1:0:0:0:
256,192,168567,1,8,1:0:0:0:
256,192,168713,1,0,1:0:0:0:
256,192,168858,1,0,1:0:0:0:
256,192,169004,1,8,1:0:0:0:
256,192,169295,1,0,1:0:0:0:
256,192,169441,1,8,1:0:0:0:
256,192,169586,1,0,1:0:0:0:
256,192,169878,1,8,1:0:0:0:
256,192,170169,1,8,1:0:0:0:
256,192,170460,1,0,1:0:0:0:
256,192,170533,1,0,1:0:0:0:
256,192,170606,1,0,1:0:0:0:
256,192,170751,1,8,1:0:0:0:
256,192,170897,1,8,1:0:0:0:
256,192,171334,1,0,1:0:0:0:
256,192,171480,1,8,1:0:0:0:
256,192,171698,1,8,1:0:0:0:
256,192,171916,1,8,1:0:0:0:
256,192,172208,1,0,1:0:0:0:
256,192,172353,1,0,1:0:0:0:
256,192,172499,1,8,1:0:0:0:
256,192,172790,1,0,1:0:0:0:
256,192,172863,1,0,1:0:0:0:
256,192,172936,1,0,1:0:0:0:
256,192,173373,1,8,1:0:0:0:
256,192,173518,1,0,1:0:0:0:
256,192,173664,1,8,1:0:0:0:
256,192,173810,1,0,1:0:0:0:
256,192,174101,1,0,1:0:0:0:
256,192,174247,1,8,1:0:0:0:
256,192,174538,1,8,1:0:0:0:
256,192,174683,1,8,1:0:0:0:
256,192,174829,1,0,1:0:0:0:
256,192,174975,1,0,1:0:0:0:
256,192,175266,1,8,1:0:0:0:
256,192,175412,1,0,1:0:0:0:
256,192,175557,1,8,1:0:0:0:
256,192,175703,1,0,1:0:0:0:
256,192,176140,1,8,1:0:0:0:
256,192,176358,1,8,1:0:0:0:
256,192,176577,1,8,1:0:0:0:
256,192,176722,1,0,1:0:0:0:
256,192,177014,1,0,1:0:0:0:
256,192,177159,1,8,1:0:0:0:
256,192,177450,1,8,1:0:0:0:
256,192,177596,1,8,1:0:0:0:
256,192,177887,1,0,1:0:0:0:
256,192,188227,5,8,1:0:0:0:
256,192,188300,1,8,1:0:0:0:
256,192,188373,5,8,1:0:0:0:
256,192,188518,1,0,1:0:0:0:
256,192,188810,1,0,1:0:0:0:
256,192,188955,1,8,1:0:0:0:
256,192,189392,1,8,1:0:0:0:
256,192,189538,1,0,1:0:0:0:
256,192,189829,1,0,1:0:0:0:
256,192,190120,1,8,1:0:0:0:
256,192,190557,1,0,1:0:0:0:
256,192,190703,1,8,1:0:0:0:
256,192,190994,1,0,1:0:0:0:
256,192,191140,1,0,1:0:0:0:
256,192,191285,1,8,1:0:0:0:
256,192,191577,1,8,1:0:0:0:
256,192,191722,1,0,1:0:0:0:
256,192,191868,1,8,1:0:0:0:
256,192,192159,1,0,1:0:0:0:
256,192,192450,1,0,1:0:0:0:
256,192,192887,1,0,1:0:0:0:
256,192,193033,1,8,1:0:0:0:
256,192,193324,1,0,1:0:0:0:
256,192,193615,1,0,1:0:0:0:
256,192,194781,1,0,1:0:0:0:
256,192,195363,1,8,1:0:0:0:
256,192,195946,1,12,1:0:0:0:
256,192,196237,1,0,1:0:0:0:
256,192,196382,1,0,1:0:0:0:
256,192,196674,1,0,1:0:0:0:
256,192,196819,1,8,1:0:0:0:
256,192,196892,1,8,1:0:0:0:
256,192,196965,1,8,1:0:0:0:
256,192,197111,1,0,1:0:0:0:
256,192,197402,1,8,1:0:0:0:
256,192,197547,1,8,1:0:0:0:
256,192,197839,1,0,1:0:0:0:
256,192,197984,1,8,1:0:0:0:
256,192,198057,1,8,0:0:0:0:
256,192,198130,1,8,1:0:0:0:
256,192,198276,1,0,1:0:0:0:
256,192,198567,1,0,1:0:0:0:
256,192,198713,1,0,1:0:0:0:
256,192,199004,1,8,1:0:0:0:
256,192,199149,1,0,1:0:0:0:
256,192,199295,1,8,1:0:0:0:
256,192,199586,1,0,1:0:0:0:
256,192,199732,1,0,1:0:0:0:
256,192,199878,1,8,1:0:0:0:
256,192,199950,1,8,0:0:0:0:
256,192,200023,1,8,1:0:0:0:
256,192,200314,1,0,1:0:0:0:
256,192,200606,1,12,1:0:0:0:
256,192,200897,1,0,1:0:0:0:
256,192,201043,1,0,1:0:0:0:
256,192,201334,1,0,1:0:0:0:
256,192,201480,1,8,1:0:0:0:
256,192,201771,1,8,1:0:0:0:
256,192,201916,1,0,1:0:0:0:
256,192,201989,1,0,1:0:0:0:
256,192,202062,1,0,1:0:0:0:
256,192,202208,1,8,1:0:0:0:
256,192,202499,1,8,1:0:0:0:
256,192,202645,1,0,1:0:0:0:
256,192,202790,1,0,1:0:0:0:
256,192,202936,1,8,1:0:0:0:
256,192,203009,1,8,1:0:0:0:
256,192,203081,1,8,1:0:0:0:
256,192,203227,1,0,1:0:0:0:
256,192,203518,1,8,1:0:0:0:
256,192,203591,1,8,1:0:0:0:
256,192,203664,1,8,1:0:0:0:
256,192,203810,1,0,1:0:0:0:
256,192,203955,1,8,1:0:0:0:
256,192,204247,1,0,1:0:0:0:
256,192,204392,1,8,1:0:0:0:
256,192,204683,1,8,1:0:0:0:
256,192,204829,1,8,1:0:0:0:
256,192,205266,1,12,1:0:0:0:
256,192,205557,1,0,1:0:0:0:
256,192,205848,1,8,1:0:0:0:
256,192,205994,1,0,1:0:0:0:
256,192,206140,1,8,1:0:0:0:
256,192,206431,1,0,1:0:0:0:
256,192,206722,1,0,1:0:0:0:
256,192,207014,1,8,1:0:0:0:
256,192,207159,1,0,1:0:0:0:
256,192,207305,1,8,1:0:0:0:
256,192,207596,1,0,1:0:0:0:
256,192,207814,1,8,1:0:0:0:
256,192,207887,1,8,1:0:0:0:
256,192,208179,1,0,1:0:0:0:
256,192,208397,1,8,1:0:0:0:
256,192,208470,1,8,1:0:0:0:
256,192,208761,1,8,1:0:0:0:
256,192,209052,1,0,1:0:0:0:
256,192,209344,1,8,1:0:0:0:
256,192,209635,1,0,1:0:0:0:
256,192,209926,1,8,1:0:0:0:
256,192,210072,1,0,1:0:0:0:
256,192,210217,1,8,1:0:0:0:
256,192,210509,1,0,1:0:0:0:
256,192,210581,1,0,0:0:0:0:
256,192,210654,1,0,1:0:0:0:
256,192,210800,1,8,1:0:0:0:
256,192,211091,1,8,1:0:0:0:
256,192,211382,1,0,1:0:0:0:
256,192,211528,1,8,1:0:0:0:
256,192,211674,1,0,1:0:0:0:
256,192,211965,1,0,1:0:0:0:
256,192,212256,1,8,1:0:0:0:
256,192,212402,1,0,1:0:0:0:
256,192,212547,1,8,1:0:0:0:
256,192,212839,1,8,1:0:0:0:
256,192,212984,1,0,1:0:0:0:
256,192,213130,1,8,1:0:0:0:
256,192,213421,1,0,1:0:0:0:
256,192,213713,1,0,1:0:0:0:
256,192,214004,1,8,1:0:0:0:
256,192,214149,1,8,1:0:0:0:
256,192,214295,1,0,1:0:0:0:
256,192,214441,1,0,1:0:0:0:
256,192,214586,1,8,1:0:0:0:
256,192,214878,1,0,1:0:0:0:
256,192,215023,1,0,1:0:0:0:
256,192,215169,1,8,1:0:0:0:
256,192,215314,1,8,1:0:0:0:
256,192,215460,1,8,1:0:0:0:
256,192,215606,1,0,1:0:0:0:
256,192,215751,1,8,1:0:0:0:
256,192,215897,1,0,1:0:0:0:
256,192,216043,1,8,1:0:0:0:
256,192,216334,1,8,1:0:0:0:
256,192,216480,1,8,1:0:0:0:
256,192,216625,1,0,1:0:0:0:
256,192,216771,1,12,1:0:0:0:
256,192,217208,1,8,1:0:0:0:
256,192,217353,1,0,1:0:0:0:
256,192,217426,1,0,1:0:0:0:
256,192,217499,1,0,1:0:0:0:
256,192,217645,1,8,1:0:0:0:
256,192,217790,1,8,1:0:0:0:
256,192,217936,1,0,1:0:0:0:
256,192,218081,1,8,1:0:0:0:
256,192,218373,1,0,1:0:0:0:
256,192,218664,1,8,1:0:0:0:
256,192,218810,1,0,1:0:0:0:
256,192,218955,1,0,1:0:0:0:
256,192,219101,1,12,1:0:0:0:
256,192,219392,1,0,1:0:0:0:
256,192,219538,1,0,1:0:0:0:
256,192,219829,1,8,1:0:0:0:
256,192,219975,1,8,1:0:0:0:
256,192,220120,1,0,1:0:0:0:
256,192,220193,1,0,1:0:0:0:
256,192,220266,1,0,1:0:0:0:
256,192,220557,1,0,1:0:0:0:
256,192,220703,1,8,1:0:0:0:
256,192,220848,1,0,1:0:0:0:
256,192,220994,1,8,1:0:0:0:
256,192,221140,1,8,1:0:0:0:
256,192,221285,1,0,1:0:0:0:
256,192,221431,1,12,1:0:0:0:
256,192,221868,1,0,1:0:0:0:
256,192,222014,1,8,1:0:0:0:
256,192,222086,1,8,1:0:0:0:
256,192,222159,1,8,1:0:0:0:
256,192,222305,1,0,1:0:0:0:
256,192,222450,1,8,1:0:0:0:
256,192,222596,1,8,1:0:0:0:
256,192,222742,1,0,1:0:0:0:
256,192,223033,1,8,1:0:0:0:
256,192,223324,1,0,1:0:0:0:
256,192,223470,1,8,1:0:0:0:
256,192,223615,1,8,1:0:0:0:
256,192,223761,1,4,1:0:0:0:
256,192,224052,1,0,1:0:0:0:
256,192,224198,1,8,1:0:0:0:
256,192,224489,1,8,1:0:0:0:
256,192,224635,1,8,1:0:0:0:
256,192,224781,1,0,1:0:0:0:
256,192,224853,1,0,1:0:0:0:
256,192,224926,1,0,1:0:0:0:
256,192,225217,1,0,1:0:0:0:
256,192,225363,1,8,1:0:0:0:
256,192,225509,1,0,1:0:0:0:
256,192,225654,1,8,1:0:0:0:
256,192,225727,1,8,1:0:0:0:
256,192,225800,1,8,1:0:0:0:
256,192,225946,1,0,1:0:0:0:
256,192,226091,1,12,1:0:0:0:
256,192,226528,1,8,1:0:0:0:
256,192,226674,1,0,1:0:0:0:
256,192,226747,1,0,1:0:0:0:
256,192,226819,1,0,1:0:0:0:
256,192,226965,1,8,1:0:0:0:
256,192,227111,1,8,1:0:0:0:
256,192,227256,1,0,1:0:0:0:
256,192,227402,1,8,1:0:0:0:
256,192,227693,1,0,1:0:0:0:
256,192,227984,1,8,1:0:0:0:
256,192,228130,1,0,1:0:0:0:
256,192,228276,1,0,1:0:0:0:
256,192,228421,1,12,1:0:0:0:
256,192,228713,1,0,1:0:0:0:
256,192,228858,1,0,1:0:0:0:
256,192,229149,1,8,1:0:0:0:
256,192,229295,1,8,1:0:0:0:
256,192,229441,1,0,1:0:0:0:
256,192,229514,1,0,1:0:0:0:
256,192,229586,1,0,1:0:0:0:
256,192,229878,1,0,1:0:0:0:
256,192,230023,1,8,1:0:0:0:
256,192,230169,1,0,1:0:0:0:
256,192,230314,1,8,1:0:0:0:
256,192,230460,1,8,1:0:0:0:
256,192,230606,1,0,1:0:0:0:
256,192,230751,1,12,1:0:0:0:
256,192,231188,1,0,1:0:0:0:
256,192,231334,1,8,1:0:0:0:
256,192,231407,1,8,1:0:0:0:
256,192,231480,1,8,1:0:0:0:
256,192,231625,1,0,1:0:0:0:
256,192,231771,1,8,1:0:0:0:
256,192,231916,1,8,1:0:0:0:
256,192,232062,1,0,1:0:0:0:
256,192,232353,1,8,1:0:0:0:
256,192,232645,1,0,1:0:0:0:
256,192,232790,1,8,1:0:0:0:
256,192,232936,1,8,1:0:0:0:
256,192,233081,1,4,1:0:0:0:
256,192,233373,1,0,1:0:0:0:
256,192,233518,1,8,1:0:0:0:
256,192,233810,1,8,1:0:0:0:
256,192,233955,1,8,1:0:0:0:
256,192,234101,1,0,1:0:0:0:
256,192,234174,1,0,1:0:0:0:
256,192,234247,1,0,1:0:0:0:
256,192,234538,1,0,1:0:0:0:
256,192,234683,1,8,1:0:0:0:
256,192,234829,1,0,1:0:0:0:
256,192,234902,1,0,1:0:0:0:
256,192,234975,1,0,1:0:0:0:
256,192,235120,1,8,1:0:0:0:
256,192,235266,1,0,1:0:0:0:
256,192,235412,1,8,1:0:0:0:
256,192,235703,1,8,1:0:0:0:
256,192,235848,1,0,1:0:0:0:
256,192,235994,1,0,1:0:0:0:
256,192,236140,1,8,1:0:0:0:
256,192,236431,1,8,1:0:0:0:
256,192,236577,1,0,1:0:0:0:
256,192,236722,1,8,1:0:0:0:
256,192,236868,1,0,1:0:0:0:
256,192,237159,1,0,1:0:0:0:
256,192,237450,1,0,1:0:0:0:
256,192,237596,1,8,1:0:0:0:
256,192,237742,1,0,1:0:0:0:
