osu file format v14

[General]
AudioFilename: audio.mp3
AudioLeadIn: 0
PreviewTime: 178980
Countdown: 0
SampleSet: Normal
StackLeniency: 0.7
Mode: 1
LetterboxInBreaks: 0
WidescreenStoryboard: 1

[Editor]
DistanceSpacing: 1
BeatDivisor: 4
GridSize: 32
TimelineZoom: 1

[Metadata]
Title:Paralyzed Ash
TitleUnicode:Paralyzed Ash
Artist:WHITEFISTS feat. Sennzai
ArtistUnicode:WHITEFISTS feat. Sennzai
Creator:Esutarosa
Version:Kantan
Source:
Tags:Tødestrieb Ryxliee Japanese jpop j-pop pop rock j-rock jrock 常盤 featured artist fa mappers' guild mpg female vocals vocalist paralysed
BeatmapID:3544009
BeatmapSetID:1733940

[Difficulty]
HPDrainRate:8
CircleSize:2
OverallDifficulty:3
ApproachRate:9
SliderMultiplier:1.4
SliderTickRate:1

[Events]
//Background and Video events
0,0,"bg.jpg",0,0
//Break Periods
2,102014,110297
2,179635,187773
//Storyboard Layer 0 (Background)
//Storyboard Layer 1 (Fail)
//Storyboard Layer 2 (Pass)
//Storyboard Layer 3 (Foreground)
//Storyboard Layer 4 (Overlay)
//Storyboard Sound Samples

[TimingPoints]
2548,291.26213592233,4,1,0,65,1,0
3567,-100,4,1,0,75,0,0
22353,-100,4,1,0,45,0,0
31674,-100,4,1,0,65,0,0
40994,-100,4,1,0,55,0,0
49149,-100,4,1,0,65,0,0
59635,-100,4,1,0,55,0,0
61965,-100,4,1,0,85,0,1
78130,-100,4,1,0,65,0,0
82790,-100,4,1,0,75,0,0
101577,-100,4,1,0,45,0,0
110897,-100,4,1,0,65,0,0
120217,-100,4,1,0,55,0,0
122547,-100,4,1,0,85,0,1
138858,-100,4,1,0,85,0,0
140023,-100,4,1,0,55,0,0
157499,-100,4,1,0,65,0,0
176140,-100,4,1,0,55,0,0
188373,-100,4,1,0,45,0,0
195946,-100,4,1,0,85,0,1
216771,-100,4,1,0,75,0,0

[HitObjects]
256,192,2548,5,8,1:0:0:0:
256,192,3567,1,12,1:0:0:0:
256,192,4295,1,0,1:0:0:0:
256,192,4878,1,0,1:0:0:0:
256,192,5460,1,0,1:0:0:0:
256,192,5897,1,12,1:0:0:0:
256,192,7062,1,0,1:0:0:0:
256,192,8227,1,12,1:0:0:0:
256,192,8955,1,8,1:0:0:0:
256,192,9538,1,0,1:0:0:0:
256,192,10120,1,0,1:0:0:0:
256,192,10557,1,12,1:0:0:0:
256,192,11722,1,0,1:0:0:0:
256,192,12450,1,8,1:0:0:0:
256,192,12887,1,12,1:0:0:0:
256,192,13615,1,0,1:0:0:0:
256,192,14198,1,0,1:0:0:0:
256,192,14781,1,0,1:0:0:0:
256,192,15217,1,12,1:0:0:0:
256,192,16382,1,0,1:0:0:0:
256,192,17547,1,12,1:0:0:0:
256,192,18276,1,8,1:0:0:0:
256,192,18858,1,0,1:0:0:0:
256,192,19441,1,0,1:0:0:0:
256,192,19878,1,12,1:0:0:0:
256,192,21043,1,0,1:0:0:0:
256,192,21771,1,8,1:0:0:0:
256,192,22353,1,0,1:0:0:0:
256,192,24683,1,0,1:0:0:0:
256,192,27014,1,0,1:0:0:0:
256,192,29344,1,0,1:0:0:0:
256,192,31674,1,12,1:0:0:0:
256,192,32111,1,0,1:0:0:0:
256,192,32693,1,0,1:0:0:0:
256,192,33130,1,8,1:0:0:0:
256,192,34004,1,12,1:0:0:0:
256,192,35169,1,0,1:0:0:0:
256,192,35751,1,0,1:0:0:0:
256,192,36334,1,12,1:0:0:0:
256,192,36771,1,0,1:0:0:0:
256,192,37353,1,0,1:0:0:0:
256,192,37790,1,8,1:0:0:0:
256,192,38664,1,12,1:0:0:0:
256,192,39829,1,0,1:0:0:0:
256,192,40412,1,0,1:0:0:0:
256,192,40994,1,8,1:0:0:0:
256,192,42159,1,0,1:0:0:0:
256,192,43324,1,0,1:0:0:0:
256,192,44489,1,0,1:0:0:0:
256,192,44926,1,8,1:0:0:0:
256,192,45654,1,4,1:0:0:0:
256,192,46819,1,8,1:0:0:0:
256,192,47984,1,0,1:0:0:0:
256,192,49149,1,12,1:0:0:0:
256,192,49586,1,0,1:0:0:0:
256,192,50314,1,8,1:0:0:0:
256,192,51480,1,0,1:0:0:0:
256,192,52645,1,8,1:0:0:0:
256,192,53227,1,0,1:0:0:0:
256,192,53810,1,8,1:0:0:0:
256,192,54975,1,12,1:0:0:0:
256,192,55557,1,0,1:0:0:0:
256,192,56140,1,8,1:0:0:0:
256,192,56722,1,0,1:0:0:0:
256,192,57305,1,8,1:0:0:0:
256,192,58470,1,8,1:0:0:0:
256,192,59052,1,0,1:0:0:0:
256,192,59635,1,8,1:0:0:0:
256,192,60654,1,8,1:0:0:0:
256,192,61091,1,8,1:0:0:0:
256,192,61965,1,12,1:0:0:0:
256,192,62402,1,0,1:0:0:0:
256,192,62839,1,0,1:0:0:0:
256,192,63130,1,8,1:0:0:0:
256,192,63567,1,8,1:0:0:0:
256,192,64295,1,8,1:0:0:0:
256,192,64732,1,8,1:0:0:0:
256,192,65314,1,0,1:0:0:0:
256,192,65751,1,0,1:0:0:0:
256,192,66625,1,12,1:0:0:0:
256,192,67062,1,8,1:0:0:0:
256,192,67499,1,0,1:0:0:0:
256,192,67790,1,8,1:0:0:0:
256,192,68227,1,0,1:0:0:0:
256,192,68955,1,8,1:0:0:0:
256,192,69538,1,8,1:0:0:0:
256,192,69975,1,0,1:0:0:0:
256,192,70703,1,0,1:0:0:0:
256,192,71285,1,12,1:0:0:0:
256,192,71577,1,0,1:0:0:0:
256,192,71868,1,8,1:0:0:0:
256,192,72450,1,0,1:0:0:0:
256,192,72742,1,0,1:0:0:0:
256,192,73033,1,8,1:0:0:0:
256,192,73615,1,8,1:0:0:0:
256,192,74198,1,8,1:0:0:0:
256,192,74781,1,8,1:0:0:0:
256,192,75654,1,0,1:0:0:0:
256,192,75946,1,8,1:0:0:0:
256,192,76528,1,0,1:0:0:0:
256,192,77111,1,8,1:0:0:0:
256,192,78130,1,12,1:0:0:0:
256,192,78858,1,0,1:0:0:0:
256,192,79295,1,12,1:0:0:0:
256,192,80023,1,0,1:0:0:0:
256,192,80460,1,12,1:0:0:0:
256,192,81188,1,0,1:0:0:0:
256,192,81625,1,12,1:0:0:0:
256,192,82790,1,12,1:0:0:0:
256,192,83518,1,0,1:0:0:0:
256,192,84101,1,0,1:0:0:0:
256,192,84683,1,0,1:0:0:0:
256,192,85120,1,12,1:0:0:0:
256,192,86285,1,0,1:0:0:0:
256,192,87450,1,12,1:0:0:0:
256,192,88179,1,8,1:0:0:0:
256,192,88761,1,0,1:0:0:0:
256,192,89344,1,0,1:0:0:0:
256,192,89781,1,12,1:0:0:0:
256,192,90946,1,0,1:0:0:0:
256,192,91674,1,8,1:0:0:0:
256,192,92111,1,12,1:0:0:0:
256,192,92839,1,0,1:0:0:0:
256,192,93421,1,0,1:0:0:0:
256,192,94004,1,0,1:0:0:0:
256,192,94441,1,12,1:0:0:0:
256,192,95606,1,0,1:0:0:0:
256,192,96334,1,8,1:0:0:0:
256,192,96771,1,12,1:0:0:0:
256,192,97499,1,8,1:0:0:0:
256,192,98081,1,0,1:0:0:0:
256,192,98664,1,0,1:0:0:0:
256,192,99101,1,12,1:0:0:0:
256,192,100266,1,0,1:0:0:0:
256,192,100994,1,8,1:0:0:0:
256,192,101577,1,0,1:0:0:0:
256,192,110897,5,12,1:0:0:0:
256,192,111334,1,0,1:0:0:0:
256,192,111916,1,0,1:0:0:0:
256,192,112353,1,8,1:0:0:0:
256,192,112645,1,0,1:0:0:0:
256,192,113227,1,12,1:0:0:0:
256,192,114101,1,0,1:0:0:0:
256,192,114392,1,8,1:0:0:0:
256,192,115557,1,12,1:0:0:0:
256,192,115994,1,0,1:0:0:0:
256,192,116577,1,0,1:0:0:0:
256,192,117014,1,8,1:0:0:0:
256,192,117305,1,0,1:0:0:0:
256,192,117887,1,8,1:0:0:0:
256,192,118761,1,8,1:0:0:0:
256,192,119052,1,0,1:0:0:0:
256,192,119635,1,0,1:0:0:0:
256,192,120217,1,8,1:0:0:0:
256,192,121237,1,8,1:0:0:0:
256,192,121674,1,8,1:0:0:0:
256,192,122547,1,12,1:0:0:0:
256,192,122984,1,0,1:0:0:0:
256,192,123421,1,0,1:0:0:0:
256,192,123713,1,8,1:0:0:0:
256,192,124149,1,8,1:0:0:0:
256,192,124878,1,8,1:0:0:0:
256,192,125314,1,8,1:0:0:0:
256,192,125897,1,0,1:0:0:0:
256,192,126334,1,0,1:0:0:0:
256,192,127208,1,12,1:0:0:0:
256,192,127645,1,8,1:0:0:0:
256,192,128081,1,0,1:0:0:0:
256,192,128373,1,8,1:0:0:0:
256,192,128810,1,0,1:0:0:0:
256,192,129538,1,8,1:0:0:0:
256,192,130120,1,8,1:0:0:0:
256,192,130557,1,0,1:0:0:0:
256,192,131285,1,8,1:0:0:0:
256,192,131868,1,12,1:0:0:0:
256,192,132159,1,0,1:0:0:0:
256,192,132450,1,8,1:0:0:0:
256,192,133033,1,0,1:0:0:0:
256,192,133324,1,0,1:0:0:0:
256,192,133615,1,8,1:0:0:0:
256,192,134198,1,8,1:0:0:0:
256,192,134781,1,8,1:0:0:0:
256,192,135363,1,8,1:0:0:0:
256,192,136237,1,0,1:0:0:0:
256,192,136528,1,12,1:0:0:0:
256,192,137111,1,0,1:0:0:0:
256,192,137693,1,8,1:0:0:0:
256,192,138858,1,12,1:0:0:0:
256,192,140023,1,0,1:0:0:0:
256,192,142353,1,8,1:0:0:0:
256,192,144683,1,8,1:0:0:0:
256,192,147014,1,0,1:0:0:0:
256,192,149344,1,8,1:0:0:0:
256,192,150509,1,0,1:0:0:0:
256,192,151674,1,8,1:0:0:0:
256,192,152839,1,0,1:0:0:0:
256,192,153421,1,0,1:0:0:0:
256,192,154004,1,8,1:0:0:0:
256,192,154586,1,0,1:0:0:0:
256,192,155169,1,0,1:0:0:0:
256,192,155460,1,8,1:0:0:0:
256,192,155751,1,0,1:0:0:0:
256,192,156334,1,12,1:0:0:0:
256,192,157499,1,8,1:0:0:0:
256,192,157936,1,0,1:0:0:0:
256,192,158373,1,0,1:0:0:0:
256,192,158664,1,8,1:0:0:0:
256,192,159247,1,0,1:0:0:0:
256,192,159829,1,8,1:0:0:0:
256,192,160266,1,0,1:0:0:0:
256,192,160703,1,8,1:0:0:0:
256,192,160994,1,8,1:0:0:0:
256,192,162159,1,8,1:0:0:0:
256,192,162596,1,0,1:0:0:0:
256,192,163033,1,0,1:0:0:0:
256,192,163324,1,8,1:0:0:0:
256,192,163907,1,0,1:0:0:0:
256,192,164489,1,12,1:0:0:0:
256,192,165072,1,0,1:0:0:0:
256,192,165654,1,12,1:0:0:0:
256,192,166819,1,8,1:0:0:0:
256,192,167256,1,0,1:0:0:0:
256,192,167839,1,0,1:0:0:0:
256,192,168276,1,8,1:0:0:0:
256,192,168567,1,8,1:0:0:0:
256,192,169004,1,0,1:0:0:0:
256,192,169441,1,0,1:0:0:0:
256,192,169878,1,8,1:0:0:0:
256,192,170169,1,8,1:0:0:0:
256,192,170606,1,0,1:0:0:0:
256,192,170897,1,0,1:0:0:0:
256,192,171334,1,8,1:0:0:0:
256,192,172208,1,0,1:0:0:0:
256,192,172499,1,8,1:0:0:0:
256,192,172936,1,8,1:0:0:0:
256,192,173373,1,0,1:0:0:0:
256,192,173810,1,0,1:0:0:0:
256,192,174247,1,0,1:0:0:0:
256,192,174975,1,8,1:0:0:0:
256,192,175557,1,0,1:0:0:0:
256,192,176140,1,8,1:0:0:0:
256,192,176722,1,0,1:0:0:0:
256,192,177159,1,8,1:0:0:0:
256,192,177596,1,0,1:0:0:0:
256,192,188373,5,0,1:0:0:0:
256,192,188955,1,0,1:0:0:0:
256,192,190120,1,8,1:0:0:0:
256,192,191285,1,0,1:0:0:0:
256,192,192450,1,8,1:0:0:0:
256,192,193615,1,0,1:0:0:0:
256,192,195363,1,0,1:0:0:0:
256,192,195946,1,12,1:0:0:0:
256,192,196382,1,0,1:0:0:0:
256,192,196819,1,0,1:0:0:0:
256,192,197111,1,8,1:0:0:0:
256,192,197547,1,8,1:0:0:0:
256,192,198276,1,8,1:0:0:0:
256,192,198713,1,8,1:0:0:0:
256,192,199295,1,0,1:0:0:0:
256,192,199732,1,0,1:0:0:0:
256,192,200606,1,12,1:0:0:0:
256,192,201043,1,8,1:0:0:0:
256,192,201480,1,0,1:0:0:0:
256,192,201771,1,8,1:0:0:0:
256,192,202208,1,0,1:0:0:0:
256,192,202936,1,8,1:0:0:0:
256,192,203518,1,8,1:0:0:0:
256,192,203955,1,0,1:0:0:0:
256,192,204683,1,0,1:0:0:0:
256,192,205266,1,12,1:0:0:0:
256,192,205557,1,0,1:0:0:0:
256,192,205848,1,8,1:0:0:0:
256,192,206431,1,0,1:0:0:0:
256,192,206722,1,0,1:0:0:0:
256,192,207014,1,8,1:0:0:0:
256,192,207596,1,8,1:0:0:0:
256,192,208179,1,8,1:0:0:0:
256,192,208761,1,8,1:0:0:0:
256,192,209635,1,0,1:0:0:0:
256,192,209926,1,8,1:0:0:0:
256,192,210509,1,0,1:0:0:0:
256,192,211091,1,8,1:0:0:0:
256,192,212256,1,8,1:0:0:0:
256,192,212839,1,0,1:0:0:0:
256,192,213421,1,0,1:0:0:0:
256,192,214586,1,8,1:0:0:0:
256,192,215169,1,0,1:0:0:0:
256,192,215751,1,8,1:0:0:0:
256,192,216043,1,0,1:0:0:0:
256,192,216334,1,8,1:0:0:0:
256,192,216771,1,12,1:0:0:0:
256,192,217499,1,0,1:0:0:0:
256,192,218081,1,0,1:0:0:0:
256,192,218664,1,0,1:0:0:0:
256,192,219101,1,12,1:0:0:0:
256,192,220266,1,0,1:0:0:0:
256,192,221431,1,12,1:0:0:0:
256,192,222159,1,8,1:0:0:0:
256,192,222742,1,0,1:0:0:0:
256,192,223324,1,0,1:0:0:0:
256,192,223761,1,12,1:0:0:0:
256,192,224926,1,0,1:0:0:0:
256,192,225654,1,8,1:0:0:0:
256,192,226091,1,12,1:0:0:0:
256,192,226819,1,0,1:0:0:0:
256,192,227402,1,0,1:0:0:0:
256,192,227984,1,0,1:0:0:0:
256,192,228421,1,12,1:0:0:0:
256,192,229586,1,0,1:0:0:0:
256,192,230751,1,12,1:0:0:0:
256,192,231480,1,8,1:0:0:0:
256,192,232062,1,0,1:0:0:0:
256,192,232645,1,0,1:0:0:0:
256,192,233081,1,12,1:0:0:0:
256,192,234247,1,0,1:0:0:0:
256,192,234975,1,12,1:0:0:0:
256,192,235412,1,0,1:0:0:0:
256,192,235848,1,0,1:0:0:0:
256,192,236140,1,0,1:0:0:0:
256,192,236722,1,8,1:0:0:0:
256,192,237159,1,8,1:0:0:0:
256,192,237742,1,0,1:0:0:0:
