osu file format v14

[General]
AudioFilename: audio.mp3
AudioLeadIn: 0
PreviewTime: 100045
Countdown: 0
SampleSet: Normal
StackLeniency: 0.7
Mode: 3
LetterboxInBreaks: 0
SpecialStyle: 0
WidescreenStoryboard: 0

[Editor]
DistanceSpacing: 1
BeatDivisor: 16
GridSize: 32
TimelineZoom: 2.599999

[Metadata]
Title:Shakushain
TitleUnicode:シャクシャイン
Artist:Wednesday Campanella
ArtistUnicode:水曜日のカンパネラ
Creator:Penguinosity
Version:Shakushaku
Source:
Tags:jpop j-pop dance music electronic EDM japanese suiyoubi no kanpanera 釼持英郁 Kenmochi Hidefumi つばさレコーズ Tsubasa Entertainment Records コムアイ KOM_I demo6 TRNW-0138 TRNW-0150 ケンモチヒデフミ 北海道 hokkaido ジパング Zipangu 輿 美咲 Misaki Koshi Pop
BeatmapID:2663884
BeatmapSetID:1282584

[Difficulty]
HPDrainRate:8.5
CircleSize:4
OverallDifficulty:7.4
ApproachRate:5
SliderMultiplier:1.4
SliderTickRate:1

[Events]
//Background and Video events
0,0,"bg.jpg",0,0
//Break Periods
//Storyboard Layer 0 (Background)
//Storyboard Layer 1 (Fail)
//Storyboard Layer 2 (Pass)
//Storyboard Layer 3 (Foreground)
//Storyboard Layer 4 (Overlay)
//Storyboard Sound Samples

[TimingPoints]
359,461.538462,4,1,1,25,1,0
4051,-100,4,1,1,30,0,0
18820,-100,4,1,1,25,0,0
26205,-100,4,1,1,20,0,0
33589,-100,4,1,1,30,0,0
77897,-100,4,1,1,35,0,0
90359,-100,4,1,1,40,0,0
91051,-100,4,1,1,45,0,0
91974,-100,4,1,1,25,0,0
92666,-100,4,1,1,35,0,0
99589,-100,4,1,1,40,0,0
100051,-100,4,1,1,35,0,0
114820,-100,4,1,1,30,0,0
121743,-100,4,1,1,40,0,0
122205,-100,4,1,1,30,0,0
136974,-100,4,1,1,35,0,0
149897,-100,4,1,1,40,0,0
150820,-100,4,1,1,45,0,0
151743,-100,4,1,1,35,0,0
164666,-100,4,1,1,40,0,0
165589,-100,4,1,1,45,0,0
166512,-100,4,1,1,35,0,0
196397,-100,4,1,1,30,0,0
202976,512.820512820513,4,1,1,25,1,0
202976,-90.0900900900901,4,1,1,25,0,0
203232,497.92531120332,4,1,1,25,1,0
203232,-92.5925925925926,4,1,1,25,0,0
203481,481.927710843374,4,1,1,25,1,0
203481,-96.1538461538461,4,1,1,25,0,0
203722,459.770114942529,4,1,1,25,1,0
203722,-100,4,1,1,25,0,0
203952,442.80442804428,4,1,1,25,1,0
203952,-104.166666666667,4,1,1,25,0,0
204173,425.531914893617,4,1,1,25,1,0
204173,-108.695652173913,4,1,1,25,0,0
204386,406.779661016949,4,1,1,25,1,0
204386,-113.636363636364,4,1,1,25,0,0
204589,394.736842105263,4,1,1,25,1,0
204589,-116.279069767442,4,1,1,25,0,0
204787,373.831775700935,4,1,1,25,1,0
204787,-123.456790123457,4,1,1,25,0,0
204974,360.36036036036,4,1,1,25,1,0
204974,-128.205128205128,4,1,1,25,0,0
205154,345.821325648415,4,1,1,25,1,0
205154,-133.333333333333,4,1,1,25,0,0
205327,333.333333333333,4,1,1,25,1,0
205327,-138.888888888889,4,1,1,25,0,0
205493,317.460317460317,4,1,1,25,1,0
205493,-144.927536231884,4,1,1,25,0,0
205652,305.343511450382,4,1,1,25,1,0
205652,-151.515151515152,4,1,1,25,0,0
205805,292.682926829268,4,1,1,25,1,0
205805,-158.730158730159,4,1,1,25,0,0
205951,280.373831775701,4,1,1,25,1,0
205951,-163.934426229508,4,1,1,25,0,0
206091,270.27027027027,4,1,1,25,1,0
206091,-169.491525423729,4,1,1,25,0,0
206226,259.179265658747,4,1,1,25,1,0
206226,-178.571428571429,4,1,1,25,0,0
206356,250,4,1,1,25,1,0
206356,-185.185185185185,4,1,1,25,0,0
206481,237.623762376238,4,1,1,25,1,0
206481,-196.078431372549,4,1,1,25,0,0
206600,227.703984819734,4,1,1,25,1,0
206600,-204.081632653061,4,1,1,25,0,0
206714,220.994475138122,4,1,1,25,1,0
206714,-208.333333333333,4,1,1,25,0,0
206824,211.267605633803,4,1,1,25,1,0
206824,-217.391304347826,4,1,1,25,0,0
206930,200.66889632107,4,1,1,25,1,0
206930,-232.558139534884,4,1,1,25,0,0
207030,194.805194805195,4,1,1,25,1,0
207030,-238.095238095238,4,1,1,25,0,0
207128,186.335403726708,4,1,1,25,1,0
207128,-250,4,1,1,25,0,0
207221,179.372197309417,4,1,1,25,1,0
207221,-256.410256410256,4,1,1,25,0,0
207310,174.672489082969,4,1,1,25,1,0
207310,-263.157894736842,4,1,1,25,0,0
207398,169.971671388102,4,1,1,25,1,0
207398,-270.27027027027,4,1,1,25,0,0
207483,163.934426229508,4,1,1,25,1,0
207483,-277.777777777778,4,1,1,25,0,0
207565,161.507402422611,4,1,1,25,1,0
207565,-285.714285714286,4,1,1,25,0,0
207645,157.687253613666,4,1,1,25,1,0
207645,-294.117647058824,4,1,1,25,0,0
207724,154.440154440154,4,1,1,25,1,0
207724,-303.030303030303,4,1,1,25,0,0
207802,461.538461538462,4,1,1,25,1,0

[HitObjects]
64,192,359,5,0,0:0:0:0:
192,192,359,1,0,0:0:0:0:
320,192,589,1,0,0:0:0:0:
64,192,705,1,0,0:0:0:0:
320,192,820,1,0,0:0:0:0:
320,192,1051,1,0,0:0:0:0:
64,192,1282,1,0,0:0:0:0:
320,192,1397,1,0,0:0:0:0:
64,192,1512,1,0,0:0:0:0:
64,192,1743,1,0,0:0:0:0:
320,192,2205,1,0,0:0:0:0:
448,192,2205,1,0,0:0:0:0:
192,192,2435,1,0,0:0:0:0:
448,192,2551,1,0,0:0:0:0:
192,192,2666,1,0,0:0:0:0:
192,192,2897,1,0,0:0:0:0:
448,192,3128,1,0,0:0:0:0:
192,192,3243,1,0,0:0:0:0:
448,192,3359,1,0,0:0:0:0:
64,192,3589,1,0,0:0:0:0:
448,192,3589,1,0,0:0:0:0:
64,192,4051,1,2,0:0:0:0:
448,192,4051,1,0,0:0:0:0:
448,192,4282,1,0,0:0:0:0:
320,192,4339,1,0,0:0:0:0:
192,192,4397,1,2,0:0:0:0:
64,192,4455,1,0,0:0:0:0:
320,192,4512,1,2,0:0:0:0:
192,192,4743,1,2,0:0:0:0:
320,192,4743,1,0,0:0:0:0:
448,192,4974,1,0,0:0:0:0:
192,192,5089,1,2,0:0:0:0:
192,192,5205,1,2,0:0:0:0:
192,192,5435,1,2,0:0:0:0:
448,192,5435,1,0,0:0:0:0:
192,192,5666,1,0,0:0:0:0:
64,192,5695,1,0,0:0:0:0:
448,192,5782,1,0,0:0:0:0:
320,192,5810,1,0,0:0:0:0:
64,192,5897,1,2,0:0:0:0:
320,192,6012,1,0,0:0:0:0:
64,192,6128,1,0,0:0:0:0:
192,192,6185,1,0,0:0:0:0:
320,192,6243,1,2,0:0:0:0:
448,192,6301,1,0,0:0:0:0:
64,192,6359,1,2,0:0:0:0:
64,192,6474,1,0,0:0:0:0:
320,192,6589,1,2,0:0:0:0:
448,192,6589,1,0,0:0:0:0:
64,192,6705,1,0,0:0:0:0:
320,192,6820,1,0,0:0:0:0:
64,192,6935,1,2,0:0:0:0:
192,192,6935,1,0,0:0:0:0:
448,192,7051,128,2,7166:0:0:0:0:
192,192,7166,128,0,7282:0:0:0:0:
320,192,7282,128,2,7512:0:0:0:0:
448,192,7282,1,0,0:0:0:0:
192,192,7512,1,0,0:0:0:0:
64,192,7570,1,0,0:0:0:0:
448,192,7628,1,0,0:0:0:0:
64,192,7743,1,2,0:0:0:0:
192,192,7743,1,0,0:0:0:0:
64,192,7974,1,0,0:0:0:0:
192,192,8032,1,0,0:0:0:0:
320,192,8089,1,2,0:0:0:0:
448,192,8147,1,0,0:0:0:0:
64,192,8205,1,2,0:0:0:0:
320,192,8320,1,0,0:0:0:0:
64,192,8435,1,2,0:0:0:0:
192,192,8435,1,0,0:0:0:0:
448,192,8666,1,0,0:0:0:0:
192,192,8782,1,2,0:0:0:0:
320,192,8782,1,0,0:0:0:0:
192,192,8897,1,2,0:0:0:0:
448,192,8897,1,0,0:0:0:0:
64,192,9128,1,2,0:0:0:0:
320,192,9128,1,0,0:0:0:0:
320,192,9359,1,0,0:0:0:0:
448,192,9416,1,0,0:0:0:0:
192,192,9474,1,0,0:0:0:0:
320,192,9589,1,2,0:0:0:0:
448,192,9589,1,0,0:0:0:0:
192,192,9820,1,0,0:0:0:0:
320,192,9935,1,2,0:0:0:0:
448,192,9935,1,0,0:0:0:0:
192,192,10051,1,2,0:0:0:0:
448,192,10051,1,0,0:0:0:0:
64,192,10282,1,2,0:0:0:0:
320,192,10282,1,0,0:0:0:0:
448,192,10397,1,0,0:0:0:0:
64,192,10512,1,0,0:0:0:0:
192,192,10628,1,2,0:0:0:0:
320,192,10628,1,0,0:0:0:0:
192,192,10743,1,2,0:0:0:0:
448,192,10743,1,0,0:0:0:0:
64,192,10974,1,2,0:0:0:0:
448,192,10974,1,0,0:0:0:0:
64,192,11205,1,0,0:0:0:0:
192,192,11262,1,0,0:0:0:0:
448,192,11320,1,0,0:0:0:0:
64,192,11435,128,2,11551:0:0:0:0:
192,192,11435,1,0,0:0:0:0:
448,192,11666,1,0,0:0:0:0:
320,192,11724,1,0,0:0:0:0:
192,192,11782,1,2,0:0:0:0:
64,192,11839,1,0,0:0:0:0:
320,192,11897,1,2,0:0:0:0:
64,192,12012,1,0,0:0:0:0:
192,192,12128,1,2,0:0:0:0:
320,192,12128,1,0,0:0:0:0:
64,192,12243,1,0,0:0:0:0:
448,192,12359,1,0,0:0:0:0:
192,192,12474,1,2,0:0:0:0:
320,192,12474,1,0,0:0:0:0:
64,192,12589,128,2,12705:0:0:0:0:
192,192,12589,128,0,12705:0:0:0:0:
192,192,12820,1,2,0:0:0:0:
448,192,12820,1,0,0:0:0:0:
448,192,13051,128,0,13166:0:0:0:0:
64,192,13166,1,0,0:0:0:0:
192,192,13224,1,0,0:0:0:0:
320,192,13282,1,2,0:0:0:0:
448,192,13512,1,0,0:0:0:0:
320,192,13570,1,0,0:0:0:0:
64,192,13628,1,2,0:0:0:0:
192,192,13685,1,0,0:0:0:0:
448,192,13743,1,2,0:0:0:0:
192,192,13974,1,2,0:0:0:0:
192,192,14089,1,0,0:0:0:0:
448,192,14205,1,0,0:0:0:0:
64,192,14320,1,2,0:0:0:0:
192,192,14320,1,0,0:0:0:0:
320,192,14435,1,2,0:0:0:0:
448,192,14435,1,0,0:0:0:0:
64,192,14551,128,0,14666:0:0:0:0:
192,192,14666,128,2,14782:0:0:0:0:
448,192,14666,1,0,0:0:0:0:
64,192,14897,1,0,0:0:0:0:
192,192,14955,1,0,0:0:0:0:
320,192,15012,1,0,0:0:0:0:
64,192,15128,1,2,0:0:0:0:
192,192,15128,1,0,0:0:0:0:
64,192,15359,1,0,0:0:0:0:
192,192,15474,1,2,0:0:0:0:
64,192,15532,1,0,0:0:0:0:
320,192,15589,1,2,0:0:0:0:
448,192,15589,1,0,0:0:0:0:
64,192,15820,128,2,15935:0:0:0:0:
448,192,15820,128,0,15935:0:0:0:0:
320,192,16051,1,0,0:0:0:0:
64,192,16166,1,2,0:0:0:0:
192,192,16166,1,0,0:0:0:0:
192,192,16282,1,2,0:0:0:0:
448,192,16282,1,0,0:0:0:0:
64,192,16512,1,2,0:0:0:0:
448,192,16512,1,0,0:0:0:0:
320,192,16628,1,0,0:0:0:0:
64,192,16743,1,0,0:0:0:0:
192,192,16801,1,0,0:0:0:0:
320,192,16859,1,0,0:0:0:0:
64,192,16974,128,2,17205:0:0:0:0:
192,192,16974,1,0,0:0:0:0:
448,192,17205,1,0,0:0:0:0:
320,192,17262,1,0,0:0:0:0:
64,192,17320,1,2,0:0:0:0:
192,192,17378,1,0,0:0:0:0:
448,192,17435,1,2,0:0:0:0:
64,192,17666,1,2,0:0:0:0:
320,192,17666,1,0,0:0:0:0:
448,192,17782,1,0,0:0:0:0:
192,192,17897,1,0,0:0:0:0:
320,192,18012,1,2,0:0:0:0:
448,192,18012,1,0,0:0:0:0:
320,192,18128,1,2,0:0:0:0:
448,192,18128,1,0,0:0:0:0:
320,192,18359,1,2,0:0:0:0:
448,192,18359,1,0,0:0:0:0:
192,192,18647,1,0,0:0:0:0:
320,192,18705,1,0,0:0:0:0:
448,192,18762,1,0,0:0:0:0:
64,192,18820,128,0,18935:0:0:0:0:
192,192,18820,1,0,0:0:0:0:
448,192,19051,128,0,19166:0:0:0:0:
64,192,19109,1,0,0:0:0:0:
192,192,19166,1,0,0:0:0:0:
320,192,19224,1,0,0:0:0:0:
64,192,19282,128,0,19397:0:0:0:0:
448,192,19282,1,0,0:0:0:0:
64,192,19512,128,0,19743:0:0:0:0:
448,192,19512,128,0,19859:0:0:0:0:
320,192,19743,128,0,20089:0:0:0:0:
64,192,19859,1,0,0:0:0:0:
64,192,19974,128,0,20205:0:0:0:0:
448,192,19974,1,0,0:0:0:0:
320,192,20205,1,0,0:0:0:0:
448,192,20205,1,0,0:0:0:0:
64,192,20435,128,0,20551:0:0:0:0:
320,192,20551,1,0,0:0:0:0:
448,192,20609,1,0,0:0:0:0:
192,192,20666,128,0,20782:0:0:0:0:
448,192,20782,128,0,20897:0:0:0:0:
192,192,20897,1,0,0:0:0:0:
64,192,20955,1,0,0:0:0:0:
320,192,21012,128,0,21128:0:0:0:0:
64,192,21128,128,0,21243:0:0:0:0:
192,192,21128,1,0,0:0:0:0:
448,192,21243,128,0,21359:0:0:0:0:
192,192,21359,128,0,21474:0:0:0:0:
320,192,21359,1,0,0:0:0:0:
448,192,21474,128,0,21589:0:0:0:0:
64,192,21589,1,0,0:0:0:0:
320,192,21705,1,0,0:0:0:0:
448,192,21705,1,0,0:0:0:0:
64,192,21820,128,0,22166:0:0:0:0:
320,192,21820,1,0,0:0:0:0:
192,192,21935,128,0,22166:0:0:0:0:
320,192,22051,1,0,0:0:0:0:
448,192,22051,128,0,22282:0:0:0:0:
192,192,22282,1,0,0:0:0:0:
64,192,22339,1,0,0:0:0:0:
320,192,22397,1,0,0:0:0:0:
64,192,22512,128,0,22628:0:0:0:0:
192,192,22512,1,0,0:0:0:0:
64,192,22743,128,0,22974:0:0:0:0:
192,192,22859,1,0,0:0:0:0:
320,192,22916,1,0,0:0:0:0:
448,192,22974,128,0,23089:0:0:0:0:
192,192,23089,128,0,23205:0:0:0:0:
64,192,23205,128,0,23320:0:0:0:0:
320,192,23205,128,0,23320:0:0:0:0:
448,192,23435,128,0,23551:0:0:0:0:
64,192,23551,1,0,0:0:0:0:
192,192,23551,1,0,0:0:0:0:
64,192,23666,128,0,23782:0:0:0:0:
320,192,23666,128,0,23782:0:0:0:0:
192,192,23897,128,0,24012:0:0:0:0:
448,192,23897,128,0,24012:0:0:0:0:
320,192,24128,128,0,24243:0:0:0:0:
192,192,24243,1,0,0:0:0:0:
64,192,24301,1,0,0:0:0:0:
320,192,24359,1,0,0:0:0:0:
448,192,24359,128,0,24589:0:0:0:0:
64,192,24589,1,0,0:0:0:0:
192,192,24705,1,0,0:0:0:0:
320,192,24762,1,0,0:0:0:0:
64,192,24820,128,0,24935:0:0:0:0:
448,192,24820,1,0,0:0:0:0:
64,192,25051,1,0,0:0:0:0:
320,192,25051,128,0,25166:0:0:0:0:
448,192,25166,128,0,25282:0:0:0:0:
64,192,25282,128,0,25397:0:0:0:0:
320,192,25397,1,0,0:0:0:0:
448,192,25397,1,0,0:0:0:0:
320,192,25512,128,0,25628:0:0:0:0:
448,192,25512,128,0,25628:0:0:0:0:
64,192,25743,128,0,25859:0:0:0:0:
320,192,25743,128,0,25859:0:0:0:0:
192,192,25974,1,0,0:0:0:0:
64,192,26032,1,0,0:0:0:0:
448,192,26089,1,0,0:0:0:0:
64,192,26205,1,0,0:0:0:0:
192,192,26205,1,0,0:0:0:0:
320,192,26435,128,0,26551:0:0:0:0:
64,192,26551,128,0,26666:0:0:0:0:
320,192,26666,128,0,26897:0:0:0:0:
64,192,26782,128,0,26897:0:0:0:0:
320,192,27012,1,0,0:0:0:0:
448,192,27012,128,0,27128:0:0:0:0:
192,192,27128,128,0,27359:0:0:0:0:
64,192,27243,1,0,0:0:0:0:
320,192,27359,128,0,27589:0:0:0:0:
448,192,27359,1,0,0:0:0:0:
448,192,27589,128,0,27705:0:0:0:0:
64,192,27820,128,0,27935:0:0:0:0:
192,192,27820,128,0,27935:0:0:0:0:
64,192,28051,128,0,28166:0:0:0:0:
448,192,28051,128,0,28166:0:0:0:0:
192,192,28282,128,0,28397:0:0:0:0:
320,192,28282,128,0,28397:0:0:0:0:
448,192,28397,128,0,28512:0:0:0:0:
64,192,28512,128,0,28628:0:0:0:0:
192,192,28512,128,0,28628:0:0:0:0:
192,192,28743,128,0,28859:0:0:0:0:
448,192,28743,128,0,28859:0:0:0:0:
64,192,28859,128,0,28974:0:0:0:0:
320,192,28974,128,0,29089:0:0:0:0:
448,192,28974,128,0,29089:0:0:0:0:
192,192,29089,1,0,0:0:0:0:
64,192,29205,128,0,29320:0:0:0:0:
448,192,29205,1,0,0:0:0:0:
320,192,29320,128,0,29551:0:0:0:0:
64,192,29435,128,0,29551:0:0:0:0:
64,192,29666,128,0,29897:0:0:0:0:
320,192,29666,128,0,29782:0:0:0:0:
320,192,29897,128,0,30012:0:0:0:0:
448,192,29897,128,0,30012:0:0:0:0:
64,192,30128,128,0,30243:0:0:0:0:
192,192,30128,128,0,30243:0:0:0:0:
320,192,30243,128,0,30359:0:0:0:0:
64,192,30359,128,0,30474:0:0:0:0:
192,192,30359,128,0,30474:0:0:0:0:
448,192,30589,128,0,30705:0:0:0:0:
320,192,30705,128,0,30935:0:0:0:0:
64,192,30820,1,0,0:0:0:0:
448,192,30820,128,0,30935:0:0:0:0:
192,192,30935,128,0,31166:0:0:0:0:
320,192,31051,128,0,31282:0:0:0:0:
64,192,31282,1,0,0:0:0:0:
192,192,31282,128,0,31397:0:0:0:0:
448,192,31397,128,0,31512:0:0:0:0:
64,192,31512,128,0,31628:0:0:0:0:
320,192,31512,128,0,31628:0:0:0:0:
448,192,31628,128,0,31743:0:0:0:0:
64,192,31743,128,0,31974:0:0:0:0:
192,192,31743,128,0,31974:0:0:0:0:
448,192,31974,128,0,32089:0:0:0:0:
64,192,32089,1,0,0:0:0:0:
320,192,32089,1,0,0:0:0:0:
320,192,32205,128,0,32320:0:0:0:0:
64,192,32435,1,0,0:0:0:0:
448,192,32435,1,0,0:0:0:0:
64,192,32551,128,0,32666:0:0:0:0:
320,192,32666,128,0,32782:0:0:0:0:
448,192,32666,128,0,32782:0:0:0:0:
64,192,32782,128,0,32897:0:0:0:0:
192,192,32897,128,0,33012:0:0:0:0:
320,192,32897,128,0,33012:0:0:0:0:
64,192,33128,1,0,0:0:0:0:
448,192,33128,1,0,0:0:0:0:
64,192,33359,1,2,0:0:0:0:
192,192,33359,1,0,0:0:0:0:
448,192,33359,1,0,0:0:0:0:
64,192,33589,1,2,0:0:0:0:
320,192,33589,1,0,0:0:0:0:
448,192,33589,128,0,33820:0:0:0:0:
64,192,33820,1,0,0:0:0:0:
192,192,33935,1,2,0:0:0:0:
192,192,34051,1,2,0:0:0:0:
448,192,34051,1,0,0:0:0:0:
64,192,34166,1,0,0:0:0:0:
320,192,34282,1,2,0:0:0:0:
448,192,34282,1,0,0:0:0:0:
192,192,34397,1,0,0:0:0:0:
320,192,34512,1,0,0:0:0:0:
64,192,34628,1,2,0:0:0:0:
192,192,34628,1,0,0:0:0:0:
320,192,34743,1,2,0:0:0:0:
448,192,34743,1,0,0:0:0:0:
64,192,34974,1,2,0:0:0:0:
448,192,34974,128,0,35205:0:0:0:0:
64,192,35205,1,0,0:0:0:0:
192,192,35262,1,0,0:0:0:0:
320,192,35320,1,0,0:0:0:0:
448,192,35378,1,0,0:0:0:0:
64,192,35435,1,2,0:0:0:0:
192,192,35435,1,0,0:0:0:0:
192,192,35666,128,0,35897:0:0:0:0:
320,192,35782,128,2,35897:0:0:0:0:
448,192,35897,128,2,36012:0:0:0:0:
64,192,36012,128,0,36128:0:0:0:0:
192,192,36128,1,2,0:0:0:0:
448,192,36128,1,0,0:0:0:0:
192,192,36243,1,0,0:0:0:0:
320,192,36359,128,0,36474:0:0:0:0:
448,192,36359,128,0,36474:0:0:0:0:
64,192,36474,128,2,36589:0:0:0:0:
192,192,36589,128,2,36705:0:0:0:0:
448,192,36589,128,0,36705:0:0:0:0:
64,192,36705,128,0,36820:0:0:0:0:
320,192,36820,1,2,0:0:0:0:
448,192,36820,1,0,0:0:0:0:
320,192,36935,128,0,37051:0:0:0:0:
192,192,37166,128,0,37282:0:0:0:0:
64,192,37282,1,2,0:0:0:0:
448,192,37282,128,0,37512:0:0:0:0:
192,192,37512,128,0,37628:0:0:0:0:
320,192,37628,128,2,37743:0:0:0:0:
64,192,37743,1,2,0:0:0:0:
448,192,37743,1,0,0:0:0:0:
192,192,37859,128,0,37974:0:0:0:0:
320,192,37974,128,2,38089:0:0:0:0:
448,192,37974,128,0,38089:0:0:0:0:
192,192,38089,128,0,38205:0:0:0:0:
64,192,38320,1,2,0:0:0:0:
192,192,38435,1,2,0:0:0:0:
448,192,38435,1,0,0:0:0:0:
64,192,38551,1,0,0:0:0:0:
320,192,38666,1,2,0:0:0:0:
448,192,38666,1,0,0:0:0:0:
64,192,38897,1,0,0:0:0:0:
320,192,38955,1,0,0:0:0:0:
448,192,39012,1,0,0:0:0:0:
64,192,39070,1,0,0:0:0:0:
192,192,39128,1,2,0:0:0:0:
320,192,39128,1,0,0:0:0:0:
64,192,39359,128,0,39474:0:0:0:0:
192,192,39359,128,0,39474:0:0:0:0:
320,192,39474,128,2,39589:0:0:0:0:
64,192,39589,128,2,39705:0:0:0:0:
448,192,39589,1,0,0:0:0:0:
320,192,39705,128,0,39820:0:0:0:0:
64,192,39820,1,2,0:0:0:0:
448,192,39820,1,0,0:0:0:0:
192,192,39935,128,0,40166:0:0:0:0:
448,192,40166,128,2,40282:0:0:0:0:
192,192,40282,128,2,40397:0:0:0:0:
320,192,40282,1,0,0:0:0:0:
64,192,40397,128,0,40512:0:0:0:0:
320,192,40512,1,2,0:0:0:0:
448,192,40512,1,0,0:0:0:0:
320,192,40628,128,0,40743:0:0:0:0:
64,192,40743,1,0,0:0:0:0:
448,192,40859,128,0,40974:0:0:0:0:
64,192,40974,1,2,0:0:0:0:
192,192,40974,1,0,0:0:0:0:
320,192,41089,128,0,41205:0:0:0:0:
64,192,41205,128,0,41320:0:0:0:0:
448,192,41320,1,2,0:0:0:0:
320,192,41378,1,0,0:0:0:0:
192,192,41435,1,2,0:0:0:0:
448,192,41551,1,0,0:0:0:0:
64,192,41666,128,2,41782:0:0:0:0:
192,192,41666,1,0,0:0:0:0:
64,192,41897,1,0,0:0:0:0:
192,192,42012,1,2,0:0:0:0:
448,192,42012,1,0,0:0:0:0:
64,192,42128,1,2,0:0:0:0:
448,192,42128,1,0,0:0:0:0:
64,192,42243,1,0,0:0:0:0:
320,192,42359,1,2,0:0:0:0:
448,192,42359,1,0,0:0:0:0:
64,192,42589,1,0,0:0:0:0:
192,192,42618,1,0,0:0:0:0:
448,192,42705,1,0,0:0:0:0:
320,192,42734,1,0,0:0:0:0:
64,192,42820,128,2,42935:0:0:0:0:
192,192,42820,128,0,42935:0:0:0:0:
448,192,43051,1,0,0:0:0:0:
64,192,43109,1,0,0:0:0:0:
192,192,43166,1,2,0:0:0:0:
320,192,43224,1,0,0:0:0:0:
64,192,43282,128,2,43397:0:0:0:0:
448,192,43282,128,0,43397:0:0:0:0:
64,192,43512,128,2,43628:0:0:0:0:
448,192,43512,128,0,43743:0:0:0:0:
64,192,43743,128,0,43859:0:0:0:0:
192,192,43743,128,0,43859:0:0:0:0:
64,192,43974,1,2,0:0:0:0:
448,192,43974,128,0,44089:0:0:0:0:
320,192,44089,1,0,0:0:0:0:
192,192,44205,1,2,0:0:0:0:
448,192,44205,1,0,0:0:0:0:
448,192,44320,1,0,0:0:0:0:
64,192,44435,1,0,0:0:0:0:
192,192,44493,1,0,0:0:0:0:
320,192,44551,1,0,0:0:0:0:
448,192,44609,1,0,0:0:0:0:
64,192,44666,128,2,44897:0:0:0:0:
192,192,44666,128,0,44897:0:0:0:0:
448,192,44897,128,0,45012:0:0:0:0:
192,192,45012,1,2,0:0:0:0:
320,192,45070,1,0,0:0:0:0:
64,192,45128,1,2,0:0:0:0:
448,192,45128,1,0,0:0:0:0:
192,192,45243,1,0,0:0:0:0:
64,192,45359,1,2,0:0:0:0:
448,192,45359,128,0,45474:0:0:0:0:
320,192,45474,1,0,0:0:0:0:
64,192,45589,128,0,45705:0:0:0:0:
192,192,45705,1,2,0:0:0:0:
320,192,45705,1,0,0:0:0:0:
320,192,45820,128,2,45935:0:0:0:0:
448,192,45820,128,0,45935:0:0:0:0:
64,192,46051,128,2,46166:0:0:0:0:
448,192,46051,128,0,46166:0:0:0:0:
64,192,46282,1,0,0:0:0:0:
320,192,46397,1,0,0:0:0:0:
448,192,46455,1,0,0:0:0:0:
64,192,46512,128,2,46743:0:0:0:0:
192,192,46512,128,0,46628:0:0:0:0:
448,192,46628,128,0,46859:0:0:0:0:
320,192,46743,128,0,46859:0:0:0:0:
192,192,46859,1,2,0:0:0:0:
64,192,46916,1,0,0:0:0:0:
320,192,46974,1,2,0:0:0:0:
192,192,47089,1,0,0:0:0:0:
320,192,47205,1,2,0:0:0:0:
448,192,47205,1,0,0:0:0:0:
448,192,47320,1,0,0:0:0:0:
64,192,47435,1,0,0:0:0:0:
192,192,47435,1,0,0:0:0:0:
192,192,47551,1,2,0:0:0:0:
448,192,47551,1,0,0:0:0:0:
64,192,47666,128,2,47782:0:0:0:0:
448,192,47666,128,0,47782:0:0:0:0:
64,192,47897,128,2,48012:0:0:0:0:
320,192,47897,128,0,48012:0:0:0:0:
448,192,48128,128,0,48359:0:0:0:0:
64,192,48205,1,0,0:0:0:0:
320,192,48282,1,0,0:0:0:0:
64,192,48359,128,2,48589:0:0:0:0:
192,192,48359,128,0,48589:0:0:0:0:
448,192,48589,1,0,0:0:0:0:
320,192,48647,1,0,0:0:0:0:
192,192,48705,1,2,0:0:0:0:
64,192,48762,1,0,0:0:0:0:
320,192,48820,128,2,48935:0:0:0:0:
64,192,48935,128,0,49051:0:0:0:0:
320,192,49051,1,2,0:0:0:0:
448,192,49051,1,0,0:0:0:0:
448,192,49282,128,0,49397:0:0:0:0:
64,192,49397,1,2,0:0:0:0:
64,192,49512,1,2,0:0:0:0:
320,192,49512,1,0,0:0:0:0:
448,192,49628,1,0,0:0:0:0:
64,192,49743,1,2,0:0:0:0:
192,192,49743,1,0,0:0:0:0:
448,192,49859,1,0,0:0:0:0:
192,192,49974,1,0,0:0:0:0:
320,192,50089,1,0,0:0:0:0:
64,192,50205,128,2,50320:0:0:0:0:
192,192,50205,1,0,0:0:0:0:
448,192,50435,1,0,0:0:0:0:
320,192,50493,1,0,0:0:0:0:
192,192,50551,1,2,0:0:0:0:
64,192,50609,1,0,0:0:0:0:
320,192,50666,1,2,0:0:0:0:
448,192,50666,1,0,0:0:0:0:
64,192,50897,1,2,0:0:0:0:
448,192,50897,1,0,0:0:0:0:
448,192,51012,1,0,0:0:0:0:
64,192,51128,128,0,51243:0:0:0:0:
192,192,51128,128,0,51243:0:0:0:0:
448,192,51243,128,2,51359:0:0:0:0:
64,192,51359,128,2,51474:0:0:0:0:
320,192,51359,128,0,51474:0:0:0:0:
192,192,51589,128,2,51705:0:0:0:0:
448,192,51589,1,0,0:0:0:0:
64,192,51705,128,0,51820:0:0:0:0:
320,192,51820,1,0,0:0:0:0:
448,192,51820,1,0,0:0:0:0:
64,192,51935,1,0,0:0:0:0:
192,192,51935,1,0,0:0:0:0:
64,192,52051,1,2,0:0:0:0:
448,192,52051,1,0,0:0:0:0:
320,192,52166,1,0,0:0:0:0:
64,192,52282,1,0,0:0:0:0:
192,192,52339,1,0,0:0:0:0:
320,192,52397,1,2,0:0:0:0:
448,192,52455,1,0,0:0:0:0:
64,192,52512,128,2,52628:0:0:0:0:
192,192,52512,128,0,52628:0:0:0:0:
64,192,52743,1,2,0:0:0:0:
448,192,52743,1,0,0:0:0:0:
448,192,52859,1,0,0:0:0:0:
192,192,52974,1,0,0:0:0:0:
320,192,53089,1,2,0:0:0:0:
448,192,53089,1,0,0:0:0:0:
64,192,53205,1,2,0:0:0:0:
320,192,53205,1,0,0:0:0:0:
64,192,53435,1,2,0:0:0:0:
448,192,53435,1,0,0:0:0:0:
192,192,53666,1,0,0:0:0:0:
320,192,53724,1,0,0:0:0:0:
448,192,53782,1,0,0:0:0:0:
64,192,53897,128,0,54012:0:0:0:0:
192,192,53897,1,0,0:0:0:0:
320,192,54012,128,0,54128:0:0:0:0:
64,192,54128,128,0,54243:0:0:0:0:
320,192,54243,1,0,0:0:0:0:
448,192,54301,1,0,0:0:0:0:
64,192,54359,1,0,0:0:0:0:
192,192,54359,1,0,0:0:0:0:
320,192,54474,128,0,54589:0:0:0:0:
448,192,54589,1,0,0:0:0:0:
64,192,54705,1,0,0:0:0:0:
192,192,54705,1,0,0:0:0:0:
192,192,54820,1,0,0:0:0:0:
320,192,54820,1,0,0:0:0:0:
448,192,54935,1,0,0:0:0:0:
320,192,55051,1,0,0:0:0:0:
320,192,55166,1,0,0:0:0:0:
64,192,55282,1,2,0:0:0:0:
192,192,55282,1,0,0:0:0:0:
320,192,55368,1,0,0:0:0:0:
448,192,55426,1,0,0:0:0:0:
192,192,55484,1,0,0:0:0:0:
192,192,55599,1,0,0:0:0:0:
320,192,55743,1,2,0:0:0:0:
448,192,55743,1,0,0:0:0:0:
192,192,55859,128,0,55974:0:0:0:0:
64,192,55974,128,0,56089:0:0:0:0:
320,192,56089,1,2,0:0:0:0:
448,192,56147,1,0,0:0:0:0:
64,192,56205,128,2,56320:0:0:0:0:
448,192,56320,128,0,56435:0:0:0:0:
192,192,56435,1,2,0:0:0:0:
320,192,56551,128,0,56782:0:0:0:0:
64,192,56666,1,0,0:0:0:0:
192,192,56782,1,2,0:0:0:0:
448,192,56782,1,0,0:0:0:0:
64,192,56897,128,2,57012:0:0:0:0:
448,192,56897,128,0,57012:0:0:0:0:
64,192,57128,128,2,57243:0:0:0:0:
320,192,57128,128,0,57243:0:0:0:0:
192,192,57359,1,0,0:0:0:0:
64,192,57387,1,0,0:0:0:0:
320,192,57474,1,0,0:0:0:0:
448,192,57503,1,0,0:0:0:0:
64,192,57589,128,2,57705:0:0:0:0:
192,192,57589,128,0,57705:0:0:0:0:
320,192,57705,128,0,57820:0:0:0:0:
64,192,57820,128,0,57935:0:0:0:0:
192,192,57820,128,0,57935:0:0:0:0:
320,192,57935,1,2,0:0:0:0:
448,192,57993,1,0,0:0:0:0:
64,192,58051,128,2,58166:0:0:0:0:
192,192,58051,128,0,58166:0:0:0:0:
320,192,58166,128,0,58282:0:0:0:0:
64,192,58282,128,2,58397:0:0:0:0:
192,192,58282,128,0,58397:0:0:0:0:
448,192,58397,128,0,58512:0:0:0:0:
64,192,58512,128,0,58628:0:0:0:0:
320,192,58512,128,0,58628:0:0:0:0:
448,192,58628,1,2,0:0:0:0:
64,192,58743,1,2,0:0:0:0:
192,192,58743,128,0,58859:0:0:0:0:
320,192,58859,128,0,58974:0:0:0:0:
64,192,58974,128,2,59089:0:0:0:0:
448,192,58974,1,0,0:0:0:0:
64,192,59205,1,0,0:0:0:0:
192,192,59262,1,0,0:0:0:0:
320,192,59320,1,0,0:0:0:0:
64,192,59435,128,2,59666:0:0:0:0:
192,192,59435,1,0,0:0:0:0:
448,192,59666,128,0,59897:0:0:0:0:
192,192,59782,1,2,0:0:0:0:
64,192,59839,1,0,0:0:0:0:
320,192,59897,1,2,0:0:0:0:
64,192,60012,1,0,0:0:0:0:
192,192,60128,1,2,0:0:0:0:
448,192,60128,1,0,0:0:0:0:
192,192,60243,1,0,0:0:0:0:
64,192,60359,128,0,60589:0:0:0:0:
448,192,60474,1,2,0:0:0:0:
192,192,60589,128,2,60705:0:0:0:0:
448,192,60589,128,0,60705:0:0:0:0:
64,192,60820,128,2,60935:0:0:0:0:
192,192,60820,128,0,60935:0:0:0:0:
192,192,61051,1,0,0:0:0:0:
320,192,61109,1,0,0:0:0:0:
448,192,61166,1,0,0:0:0:0:
64,192,61282,128,2,61397:0:0:0:0:
192,192,61282,1,0,0:0:0:0:
320,192,61397,128,0,61628:0:0:0:0:
192,192,61512,128,0,61628:0:0:0:0:
64,192,61628,1,2,0:0:0:0:
64,192,61743,1,2,0:0:0:0:
320,192,61743,1,0,0:0:0:0:
192,192,61974,1,2,0:0:0:0:
320,192,61974,1,0,0:0:0:0:
448,192,62089,1,0,0:0:0:0:
320,192,62205,128,0,62320:0:0:0:0:
64,192,62320,1,2,0:0:0:0:
448,192,62320,128,0,62435:0:0:0:0:
192,192,62435,1,2,0:0:0:0:
320,192,62435,1,0,0:0:0:0:
64,192,62551,128,0,62666:0:0:0:0:
320,192,62666,1,2,0:0:0:0:
448,192,62666,1,0,0:0:0:0:
192,192,62782,128,0,63012:0:0:0:0:
448,192,62897,128,0,63128:0:0:0:0:
320,192,63012,1,0,0:0:0:0:
64,192,63128,1,2,0:0:0:0:
192,192,63128,1,0,0:0:0:0:
192,192,63359,1,0,0:0:0:0:
320,192,63359,1,0,0:0:0:0:
448,192,63474,1,0,0:0:0:0:
320,192,63532,1,0,0:0:0:0:
64,192,63589,1,0,0:0:0:0:
448,192,63676,1,0,0:0:0:0:
192,192,63734,1,0,0:0:0:0:
320,192,63820,1,0,0:0:0:0:
448,192,63878,1,0,0:0:0:0:
64,192,63964,1,0,0:0:0:0:
192,192,63964,1,0,0:0:0:0:
448,192,64051,128,0,64166:0:0:0:0:
192,192,64282,128,0,64397:0:0:0:0:
448,192,64282,128,0,64397:0:0:0:0:
64,192,64512,128,0,64743:0:0:0:0:
192,192,64512,1,0,0:0:0:0:
320,192,64743,128,0,64859:0:0:0:0:
64,192,64859,128,0,64974:0:0:0:0:
320,192,64974,1,2,0:0:0:0:
448,192,64974,1,0,0:0:0:0:
64,192,65089,1,0,0:0:0:0:
192,192,65205,1,0,0:0:0:0:
320,192,65320,1,2,0:0:0:0:
448,192,65378,1,0,0:0:0:0:
64,192,65435,1,2,0:0:0:0:
192,192,65435,1,0,0:0:0:0:
320,192,65551,1,0,0:0:0:0:
64,192,65666,1,2,0:0:0:0:
448,192,65666,1,0,0:0:0:0:
320,192,65782,1,0,0:0:0:0:
320,192,65897,1,0,0:0:0:0:
64,192,66012,1,2,0:0:0:0:
192,192,66012,1,0,0:0:0:0:
64,192,66128,1,2,0:0:0:0:
448,192,66128,1,0,0:0:0:0:
64,192,66359,1,2,0:0:0:0:
320,192,66359,128,0,66474:0:0:0:0:
448,192,66589,1,0,0:0:0:0:
320,192,66647,1,0,0:0:0:0:
192,192,66705,1,0,0:0:0:0:
320,192,66820,128,2,66935:0:0:0:0:
448,192,66820,1,0,0:0:0:0:
64,192,66935,128,0,67051:0:0:0:0:
448,192,67051,128,0,67166:0:0:0:0:
192,192,67166,1,2,0:0:0:0:
64,192,67224,1,0,0:0:0:0:
320,192,67282,128,2,67397:0:0:0:0:
64,192,67397,128,0,67512:0:0:0:0:
448,192,67512,128,2,67628:0:0:0:0:
192,192,67628,128,0,67743:0:0:0:0:
448,192,67743,1,0,0:0:0:0:
320,192,67820,1,0,0:0:0:0:
448,192,67897,1,0,0:0:0:0:
64,192,67974,1,2,0:0:0:0:
192,192,67974,1,0,0:0:0:0:
320,192,68089,1,0,0:0:0:0:
192,192,68205,1,2,0:0:0:0:
448,192,68205,1,0,0:0:0:0:
320,192,68320,1,0,0:0:0:0:
448,192,68320,1,0,0:0:0:0:
64,192,68435,1,0,0:0:0:0:
320,192,68551,1,0,0:0:0:0:
448,192,68551,1,0,0:0:0:0:
64,192,68666,128,2,68782:0:0:0:0:
192,192,68666,128,0,68782:0:0:0:0:
448,192,68782,128,0,68897:0:0:0:0:
192,192,68897,128,0,69012:0:0:0:0:
320,192,69012,1,2,0:0:0:0:
448,192,69070,1,0,0:0:0:0:
64,192,69128,128,2,69243:0:0:0:0:
320,192,69243,128,0,69359:0:0:0:0:
64,192,69359,128,2,69474:0:0:0:0:
448,192,69359,1,0,0:0:0:0:
320,192,69474,128,0,69589:0:0:0:0:
192,192,69589,128,0,69705:0:0:0:0:
320,192,69705,128,2,69935:0:0:0:0:
448,192,69705,1,0,0:0:0:0:
64,192,69820,128,2,69935:0:0:0:0:
192,192,69820,128,0,69935:0:0:0:0:
64,192,70051,128,2,70282:0:0:0:0:
320,192,70051,128,0,70282:0:0:0:0:
448,192,70282,128,0,70397:0:0:0:0:
192,192,70397,128,0,70512:0:0:0:0:
320,192,70512,128,2,70628:0:0:0:0:
448,192,70512,128,0,70628:0:0:0:0:
64,192,70628,128,0,70743:0:0:0:0:
448,192,70743,1,0,0:0:0:0:
320,192,70801,1,0,0:0:0:0:
192,192,70859,1,2,0:0:0:0:
64,192,70916,1,0,0:0:0:0:
320,192,70974,1,2,0:0:0:0:
448,192,70974,1,0,0:0:0:0:
64,192,71089,1,0,0:0:0:0:
192,192,71205,1,2,0:0:0:0:
192,192,71320,1,0,0:0:0:0:
448,192,71435,1,0,0:0:0:0:
64,192,71551,1,2,0:0:0:0:
320,192,71551,1,0,0:0:0:0:
64,192,71666,1,2,0:0:0:0:
448,192,71666,1,0,0:0:0:0:
64,192,71897,1,2,0:0:0:0:
192,192,71897,1,0,0:0:0:0:
320,192,72012,128,0,72128:0:0:0:0:
64,192,72128,128,0,72243:0:0:0:0:
320,192,72243,1,0,0:0:0:0:
448,192,72301,1,0,0:0:0:0:
64,192,72359,128,2,72589:0:0:0:0:
192,192,72359,128,0,72474:0:0:0:0:
320,192,72589,1,0,0:0:0:0:
448,192,72647,1,0,0:0:0:0:
64,192,72705,1,2,0:0:0:0:
192,192,72762,1,0,0:0:0:0:
448,192,72820,128,2,73051:0:0:0:0:
192,192,72935,128,0,73166:0:0:0:0:
64,192,73051,128,2,73166:0:0:0:0:
448,192,73282,128,0,73512:0:0:0:0:
64,192,73397,1,2,0:0:0:0:
320,192,73397,1,0,0:0:0:0:
64,192,73512,1,2,0:0:0:0:
192,192,73512,1,0,0:0:0:0:
448,192,73628,1,0,0:0:0:0:
64,192,73743,1,2,0:0:0:0:
320,192,73743,1,0,0:0:0:0:
448,192,73859,128,0,74089:0:0:0:0:
320,192,73974,128,0,74089:0:0:0:0:
192,192,74089,1,0,0:0:0:0:
64,192,74147,1,0,0:0:0:0:
320,192,74205,1,2,0:0:0:0:
448,192,74205,1,0,0:0:0:0:
192,192,74282,1,0,0:0:0:0:
448,192,74359,1,0,0:0:0:0:
64,192,74435,1,0,0:0:0:0:
192,192,74512,1,0,0:0:0:0:
448,192,74589,1,0,0:0:0:0:
64,192,74666,1,2,0:0:0:0:
192,192,74666,1,0,0:0:0:0:
320,192,74743,1,0,0:0:0:0:
192,192,74820,1,0,0:0:0:0:
320,192,74897,1,2,0:0:0:0:
448,192,74897,1,0,0:0:0:0:
64,192,74974,1,0,0:0:0:0:
448,192,75051,1,0,0:0:0:0:
192,192,75128,1,0,0:0:0:0:
64,192,75185,1,0,0:0:0:0:
320,192,75243,1,2,0:0:0:0:
448,192,75301,1,0,0:0:0:0:
64,192,75359,1,2,0:0:0:0:
192,192,75359,1,0,0:0:0:0:
320,192,75474,1,0,0:0:0:0:
448,192,75474,1,0,0:0:0:0:
64,192,75589,1,2,0:0:0:0:
192,192,75589,1,0,0:0:0:0:
448,192,75705,128,0,75820:0:0:0:0:
192,192,75820,1,0,0:0:0:0:
64,192,75878,1,0,0:0:0:0:
320,192,75935,1,0,0:0:0:0:
64,192,76051,128,2,76282:0:0:0:0:
448,192,76051,128,0,76282:0:0:0:0:
320,192,76282,128,0,76397:0:0:0:0:
64,192,76397,128,0,76743:0:0:0:0:
320,192,76512,128,0,76974:0:0:0:0:
448,192,76743,128,0,76974:0:0:0:0:
64,192,76859,128,0,77089:0:0:0:0:
448,192,77089,128,0,77551:0:0:0:0:
192,192,77205,128,0,77666:0:0:0:0:
64,192,77435,128,0,77666:0:0:0:0:
320,192,77435,128,0,77666:0:0:0:0:
448,192,77666,128,0,77782:0:0:0:0:
64,192,77897,128,4,78012:0:0:0:0:
192,192,77897,128,2,78012:0:0:0:0:
448,192,77897,128,0,78359:0:0:0:0:
192,192,78128,128,0,78243:0:0:0:0:
64,192,78359,1,2,0:0:0:0:
320,192,78359,1,0,0:0:0:0:
64,192,78589,1,2,0:0:0:0:
192,192,78589,1,0,0:0:0:0:
448,192,78705,128,0,78820:0:0:0:0:
320,192,78820,1,0,0:0:0:0:
64,192,78935,1,2,0:0:0:0:
448,192,78935,128,0,79051:0:0:0:0:
192,192,79051,1,2,0:0:0:0:
64,192,79166,1,0,0:0:0:0:
320,192,79282,1,2,0:0:0:0:
448,192,79282,1,0,0:0:0:0:
192,192,79397,128,0,79512:0:0:0:0:
64,192,79512,1,0,0:0:0:0:
192,192,79628,1,0,0:0:0:0:
320,192,79685,1,0,0:0:0:0:
64,192,79743,1,2,0:0:0:0:
448,192,79743,1,0,0:0:0:0:
192,192,79859,1,0,0:0:0:0:
320,192,79974,128,0,80089:0:0:0:0:
192,192,80089,1,2,0:0:0:0:
64,192,80147,1,0,0:0:0:0:
320,192,80205,1,2,0:0:0:0:
448,192,80205,1,0,0:0:0:0:
448,192,80320,1,0,0:0:0:0:
192,192,80435,1,2,0:0:0:0:
64,192,80551,128,0,80666:0:0:0:0:
448,192,80551,1,0,0:0:0:0:
320,192,80666,1,0,0:0:0:0:
64,192,80782,128,2,80897:0:0:0:0:
192,192,80897,1,2,0:0:0:0:
320,192,80897,1,0,0:0:0:0:
448,192,81012,1,0,0:0:0:0:
64,192,81128,1,2,0:0:0:0:
192,192,81128,1,0,0:0:0:0:
320,192,81243,128,0,81359:0:0:0:0:
64,192,81359,1,0,0:0:0:0:
448,192,81474,1,0,0:0:0:0:
64,192,81589,1,2,0:0:0:0:
320,192,81589,1,0,0:0:0:0:
192,192,81705,1,0,0:0:0:0:
448,192,81820,128,0,81935:0:0:0:0:
192,192,81935,1,2,0:0:0:0:
64,192,81993,1,0,0:0:0:0:
320,192,82051,1,2,0:0:0:0:
448,192,82051,1,0,0:0:0:0:
64,192,82166,1,0,0:0:0:0:
192,192,82282,1,2,0:0:0:0:
448,192,82282,1,0,0:0:0:0:
320,192,82397,128,0,82512:0:0:0:0:
64,192,82512,1,0,0:0:0:0:
320,192,82628,128,2,82743:0:0:0:0:
64,192,82743,1,2,0:0:0:0:
192,192,82743,1,0,0:0:0:0:
448,192,82859,1,0,0:0:0:0:
192,192,82974,1,2,0:0:0:0:
320,192,83089,128,0,83205:0:0:0:0:
448,192,83089,1,0,0:0:0:0:
64,192,83205,1,0,0:0:0:0:
320,192,83320,1,0,0:0:0:0:
448,192,83378,1,0,0:0:0:0:
64,192,83435,1,2,0:0:0:0:
192,192,83435,1,0,0:0:0:0:
64,192,83666,128,0,83782:0:0:0:0:
448,192,83666,1,0,0:0:0:0:
192,192,83782,1,2,0:0:0:0:
320,192,83897,1,2,0:0:0:0:
448,192,83897,1,0,0:0:0:0:
192,192,84012,1,0,0:0:0:0:
448,192,84128,1,2,0:0:0:0:
64,192,84243,128,0,84359:0:0:0:0:
192,192,84243,1,0,0:0:0:0:
448,192,84359,1,0,0:0:0:0:
64,192,84474,128,2,84589:0:0:0:0:
320,192,84474,1,0,0:0:0:0:
448,192,84589,1,2,0:0:0:0:
192,192,84705,1,0,0:0:0:0:
64,192,84820,1,2,0:0:0:0:
320,192,84820,1,0,0:0:0:0:
192,192,84935,128,0,85051:0:0:0:0:
448,192,85051,1,0,0:0:0:0:
192,192,85166,1,0,0:0:0:0:
64,192,85224,1,0,0:0:0:0:
320,192,85282,1,2,0:0:0:0:
448,192,85282,1,0,0:0:0:0:
64,192,85512,128,0,85628:0:0:0:0:
320,192,85628,1,2,0:0:0:0:
448,192,85685,1,0,0:0:0:0:
64,192,85743,1,2,0:0:0:0:
192,192,85743,1,0,0:0:0:0:
320,192,85859,1,0,0:0:0:0:
64,192,85974,1,2,0:0:0:0:
192,192,85974,1,0,0:0:0:0:
448,192,86089,128,0,86205:0:0:0:0:
192,192,86205,1,0,0:0:0:0:
320,192,86320,1,2,0:0:0:0:
448,192,86320,128,0,86435:0:0:0:0:
64,192,86435,1,2,0:0:0:0:
320,192,86551,1,0,0:0:0:0:
64,192,86666,1,2,0:0:0:0:
192,192,86666,1,0,0:0:0:0:
64,192,86782,128,0,86897:0:0:0:0:
448,192,86897,1,0,0:0:0:0:
192,192,87012,1,0,0:0:0:0:
64,192,87070,1,0,0:0:0:0:
320,192,87128,1,2,0:0:0:0:
448,192,87128,1,0,0:0:0:0:
64,192,87243,1,0,0:0:0:0:
192,192,87359,128,0,87474:0:0:0:0:
320,192,87474,1,2,0:0:0:0:
448,192,87532,1,0,0:0:0:0:
64,192,87589,1,2,0:0:0:0:
192,192,87589,1,0,0:0:0:0:
320,192,87705,1,0,0:0:0:0:
64,192,87820,1,2,0:0:0:0:
192,192,87820,1,0,0:0:0:0:
448,192,87935,128,0,88051:0:0:0:0:
192,192,88051,1,0,0:0:0:0:
448,192,88166,128,2,88282:0:0:0:0:
192,192,88282,1,2,0:0:0:0:
320,192,88282,1,0,0:0:0:0:
64,192,88397,1,0,0:0:0:0:
192,192,88512,1,2,0:0:0:0:
320,192,88512,1,0,0:0:0:0:
448,192,88628,128,0,88743:0:0:0:0:
64,192,88743,1,0,0:0:0:0:
320,192,88859,1,0,0:0:0:0:
320,192,88974,1,2,0:0:0:0:
448,192,88974,1,0,0:0:0:0:
192,192,89205,128,0,89320:0:0:0:0:
448,192,89320,1,2,0:0:0:0:
320,192,89378,1,0,0:0:0:0:
64,192,89435,1,2,0:0:0:0:
192,192,89435,1,0,0:0:0:0:
192,192,89666,1,2,0:0:0:0:
320,192,89666,1,0,0:0:0:0:
64,192,89782,128,0,89897:0:0:0:0:
320,192,89897,1,0,0:0:0:0:
64,192,90012,128,2,90128:0:0:0:0:
192,192,90128,1,2,0:0:0:0:
448,192,90128,1,0,0:0:0:0:
64,192,90243,1,0,0:0:0:0:
320,192,90359,1,2,0:0:0:0:
448,192,90359,128,0,91628:0:0:0:0:
64,192,90474,128,0,90589:0:0:0:0:
320,192,90589,128,0,90705:0:0:0:0:
64,192,90705,128,0,90820:0:0:0:0:
192,192,90820,128,2,90935:0:0:0:0:
64,192,90935,128,0,91051:0:0:0:0:
320,192,91051,128,0,91282:0:0:0:0:
64,192,91166,128,2,91397:0:0:0:0:
192,192,91282,128,2,91512:0:0:0:0:
320,192,91397,128,0,91628:0:0:0:0:
64,192,91512,128,2,91743:0:0:0:0:
192,192,91628,128,0,91743:0:0:0:0:
320,192,91743,1,2,0:0:0:0:
448,192,91743,1,0,0:0:0:0:
64,192,91974,128,0,92089:0:0:0:0:
448,192,91974,128,0,92089:0:0:0:0:
64,192,92205,128,2,92666:0:0:0:0:
192,192,92205,128,8,92666:0:0:0:0:
448,192,92205,1,0,0:0:0:0:
320,192,92666,128,4,92897:0:0:0:0:
448,192,92666,128,2,93128:0:0:0:0:
64,192,92897,128,0,93012:0:0:0:0:
192,192,93012,1,0,0:0:0:0:
320,192,93128,128,2,93243:0:0:0:0:
64,192,93243,128,0,93359:0:0:0:0:
320,192,93359,1,2,0:0:0:0:
448,192,93474,128,0,93589:0:0:0:0:
192,192,93589,1,0,0:0:0:0:
64,192,93705,128,2,93820:0:0:0:0:
320,192,93820,128,2,93935:0:0:0:0:
448,192,93820,1,0,0:0:0:0:
64,192,94051,1,2,0:0:0:0:
192,192,94051,128,0,94166:0:0:0:0:
448,192,94166,128,0,94282:0:0:0:0:
192,192,94397,128,0,94512:0:0:0:0:
64,192,94512,1,2,0:0:0:0:
320,192,94512,1,0,0:0:0:0:
64,192,94743,128,0,94859:0:0:0:0:
448,192,94859,1,2,0:0:0:0:
320,192,94916,1,0,0:0:0:0:
64,192,94974,1,2,0:0:0:0:
192,192,94974,128,0,95089:0:0:0:0:
448,192,95089,128,0,95205:0:0:0:0:
64,192,95205,1,2,0:0:0:0:
192,192,95320,128,0,95435:0:0:0:0:
448,192,95320,1,0,0:0:0:0:
448,192,95551,128,2,95666:0:0:0:0:
64,192,95666,128,2,95782:0:0:0:0:
320,192,95666,1,0,0:0:0:0:
192,192,95782,1,0,0:0:0:0:
448,192,95897,128,2,96012:0:0:0:0:
192,192,96012,128,0,96128:0:0:0:0:
448,192,96128,1,0,0:0:0:0:
64,192,96243,128,0,96359:0:0:0:0:
192,192,96359,1,2,0:0:0:0:
320,192,96359,1,0,0:0:0:0:
448,192,96589,128,0,96705:0:0:0:0:
64,192,96705,1,2,0:0:0:0:
192,192,96762,1,0,0:0:0:0:
320,192,96820,128,2,96935:0:0:0:0:
448,192,96820,1,0,0:0:0:0:
64,192,96935,128,0,97051:0:0:0:0:
448,192,97051,1,2,0:0:0:0:
192,192,97166,128,0,97282:0:0:0:0:
320,192,97166,1,0,0:0:0:0:
64,192,97397,1,2,0:0:0:0:
320,192,97397,128,0,97512:0:0:0:0:
192,192,97512,128,2,97628:0:0:0:0:
448,192,97628,1,0,0:0:0:0:
64,192,97743,128,2,97859:0:0:0:0:
192,192,97743,1,0,0:0:0:0:
320,192,97859,128,0,97974:0:0:0:0:
64,192,97974,1,0,0:0:0:0:
448,192,98089,128,0,98435:0:0:0:0:
192,192,98205,1,2,0:0:0:0:
320,192,98205,1,0,0:0:0:0:
64,192,98435,128,0,98551:0:0:0:0:
448,192,98551,1,2,0:0:0:0:
320,192,98609,1,0,0:0:0:0:
64,192,98666,1,2,0:0:0:0:
192,192,98666,128,0,98782:0:0:0:0:
448,192,98782,128,0,98897:0:0:0:0:
64,192,98897,1,2,0:0:0:0:
192,192,99012,128,0,99243:0:0:0:0:
320,192,99012,1,0,0:0:0:0:
448,192,99243,128,2,99359:0:0:0:0:
64,192,99359,1,8,0:0:0:0:
320,192,99359,1,2,0:0:0:0:
192,192,99474,1,0,0:0:0:0:
320,192,99589,128,8,99935:0:0:0:0:
448,192,99589,128,2,100051:0:0:0:0:
64,192,99705,128,0,99935:0:0:0:0:
64,192,100051,128,4,100512:0:0:0:0:
192,192,100051,128,2,100166:0:0:0:0:
320,192,100051,1,0,0:0:0:0:
192,192,100282,128,0,100397:0:0:0:0:
320,192,100512,1,2,0:0:0:0:
448,192,100512,128,0,100859:0:0:0:0:
64,192,100628,128,0,100743:0:0:0:0:
192,192,100743,1,0,0:0:0:0:
320,192,100859,128,0,101089:0:0:0:0:
64,192,100974,1,2,0:0:0:0:
448,192,101089,1,0,0:0:0:0:
64,192,101205,128,0,101320:0:0:0:0:
192,192,101205,1,0,0:0:0:0:
448,192,101320,1,0,0:0:0:0:
64,192,101435,1,2,0:0:0:0:
320,192,101435,128,0,101666:0:0:0:0:
448,192,101551,128,0,101782:0:0:0:0:
64,192,101666,1,0,0:0:0:0:
192,192,101782,128,0,101897:0:0:0:0:
320,192,101897,1,2,0:0:0:0:
448,192,101897,1,0,0:0:0:0:
64,192,102128,128,0,102243:0:0:0:0:
320,192,102243,1,0,0:0:0:0:
192,192,102301,1,0,0:0:0:0:
64,192,102359,1,2,0:0:0:0:
448,192,102359,128,0,102705:0:0:0:0:
192,192,102474,128,0,102589:0:0:0:0:
320,192,102589,1,0,0:0:0:0:
64,192,102705,128,0,102935:0:0:0:0:
192,192,102820,1,2,0:0:0:0:
448,192,102935,1,0,0:0:0:0:
320,192,103051,128,0,103166:0:0:0:0:
192,192,103166,1,0,0:0:0:0:
64,192,103282,128,2,103397:0:0:0:0:
448,192,103282,1,0,0:0:0:0:
192,192,103397,128,0,103628:0:0:0:0:
320,192,103512,1,0,0:0:0:0:
448,192,103628,128,0,103743:0:0:0:0:
64,192,103743,128,2,103974:0:0:0:0:
192,192,103743,1,0,0:0:0:0:
448,192,103974,128,0,104089:0:0:0:0:
192,192,104089,1,0,0:0:0:0:
320,192,104147,1,0,0:0:0:0:
64,192,104205,128,2,104435:0:0:0:0:
448,192,104205,1,0,0:0:0:0:
192,192,104320,128,0,104551:0:0:0:0:
320,192,104435,1,0,0:0:0:0:
448,192,104551,128,0,104782:0:0:0:0:
192,192,104666,1,2,0:0:0:0:
64,192,104782,1,0,0:0:0:0:
320,192,104897,128,0,105012:0:0:0:0:
64,192,105012,1,0,0:0:0:0:
192,192,105128,1,2,0:0:0:0:
448,192,105128,128,0,105359:0:0:0:0:
64,192,105243,128,0,105474:0:0:0:0:
320,192,105359,1,0,0:0:0:0:
192,192,105474,128,0,105589:0:0:0:0:
64,192,105589,1,2,0:0:0:0:
448,192,105589,1,0,0:0:0:0:
448,192,105820,128,0,105935:0:0:0:0:
192,192,105935,1,0,0:0:0:0:
320,192,105993,1,0,0:0:0:0:
64,192,106051,128,2,106397:0:0:0:0:
448,192,106051,1,0,0:0:0:0:
192,192,106166,128,0,106282:0:0:0:0:
320,192,106282,1,0,0:0:0:0:
448,192,106397,128,0,106628:0:0:0:0:
64,192,106512,1,2,0:0:0:0:
192,192,106628,128,0,106743:0:0:0:0:
64,192,106743,1,8,0:0:0:0:
320,192,106743,128,0,106859:0:0:0:0:
448,192,106743,1,0,0:0:0:0:
64,192,106974,1,8,0:0:0:0:
192,192,106974,128,2,107089:0:0:0:0:
448,192,106974,1,0,0:0:0:0:
320,192,107089,128,0,107205:0:0:0:0:
64,192,107205,1,0,0:0:0:0:
448,192,107320,128,0,107435:0:0:0:0:
64,192,107435,128,4,107551:0:0:0:0:
192,192,107435,128,2,107897:0:0:0:0:
64,192,107666,128,0,107782:0:0:0:0:
320,192,107897,1,2,0:0:0:0:
448,192,107897,128,0,108128:0:0:0:0:
64,192,108012,128,0,108243:0:0:0:0:
192,192,108128,1,0,0:0:0:0:
320,192,108243,128,0,108474:0:0:0:0:
64,192,108359,1,2,0:0:0:0:
448,192,108474,1,0,0:0:0:0:
64,192,108589,128,0,108705:0:0:0:0:
192,192,108589,1,0,0:0:0:0:
448,192,108705,1,0,0:0:0:0:
192,192,108820,128,2,109051:0:0:0:0:
64,192,108935,1,0,0:0:0:0:
448,192,108935,128,0,109166:0:0:0:0:
320,192,109051,1,0,0:0:0:0:
192,192,109166,128,0,109282:0:0:0:0:
64,192,109282,1,2,0:0:0:0:
320,192,109282,1,0,0:0:0:0:
448,192,109512,128,0,109628:0:0:0:0:
192,192,109628,1,0,0:0:0:0:
64,192,109685,1,0,0:0:0:0:
320,192,109743,128,2,109974:0:0:0:0:
448,192,109743,1,0,0:0:0:0:
64,192,109859,128,0,110089:0:0:0:0:
192,192,109974,1,0,0:0:0:0:
320,192,110089,1,0,0:0:0:0:
448,192,110089,128,0,110320:0:0:0:0:
64,192,110205,1,2,0:0:0:0:
192,192,110320,1,0,0:0:0:0:
448,192,110435,128,0,110551:0:0:0:0:
192,192,110551,1,0,0:0:0:0:
64,192,110666,128,2,110782:0:0:0:0:
320,192,110782,128,0,110897:0:0:0:0:
448,192,110782,1,0,0:0:0:0:
64,192,110897,1,0,0:0:0:0:
192,192,111012,128,0,111243:0:0:0:0:
320,192,111128,1,2,0:0:0:0:
448,192,111128,128,0,111359:0:0:0:0:
64,192,111359,128,0,111474:0:0:0:0:
448,192,111474,1,0,0:0:0:0:
320,192,111532,1,0,0:0:0:0:
64,192,111589,1,2,0:0:0:0:
192,192,111589,128,0,111820:0:0:0:0:
448,192,111705,128,0,111935:0:0:0:0:
320,192,111820,1,0,0:0:0:0:
64,192,111935,128,0,112166:0:0:0:0:
320,192,112051,1,2,0:0:0:0:
192,192,112166,1,0,0:0:0:0:
448,192,112282,128,0,112397:0:0:0:0:
64,192,112397,1,0,0:0:0:0:
192,192,112512,128,2,112743:0:0:0:0:
320,192,112512,1,0,0:0:0:0:
64,192,112628,128,0,112859:0:0:0:0:
320,192,112743,1,0,0:0:0:0:
448,192,112859,128,0,112974:0:0:0:0:
64,192,112974,1,2,0:0:0:0:
192,192,112974,1,0,0:0:0:0:
320,192,113205,128,0,113320:0:0:0:0:
192,192,113320,1,0,0:0:0:0:
64,192,113378,1,0,0:0:0:0:
320,192,113435,1,2,0:0:0:0:
448,192,113435,128,0,113666:0:0:0:0:
192,192,113551,128,0,113782:0:0:0:0:
64,192,113666,1,0,0:0:0:0:
320,192,113782,128,0,114012:0:0:0:0:
192,192,113897,1,2,0:0:0:0:
64,192,114012,128,0,114128:0:0:0:0:
192,192,114128,128,8,114243:0:0:0:0:
320,192,114128,1,0,0:0:0:0:
448,192,114128,1,0,0:0:0:0:
64,192,114359,128,8,114474:0:0:0:0:
320,192,114359,1,2,0:0:0:0:
448,192,114359,1,0,0:0:0:0:
192,192,114474,128,0,114589:0:0:0:0:
448,192,114589,1,0,0:0:0:0:
64,192,114705,1,0,0:0:0:0:
192,192,114820,128,4,114935:0:0:0:0:
320,192,114820,128,2,115743:0:0:0:0:
448,192,114820,128,0,115166:0:0:0:0:
192,192,115051,1,0,0:0:0:0:
448,192,115282,1,0,0:0:0:0:
192,192,115397,1,0,0:0:0:0:
64,192,115628,1,0,0:0:0:0:
448,192,115974,1,0,0:0:0:0:
192,192,116205,1,0,0:0:0:0:
448,192,116320,1,0,0:0:0:0:
64,192,116551,1,0,0:0:0:0:
192,192,116666,1,2,0:0:0:0:
320,192,116666,1,0,0:0:0:0:
448,192,116897,1,0,0:0:0:0:
64,192,117128,1,0,0:0:0:0:
448,192,117243,1,0,0:0:0:0:
64,192,117474,1,2,0:0:0:0:
192,192,117474,1,0,0:0:0:0:
64,192,117705,1,2,0:0:0:0:
192,192,117705,1,0,0:0:0:0:
64,192,118051,128,8,118397:0:0:0:0:
320,192,118051,128,2,118397:0:0:0:0:
448,192,118051,128,0,118859:0:0:0:0:
64,192,118512,1,2,0:0:0:0:
320,192,118512,1,0,0:0:0:0:
192,192,118743,1,0,0:0:0:0:
448,192,118974,1,2,0:0:0:0:
64,192,119089,1,0,0:0:0:0:
192,192,119205,1,0,0:0:0:0:
64,192,119320,1,2,0:0:0:0:
192,192,119320,1,0,0:0:0:0:
192,192,119666,1,2,0:0:0:0:
320,192,119897,1,0,0:0:0:0:
448,192,119897,1,0,0:0:0:0:
64,192,120012,1,2,0:0:0:0:
320,192,120012,1,0,0:0:0:0:
192,192,120128,1,0,0:0:0:0:
64,192,120243,1,0,0:0:0:0:
320,192,120359,1,2,0:0:0:0:
448,192,120359,1,0,0:0:0:0:
192,192,120589,1,0,0:0:0:0:
448,192,120589,1,0,0:0:0:0:
192,192,120820,1,2,0:0:0:0:
320,192,120820,1,0,0:0:0:0:
320,192,120935,1,0,0:0:0:0:
448,192,120935,1,0,0:0:0:0:
64,192,121051,1,0,0:0:0:0:
192,192,121166,1,2,0:0:0:0:
448,192,121166,1,0,0:0:0:0:
192,192,121397,1,2,0:0:0:0:
448,192,121397,1,0,0:0:0:0:
64,192,121743,128,8,122089:0:0:0:0:
192,192,121743,128,2,122089:0:0:0:0:
448,192,121743,128,0,122089:0:0:0:0:
320,192,121974,128,0,122089:0:0:0:0:
192,192,122205,1,2,0:0:0:0:
448,192,122205,128,0,122435:0:0:0:0:
64,192,122435,1,0,0:0:0:0:
192,192,122493,1,0,0:0:0:0:
320,192,122551,1,0,0:0:0:0:
448,192,122609,1,0,0:0:0:0:
64,192,122666,1,2,0:0:0:0:
192,192,122782,1,0,0:0:0:0:
320,192,122897,1,2,0:0:0:0:
448,192,122897,1,0,0:0:0:0:
192,192,123012,1,0,0:0:0:0:
64,192,123128,1,0,0:0:0:0:
64,192,123243,1,2,0:0:0:0:
320,192,123359,1,2,0:0:0:0:
320,192,123474,1,0,0:0:0:0:
64,192,123589,1,2,0:0:0:0:
192,192,123589,1,0,0:0:0:0:
448,192,123705,1,0,0:0:0:0:
192,192,123820,1,0,0:0:0:0:
320,192,123935,1,0,0:0:0:0:
448,192,123993,1,0,0:0:0:0:
64,192,124051,1,2,0:0:0:0:
192,192,124051,1,0,0:0:0:0:
320,192,124282,1,0,0:0:0:0:
448,192,124339,1,0,0:0:0:0:
192,192,124397,1,2,0:0:0:0:
64,192,124455,1,0,0:0:0:0:
320,192,124512,1,2,0:0:0:0:
448,192,124512,1,0,0:0:0:0:
64,192,124743,1,2,0:0:0:0:
320,192,124743,1,0,0:0:0:0:
448,192,124859,1,0,0:0:0:0:
64,192,124974,128,0,125089:0:0:0:0:
448,192,125089,128,2,125205:0:0:0:0:
64,192,125205,1,2,0:0:0:0:
320,192,125205,128,0,125320:0:0:0:0:
64,192,125435,128,2,125551:0:0:0:0:
448,192,125435,1,0,0:0:0:0:
320,192,125551,128,0,125666:0:0:0:0:
64,192,125666,128,0,125782:0:0:0:0:
320,192,125782,1,0,0:0:0:0:
448,192,125839,1,0,0:0:0:0:
192,192,125897,128,2,126012:0:0:0:0:
64,192,126012,128,0,126128:0:0:0:0:
448,192,126128,128,0,126243:0:0:0:0:
192,192,126243,1,2,0:0:0:0:
64,192,126301,1,0,0:0:0:0:
320,192,126359,1,2,0:0:0:0:
448,192,126359,1,0,0:0:0:0:
192,192,126589,1,2,0:0:0:0:
320,192,126589,1,0,0:0:0:0:
448,192,126705,1,0,0:0:0:0:
64,192,126820,1,0,0:0:0:0:
192,192,126935,1,2,0:0:0:0:
448,192,126935,1,0,0:0:0:0:
320,192,127051,1,2,0:0:0:0:
448,192,127051,1,0,0:0:0:0:
64,192,127282,1,2,0:0:0:0:
320,192,127282,1,0,0:0:0:0:
320,192,127512,1,0,0:0:0:0:
448,192,127570,1,0,0:0:0:0:
64,192,127628,1,0,0:0:0:0:
192,192,127685,1,0,0:0:0:0:
448,192,127743,128,2,127859:0:0:0:0:
64,192,127859,128,0,127974:0:0:0:0:
320,192,127974,128,0,128089:0:0:0:0:
192,192,128089,1,2,0:0:0:0:
64,192,128147,1,0,0:0:0:0:
320,192,128205,1,2,0:0:0:0:
448,192,128205,1,0,0:0:0:0:
64,192,128435,1,2,0:0:0:0:
448,192,128435,1,0,0:0:0:0:
320,192,128551,1,0,0:0:0:0:
192,192,128666,1,0,0:0:0:0:
192,192,128782,1,2,0:0:0:0:
320,192,128897,1,2,0:0:0:0:
448,192,128897,1,0,0:0:0:0:
64,192,129128,1,2,0:0:0:0:
192,192,129128,128,0,129243:0:0:0:0:
448,192,129243,128,0,129359:0:0:0:0:
64,192,129359,128,0,129474:0:0:0:0:
192,192,129474,1,0,0:0:0:0:
320,192,129532,1,0,0:0:0:0:
64,192,129589,1,2,0:0:0:0:
448,192,129589,1,0,0:0:0:0:
192,192,129705,128,0,129820:0:0:0:0:
448,192,129820,128,0,129935:0:0:0:0:
192,192,129935,1,2,0:0:0:0:
64,192,129993,1,0,0:0:0:0:
320,192,130051,128,2,130166:0:0:0:0:
64,192,130166,128,0,130282:0:0:0:0:
320,192,130282,1,2,0:0:0:0:
448,192,130282,1,0,0:0:0:0:
192,192,130397,128,0,130512:0:0:0:0:
448,192,130512,1,0,0:0:0:0:
64,192,130628,1,2,0:0:0:0:
320,192,130628,1,0,0:0:0:0:
320,192,130743,1,2,0:0:0:0:
448,192,130743,1,0,0:0:0:0:
192,192,130974,1,2,0:0:0:0:
448,192,130974,1,0,0:0:0:0:
320,192,131205,1,0,0:0:0:0:
448,192,131234,1,0,0:0:0:0:
192,192,131320,1,0,0:0:0:0:
64,192,131349,1,0,0:0:0:0:
320,192,131435,128,2,131551:0:0:0:0:
448,192,131435,128,0,131551:0:0:0:0:
192,192,131551,128,0,131666:0:0:0:0:
320,192,131666,128,0,131782:0:0:0:0:
448,192,131666,128,0,131782:0:0:0:0:
192,192,131782,1,2,0:0:0:0:
64,192,131839,1,0,0:0:0:0:
320,192,131897,128,2,132012:0:0:0:0:
448,192,131897,128,0,132012:0:0:0:0:
192,192,132012,128,0,132128:0:0:0:0:
320,192,132128,128,2,132243:0:0:0:0:
448,192,132128,128,0,132243:0:0:0:0:
64,192,132243,128,0,132359:0:0:0:0:
192,192,132359,128,0,132474:0:0:0:0:
448,192,132359,128,0,132474:0:0:0:0:
64,192,132474,1,2,0:0:0:0:
320,192,132589,128,2,132705:0:0:0:0:
448,192,132589,1,0,0:0:0:0:
192,192,132705,128,0,132820:0:0:0:0:
64,192,132820,1,2,0:0:0:0:
448,192,132820,128,0,132935:0:0:0:0:
64,192,133051,1,0,0:0:0:0:
192,192,133109,1,0,0:0:0:0:
320,192,133166,1,0,0:0:0:0:
64,192,133282,128,2,133512:0:0:0:0:
192,192,133282,1,0,0:0:0:0:
192,192,133512,128,0,133628:0:0:0:0:
320,192,133512,128,0,133743:0:0:0:0:
448,192,133628,1,2,0:0:0:0:
64,192,133743,1,2,0:0:0:0:
192,192,133743,1,0,0:0:0:0:
320,192,133859,1,0,0:0:0:0:
192,192,133974,1,2,0:0:0:0:
448,192,133974,1,0,0:0:0:0:
320,192,134089,1,0,0:0:0:0:
64,192,134205,128,0,134435:0:0:0:0:
192,192,134205,1,0,0:0:0:0:
448,192,134320,1,2,0:0:0:0:
320,192,134435,128,2,134551:0:0:0:0:
448,192,134435,128,0,134551:0:0:0:0:
64,192,134666,128,2,134782:0:0:0:0:
320,192,134666,128,0,134782:0:0:0:0:
192,192,134897,1,0,0:0:0:0:
320,192,134955,1,0,0:0:0:0:
448,192,135012,1,0,0:0:0:0:
192,192,135128,128,2,135243:0:0:0:0:
320,192,135128,1,0,0:0:0:0:
64,192,135243,128,0,135359:0:0:0:0:
320,192,135359,128,0,135474:0:0:0:0:
64,192,135474,128,2,135589:0:0:0:0:
192,192,135589,1,2,0:0:0:0:
448,192,135589,1,0,0:0:0:0:
64,192,135820,1,2,0:0:0:0:
320,192,135820,1,0,0:0:0:0:
320,192,135935,1,0,0:0:0:0:
192,192,136051,1,0,0:0:0:0:
64,192,136166,1,2,0:0:0:0:
320,192,136166,1,0,0:0:0:0:
64,192,136282,1,2,0:0:0:0:
448,192,136282,1,0,0:0:0:0:
64,192,136512,1,2,0:0:0:0:
192,192,136512,1,0,0:0:0:0:
448,192,136628,128,0,136743:0:0:0:0:
320,192,136743,128,0,136859:0:0:0:0:
64,192,136859,1,0,0:0:0:0:
192,192,136974,1,2,0:0:0:0:
320,192,136974,1,0,0:0:0:0:
448,192,137089,1,0,0:0:0:0:
64,192,137205,1,0,0:0:0:0:
320,192,137320,1,2,0:0:0:0:
192,192,137378,1,0,0:0:0:0:
64,192,137435,1,2,0:0:0:0:
320,192,137551,1,0,0:0:0:0:
64,192,137666,1,2,0:0:0:0:
192,192,137666,1,0,0:0:0:0:
320,192,137782,1,0,0:0:0:0:
64,192,137897,1,0,0:0:0:0:
320,192,138012,1,2,0:0:0:0:
448,192,138012,1,0,0:0:0:0:
64,192,138128,128,2,138243:0:0:0:0:
320,192,138128,1,0,0:0:0:0:
448,192,138243,1,0,0:0:0:0:
64,192,138359,1,2,0:0:0:0:
192,192,138359,128,0,138474:0:0:0:0:
448,192,138474,128,0,138589:0:0:0:0:
64,192,138589,128,0,138705:0:0:0:0:
320,192,138705,1,0,0:0:0:0:
448,192,138762,1,0,0:0:0:0:
64,192,138820,1,2,0:0:0:0:
192,192,138820,1,0,0:0:0:0:
320,192,138935,1,0,0:0:0:0:
64,192,139051,128,0,139166:0:0:0:0:
320,192,139166,1,2,0:0:0:0:
448,192,139224,1,0,0:0:0:0:
64,192,139282,1,2,0:0:0:0:
192,192,139282,1,0,0:0:0:0:
320,192,139397,1,0,0:0:0:0:
64,192,139512,1,2,0:0:0:0:
192,192,139512,1,0,0:0:0:0:
448,192,139628,1,0,0:0:0:0:
192,192,139743,1,0,0:0:0:0:
320,192,139859,1,2,0:0:0:0:
448,192,139859,1,0,0:0:0:0:
64,192,139974,1,2,0:0:0:0:
448,192,139974,1,0,0:0:0:0:
192,192,140089,1,0,0:0:0:0:
64,192,140205,1,2,0:0:0:0:
448,192,140205,1,0,0:0:0:0:
320,192,140320,1,0,0:0:0:0:
448,192,140435,1,0,0:0:0:0:
192,192,140551,1,0,0:0:0:0:
64,192,140609,1,0,0:0:0:0:
320,192,140666,1,2,0:0:0:0:
448,192,140666,128,0,140782:0:0:0:0:
64,192,140782,128,0,140897:0:0:0:0:
448,192,140897,128,0,141012:0:0:0:0:
192,192,141012,1,2,0:0:0:0:
64,192,141070,1,0,0:0:0:0:
320,192,141128,128,2,141243:0:0:0:0:
64,192,141243,128,0,141359:0:0:0:0:
448,192,141359,128,2,141474:0:0:0:0:
192,192,141474,128,0,141589:0:0:0:0:
448,192,141589,1,0,0:0:0:0:
64,192,141705,1,2,0:0:0:0:
192,192,141705,1,0,0:0:0:0:
192,192,141820,1,2,0:0:0:0:
320,192,141820,1,0,0:0:0:0:
448,192,141935,1,0,0:0:0:0:
64,192,142051,1,2,0:0:0:0:
192,192,142051,1,0,0:0:0:0:
448,192,142166,128,0,142282:0:0:0:0:
64,192,142282,1,0,0:0:0:0:
320,192,142397,1,0,0:0:0:0:
448,192,142455,1,0,0:0:0:0:
64,192,142512,128,2,142628:0:0:0:0:
192,192,142512,1,0,0:0:0:0:
448,192,142628,128,0,142743:0:0:0:0:
192,192,142743,128,0,142859:0:0:0:0:
320,192,142859,1,2,0:0:0:0:
448,192,142916,1,0,0:0:0:0:
64,192,142974,1,2,0:0:0:0:
192,192,142974,128,0,143089:0:0:0:0:
448,192,143089,128,0,143205:0:0:0:0:
64,192,143205,128,2,143320:0:0:0:0:
192,192,143205,1,0,0:0:0:0:
448,192,143320,128,0,143435:0:0:0:0:
192,192,143435,128,0,143551:0:0:0:0:
320,192,143551,1,2,0:0:0:0:
448,192,143551,128,0,143666:0:0:0:0:
64,192,143666,128,2,143782:0:0:0:0:
192,192,143782,1,0,0:0:0:0:
320,192,143897,128,2,144012:0:0:0:0:
448,192,143897,128,0,144012:0:0:0:0:
64,192,144012,1,0,0:0:0:0:
192,192,144128,128,0,144243:0:0:0:0:
448,192,144243,1,0,0:0:0:0:
320,192,144301,1,0,0:0:0:0:
64,192,144359,128,2,144589:0:0:0:0:
192,192,144474,128,0,144589:0:0:0:0:
448,192,144589,128,0,144705:0:0:0:0:
192,192,144705,1,2,0:0:0:0:
64,192,144762,1,0,0:0:0:0:
320,192,144820,128,2,144935:0:0:0:0:
64,192,144935,128,0,145051:0:0:0:0:
192,192,145051,1,2,0:0:0:0:
448,192,145051,128,0,145166:0:0:0:0:
320,192,145166,128,0,145282:0:0:0:0:
64,192,145282,128,0,145397:0:0:0:0:
320,192,145397,1,2,0:0:0:0:
448,192,145397,1,0,0:0:0:0:
64,192,145512,1,2,0:0:0:0:
320,192,145512,1,0,0:0:0:0:
448,192,145628,128,0,145743:0:0:0:0:
64,192,145743,1,2,0:0:0:0:
192,192,145743,1,0,0:0:0:0:
320,192,145859,128,0,145974:0:0:0:0:
64,192,145974,128,0,146089:0:0:0:0:
320,192,146089,1,0,0:0:0:0:
448,192,146147,1,0,0:0:0:0:
64,192,146205,1,2,0:0:0:0:
320,192,146320,1,0,0:0:0:0:
192,192,146435,1,0,0:0:0:0:
320,192,146551,1,2,0:0:0:0:
448,192,146609,1,0,0:0:0:0:
64,192,146666,1,2,0:0:0:0:
192,192,146666,1,0,0:0:0:0:
320,192,146782,128,0,147012:0:0:0:0:
192,192,146897,128,2,147012:0:0:0:0:
64,192,147012,1,0,0:0:0:0:
448,192,147128,128,0,147243:0:0:0:0:
64,192,147243,1,2,0:0:0:0:
192,192,147243,1,0,0:0:0:0:
192,192,147359,1,2,0:0:0:0:
320,192,147359,1,0,0:0:0:0:
64,192,147474,1,0,0:0:0:0:
320,192,147589,1,2,0:0:0:0:
448,192,147589,1,0,0:0:0:0:
192,192,147705,128,0,147820:0:0:0:0:
448,192,147820,128,0,147935:0:0:0:0:
64,192,147935,128,0,148051:0:0:0:0:
192,192,148051,1,2,0:0:0:0:
320,192,148051,1,0,0:0:0:0:
64,192,148166,1,0,0:0:0:0:
320,192,148282,1,0,0:0:0:0:
192,192,148397,1,2,0:0:0:0:
64,192,148455,1,0,0:0:0:0:
320,192,148512,128,2,148628:0:0:0:0:
448,192,148628,128,0,148743:0:0:0:0:
192,192,148743,128,2,148859:0:0:0:0:
64,192,148859,1,0,0:0:0:0:
448,192,148974,128,0,149089:0:0:0:0:
192,192,149089,1,2,0:0:0:0:
320,192,149089,1,0,0:0:0:0:
64,192,149205,1,2,0:0:0:0:
192,192,149205,1,0,0:0:0:0:
320,192,149320,128,0,149435:0:0:0:0:
64,192,149435,1,2,0:0:0:0:
448,192,149435,1,0,0:0:0:0:
192,192,149551,128,0,149666:0:0:0:0:
64,192,149666,128,0,149782:0:0:0:0:
320,192,149782,128,0,149897:0:0:0:0:
64,192,149897,128,2,150128:0:0:0:0:
448,192,149897,128,0,150012:0:0:0:0:
192,192,150012,128,0,150128:0:0:0:0:
320,192,150128,128,0,150243:0:0:0:0:
448,192,150128,128,0,150243:0:0:0:0:
192,192,150243,128,2,150359:0:0:0:0:
320,192,150359,128,2,150589:0:0:0:0:
448,192,150359,128,0,150474:0:0:0:0:
64,192,150474,128,0,150705:0:0:0:0:
192,192,150589,128,2,150820:0:0:0:0:
448,192,150705,128,0,151166:0:0:0:0:
320,192,150820,128,0,150935:0:0:0:0:
64,192,150935,128,2,151166:0:0:0:0:
192,192,150935,128,0,151051:0:0:0:0:
320,192,151051,128,2,151397:0:0:0:0:
192,192,151166,128,0,151628:0:0:0:0:
64,192,151282,1,8,0:0:0:0:
448,192,151282,128,2,151743:0:0:0:0:
64,192,151512,1,0,0:0:0:0:
320,192,151628,1,0,0:0:0:0:
64,192,151743,128,4,151974:0:0:0:0:
192,192,151743,1,2,0:0:0:0:
320,192,151974,128,0,152205:0:0:0:0:
64,192,152205,1,2,0:0:0:0:
192,192,152205,128,0,152435:0:0:0:0:
320,192,152320,1,0,0:0:0:0:
448,192,152435,128,0,152666:0:0:0:0:
192,192,152551,1,0,0:0:0:0:
64,192,152666,128,2,152897:0:0:0:0:
320,192,152666,1,0,0:0:0:0:
448,192,152897,128,0,153012:0:0:0:0:
320,192,153012,128,0,153128:0:0:0:0:
64,192,153128,1,2,0:0:0:0:
448,192,153128,128,0,153243:0:0:0:0:
192,192,153243,128,0,153359:0:0:0:0:
64,192,153359,128,0,153474:0:0:0:0:
192,192,153474,128,0,153589:0:0:0:0:
320,192,153589,1,2,0:0:0:0:
448,192,153589,128,0,153705:0:0:0:0:
64,192,153705,128,0,153820:0:0:0:0:
320,192,153820,128,0,153935:0:0:0:0:
64,192,153935,128,0,154051:0:0:0:0:
192,192,154051,1,2,0:0:0:0:
448,192,154051,128,0,154166:0:0:0:0:
320,192,154166,128,0,154282:0:0:0:0:
192,192,154282,128,0,154397:0:0:0:0:
448,192,154397,128,0,154512:0:0:0:0:
64,192,154512,128,2,154743:0:0:0:0:
320,192,154512,1,0,0:0:0:0:
320,192,154743,128,0,154974:0:0:0:0:
64,192,154859,1,0,0:0:0:0:
192,192,154974,1,2,0:0:0:0:
448,192,154974,128,0,155205:0:0:0:0:
320,192,155089,1,0,0:0:0:0:
192,192,155205,128,0,155435:0:0:0:0:
448,192,155320,1,0,0:0:0:0:
64,192,155435,128,2,155666:0:0:0:0:
320,192,155435,1,0,0:0:0:0:
192,192,155551,128,0,155666:0:0:0:0:
448,192,155666,128,0,155782:0:0:0:0:
192,192,155782,128,0,155897:0:0:0:0:
320,192,155897,128,2,156012:0:0:0:0:
448,192,155897,1,0,0:0:0:0:
64,192,156012,128,0,156128:0:0:0:0:
192,192,156128,128,0,156243:0:0:0:0:
64,192,156243,128,0,156359:0:0:0:0:
192,192,156359,1,2,0:0:0:0:
448,192,156359,128,0,156474:0:0:0:0:
64,192,156474,128,0,156589:0:0:0:0:
320,192,156589,128,0,156820:0:0:0:0:
192,192,156705,128,0,156820:0:0:0:0:
64,192,156820,128,2,157051:0:0:0:0:
448,192,156820,1,0,0:0:0:0:
320,192,157051,128,0,157282:0:0:0:0:
192,192,157166,1,0,0:0:0:0:
64,192,157282,1,2,0:0:0:0:
448,192,157282,128,0,157512:0:0:0:0:
192,192,157512,128,0,157628:0:0:0:0:
320,192,157628,128,0,157743:0:0:0:0:
64,192,157743,128,2,157859:0:0:0:0:
192,192,157743,1,0,0:0:0:0:
448,192,157859,128,0,157974:0:0:0:0:
192,192,157974,128,0,158089:0:0:0:0:
320,192,158089,128,0,158205:0:0:0:0:
64,192,158205,128,2,158435:0:0:0:0:
448,192,158205,1,0,0:0:0:0:
320,192,158435,128,0,158551:0:0:0:0:
448,192,158551,128,0,158666:0:0:0:0:
64,192,158666,128,2,158782:0:0:0:0:
320,192,158666,1,0,0:0:0:0:
192,192,158782,128,0,159012:0:0:0:0:
64,192,158897,128,0,159128:0:0:0:0:
320,192,159128,128,2,159359:0:0:0:0:
448,192,159128,1,0,0:0:0:0:
64,192,159359,1,0,0:0:0:0:
192,192,159416,1,0,0:0:0:0:
320,192,159474,1,0,0:0:0:0:
448,192,159532,1,0,0:0:0:0:
64,192,159589,1,2,0:0:0:0:
192,192,159589,128,0,159820:0:0:0:0:
320,192,159705,1,0,0:0:0:0:
64,192,159820,128,0,159935:0:0:0:0:
320,192,159935,128,0,160051:0:0:0:0:
192,192,160051,128,2,160282:0:0:0:0:
448,192,160051,1,0,0:0:0:0:
448,192,160282,128,0,160512:0:0:0:0:
192,192,160397,1,0,0:0:0:0:
64,192,160512,1,2,0:0:0:0:
320,192,160512,128,0,160743:0:0:0:0:
448,192,160628,1,0,0:0:0:0:
64,192,160743,128,0,160974:0:0:0:0:
192,192,160859,1,0,0:0:0:0:
320,192,160974,1,2,0:0:0:0:
448,192,160974,128,0,161089:0:0:0:0:
192,192,161089,128,0,161205:0:0:0:0:
448,192,161205,1,0,0:0:0:0:
192,192,161320,128,0,161435:0:0:0:0:
64,192,161435,128,2,161551:0:0:0:0:
320,192,161435,1,0,0:0:0:0:
448,192,161551,128,0,161666:0:0:0:0:
192,192,161666,128,0,161782:0:0:0:0:
320,192,161782,128,0,161897:0:0:0:0:
64,192,161897,128,2,162128:0:0:0:0:
448,192,161897,1,0,0:0:0:0:
320,192,162128,128,0,162359:0:0:0:0:
448,192,162243,1,0,0:0:0:0:
64,192,162359,1,2,0:0:0:0:
192,192,162359,128,0,162589:0:0:0:0:
320,192,162474,1,0,0:0:0:0:
448,192,162589,128,0,162705:0:0:0:0:
64,192,162705,128,0,162820:0:0:0:0:
192,192,162820,1,2,0:0:0:0:
320,192,162820,128,0,162935:0:0:0:0:
64,192,163051,128,0,163166:0:0:0:0:
192,192,163051,128,0,163166:0:0:0:0:
448,192,163166,1,0,0:0:0:0:
192,192,163282,128,2,163397:0:0:0:0:
320,192,163282,128,0,163397:0:0:0:0:
64,192,163397,1,0,0:0:0:0:
320,192,163512,128,0,163628:0:0:0:0:
448,192,163512,128,0,163628:0:0:0:0:
192,192,163628,1,0,0:0:0:0:
64,192,163743,128,2,163974:0:0:0:0:
448,192,163743,1,0,0:0:0:0:
448,192,163974,128,0,164089:0:0:0:0:
192,192,164089,128,0,164205:0:0:0:0:
64,192,164205,1,2,0:0:0:0:
320,192,164205,1,0,0:0:0:0:
448,192,164320,128,0,164435:0:0:0:0:
64,192,164435,128,0,164551:0:0:0:0:
320,192,164551,128,0,164666:0:0:0:0:
64,192,164666,1,2,0:0:0:0:
448,192,164666,128,0,165128:0:0:0:0:
192,192,164782,128,0,164897:0:0:0:0:
320,192,164897,128,0,165012:0:0:0:0:
192,192,165012,128,0,165243:0:0:0:0:
64,192,165128,128,2,165474:0:0:0:0:
320,192,165128,1,0,0:0:0:0:
448,192,165243,128,0,165359:0:0:0:0:
192,192,165359,128,0,165935:0:0:0:0:
320,192,165474,128,0,165705:0:0:0:0:
64,192,165589,128,2,165935:0:0:0:0:
448,192,165589,1,0,0:0:0:0:
320,192,165820,128,0,165935:0:0:0:0:
448,192,165820,128,0,166051:0:0:0:0:
64,192,166051,1,8,0:0:0:0:
192,192,166051,1,2,0:0:0:0:
320,192,166051,1,0,0:0:0:0:
64,192,166512,1,4,0:0:0:0:
448,192,166512,128,2,166974:0:0:0:0:
320,192,166628,1,0,0:0:0:0:
192,192,166743,128,0,166859:0:0:0:0:
64,192,166859,1,0,0:0:0:0:
192,192,166974,1,2,0:0:0:0:
320,192,166974,1,0,0:0:0:0:
448,192,167089,1,0,0:0:0:0:
192,192,167205,1,0,0:0:0:0:
64,192,167320,128,0,167435:0:0:0:0:
320,192,167435,1,2,0:0:0:0:
64,192,167551,128,0,167666:0:0:0:0:
192,192,167666,1,0,0:0:0:0:
320,192,167666,1,0,0:0:0:0:
448,192,167782,1,0,0:0:0:0:
64,192,167897,1,2,0:0:0:0:
192,192,167897,1,0,0:0:0:0:
320,192,168012,128,0,168128:0:0:0:0:
64,192,168128,1,0,0:0:0:0:
320,192,168243,1,0,0:0:0:0:
448,192,168301,1,0,0:0:0:0:
64,192,168359,1,2,0:0:0:0:
320,192,168474,1,0,0:0:0:0:
192,192,168589,128,0,168705:0:0:0:0:
448,192,168705,1,0,0:0:0:0:
64,192,168820,1,2,0:0:0:0:
192,192,168820,1,0,0:0:0:0:
320,192,168935,1,0,0:0:0:0:
64,192,169051,1,0,0:0:0:0:
448,192,169166,128,0,169282:0:0:0:0:
64,192,169282,1,2,0:0:0:0:
320,192,169282,1,0,0:0:0:0:
448,192,169397,128,0,169512:0:0:0:0:
192,192,169512,1,0,0:0:0:0:
448,192,169628,1,0,0:0:0:0:
64,192,169743,1,2,0:0:0:0:
192,192,169859,128,0,169974:0:0:0:0:
448,192,169859,1,0,0:0:0:0:
64,192,169974,1,0,0:0:0:0:
320,192,170089,1,0,0:0:0:0:
64,192,170205,1,2,0:0:0:0:
448,192,170205,1,0,0:0:0:0:
320,192,170320,1,0,0:0:0:0:
64,192,170435,128,0,170551:0:0:0:0:
320,192,170551,1,0,0:0:0:0:
448,192,170609,1,0,0:0:0:0:
64,192,170666,1,2,0:0:0:0:
192,192,170666,1,0,0:0:0:0:
448,192,170782,1,0,0:0:0:0:
192,192,170897,1,0,0:0:0:0:
64,192,171012,128,0,171128:0:0:0:0:
320,192,171128,1,2,0:0:0:0:
64,192,171243,128,0,171359:0:0:0:0:
192,192,171243,1,0,0:0:0:0:
448,192,171359,1,0,0:0:0:0:
64,192,171474,1,0,0:0:0:0:
192,192,171589,1,2,0:0:0:0:
320,192,171589,1,0,0:0:0:0:
448,192,171705,128,0,171820:0:0:0:0:
64,192,171820,1,0,0:0:0:0:
320,192,171935,1,0,0:0:0:0:
192,192,172051,1,2,0:0:0:0:
448,192,172051,1,0,0:0:0:0:
320,192,172166,1,0,0:0:0:0:
64,192,172282,128,0,172397:0:0:0:0:
448,192,172397,1,0,0:0:0:0:
320,192,172455,1,0,0:0:0:0:
64,192,172512,1,2,0:0:0:0:
192,192,172512,1,0,0:0:0:0:
320,192,172628,1,0,0:0:0:0:
64,192,172743,1,0,0:0:0:0:
192,192,172859,128,0,172974:0:0:0:0:
320,192,172974,1,2,0:0:0:0:
448,192,172974,1,0,0:0:0:0:
192,192,173089,128,0,173205:0:0:0:0:
64,192,173205,1,8,0:0:0:0:
448,192,173205,1,0,0:0:0:0:
320,192,173320,1,0,0:0:0:0:
64,192,173435,1,8,0:0:0:0:
192,192,173435,1,2,0:0:0:0:
448,192,173551,128,0,173666:0:0:0:0:
192,192,173666,1,0,0:0:0:0:
320,192,173782,1,0,0:0:0:0:
64,192,173897,128,4,174359:0:0:0:0:
448,192,173897,1,2,0:0:0:0:
192,192,174012,1,0,0:0:0:0:
320,192,174128,128,0,174243:0:0:0:0:
448,192,174243,1,0,0:0:0:0:
192,192,174359,1,2,0:0:0:0:
64,192,174474,1,0,0:0:0:0:
448,192,174589,1,0,0:0:0:0:
320,192,174705,128,0,174820:0:0:0:0:
64,192,174820,1,2,0:0:0:0:
192,192,174820,1,0,0:0:0:0:
320,192,174935,128,0,175051:0:0:0:0:
448,192,175051,1,0,0:0:0:0:
64,192,175166,1,0,0:0:0:0:
320,192,175282,1,2,0:0:0:0:
448,192,175282,1,0,0:0:0:0:
192,192,175397,128,0,175512:0:0:0:0:
64,192,175512,1,0,0:0:0:0:
320,192,175628,1,0,0:0:0:0:
448,192,175685,1,0,0:0:0:0:
64,192,175743,1,2,0:0:0:0:
192,192,175743,1,0,0:0:0:0:
448,192,175859,1,0,0:0:0:0:
64,192,175974,128,0,176089:0:0:0:0:
320,192,176089,1,0,0:0:0:0:
192,192,176147,1,0,0:0:0:0:
64,192,176205,1,2,0:0:0:0:
448,192,176205,1,0,0:0:0:0:
320,192,176320,1,0,0:0:0:0:
64,192,176435,1,0,0:0:0:0:
448,192,176551,128,0,176666:0:0:0:0:
64,192,176666,1,2,0:0:0:0:
192,192,176666,1,0,0:0:0:0:
448,192,176782,128,0,176897:0:0:0:0:
192,192,176897,1,0,0:0:0:0:
448,192,177012,1,0,0:0:0:0:
64,192,177128,1,2,0:0:0:0:
192,192,177128,1,0,0:0:0:0:
320,192,177243,128,0,177359:0:0:0:0:
64,192,177359,1,0,0:0:0:0:
320,192,177474,1,0,0:0:0:0:
64,192,177589,1,2,0:0:0:0:
448,192,177589,1,0,0:0:0:0:
320,192,177705,1,0,0:0:0:0:
64,192,177820,128,0,177935:0:0:0:0:
448,192,177935,1,0,0:0:0:0:
320,192,177993,1,0,0:0:0:0:
64,192,178051,1,2,0:0:0:0:
192,192,178051,1,0,0:0:0:0:
448,192,178166,1,0,0:0:0:0:
192,192,178282,1,0,0:0:0:0:
320,192,178397,128,0,178512:0:0:0:0:
64,192,178512,1,2,0:0:0:0:
448,192,178512,1,0,0:0:0:0:
320,192,178628,128,0,178743:0:0:0:0:
192,192,178743,1,0,0:0:0:0:
64,192,178859,1,0,0:0:0:0:
320,192,178974,1,2,0:0:0:0:
448,192,178974,1,0,0:0:0:0:
64,192,179089,128,0,179205:0:0:0:0:
320,192,179205,1,0,0:0:0:0:
192,192,179320,1,0,0:0:0:0:
64,192,179378,1,0,0:0:0:0:
320,192,179435,1,2,0:0:0:0:
448,192,179435,1,0,0:0:0:0:
64,192,179551,1,0,0:0:0:0:
192,192,179666,128,0,179782:0:0:0:0:
320,192,179782,1,0,0:0:0:0:
448,192,179839,1,0,0:0:0:0:
64,192,179897,1,2,0:0:0:0:
192,192,179897,1,0,0:0:0:0:
320,192,180012,1,0,0:0:0:0:
64,192,180128,1,0,0:0:0:0:
320,192,180243,128,0,180359:0:0:0:0:
64,192,180359,1,2,0:0:0:0:
448,192,180359,1,0,0:0:0:0:
320,192,180474,1,0,0:0:0:0:
64,192,180589,1,8,0:0:0:0:
192,192,180589,1,0,0:0:0:0:
320,192,180705,1,0,0:0:0:0:
64,192,180820,128,8,181166:0:0:0:0:
448,192,180820,128,2,181051:0:0:0:0:
192,192,181051,1,0,0:0:0:0:
320,192,181166,1,0,0:0:0:0:
64,192,181282,128,4,181628:0:0:0:0:
192,192,181282,128,2,181397:0:0:0:0:
448,192,181282,128,0,181743:0:0:0:0:
320,192,181512,128,0,181628:0:0:0:0:
64,192,181743,128,2,182089:0:0:0:0:
192,192,181743,1,0,0:0:0:0:
448,192,181859,128,0,181974:0:0:0:0:
320,192,181974,1,0,0:0:0:0:
192,192,182089,128,0,182205:0:0:0:0:
448,192,182205,1,2,0:0:0:0:
320,192,182320,128,0,182435:0:0:0:0:
64,192,182435,1,0,0:0:0:0:
192,192,182435,128,0,182666:0:0:0:0:
320,192,182551,1,0,0:0:0:0:
64,192,182666,1,2,0:0:0:0:
448,192,182666,128,0,183012:0:0:0:0:
320,192,182782,128,0,182897:0:0:0:0:
64,192,182897,1,0,0:0:0:0:
192,192,183012,128,0,183128:0:0:0:0:
320,192,183128,1,2,0:0:0:0:
448,192,183128,1,0,0:0:0:0:
64,192,183359,128,0,183474:0:0:0:0:
320,192,183474,1,0,0:0:0:0:
448,192,183532,1,0,0:0:0:0:
64,192,183589,1,2,0:0:0:0:
192,192,183589,128,0,183935:0:0:0:0:
320,192,183705,128,0,183820:0:0:0:0:
64,192,183820,1,0,0:0:0:0:
448,192,183935,128,0,184166:0:0:0:0:
320,192,184051,1,2,0:0:0:0:
64,192,184166,1,0,0:0:0:0:
192,192,184166,128,0,184282:0:0:0:0:
448,192,184282,128,0,184397:0:0:0:0:
192,192,184397,1,0,0:0:0:0:
64,192,184512,128,2,184628:0:0:0:0:
448,192,184512,1,0,0:0:0:0:
320,192,184628,128,0,184859:0:0:0:0:
192,192,184743,1,0,0:0:0:0:
448,192,184859,128,0,184974:0:0:0:0:
64,192,184974,1,2,0:0:0:0:
192,192,184974,128,0,185205:0:0:0:0:
448,192,185205,128,0,185320:0:0:0:0:
192,192,185320,1,0,0:0:0:0:
64,192,185378,1,0,0:0:0:0:
320,192,185435,128,2,185666:0:0:0:0:
448,192,185435,1,0,0:0:0:0:
64,192,185551,128,0,185782:0:0:0:0:
192,192,185666,1,0,0:0:0:0:
448,192,185782,128,0,186012:0:0:0:0:
64,192,185897,1,2,0:0:0:0:
320,192,186012,1,0,0:0:0:0:
64,192,186128,1,0,0:0:0:0:
192,192,186128,128,0,186243:0:0:0:0:
448,192,186243,1,0,0:0:0:0:
64,192,186359,128,2,186589:0:0:0:0:
320,192,186359,1,0,0:0:0:0:
448,192,186474,128,0,186705:0:0:0:0:
192,192,186589,1,0,0:0:0:0:
320,192,186705,128,0,186820:0:0:0:0:
64,192,186820,1,2,0:0:0:0:
192,192,186820,1,0,0:0:0:0:
448,192,187051,128,0,187166:0:0:0:0:
64,192,187166,1,0,0:0:0:0:
192,192,187224,1,0,0:0:0:0:
320,192,187282,128,2,187512:0:0:0:0:
448,192,187282,1,0,0:0:0:0:
64,192,187397,128,0,187628:0:0:0:0:
192,192,187512,1,0,0:0:0:0:
448,192,187628,128,0,187743:0:0:0:0:
192,192,187743,1,2,0:0:0:0:
64,192,187859,128,0,187974:0:0:0:0:
448,192,187859,1,0,0:0:0:0:
192,192,187974,128,0,188089:0:0:0:0:
320,192,188089,1,0,0:0:0:0:
192,192,188205,128,2,188320:0:0:0:0:
64,192,188320,1,0,0:0:0:0:
448,192,188320,128,0,188435:0:0:0:0:
192,192,188435,1,0,0:0:0:0:
320,192,188551,128,0,189012:0:0:0:0:
64,192,188666,1,4,0:0:0:0:
192,192,188666,128,2,188782:0:0:0:0:
448,192,188666,128,0,189128:0:0:0:0:
192,192,188897,128,0,189012:0:0:0:0:
64,192,189128,128,2,189474:0:0:0:0:
192,192,189128,1,0,0:0:0:0:
448,192,189243,128,0,189359:0:0:0:0:
320,192,189359,1,0,0:0:0:0:
192,192,189474,128,0,189705:0:0:0:0:
320,192,189589,1,2,0:0:0:0:
64,192,189705,1,0,0:0:0:0:
320,192,189820,1,0,0:0:0:0:
448,192,189820,128,0,189935:0:0:0:0:
64,192,189935,1,0,0:0:0:0:
192,192,190051,128,2,190166:0:0:0:0:
64,192,190166,128,0,190397:0:0:0:0:
448,192,190166,1,0,0:0:0:0:
192,192,190282,1,0,0:0:0:0:
320,192,190397,128,0,190512:0:0:0:0:
64,192,190512,1,2,0:0:0:0:
448,192,190512,1,0,0:0:0:0:
448,192,190743,128,0,190974:0:0:0:0:
64,192,190801,1,0,0:0:0:0:
192,192,190859,1,0,0:0:0:0:
320,192,190916,1,0,0:0:0:0:
64,192,190974,128,2,191205:0:0:0:0:
320,192,191089,128,0,191320:0:0:0:0:
448,192,191205,1,0,0:0:0:0:
64,192,191320,1,0,0:0:0:0:
192,192,191320,128,0,191551:0:0:0:0:
320,192,191435,1,2,0:0:0:0:
448,192,191551,128,0,191666:0:0:0:0:
64,192,191666,128,0,191782:0:0:0:0:
320,192,191782,1,0,0:0:0:0:
64,192,191897,128,2,192012:0:0:0:0:
192,192,191897,1,0,0:0:0:0:
320,192,192012,128,0,192128:0:0:0:0:
64,192,192128,1,0,0:0:0:0:
320,192,192243,128,0,192474:0:0:0:0:
192,192,192359,128,2,192589:0:0:0:0:
448,192,192359,1,0,0:0:0:0:
448,192,192589,128,0,192705:0:0:0:0:
192,192,192705,1,0,0:0:0:0:
320,192,192762,1,0,0:0:0:0:
64,192,192820,128,2,193051:0:0:0:0:
448,192,192820,1,0,0:0:0:0:
320,192,192935,128,0,193166:0:0:0:0:
448,192,193051,1,0,0:0:0:0:
192,192,193166,128,0,193397:0:0:0:0:
64,192,193282,1,2,0:0:0:0:
448,192,193397,128,0,193628:0:0:0:0:
320,192,193512,128,0,193628:0:0:0:0:
64,192,193628,1,0,0:0:0:0:
320,192,193743,128,2,193974:0:0:0:0:
64,192,193859,1,0,0:0:0:0:
448,192,193859,128,0,194089:0:0:0:0:
192,192,193974,1,0,0:0:0:0:
64,192,194089,128,0,194205:0:0:0:0:
320,192,194205,1,2,0:0:0:0:
448,192,194205,1,0,0:0:0:0:
320,192,194435,128,0,194551:0:0:0:0:
192,192,194551,1,0,0:0:0:0:
64,192,194609,1,0,0:0:0:0:
320,192,194666,1,2,0:0:0:0:
448,192,194666,128,0,194897:0:0:0:0:
64,192,194782,128,0,195012:0:0:0:0:
192,192,194897,1,0,0:0:0:0:
320,192,195012,128,0,195243:0:0:0:0:
448,192,195128,1,2,0:0:0:0:
192,192,195243,1,0,0:0:0:0:
64,192,195359,1,0,0:0:0:0:
448,192,195359,128,0,195474:0:0:0:0:
320,192,195474,1,0,0:0:0:0:
64,192,195589,128,2,195705:0:0:0:0:
448,192,195589,1,0,0:0:0:0:
320,192,195705,128,0,195935:0:0:0:0:
64,192,195820,1,0,0:0:0:0:
192,192,195878,1,0,0:0:0:0:
448,192,195935,1,0,0:0:0:0:
64,192,196051,128,4,196743:0:0:0:0:
192,192,196051,128,2,196282:0:0:0:0:
320,192,196051,128,0,196282:0:0:0:0:
192,192,196397,1,0,0:0:0:0:
320,192,196455,1,0,0:0:0:0:
448,192,196512,1,0,0:0:0:0:
320,192,196743,1,0,0:0:0:0:
64,192,196859,1,0,0:0:0:0:
192,192,196859,1,0,0:0:0:0:
320,192,197089,1,0,0:0:0:0:
64,192,197205,1,0,0:0:0:0:
448,192,197205,1,0,0:0:0:0:
192,192,197435,1,0,0:0:0:0:
64,192,197551,1,0,0:0:0:0:
320,192,197666,1,0,0:0:0:0:
448,192,197695,1,0,0:0:0:0:
192,192,197782,1,0,0:0:0:0:
64,192,197810,1,0,0:0:0:0:
320,192,197897,1,0,0:0:0:0:
448,192,197897,1,0,0:0:0:0:
64,192,198128,1,0,0:0:0:0:
192,192,198185,1,0,0:0:0:0:
320,192,198243,1,0,0:0:0:0:
448,192,198301,1,0,0:0:0:0:
64,192,198359,1,0,0:0:0:0:
448,192,198589,1,0,0:0:0:0:
64,192,198705,1,0,0:0:0:0:
192,192,198705,1,0,0:0:0:0:
320,192,198935,1,0,0:0:0:0:
192,192,199051,1,0,0:0:0:0:
64,192,199282,1,0,0:0:0:0:
192,192,199397,1,0,0:0:0:0:
320,192,199512,1,0,0:0:0:0:
448,192,199570,1,0,0:0:0:0:
64,192,199628,1,0,0:0:0:0:
192,192,199743,1,0,0:0:0:0:
320,192,199743,1,0,0:0:0:0:
448,192,199974,1,0,0:0:0:0:
320,192,200032,1,0,0:0:0:0:
192,192,200089,1,0,0:0:0:0:
64,192,200147,1,0,0:0:0:0:
448,192,200205,1,0,0:0:0:0:
320,192,200435,1,0,0:0:0:0:
192,192,200551,1,0,0:0:0:0:
64,192,200782,1,0,0:0:0:0:
320,192,200897,1,0,0:0:0:0:
448,192,200897,1,0,0:0:0:0:
320,192,201128,1,0,0:0:0:0:
192,192,201359,1,0,0:0:0:0:
64,192,201416,1,0,0:0:0:0:
448,192,201474,1,0,0:0:0:0:
192,192,201589,1,0,0:0:0:0:
320,192,201589,1,0,0:0:0:0:
64,192,201820,1,0,0:0:0:0:
192,192,201878,1,0,0:0:0:0:
320,192,201935,1,0,0:0:0:0:
448,192,201993,1,0,0:0:0:0:
64,192,202051,1,0,0:0:0:0:
64,192,202282,1,0,0:0:0:0:
448,192,202397,1,0,0:0:0:0:
192,192,202512,1,0,0:0:0:0:
320,192,202628,1,0,0:0:0:0:
64,192,202743,1,0,0:0:0:0:
192,192,202743,1,0,0:0:0:0:
64,192,202976,1,0,0:0:0:0:
448,192,202976,1,0,0:0:0:0:
192,192,203232,1,0,0:0:0:0:
320,192,203481,1,0,0:0:0:0:
448,192,203722,1,0,0:0:0:0:
64,192,203952,1,0,0:0:0:0:
192,192,204173,1,0,0:0:0:0:
320,192,204386,1,0,0:0:0:0:
448,192,204589,1,0,0:0:0:0:
64,192,204787,1,0,0:0:0:0:
192,192,204974,1,0,0:0:0:0:
320,192,205154,1,0,0:0:0:0:
448,192,205327,1,0,0:0:0:0:
64,192,205493,1,0,0:0:0:0:
192,192,205652,1,0,0:0:0:0:
320,192,205805,1,0,0:0:0:0:
448,192,205951,1,0,0:0:0:0:
64,192,206091,1,0,0:0:0:0:
192,192,206226,1,0,0:0:0:0:
320,192,206356,1,0,0:0:0:0:
448,192,206481,1,0,0:0:0:0:
192,192,206600,1,0,0:0:0:0:
64,192,206714,1,0,0:0:0:0:
448,192,206824,1,0,0:0:0:0:
320,192,206930,1,0,0:0:0:0:
192,192,207030,1,0,0:0:0:0:
64,192,207128,1,0,0:0:0:0:
448,192,207221,1,0,0:0:0:0:
320,192,207310,1,0,0:0:0:0:
192,192,207398,1,0,0:0:0:0:
64,192,207483,1,0,0:0:0:0:
448,192,207565,1,0,0:0:0:0:
320,192,207645,1,0,0:0:0:0:
192,192,207724,1,0,0:0:0:0:
64,192,207802,128,0,210686:0:0:0:0:
320,192,208494,128,0,210455:0:0:0:0:
448,192,209186,128,0,210225:0:0:0:0:
