osu file format v14

[General]
AudioFilename: audio.mp3
AudioLeadIn: 0
PreviewTime: 51049
Countdown: 0
SampleSet: Normal
StackLeniency: 0.7
Mode: 1
LetterboxInBreaks: 0
WidescreenStoryboard: 0

[Editor]
Bookmarks: 3356,6433,7459,9767,10280,10536,11049,11562,14638,15664,54895,71305,79510,85151,85408
DistanceSpacing: 0.9
BeatDivisor: 4
GridSize: 4
TimelineZoom: 1.2

[Metadata]
Title:S.O.S.
TitleUnicode:S.O.S.
Artist:WEAVER
ArtistUnicode:WEAVER
Creator:World Fraction
Version:Futsuu
Source:うどんの国の金色毛鞠
Tags:Udon no Kuni no Kinniro Kemari Poco's Udon World Opening
BeatmapID:1108915
BeatmapSetID:520751

[Difficulty]
HPDrainRate:6
CircleSize:5
OverallDifficulty:4.5
ApproachRate:5
SliderMultiplier:1.4
SliderTickRate:1

[Events]
//Background and Video events
0,0,"derp.jpg",0,100
//Break Periods
//Storyboard Layer 0 (Background)
//Storyboard Layer 1 (Fail)
//Storyboard Layer 2 (Pass)
//Storyboard Layer 3 (Foreground)
//Storyboard Sound Samples

[TimingPoints]
280,512.820512820513,4,1,0,70,1,0
51562,-100,4,1,0,70,0,1
84382,-100,4,1,0,70,0,0

[HitObjects]
256,192,280,12,0,1818,0:0:0:0:
256,188,2331,5,4,0:0:0:0:
256,188,2844,1,8,0:0:0:0:
256,192,3869,1,8,0:0:0:0:
256,192,4382,1,4,0:0:0:0:
256,192,4767,1,4,0:0:0:0:
256,192,5151,1,4,0:0:0:0:
256,188,5664,1,0,0:0:0:0:
256,188,5920,1,8,0:0:0:0:
256,188,6433,1,0,0:0:0:0:
256,188,6946,1,8,0:0:0:0:
256,188,7972,1,8,0:0:0:0:
256,188,8485,1,4,0:0:0:0:
256,188,8869,1,4,0:0:0:0:
256,192,9254,1,4,0:0:0:0:
256,192,9767,1,0,0:0:0:0:
256,192,10023,1,8,0:0:0:0:
140,180,10536,1,4,0:0:0:0:
256,188,11049,1,8,0:0:0:0:
256,188,12074,1,8,0:0:0:0:
256,188,12587,1,4,0:0:0:0:
256,188,12972,1,4,0:0:0:0:
256,188,13356,1,4,0:0:0:0:
256,188,13869,1,0,0:0:0:0:
256,188,14125,1,8,0:0:0:0:
256,188,14638,1,0,0:0:0:0:
256,188,15151,1,8,0:0:0:0:
256,188,16177,1,8,0:0:0:0:
256,188,16690,1,4,0:0:0:0:
256,188,17074,1,4,0:0:0:0:
256,192,17459,1,4,0:0:0:0:
256,192,18228,1,8,0:0:0:0:
256,192,18485,1,8,0:0:0:0:
140,180,18741,1,12,0:0:0:0:
408,228,19254,1,8,0:0:0:0:
408,228,20280,1,8,0:0:0:0:
108,52,20792,1,0,0:0:0:0:
408,228,21305,1,8,0:0:0:0:
252,188,22074,1,0,0:0:0:0:
408,228,22331,1,8,0:0:0:0:
172,56,22844,1,0,0:0:0:0:
408,228,23356,1,8,0:0:0:0:
408,228,24382,1,8,0:0:0:0:
272,148,24895,1,0,0:0:0:0:
408,228,25280,1,0,0:0:0:0:
268,192,25664,1,0,0:0:0:0:
252,188,26433,1,8,0:0:0:0:
252,188,26946,1,0,0:0:0:0:
408,228,27459,1,8,0:0:0:0:
356,124,28485,1,8,0:0:0:0:
224,160,28997,1,0,0:0:0:0:
408,228,29510,1,8,0:0:0:0:
328,92,30280,1,0,0:0:0:0:
408,228,30536,1,8,0:0:0:0:
260,152,31049,1,0,0:0:0:0:
408,228,31562,1,8,0:0:0:0:
408,228,32587,1,8,0:0:0:0:
288,160,33100,1,0,0:0:0:0:
408,228,33485,1,0,0:0:0:0:
228,160,33869,1,0,0:0:0:0:
408,228,34638,1,8,0:0:0:0:
256,156,35151,1,12,0:0:0:0:
176,124,36177,1,0,0:0:0:0:
104,196,36690,1,8,0:0:0:0:
224,220,37203,1,0,0:0:0:0:
224,136,38228,1,0,0:0:0:0:
256,124,38741,1,8,0:0:0:0:
160,128,39254,1,0,0:0:0:0:
255,164,39510,1,0,0:0:0:0:
248,168,39767,1,0,0:0:0:0:
240,120,40280,1,0,0:0:0:0:
160,104,41305,1,0,0:0:0:0:
160,104,41818,1,8,0:0:0:0:
264,144,42331,1,0,0:0:0:0:
264,144,42844,1,8,0:0:0:0:
256,192,43100,1,8,0:0:0:0:
272,224,43356,1,4,0:0:0:0:
192,152,44382,1,0,0:0:0:0:
192,152,44895,1,8,0:0:0:0:
192,152,45408,1,0,0:0:0:0:
160,132,45921,1,8,0:0:0:0:
160,132,46177,1,8,0:0:0:0:
208,172,46946,1,8,0:0:0:0:
208,176,47459,1,0,0:0:0:0:
208,180,47715,1,8,0:0:0:0:
208,180,47972,1,0,0:0:0:0:
200,176,48485,1,8,0:0:0:0:
200,176,48741,1,8,0:0:0:0:
200,176,48997,1,0,0:0:0:0:
176,160,49510,1,8,0:0:0:0:
272,212,50023,1,0,0:0:0:0:
108,196,50280,1,0,0:0:0:0:
176,264,50536,1,0,0:0:0:0:
348,200,51562,1,12,0:0:0:0:
292,236,52075,1,8,0:0:0:0:
292,236,52587,1,8,0:0:0:0:
140,180,52844,1,0,0:0:0:0:
268,196,53101,1,8,0:0:0:0:
164,180,53614,1,4,0:0:0:0:
216,164,53997,1,0,0:0:0:0:
256,192,54382,1,4,0:0:0:0:
352,220,55151,1,8,0:0:0:0:
344,148,55664,1,0,0:0:0:0:
256,196,56690,1,8,0:0:0:0:
320,148,56946,1,0,0:0:0:0:
232,168,57204,1,8,0:0:0:0:
216,156,57715,1,0,0:0:0:0:
260,192,58228,1,8,0:0:0:0:
260,192,58485,1,0,0:0:0:0:
260,204,58997,1,0,0:0:0:0:
256,204,59254,1,8,0:0:0:0:
256,192,59767,1,4,0:0:0:0:
140,180,60280,1,8,0:0:0:0:
292,236,60792,1,8,0:0:0:0:
255,191,61049,1,0,0:0:0:0:
268,196,61306,1,8,0:0:0:0:
164,180,61819,1,4,0:0:0:0:
216,164,62203,1,0,0:0:0:0:
244,156,62587,1,4,0:0:0:0:
208,160,63356,1,8,0:0:0:0:
212,160,63869,1,0,0:0:0:0:
240,168,64896,1,0,0:0:0:0:
240,168,65151,1,0,0:0:0:0:
232,168,65409,1,8,0:0:0:0:
216,156,65922,1,8,0:0:0:0:
264,204,66177,1,0,0:0:0:0:
340,88,66433,1,8,0:0:0:0:
264,212,66946,1,0,0:0:0:0:
264,196,67459,1,0,0:0:0:0:
256,200,67715,1,0,0:0:0:0:
248,200,67972,1,12,0:0:0:0:
252,200,68485,1,8,0:0:0:0:
256,192,68997,1,8,0:0:0:0:
280,216,69255,1,0,0:0:0:0:
268,196,69511,1,8,0:0:0:0:
164,180,70024,1,4,0:0:0:0:
216,164,70408,1,0,0:0:0:0:
328,240,70792,1,4,0:0:0:0:
252,168,71562,1,8,0:0:0:0:
252,168,72074,1,0,0:0:0:0:
256,196,73100,1,0,0:0:0:0:
320,148,73356,1,0,0:0:0:0:
232,168,73614,1,8,0:0:0:0:
216,156,74125,1,0,0:0:0:0:
260,192,74638,1,8,0:0:0:0:
260,192,74895,1,0,0:0:0:0:
260,204,75408,1,0,0:0:0:0:
260,204,75664,1,8,0:0:0:0:
256,192,76177,1,4,0:0:0:0:
192,140,76690,1,8,0:0:0:0:
212,140,77203,1,8,0:0:0:0:
212,140,77459,1,0,0:0:0:0:
164,180,77715,1,8,0:0:0:0:
244,156,78228,1,4,0:0:0:0:
252,188,78613,1,0,0:0:0:0:
388,148,78997,1,4,0:0:0:0:
256,184,79767,1,8,0:0:0:0:
324,200,80280,1,0,0:0:0:0:
340,240,81305,1,0,0:0:0:0:
340,240,81562,1,0,0:0:0:0:
336,220,81818,1,8,0:0:0:0:
336,220,82331,1,8,0:0:0:0:
340,196,82587,1,0,0:0:0:0:
340,196,82844,1,8,0:0:0:0:
340,200,83356,1,0,0:0:0:0:
260,192,83869,1,8,0:0:0:0:
260,192,84126,1,0,0:0:0:0:
256,196,84382,1,12,0:0:0:0:
432,152,84895,1,8,0:0:0:0:
416,156,85151,1,8,0:0:0:0:
416,156,85408,1,8,0:0:0:0:
416,152,85921,1,8,0:0:0:0:
252,192,86433,1,4,0:0:0:0:
252,192,86818,1,4,0:0:0:0:
252,192,87203,1,4,0:0:0:0:
252,192,87715,1,0,0:0:0:0:
144,160,87972,1,8,0:0:0:0:
