osu file format v14

[General]
AudioFilename: audio.mp3
AudioLeadIn: 0
PreviewTime: 51035
Countdown: 0
SampleSet: Soft
StackLeniency: 0.7
Mode: 3
LetterboxInBreaks: 0
SpecialStyle: 0
WidescreenStoryboard: 1

[Editor]
DistanceSpacing: 1
BeatDivisor: 4
GridSize: 16
TimelineZoom: 1.6

[Metadata]
Title:S.O.S.
TitleUnicode:S.O.S.
Artist:WEAVER
ArtistUnicode:WEAVER
Creator:Asherz007
Version:6K Beginner
Source:うどんの国の金色毛鞠
Tags:udon no kuni kiniro kemari opening poco's world tv size short version 奥野翔太 Shota Okuno 杉本雄治 Yuji Sugimoto 河邉徹 Toru Hawagabe sos
BeatmapID:1551208
BeatmapSetID:647137

[Difficulty]
HPDrainRate:6
CircleSize:6
OverallDifficulty:6
ApproachRate:5
SliderMultiplier:1.4
SliderTickRate:1

[Events]
//Background and Video events
Video,-120,"op.avi"
0,0,"weeeeee!.jpg",0,0
//Break Periods
//Storyboard Layer 0 (Background)
//Storyboard Layer 1 (Fail)
//Storyboard Layer 2 (Pass)
//Storyboard Layer 3 (Foreground)
//Storyboard Sound Samples
Sample,50651,0,"G6H.wav",100

[TimingPoints]
2446,512.820512820513,4,2,1,100,1,0
51676,-100,4,2,1,100,0,1
67061,-100,4,2,1,100,0,0
68087,-100,4,2,1,100,0,1
84497,-100,4,2,1,100,0,0

[HitObjects]
298,192,394,128,8,1933:0:3:0:0:
192,192,1933,1,2,0:0:0:0:
384,192,2446,1,4,0:0:0:0:
448,192,2446,1,2,0:0:0:0:
64,192,2958,1,8,0:0:0:0:
128,192,2958,1,0,0:0:0:0:
448,192,3471,1,2,0:0:0:0:
192,192,3984,1,8,0:0:0:0:
384,192,3984,1,0,0:0:0:0:
320,192,4497,1,2,0:0:0:0:
128,192,5010,1,8,0:0:0:0:
469,192,5010,1,0,0:0:0:0:
42,192,5522,1,2,0:0:0:0:
448,192,5779,1,4,0:3:0:0:
128,192,6035,1,8,0:0:0:0:
213,192,6035,1,0,0:0:0:0:
320,192,6548,1,2,0:0:0:0:
192,192,7061,1,8,0:0:0:0:
384,192,7061,1,0,0:0:0:0:
448,192,7574,1,2,0:0:0:0:
128,192,8087,1,8,0:0:0:0:
298,192,8087,1,0,0:0:0:0:
192,192,8599,1,2,0:0:0:0:
448,192,9112,1,8,0:0:0:0:
384,192,9112,1,0,0:0:0:0:
64,192,9625,128,2,10138:0:0:0:0:
448,192,10138,128,8,10651:0:3:0:0:
298,192,10138,1,0,0:0:0:0:
64,192,10651,1,2,0:0:0:0:
192,192,10651,1,4,0:0:0:0:
320,192,11163,1,8,0:0:0:0:
384,192,11163,1,0,0:0:0:0:
192,192,11676,1,2,0:0:0:0:
448,192,12189,1,8,0:0:0:0:
128,192,12189,1,0,0:0:0:0:
320,192,12702,1,2,0:0:0:0:
192,192,13215,1,8,0:0:0:0:
384,192,13215,1,0,0:0:0:0:
448,192,13728,1,2,0:0:0:0:
64,192,13984,1,4,0:3:0:0:
320,192,14240,1,8,0:0:0:0:
384,192,14240,1,0,0:0:0:0:
192,192,14753,1,2,0:0:0:0:
64,192,15266,1,8,0:0:0:0:
469,192,15266,1,0,0:0:0:0:
320,192,15779,1,2,0:0:0:0:
192,192,16292,1,8,0:0:0:0:
128,192,16292,1,0,0:0:0:0:
448,192,16804,1,2,0:0:0:0:
64,192,17317,1,8,0:0:0:0:
384,192,17317,1,0,0:0:0:0:
320,192,17830,128,2,18343:0:0:0:0:
192,192,18343,128,8,18856:0:0:0:0:
128,192,18343,1,0,0:0:0:0:
384,192,18856,1,2,0:0:0:0:
448,192,18856,1,4,0:0:0:0:
64,192,19369,1,2,0:3:0:0:
42,192,20394,1,8,0:0:0:0:
298,192,21420,1,2,0:3:0:0:
320,192,22446,1,8,0:0:0:0:
213,192,23471,1,2,0:3:0:0:
192,192,24497,1,8,0:0:0:0:
469,192,25522,1,2,0:3:0:0:
64,192,26035,128,0,26548:0:0:0:0:
448,192,26548,128,8,27061:0:0:0:0:
192,192,27061,1,2,0:0:0:0:
384,192,27574,1,2,0:3:0:0:
384,192,28599,1,8,0:0:0:0:
128,192,29625,1,2,0:3:0:0:
128,192,30651,1,8,0:0:0:0:
320,192,31676,1,2,0:3:0:0:
298,192,32702,1,8,0:0:0:0:
213,192,33728,1,2,0:3:0:0:
298,192,34240,128,0,34753:0:0:0:0:
213,192,34753,128,8,35266:0:0:0:0:
469,192,35266,1,2,0:0:0:0:
384,192,35266,1,4,0:0:0:0:
42,192,35779,1,2,0:0:0:0:
128,192,35779,1,2,0:3:0:0:
384,192,36292,1,2,0:0:0:0:
298,192,36804,1,2,0:3:0:0:
192,192,36804,1,10,0:0:0:0:
64,192,37317,1,2,0:0:0:0:
320,192,37830,1,2,0:0:0:0:
384,192,37830,1,2,0:3:0:0:
192,192,38343,1,2,0:0:0:0:
448,192,38856,1,10,0:0:0:0:
128,192,38856,1,2,0:3:0:0:
320,192,39369,1,2,0:0:0:0:
64,192,39881,1,2,0:0:0:0:
384,192,39881,1,2,0:3:0:0:
192,192,40394,1,2,0:0:0:0:
448,192,40907,1,10,0:0:0:0:
128,192,40907,1,2,0:3:0:0:
320,192,41420,1,2,0:0:0:0:
192,192,41933,1,2,0:0:0:0:
42,192,41933,1,2,0:3:0:0:
448,192,42446,1,2,0:0:0:0:
384,192,42958,1,2,0:3:0:0:
64,192,42958,1,10,0:0:0:0:
192,192,43215,128,8,43471:0:3:0:0:
320,192,43471,1,2,0:0:0:0:
448,192,43471,1,4,0:0:0:0:
64,192,43984,1,8,0:0:0:0:
128,192,43984,1,2,0:3:0:0:
320,192,44497,1,2,0:0:0:0:
192,192,45010,1,8,0:0:0:0:
384,192,45010,1,2,0:3:0:0:
448,192,45522,1,2,0:0:0:0:
320,192,46035,1,2,0:0:0:0:
128,192,46035,1,2,0:3:0:0:
64,192,46548,1,2,0:0:0:0:
469,192,47061,1,8,0:3:0:0:
128,192,47317,128,8,47574:0:3:0:0:
384,192,47574,1,2,0:0:0:0:
298,192,47574,1,4,0:0:0:0:
213,192,48087,1,8,0:0:0:0:
42,192,48087,1,2,0:3:0:0:
469,192,48599,1,8,0:1:0:0:
320,192,49112,1,8,0:0:0:0:
128,192,49112,1,2,0:3:0:0:
64,192,49625,128,2,50138:0:0:0:0:
448,192,50138,128,2,50651:0:0:0:0:
192,192,50651,1,0,0:0:0:100:G7H.wav
320,192,51676,1,2,0:0:0:0:
448,192,51676,1,4,0:0:0:0:
64,192,52189,1,8,0:0:0:0:
128,192,52189,1,0,0:0:0:0:
384,192,52702,1,2,0:0:0:0:
192,192,53215,1,8,0:0:0:0:
298,192,53215,1,0,0:0:0:0:
64,192,53728,1,2,0:0:0:0:
469,192,54240,1,8,0:0:0:0:
128,192,54240,1,0,0:0:0:0:
192,192,54753,1,2,0:0:0:0:
384,192,55010,1,4,0:3:0:0:
64,192,55266,1,8,0:0:0:0:
128,192,55266,1,0,0:0:0:0:
320,192,55779,1,2,0:0:0:0:
192,192,56292,1,8,0:0:0:0:
384,192,56292,1,0,0:0:0:0:
448,192,56804,1,2,0:0:0:0:
128,192,57317,1,8,0:0:0:0:
298,192,57317,1,0,0:0:0:0:
192,192,57830,1,2,0:0:0:0:
320,192,58343,1,8,0:0:0:0:
42,192,58343,1,0,0:0:0:0:
128,192,58856,128,2,59369:0:0:0:0:
384,192,59369,128,8,59881:0:0:0:0:
64,192,59881,1,2,0:0:0:0:
192,192,59881,1,4,0:0:0:0:
448,192,60394,1,8,0:0:0:0:
298,192,60394,1,0,0:0:0:0:
128,192,60907,1,2,0:0:0:0:
320,192,61420,1,8,0:0:0:0:
213,192,61420,1,0,0:0:0:0:
448,192,61933,1,2,0:0:0:0:
64,192,62446,1,8,0:0:0:0:
128,192,62446,1,0,0:0:0:0:
320,192,62958,1,2,0:0:0:0:
192,192,63215,1,4,0:3:0:0:
448,192,63471,1,8,0:0:0:0:
384,192,63471,1,0,0:0:0:0:
64,192,63984,1,2,0:0:0:0:
320,192,64497,1,8,0:0:0:0:
128,192,64497,1,0,0:0:0:0:
192,192,65010,1,2,0:0:0:0:
448,192,65522,1,8,0:0:0:0:
384,192,65522,1,0,0:0:0:0:
128,192,66035,1,2,0:0:0:0:
213,192,66548,1,8,0:0:0:0:
469,192,66548,1,0,0:0:0:0:
384,192,67061,128,2,67574:0:0:0:0:
128,192,67574,128,8,68087:0:3:0:0:
42,192,67574,1,0,0:0:0:0:
320,192,68087,1,2,0:0:0:0:
448,192,68087,1,4,0:0:0:0:
64,192,68599,1,8,0:0:0:0:
213,192,68599,1,0,0:0:0:0:
384,192,69112,1,2,0:0:0:0:
320,192,69625,1,8,0:0:0:0:
128,192,69625,1,0,0:0:0:0:
213,192,70138,1,2,0:0:0:0:
384,192,70651,1,8,0:0:0:0:
42,192,70651,1,0,0:0:0:0:
320,192,71163,1,2,0:0:0:0:
64,192,71420,1,4,0:3:0:0:
448,192,71676,1,8,0:0:0:0:
384,192,71676,1,0,0:0:0:0:
192,192,72189,1,2,0:0:0:0:
320,192,72702,1,8,0:0:0:0:
128,192,72702,1,0,0:0:0:0:
64,192,73215,1,2,0:0:0:0:
192,192,73728,1,8,0:0:0:0:
384,192,73728,1,0,0:0:0:0:
448,192,74240,1,2,0:0:0:0:
128,192,74753,1,8,0:0:0:0:
298,192,74753,1,0,0:0:0:0:
42,192,75266,128,2,75779:0:0:0:0:
448,192,75779,128,8,76292:0:0:0:0:
384,192,75779,1,0,0:0:0:0:
128,192,76292,1,2,0:0:0:0:
192,192,76292,1,4,0:0:0:0:
384,192,76804,1,0,0:0:0:0:
320,192,76804,1,8,0:0:0:0:
64,192,77317,1,2,0:0:0:0:
448,192,77830,1,8,0:0:0:0:
128,192,77830,1,0,0:0:0:0:
320,192,78343,1,2,0:0:0:0:
192,192,78856,1,8,0:0:0:0:
384,192,78856,1,0,0:0:0:0:
64,192,79369,1,2,0:0:0:0:
448,192,79625,1,4,0:3:0:0:
192,192,79881,1,8,0:0:0:0:
128,192,79881,1,0,0:0:0:0:
320,192,80394,1,2,0:0:0:0:
64,192,80907,1,8,0:0:0:0:
384,192,80907,1,0,0:0:0:0:
448,192,81420,1,2,0:0:0:0:
192,192,81933,1,8,0:0:0:0:
128,192,81933,1,0,0:0:0:0:
298,192,82446,1,2,0:0:0:0:
448,192,82958,1,8,0:0:0:0:
42,192,82958,1,0,0:0:0:0:
320,192,83471,128,2,83984:0:0:0:0:
213,192,83984,128,8,84497:0:0:0:0:
128,192,83984,1,0,0:0:0:0:
384,192,84497,1,2,0:0:0:0:
448,192,84497,1,4,0:0:0:0:
42,192,85010,1,8,0:0:0:0:
128,192,85010,1,0,0:0:0:0:
448,192,85522,1,2,0:0:0:0:
320,192,86035,1,8,0:0:0:0:
213,192,86035,1,0,0:0:0:0:
384,192,86548,1,2,0:0:0:0:
64,192,87061,1,8,0:0:0:0:
469,192,87061,1,0,0:0:0:0:
320,192,87574,128,2,88087:0:0:0:0:
192,192,88087,128,8,88599:0:0:0:0:
128,192,88087,1,0,0:0:0:0:
448,192,88599,1,0,0:0:0:0:
