osu file format v14

[General]
AudioFilename: audio.mp3
AudioLeadIn: 0
PreviewTime: 51035
Countdown: 0
SampleSet: Soft
StackLeniency: 0.7
Mode: 3
LetterboxInBreaks: 0
SpecialStyle: 0
WidescreenStoryboard: 1

[Editor]
DistanceSpacing: 1
BeatDivisor: 4
GridSize: 16
TimelineZoom: 0.8999999

[Metadata]
Title:S.O.S.
TitleUnicode:S.O.S.
Artist:WEAVER
ArtistUnicode:WEAVER
Creator:Asherz007
Version:4K Normal
Source:うどんの国の金色毛鞠
Tags:udon no kuni kiniro kemari opening poco's world tv size short version 奥野翔太 Shota Okuno 杉本雄治 Yuji Sugimoto 河邉徹 Toru Hawagabe sos
BeatmapID:1378237
BeatmapSetID:647137

[Difficulty]
HPDrainRate:7
CircleSize:4
OverallDifficulty:7
ApproachRate:5
SliderMultiplier:1.4
SliderTickRate:1

[Events]
//Background and Video events
Video,-120,"op.avi"
0,0,"weeeeee!.jpg",0,0
//Break Periods
//Storyboard Layer 0 (Background)
//Storyboard Layer 1 (Fail)
//Storyboard Layer 2 (Pass)
//Storyboard Layer 3 (Foreground)
//Storyboard Sound Samples
Sample,50651,0,"G6H.wav",100

[TimingPoints]
2446.03448275862,512.820512820513,4,2,1,100,1,0
51676,-100,4,2,1,100,0,1
67061,-100,4,2,1,100,0,0
68087,-100,4,2,1,100,0,1
84497,-100,4,2,1,100,0,0

[HitObjects]
64,192,394,5,0,0:0:0:0:
192,192,394,1,8,0:3:0:0:
320,192,522,1,2,0:1:0:0:
192,192,779,1,2,0:1:0:0:
64,192,907,1,2,0:0:0:0:
448,192,907,1,0,0:0:0:0:
320,192,1035,128,2,1163:0:1:0:0:
192,192,1163,1,2,0:1:0:0:
64,192,1292,1,2,0:1:0:0:
448,192,1420,1,2,0:0:0:0:
320,192,1420,1,2,0:1:0:0:
64,192,1548,1,2,0:1:0:0:
192,192,1676,1,2,0:1:0:0:
448,192,1805,1,2,0:1:0:0:
320,192,1933,128,2,2446:0:0:0:0:
448,192,2446,1,4,0:0:0:0:
64,192,2446,128,2,2958:0:0:0:0:
192,192,2958,1,0,0:0:0:0:
320,192,2958,1,8,0:0:0:0:
448,192,3215,1,0,0:0:0:0:
64,192,3343,1,0,0:0:0:0:
320,192,3471,1,2,0:0:0:0:
192,192,3728,128,0,3984:0:0:0:0:
320,192,3984,1,8,0:0:0:0:
448,192,3984,1,0,0:0:0:0:
64,192,4112,1,0,0:0:0:0:
448,192,4240,1,0,0:0:0:0:
320,192,4497,128,2,4753:0:0:0:0:
192,192,4753,1,0,0:0:0:0:
448,192,4881,1,0,0:0:0:0:
64,192,5010,1,0,0:0:0:0:
320,192,5010,1,8,0:0:0:0:
192,192,5266,128,0,5779:0:0:0:0:
320,192,5522,1,2,0:0:0:0:
448,192,5779,128,4,6035:0:3:0:0:
64,192,6035,1,0,0:0:0:0:
320,192,6035,1,8,0:0:0:0:
192,192,6292,1,0,0:0:0:0:
448,192,6548,128,2,7061:0:0:0:0:
64,192,7061,1,0,0:0:0:0:
320,192,7061,1,8,0:0:0:0:
192,192,7317,128,0,7574:0:0:0:0:
448,192,7574,1,2,0:0:0:0:
320,192,7830,128,0,8087:0:0:0:0:
192,192,8087,1,8,0:0:0:0:
64,192,8087,1,0,0:0:0:0:
448,192,8215,1,0,0:0:0:0:
64,192,8343,1,0,0:0:0:0:
192,192,8599,128,2,8856:0:0:0:0:
320,192,8856,1,0,0:0:0:0:
64,192,8984,1,0,0:0:0:0:
448,192,9112,1,0,0:0:0:0:
320,192,9112,1,8,0:0:0:0:
64,192,9369,128,0,9625:0:0:0:0:
448,192,9625,1,2,0:0:0:0:
192,192,9753,1,0,0:0:0:0:
320,192,9753,1,8,0:3:0:0:
64,192,10138,1,0,0:0:0:0:
448,192,10138,1,8,0:3:0:0:
192,192,10266,1,2,0:1:0:0:
320,192,10394,1,2,0:1:0:0:
448,192,10522,1,2,0:1:0:0:
192,192,10651,1,2,0:0:0:0:
64,192,10651,128,4,11163:0:0:0:0:
320,192,11163,1,8,0:0:0:0:
448,192,11163,1,0,0:0:0:0:
192,192,11420,128,0,11676:0:0:0:0:
448,192,11676,1,2,0:0:0:0:
320,192,11933,128,0,12189:0:0:0:0:
64,192,12189,1,8,0:0:0:0:
448,192,12189,1,0,0:0:0:0:
192,192,12317,1,0,0:0:0:0:
320,192,12446,1,0,0:0:0:0:
64,192,12702,128,2,12958:0:0:0:0:
448,192,12958,1,0,0:0:0:0:
320,192,13087,1,0,0:0:0:0:
64,192,13215,1,0,0:0:0:0:
192,192,13215,1,8,0:0:0:0:
448,192,13471,128,0,13728:0:0:0:0:
64,192,13728,1,2,0:0:0:0:
320,192,13984,128,4,14240:0:3:0:0:
192,192,14240,1,0,0:0:0:0:
448,192,14240,1,8,0:0:0:0:
64,192,14497,128,0,14753:0:0:0:0:
192,192,14753,128,2,15266:0:0:0:0:
320,192,15266,1,8,0:0:0:0:
448,192,15266,1,0,0:0:0:0:
64,192,15522,128,0,15779:0:0:0:0:
320,192,15779,1,2,0:0:0:0:
192,192,16035,128,0,16292:0:0:0:0:
320,192,16292,1,8,0:0:0:0:
448,192,16292,1,0,0:0:0:0:
64,192,16420,1,0,0:0:0:0:
192,192,16548,1,0,0:0:0:0:
320,192,16805,128,2,17061:0:0:0:0:
64,192,17061,1,0,0:0:0:0:
448,192,17189,1,0,0:0:0:0:
192,192,17317,1,8,0:0:0:0:
320,192,17317,1,0,0:0:0:0:
64,192,17574,128,0,17830:0:0:0:0:
448,192,17830,1,2,0:0:0:0:
320,192,18087,128,4,18343:0:3:0:0:
192,192,18343,1,8,0:0:0:0:
64,192,18343,1,0,0:0:0:0:
320,192,18599,1,8,0:3:0:0:
448,192,18599,1,0,0:0:0:0:
192,192,18728,1,8,0:3:0:0:
64,192,18728,1,0,0:0:0:0:
320,192,18856,1,2,0:0:0:0:
448,192,18856,128,4,19369:0:0:0:0:
192,192,19369,1,2,0:3:0:0:
320,192,20138,128,2,20394:0:0:0:0:
64,192,20394,1,2,0:3:0:0:
448,192,20394,1,8,0:0:0:0:
192,192,20522,1,2,0:0:0:0:
64,192,20907,128,2,21420:0:0:0:0:
320,192,21420,1,2,0:3:0:0:
448,192,21676,128,2,21933:0:0:0:0:
192,192,22189,128,2,22446:0:0:0:0:
64,192,22446,1,8,0:0:0:0:
448,192,22446,1,2,0:3:0:0:
320,192,22574,128,2,22958:0:0:0:0:
64,192,22958,128,2,23471:0:0:0:0:
448,192,23471,1,2,0:3:0:0:
320,192,24240,128,2,24497:0:0:0:0:
192,192,24497,1,2,0:3:0:0:
64,192,24497,1,8,0:0:0:0:
448,192,24625,1,2,0:0:0:0:
320,192,25010,128,2,25394:0:0:0:0:
192,192,25394,128,2,25779:0:0:0:0:
448,192,25522,1,2,0:3:0:0:
64,192,25779,128,2,26035:0:0:0:0:
320,192,26035,128,0,26292:0:0:0:0:
448,192,26292,128,0,26548:0:0:0:0:
64,192,26548,1,2,0:3:0:0:
192,192,26548,128,8,26805:0:0:0:0:
320,192,26805,128,0,27061:0:0:0:0:
64,192,27061,128,2,27574:0:0:0:0:
448,192,27574,1,2,0:3:0:0:
320,192,28343,128,2,28599:0:0:0:0:
192,192,28599,1,8,0:0:0:0:
448,192,28599,1,2,0:3:0:0:
64,192,28728,1,2,0:0:0:0:
192,192,29112,128,2,29625:0:0:0:0:
320,192,29625,1,2,0:3:0:0:
64,192,29881,128,2,30138:0:0:0:0:
448,192,30394,128,2,30651:0:0:0:0:
64,192,30651,1,8,0:0:0:0:
320,192,30651,1,2,0:3:0:0:
192,192,30779,128,2,31163:0:0:0:0:
320,192,31163,128,2,31676:0:0:0:0:
64,192,31676,1,2,0:3:0:0:
192,192,32446,128,2,32702:0:0:0:0:
320,192,32702,1,2,0:3:0:0:
64,192,32702,1,8,0:0:0:0:
448,192,32830,1,2,0:0:0:0:
192,192,33215,128,2,33599:0:0:0:0:
320,192,33599,128,2,33984:0:0:0:0:
64,192,33728,1,2,0:3:0:0:
448,192,33984,128,2,34240:0:0:0:0:
64,192,34240,128,0,34753:0:0:0:0:
448,192,34753,1,2,0:3:0:0:
320,192,34753,128,8,35010:0:0:0:0:
192,192,35010,128,0,35266:0:0:0:0:
448,192,35266,1,2,0:0:0:0:
64,192,35266,128,4,35779:0:0:0:0:
320,192,35779,128,2,36292:0:0:0:0:
192,192,35779,1,2,0:3:0:0:
64,192,36035,1,0,0:0:0:0:
448,192,36292,128,2,36805:0:0:0:0:
192,192,36805,1,2,0:3:0:0:
64,192,36805,128,10,37317:0:0:0:0:
320,192,37061,1,0,0:0:0:0:
448,192,37317,128,2,37830:0:0:0:0:
320,192,37830,1,2,0:3:0:0:
192,192,37830,128,2,38343:0:0:0:0:
448,192,38087,1,0,0:0:0:0:
320,192,38343,128,2,38856:0:0:0:0:
64,192,38599,1,0,0:0:0:0:
192,192,38856,1,2,0:3:0:0:
448,192,38856,128,10,39369:0:0:0:0:
64,192,39112,1,0,0:0:0:0:
192,192,39369,128,2,39881:0:0:0:0:
448,192,39881,1,2,0:3:0:0:
320,192,39881,128,2,40394:0:0:0:0:
192,192,40138,1,0,0:0:0:0:
64,192,40394,128,2,40907:0:0:0:0:
448,192,40907,128,10,41420:0:0:0:0:
320,192,40907,1,2,0:3:0:0:
192,192,41163,1,0,0:0:0:0:
64,192,41420,128,2,41933:0:0:0:0:
192,192,41933,1,2,0:3:0:0:
320,192,41933,128,2,42446:0:0:0:0:
64,192,42189,1,0,0:0:0:0:
448,192,42446,128,2,42958:0:0:0:0:
192,192,42958,1,2,0:3:0:0:
64,192,42958,1,10,0:0:0:0:
320,192,43215,1,8,0:3:0:0:
448,192,43215,1,0,0:0:0:0:
192,192,43343,1,8,0:3:0:0:
64,192,43343,1,0,0:0:0:0:
320,192,43471,1,2,0:0:0:0:
448,192,43471,1,4,0:0:0:0:
192,192,43728,1,0,0:0:0:0:
64,192,43984,1,8,0:0:0:0:
448,192,43984,1,2,0:3:0:0:
320,192,44240,1,0,0:0:0:0:
192,192,44497,128,2,45010:0:0:0:0:
320,192,45010,128,2,45522:0:3:0:0:
448,192,45010,1,8,0:0:0:0:
64,192,45522,128,2,45779:0:0:0:0:
448,192,45779,128,0,46035:0:0:0:0:
192,192,46035,128,2,46292:0:0:0:0:
320,192,46292,128,0,46548:0:0:0:0:
448,192,46292,1,8,0:3:0:0:
64,192,46548,1,2,0:0:0:0:
320,192,46805,1,8,0:3:0:0:
448,192,46805,128,0,47061:0:0:0:0:
192,192,47061,1,10,0:3:0:0:
64,192,47061,1,8,0:0:0:0:
320,192,47317,128,8,47446:0:1:0:0:
192,192,47446,1,8,0:1:0:0:
64,192,47574,1,2,0:0:0:0:
448,192,47574,1,4,0:0:0:0:
192,192,47830,1,0,0:0:0:0:
320,192,47958,1,0,0:0:0:0:
64,192,48087,1,2,0:3:0:0:
448,192,48087,1,8,0:0:0:0:
192,192,48343,1,0,0:0:0:0:
320,192,48343,1,8,0:1:0:0:
192,192,48599,1,8,0:1:0:0:
64,192,48599,1,0,0:0:0:0:
320,192,48856,1,8,0:1:0:0:
448,192,48856,1,0,0:0:0:0:
192,192,49112,1,8,0:0:0:0:
64,192,49112,1,2,0:3:0:0:
448,192,49240,1,8,0:1:0:0:
320,192,49369,1,0,0:0:0:0:
64,192,49369,1,8,0:1:0:0:
448,192,49625,128,2,49753:0:1:0:0:
192,192,49753,1,2,0:0:0:0:
320,192,49881,1,2,0:1:0:0:
64,192,50010,1,2,0:0:0:0:
448,192,50138,1,2,0:1:0:0:
320,192,50266,1,2,0:0:0:0:
192,192,50394,1,2,0:0:0:0:
64,192,50522,1,2,0:0:0:0:
320,192,50651,128,0,51163:0:0:0:100:G7H.wav
64,192,51676,128,2,52189:0:0:0:0:
448,192,51676,1,4,0:0:0:0:
320,192,51933,1,0,0:0:0:0:
192,192,52189,1,0,0:0:0:0:
448,192,52189,1,8,0:0:0:0:
320,192,52446,1,0,0:0:0:0:
192,192,52574,1,0,0:0:0:0:
64,192,52702,1,2,0:0:0:0:
320,192,52958,128,0,53215:0:0:0:0:
192,192,53215,1,8,0:0:0:0:
448,192,53215,1,0,0:0:0:0:
64,192,53343,1,0,0:0:0:0:
320,192,53471,1,0,0:0:0:0:
448,192,53728,128,2,53984:0:0:0:0:
64,192,53984,1,0,0:0:0:0:
320,192,54112,1,0,0:0:0:0:
192,192,54240,1,8,0:0:0:0:
448,192,54240,1,0,0:0:0:0:
64,192,54497,128,0,54753:0:0:0:0:
320,192,54753,1,2,0:0:0:0:
448,192,55010,128,4,55266:0:3:0:0:
320,192,55266,1,0,0:0:0:0:
192,192,55266,128,8,55522:0:0:0:0:
64,192,55522,128,0,55779:0:0:0:0:
320,192,55779,128,2,56292:0:0:0:0:
192,192,56035,1,0,0:0:0:0:
64,192,56292,1,8,0:0:0:0:
448,192,56292,1,0,0:0:0:0:
192,192,56548,1,0,0:0:0:0:
320,192,56676,1,0,0:0:0:0:
448,192,56805,1,2,0:0:0:0:
64,192,57061,128,0,57317:0:0:0:0:
192,192,57317,1,8,0:0:0:0:
448,192,57317,1,0,0:0:0:0:
320,192,57446,1,0,0:0:0:0:
64,192,57574,1,0,0:0:0:0:
448,192,57830,128,2,58087:0:0:0:0:
192,192,58087,1,0,0:0:0:0:
320,192,58215,1,0,0:0:0:0:
64,192,58343,1,8,0:0:0:0:
448,192,58343,1,0,0:0:0:0:
192,192,58599,128,0,58856:0:0:0:0:
320,192,58856,1,2,0:0:0:0:
448,192,59112,128,4,59369:0:3:0:0:
192,192,59369,1,8,0:0:0:0:
64,192,59369,1,0,0:0:0:0:
320,192,59497,1,2,0:1:0:0:
448,192,59625,1,2,0:1:0:0:
192,192,59753,1,2,0:1:0:0:
64,192,59881,1,2,0:0:0:0:
320,192,59881,128,4,60394:0:0:0:0:
192,192,60138,1,0,0:0:0:0:
64,192,60394,1,0,0:0:0:0:
448,192,60394,1,8,0:0:0:0:
192,192,60651,1,0,0:0:0:0:
448,192,60779,1,0,0:0:0:0:
320,192,60907,1,2,0:0:0:0:
64,192,61163,128,0,61420:0:0:0:0:
320,192,61420,1,8,0:0:0:0:
448,192,61420,1,0,0:0:0:0:
192,192,61548,1,0,0:0:0:0:
64,192,61676,1,0,0:0:0:0:
448,192,61933,128,2,62189:0:0:0:0:
64,192,62189,1,0,0:0:0:0:
192,192,62317,1,0,0:0:0:0:
320,192,62446,1,8,0:0:0:0:
448,192,62446,1,0,0:0:0:0:
192,192,62702,128,0,62958:0:0:0:0:
448,192,62958,1,2,0:0:0:0:
64,192,63215,128,4,63471:0:3:0:0:
192,192,63471,1,0,0:0:0:0:
320,192,63471,1,8,0:0:0:0:
448,192,63728,1,0,0:0:0:0:
64,192,63984,128,2,64497:0:0:0:0:
320,192,64240,1,0,0:0:0:0:
192,192,64497,1,8,0:0:0:0:
448,192,64497,1,0,0:0:0:0:
320,192,64753,128,0,65010:0:0:0:0:
64,192,65010,1,2,0:0:0:0:
192,192,65266,128,0,65522:0:0:0:0:
320,192,65522,1,8,0:0:0:0:
448,192,65522,1,0,0:0:0:0:
64,192,65651,1,0,0:0:0:0:
320,192,65779,1,0,0:0:0:0:
192,192,66035,128,2,66292:0:0:0:0:
448,192,66292,1,0,0:0:0:0:
64,192,66420,1,0,0:0:0:0:
192,192,66548,1,8,0:0:0:0:
320,192,66548,1,0,0:0:0:0:
448,192,66805,128,0,67061:0:0:0:0:
64,192,67061,1,2,0:0:0:0:
192,192,67317,1,8,0:3:0:0:
448,192,67317,1,0,0:0:0:0:
320,192,67446,1,8,0:3:0:0:
64,192,67574,1,8,0:3:0:0:
192,192,67574,1,0,0:0:0:0:
448,192,67702,1,8,0:3:0:0:
320,192,67830,1,8,0:3:0:0:
64,192,67830,1,0,0:0:0:0:
192,192,67958,1,8,0:3:0:0:
320,192,68087,1,2,0:0:0:0:
448,192,68087,128,4,68599:0:0:0:0:
192,192,68343,1,0,0:0:0:0:
320,192,68599,1,8,0:0:0:0:
64,192,68599,128,0,68856:0:0:0:0:
192,192,68856,128,0,69112:0:0:0:0:
448,192,69112,1,2,0:0:0:0:
320,192,69369,128,0,69625:0:0:0:0:
192,192,69625,1,8,0:0:0:0:
64,192,69625,1,0,0:0:0:0:
448,192,69753,1,0,0:0:0:0:
64,192,69881,1,0,0:0:0:0:
320,192,70138,128,2,70394:0:0:0:0:
192,192,70394,1,0,0:0:0:0:
448,192,70522,1,0,0:0:0:0:
64,192,70651,1,0,0:0:0:0:
320,192,70651,1,8,0:0:0:0:
192,192,70907,128,0,71163:0:0:0:0:
448,192,71163,1,2,0:0:0:0:
320,192,71420,128,4,71676:0:3:0:0:
448,192,71676,1,8,0:0:0:0:
64,192,71676,128,0,71933:0:0:0:0:
192,192,71933,128,0,72189:0:0:0:0:
448,192,72189,128,2,72702:0:0:0:0:
64,192,72446,1,0,0:0:0:0:
192,192,72702,1,8,0:0:0:0:
320,192,72702,1,0,0:0:0:0:
64,192,72958,1,0,0:0:0:0:
448,192,73215,1,2,0:0:0:0:
192,192,73471,128,0,73728:0:0:0:0:
64,192,73728,1,0,0:0:0:0:
320,192,73728,1,8,0:0:0:0:
448,192,73856,1,0,0:0:0:0:
192,192,73984,1,0,0:0:0:0:
320,192,74240,128,2,74497:0:0:0:0:
64,192,74497,1,0,0:0:0:0:
448,192,74625,1,0,0:0:0:0:
320,192,74753,1,0,0:0:0:0:
192,192,74753,1,8,0:0:0:0:
64,192,75010,128,0,75266:0:0:0:0:
320,192,75266,1,2,0:0:0:0:
448,192,75266,1,0,0:0:0:0:
192,192,75394,1,8,0:1:0:0:
64,192,75394,1,0,0:0:0:0:
320,192,75522,1,4,0:3:0:0:
448,192,75779,1,0,0:0:0:0:
64,192,75779,1,8,0:0:0:0:
192,192,75907,1,2,0:1:0:0:
320,192,76035,1,2,0:1:0:0:
448,192,76163,1,2,0:1:0:0:
64,192,76292,1,2,0:0:0:0:
192,192,76292,128,4,76805:0:0:0:0:
448,192,76548,1,0,0:0:0:0:
320,192,76805,1,8,0:0:0:0:
64,192,76805,1,0,0:0:0:0:
192,192,77061,1,0,0:0:0:0:
448,192,77317,1,2,0:0:0:0:
320,192,77574,128,0,77830:0:0:0:0:
64,192,77830,1,0,0:0:0:0:
192,192,77830,1,8,0:0:0:0:
448,192,77958,1,0,0:0:0:0:
320,192,78087,1,0,0:0:0:0:
64,192,78343,128,2,78599:0:0:0:0:
320,192,78599,1,0,0:0:0:0:
192,192,78728,1,0,0:0:0:0:
64,192,78856,1,0,0:0:0:0:
448,192,78856,1,8,0:0:0:0:
320,192,79112,128,0,79369:0:0:0:0:
192,192,79369,1,2,0:0:0:0:
64,192,79625,128,4,79881:0:3:0:0:
320,192,79881,1,8,0:0:0:0:
448,192,79881,1,0,0:0:0:0:
192,192,80138,1,0,0:0:0:0:
320,192,80394,128,2,80907:0:0:0:0:
64,192,80651,1,0,0:0:0:0:
192,192,80907,1,8,0:0:0:0:
448,192,80907,1,0,0:0:0:0:
320,192,81163,1,0,0:0:0:0:
64,192,81420,1,2,0:0:0:0:
192,192,81676,128,0,81933:0:0:0:0:
320,192,81933,1,8,0:0:0:0:
64,192,81933,1,0,0:0:0:0:
448,192,82061,1,0,0:0:0:0:
192,192,82189,1,0,0:0:0:0:
320,192,82446,128,2,82702:0:0:0:0:
192,192,82702,1,0,0:0:0:0:
448,192,82830,1,0,0:0:0:0:
64,192,82958,1,0,0:0:0:0:
320,192,82958,1,8,0:0:0:0:
192,192,83215,128,0,83471:0:0:0:0:
320,192,83471,128,2,83728:0:0:0:0:
64,192,83728,128,4,83984:0:3:0:0:
192,192,83984,1,8,0:0:0:0:
448,192,83984,128,0,84240:0:0:0:0:
320,192,84240,128,0,84497:0:0:0:0:
64,192,84497,1,2,0:0:0:0:
192,192,84497,128,4,85010:0:0:0:0:
448,192,84753,1,0,0:0:0:0:
320,192,85010,1,8,0:0:0:0:
64,192,85010,1,0,0:0:0:0:
448,192,85266,128,0,85522:0:0:0:0:
192,192,85522,1,2,0:0:0:0:
64,192,85779,128,0,86035:0:0:0:0:
192,192,86035,1,8,0:0:0:0:
448,192,86035,1,0,0:0:0:0:
320,192,86163,1,0,0:0:0:0:
64,192,86292,1,0,0:0:0:0:
192,192,86548,128,2,86805:0:0:0:0:
448,192,86805,1,0,0:0:0:0:
64,192,86933,1,0,0:0:0:0:
192,192,87061,1,0,0:0:0:0:
320,192,87061,1,8,0:0:0:0:
448,192,87317,128,0,87574:0:0:0:0:
64,192,87574,1,2,0:0:0:0:
320,192,87574,1,0,0:0:0:0:
448,192,87702,1,0,0:0:0:0:
192,192,87702,1,8,0:3:0:0:
64,192,87958,1,2,0:0:0:0:
320,192,88087,1,8,0:3:0:0:
448,192,88087,1,0,0:0:0:0:
192,192,88215,1,8,0:3:0:0:
64,192,88343,1,8,0:3:0:0:
448,192,88343,1,0,0:0:0:0:
320,192,88471,1,8,0:3:0:0:
192,192,88599,1,0,0:0:0:0:
