osu file format v14

[General]
AudioFilename: audio.mp3
AudioLeadIn: 0
PreviewTime: 110391
Countdown: 0
SampleSet: Soft
StackLeniency: 0.7
Mode: 0
LetterboxInBreaks: 1
WidescreenStoryboard: 1

[Editor]
Bookmarks: 99599
DistanceSpacing: 2
BeatDivisor: 4
GridSize: 4
TimelineZoom: 3.199999

[Metadata]
Title:Kuchizuke Diamond
TitleUnicode:くちづけDiamond
Artist:WEAVER
ArtistUnicode:WEAVER
Creator:Broly
Version:ShadowX's Extra
Source:山田くんと7人の魔女
Tags:Yamada-kun to 7-nin no majo night rainbow a-sketch Celsius yShadowXOP_ victorfernando EriveltonGold
BeatmapID:1211104
BeatmapSetID:563229

[Difficulty]
HPDrainRate:6.5
CircleSize:3.8
OverallDifficulty:8
ApproachRate:9.3
SliderMultiplier:1.8
SliderTickRate:1

[Events]
//Background and Video events
0,0,"eJwNyFEOwiAMANC7cACKiNDtNowhm2GWtN2HMd7d_b28rzm5m9lsqkNmgHWXQrxaUeLcqm1Erdc8drGFDsiquWxHfauATwnjI95C8PcwuUtXoY-Ik4veISYXHCztSbww9Y99jWZ-f3PtJA0.jpg",0,0
//Break Periods
2,135103,142763
2,165102,176055
//Storyboard Layer 0 (Background)
//Storyboard Layer 1 (Fail)
//Storyboard Layer 2 (Pass)
//Storyboard Layer 3 (Foreground)
//Storyboard Sound Samples

[TimingPoints]
269,365.853658536585,4,2,1,60,1,0
11610,-200,4,2,1,60,0,0
11976,-100,4,2,1,60,0,0
23683,-133.333333333333,4,2,1,60,0,0
35390,-100,4,2,1,60,0,0
41240,-133.333333333333,4,2,1,60,0,0
47098,-133.333333333333,4,2,4,60,0,0
52951,-133.333333333333,4,2,5,60,0,0
58439,-100,4,2,5,60,0,0
64659,-100,4,2,1,60,0,1
76366,-133.333333333333,4,2,1,60,0,0
76547,-133.333333333333,4,2,0,60,0,0
79293,-133.333333333333,4,2,1,60,0,0
88073,-111.111111111111,4,2,0,60,0,0
93927,-100,4,2,2,60,0,0
99781,-133.333333333333,4,2,2,60,0,0
102708,-133.333333333333,4,2,1,60,0,0
105268,-100,4,2,5,60,0,0
108561,-100,4,2,1,60,0,0
111488,-100,4,2,1,60,0,1
134903,-100,4,2,1,60,0,0
143683,-200,4,2,2,60,0,0
152647,-200,4,2,0,60,0,0
153195,365.853658536585,4,2,1,60,1,0
153195,-100,4,2,1,60,0,1
164902,-100,4,2,1,60,0,0
176609,-133.333333333333,4,2,1,60,0,0
182097,-100,4,2,1,60,0,0
188316,-100,4,2,2,60,0,0
189048,-100,4,2,1,60,0,0
192707,-100,4,2,1,60,0,1
213926,-200,4,2,1,60,0,0
214658,-133.333333333333,4,2,1,40,0,0
220512,-200,4,2,0,30,0,0

[HitObjects]
28,120,269,6,0,L|108:160,1,90
48,164,634,2,0,L|128:204,1,90
68,208,1000,2,0,L|148:248,1,90
240,312,1366,1,0,0:0:0:0:
288,168,1549,1,0,0:0:0:0:
384,344,1732,6,0,L|412:248,1,90
380,108,2098,2,0,P|324:88|284:84,1,90
192,172,2464,1,0,0:0:0:0:
192,172,2647,1,0,0:0:0:0:
60,88,2829,1,0,0:0:0:0:
60,88,3012,1,0,0:0:0:0:
192,280,3195,6,0,P|240:284|300:300,1,90
400,260,3561,2,0,L|364:364,1,90
508,172,3927,2,0,P|460:168|400:152,1,90
288,112,4293,1,0,0:0:0:0:
288,112,4476,1,0,0:0:0:0:
168,196,4659,6,0,P|164:144|176:96,1,90
276,224,5025,2,0,P|272:276|284:324,1,90
400,224,5390,1,0,0:0:0:0:
400,224,5573,1,0,0:0:0:0:
452,100,5756,1,0,0:0:0:0:
452,100,5939,1,0,0:0:0:0:
324,60,6122,6,0,L|228:68,1,90,2|0,0:0|0:0,0:0:0:0:
104,160,6488,2,0,L|200:168,1,90,2|0,0:0|0:0,0:0:0:0:
328,260,6854,2,0,L|232:268,1,90,2|0,0:0|0:0,0:0:0:0:
112,352,7220,2,0,L|104:256,1,90,2|0,0:0|0:0,0:0:0:0:
224,144,7586,6,0,L|232:240,1,90,2|0,0:0|0:0,0:0:0:0:
368,348,7951,2,0,L|360:252,1,90,2|0,0:0|0:0,0:0:0:0:
408,144,8317,1,2,0:0:0:0:
408,144,8500,1,0,0:0:0:0:
296,76,8683,1,2,0:0:0:0:
296,76,8866,1,0,0:0:0:0:
200,164,9049,6,0,P|144:160|92:168,1,90,2|0,0:0|0:0,0:0:0:0:
308,280,9415,2,0,P|364:284|416:276,1,90,2|0,0:0|0:0,0:0:0:0:
452,104,9781,2,0,P|456:160|448:212,1,90,2|0,0:0|0:0,0:0:0:0:
232,352,10147,2,0,P|227:307|232:262,1,90,2|0,0:0|0:0,0:0:0:0:
152,88,10512,6,0,L|124:180,1,90,2|0,0:0|0:0,0:0:0:0:
318,288,10878,2,0,L|226:260,1,90,2|0,0:0|0:0,0:0:0:0:
256,152,11244,1,2,0:0:0:0:
256,152,11427,1,0,0:0:0:0:
384,80,11610,2,0,L|388:164,1,67.5
416,264,11976,6,0,L|312:268,1,90,6|0,0:0|0:0,0:0:0:0:
196,308,12342,1,2,0:0:0:0:
48,276,12525,2,0,P|28:196|120:120,1,180
120,128,12982,1,2,0:0:0:0:
147,139,13073,1,2,0:0:0:0:
175,151,13165,1,2,0:0:0:0:
203,163,13256,1,0,0:0:0:0:
230,175,13348,1,2,0:0:0:0:
256,184,13439,6,0,P|304:196|360:188,1,90,2|0,0:0|0:0,0:0:0:0:
448,60,13805,2,0,L|436:152,1,90,2|0,0:0|0:0,0:0:0:0:
408,304,14171,2,0,P|324:268|236:316,1,180,2|2,0:0|0:0,0:0:0:0:
112,264,14720,1,0,0:0:0:0:
44,148,14903,6,0,P|48:96|72:56,1,90,2|0,0:0|0:0,0:0:0:0:
200,120,15268,2,0,P|196:172|172:212,1,90,2|0,0:0|0:0,0:0:0:0:
12,292,15634,2,0,B|68:288|68:288|120:312|120:312|192:308,1,180,2|2,0:0|0:0,0:0:0:0:
272,288,16183,2,0,P|256:204|352:148,1,180
348,244,16732,1,2,0:0:0:0:
444,164,16915,1,0,0:0:0:0:
348,244,17098,1,2,0:0:0:0:
176,232,17281,2,0,L|88:196,2,90,0|2|0,0:0|0:0|0:0,0:0:0:0:
184,336,17829,6,0,P|232:348|304:344,1,90,6|0,0:0|0:0,0:0:0:0:
376,280,18195,1,2,0:0:0:0:
284,256,18378,2,0,P|344:192|440:208,1,180
460,232,18836,1,2,0:0:0:0:
465,258,18927,1,2,0:0:0:0:
471,285,19018,1,2,0:0:0:0:
476,312,19110,1,0,0:0:0:0:
482,339,19201,1,2,0:0:0:0:
284,256,19293,6,0,L|292:148,1,90,2|0,0:0|0:0,0:0:0:0:
200,48,19659,2,0,L|192:156,1,90,2|0,0:0|0:0,0:0:0:0:
170,284,20025,2,0,P|138:224|230:132,1,180,2|2,0:0|0:0,0:0:0:0:
284,256,20573,1,0,0:0:0:0:
392,256,20756,6,0,P|392:308|372:360,1,90,2|0,0:0|0:0,0:0:0:0:
320,160,21122,2,0,P|365:135|421:128,1,90,2|0,0:0|0:0,0:0:0:0:
380,343,21488,2,0,B|288:311|296:375|200:339,1,180,2|2,0:0|0:0,0:0:0:0:
64,268,22037,1,0,0:0:0:0:
219,251,22220,6,0,L|203:347,1,90,2|0,0:0|0:0,0:0:0:0:
136,100,22586,2,0,L|120:196,1,90,2|0,0:0|0:0,0:0:0:0:
344,244,22951,2,0,L|368:120,2,90,2|0|2,0:0|0:0|0:0,0:0:0:0:
252,312,23500,1,2,0:0:0:0:
236,296,23592,1,2,0:0:0:0:
220,280,23683,6,0,P|188:268|148:264,1,67.5000025749208,2|0,0:0|0:0,0:0:0:0:
64,312,24049,1,2,0:0:0:0:
16,208,24232,2,0,L|168:164,1,135.000005149842
256,164,24781,1,2,0:0:0:0:
360,220,24964,2,0,P|408:264|400:344,2,135.000005149842
272,284,25878,2,0,L|196:292,1,67.5000025749208,2|0,0:0|0:0,0:0:0:0:
72,224,26244,2,0,L|148:216,1,67.5000025749208,2|0,0:0|0:0,0:0:0:0:
170,85,26610,6,0,L|138:217,1,135.000005149842,2|2,0:0|0:0,0:0:0:0:
216,304,27159,1,0,0:0:0:0:
216,304,27342,2,0,L|300:304,1,67.5000025749208,2|0,0:0|0:0,0:0:0:0:
408,228,27708,1,2,0:0:0:0:
248,168,27890,1,0,0:0:0:0:
408,228,28073,6,0,L|384:152,2,67.5000025749208,2|0|2,0:0|0:0|0:0,0:0:0:0:
288,288,28622,1,0,0:0:0:0:
136,332,28805,2,0,L|56:320,1,67.5000025749208,2|0,0:0|0:0,0:0:0:0:
32,200,29171,2,0,L|112:212,1,67.5000025749208,2|0,0:0|0:0,0:0:0:0:
224,340,29537,6,0,L|248:188,1,135.000005149842,2|2,0:0|0:0,0:0:0:0:
312,136,30086,1,0,0:0:0:0:
420,152,30268,2,0,L|432:60,2,67.5000025749208,2|0|2,0:0|0:0|0:0,0:0:0:0:
400,292,30817,2,0,L|328:296,1,67.5000025749208,0|2,0:0|0:0,0:0:0:0:
240,344,31183,2,0,P|220:296|264:224,1,135.000005149842
356,160,31732,1,2,0:0:0:0:
356,160,31915,1,0,0:0:0:0:
184,72,32098,2,0,L|260:92,1,67.5000025749208,2|0,0:0|0:0,0:0:0:0:
256,312,32464,6,0,L|276:236,1,67.5000025749208,2|0,0:0|0:0,0:0:0:0:
316,97,32829,1,2,0:0:0:0:
184,72,33012,2,0,L|328:100,1,135.000005149842
324,296,33561,2,0,L|348:220,1,67.5000025749208,2|0,0:0|0:0,0:0:0:0:
432,100,33927,5,2,0:0:0:0:
196,168,34110,1,0,0:0:0:0:
100,292,34842,5,2,0:0:0:0:
127,281,34933,1,0,0:0:0:0:
155,276,35025,1,2,0:0:0:0:
184,274,35116,1,0,0:0:0:0:
213,278,35208,1,2,0:0:0:0:
241,286,35299,1,0,0:0:0:0:
264,296,35390,6,0,P|304:316|352:324,1,90,6|0,0:0|0:0,0:0:0:0:
432,256,35756,1,2,0:0:0:0:
368,176,35939,2,0,P|300:140|200:180,1,180
160,184,36397,1,2,0:0:0:0:
156,154,36488,1,2,0:0:0:0:
152,124,36579,1,2,0:0:0:0:
148,94,36671,1,0,0:0:0:0:
144,64,36762,1,2,0:0:0:0:
140,40,36854,6,0,L|160:140,1,90,2|0,0:0|0:0,0:0:0:0:
248,276,37220,2,0,L|268:176,1,90,2|0,0:0|0:0,0:0:0:0:
352,32,37586,2,0,L|392:232,1,180,2|2,0:0|0:0,0:0:0:0:
324,308,38134,1,0,0:0:0:0:
188,360,38317,6,0,P|184:300|200:256,1,90,2|0,0:0|0:0,0:0:0:0:
412,180,38683,2,0,P|352:184|308:168,1,90,2|0,0:0|0:0,0:0:0:0:
193,100,39049,2,0,P|269:96|321:196,1,180,2|2,0:0|0:0,0:0:0:0:
208,228,39598,1,0,0:0:0:0:
64,224,39781,6,0,L|112:304,1,90,2|0,0:0|0:0,0:0:0:0:
204,336,40147,2,0,P|256:316|316:324,1,90,2|0,0:0|0:0,0:0:0:0:
390,247,40512,2,0,P|435:246|476:228,2,90,2|0|2,0:0|0:0|0:0,0:0:0:0:
224,204,41061,1,0,0:0:0:0:
232,180,41153,1,0,0:0:0:0:
240,160,41244,6,0,P|276:132|380:152,2,135.000005149842,2|2|2,0:0|0:0|0:0,0:0:0:0:
200,284,42159,1,0,0:0:0:0:
84,320,42342,2,0,P|80:268|92:224,1,67.5000025749208,2|0,0:0|0:0,0:0:0:0:
156,124,42708,6,0,P|216:96|280:128,2,135.000005149842,2|2|2,0:0|0:0|0:0,0:0:0:0:
92,216,43622,1,0,0:0:0:0:
176,296,43805,2,0,P|228:288|252:276,1,67.5000025749208,2|0,0:0|0:0,0:0:0:0:
336,328,44171,2,0,L|360:168,1,135.000005149842,2|2,0:0|0:0,0:0:0:0:
288,40,44720,1,0,0:0:0:0:
96,128,44903,1,2,0:0:0:0:
280,184,45086,1,0,0:0:0:0:
164,260,45268,2,0,B|164:220|164:220|172:188,1,67.5000025749208,2|0,0:0|0:0,0:0:0:0:
272,68,45634,6,0,L|276:136,1,67.5000025749208,2|0,0:0|0:0,0:0:0:0:
372,264,46000,2,0,L|376:196,1,67.5000025749208,2|0,0:0|0:0,0:0:0:0:
372,72,46366,1,2,0:0:0:0:
188,216,46549,1,0,0:0:0:0:
372,260,46732,1,2,0:0:0:0:
188,216,47098,6,0,L|208:304,1,67.5000025749208,10|0,0:0|0:0,0:0:0:0:
328,180,47464,2,0,L|308:92,1,67.5000025749208,2|8,0:0|0:0,0:0:0:0:
168,88,47829,2,0,L|80:108,2,67.5000025749208,2|0|10,0:0|0:0|0:0,0:0:0:0:
312,88,48378,2,0,P|400:108|432:160,2,135.000005149842,0|8|0,0:0|0:0|0:0,0:0:0:0:
220,140,49293,2,0,P|216:100|224:60,1,67.5000025749208,10|0,0:0|0:0,0:0:0:0:
128,48,49659,2,0,L|100:116,1,67.5000025749208,2|0,0:0|0:0,0:0:0:0:
44,236,50025,6,0,B|112:196|116:256|196:224,1,135.000005149842,10|2,0:0|0:0,0:0:0:0:
256,284,50573,2,0,P|280:216|248:152,1,135.000005149842,8|0,0:0|0:0,0:0:0:0:
192,92,51122,2,0,L|56:68,2,135.000005149842,10|2|2,0:0|0:0|0:0,0:0:0:0:
296,132,52037,1,0,0:0:0:0:
281,246,52220,6,0,L|189:226,2,67.5000025749208,10|0|2,0:0|0:0|0:0,0:0:0:0:
136,308,52768,1,0,0:0:0:0:
136,308,52951,6,0,P|144:256|224:236,1,135.000005149842,2|2,0:0|0:0,0:0:0:0:
236,312,53500,2,0,P|284:276|288:180,1,135.000005149842,0|8,0:0|0:0,0:0:0:0:
200,112,54049,1,2,0:0:0:0:
200,112,54415,6,0,P|280:108|328:168,1,135.000005149842,2|2,0:0|0:0,0:0:0:0:
296,240,54964,2,0,P|368:228|408:156,1,135.000005149842
356,72,55512,1,10,0:1:0:0:
194,89,55878,6,0,L|162:225,1,135.000005149842,2|2,0:0|0:0,0:0:0:0:
96,308,56427,1,0,0:0:0:0:
40,224,56610,2,0,P|92:200|168:224,1,135.000005149842,2|2,0:0|0:0,0:0:0:0:
224,300,57159,1,0,0:0:0:0:
296,156,57342,5,2,0:0:0:0:
176,80,57525,1,0,0:0:0:0:
296,156,57708,2,0,L|368:196,1,67.5000025749208,2|0,0:0|0:0,0:0:0:0:
400,340,58073,2,0,L|440:268,1,67.5000025749208,2|0,0:0|0:0,0:0:0:0:
440,176,58439,2,0,P|404:132|292:160,1,180,10|2,0:1|0:0,0:0:0:0:
232,256,58988,5,0,0:0:0:0:
112,312,59171,1,2,0:0:0:0:
232,336,59354,1,0,0:0:0:0:
112,312,59537,2,0,L|128:216,1,90,2|8,0:0|0:0,0:0:0:0:
256,80,59903,2,0,L|240:176,1,90,2|8,0:0|0:0,0:0:0:0:
404,112,60268,6,0,L|376:296,1,180,2|2,0:0|0:0,0:0:0:0:
257,349,60817,2,0,L|288:168,1,180
224,92,61366,1,10,0:1:0:0:
72,208,61732,6,0,P|48:160|56:72,2,135,2|0|0,0:0|0:0|0:0,0:0:0:0:
176,248,62464,2,0,L|136:392,2,135,2|0|0,0:0|0:0|0:0,0:0:0:0:
256,216,63195,5,2,0:0:0:0:
360,56,63378,1,0,0:0:0:0:
360,56,63470,1,0,0:0:0:0:
360,56,63561,1,0,0:0:0:0:
128,104,63744,1,0,0:0:0:0:
392,224,63927,1,0,0:0:0:0:
168,332,64110,1,0,0:0:0:0:
264,60,64293,1,0,0:0:0:0:
48,144,64659,6,0,P|56:208|160:232,1,180,6|10,0:0|0:0,0:0:0:0:
136,128,65208,1,0,0:0:0:0:
248,88,65390,2,0,L|264:176,1,90,2|0,0:0|0:0,0:0:0:0:
332,280,65756,1,10,0:0:0:0:
347,254,65848,1,0,0:0:0:0:
363,228,65939,1,0,0:0:0:0:
452,200,66122,6,0,P|432:156|304:140,1,180,2|10,0:0|0:0,0:0:0:0:
200,224,66671,1,0,0:0:0:0:
24,124,66854,1,2,0:0:0:0:
192,52,67037,1,0,0:0:0:0:
48,280,67220,1,10,0:0:0:0:
296,140,67403,1,0,0:0:0:0:
296,140,67494,1,0,0:0:0:0:
296,140,67586,6,0,L|304:256,1,90,2|0,0:0|0:0,0:0:0:0:
176,344,67951,2,0,L|184:228,1,90,10|0,0:0|0:0,0:0:0:0:
88,72,68317,2,0,L|96:188,1,90,2|0,0:0|0:0,0:0:0:0:
64,272,68683,1,10,0:0:0:0:
84,301,68775,1,0,0:0:0:0:
104,331,68866,1,0,0:0:0:0:
200,340,69049,6,0,B|296:304|296:368|388:328,1,180,2|10,0:0|0:0,0:0:0:0:
296,232,69598,1,0,0:0:0:0:
468,120,69781,1,2,0:0:0:0:
216,160,69964,1,0,0:0:0:0:
496,248,70147,1,10,0:0:0:0:
236,320,70329,1,0,0:0:0:0:
216,160,70512,6,0,P|276:96|364:140,1,180,6|10,0:0|0:0,0:0:0:0:
304,220,71061,1,0,0:0:0:0:
376,324,71244,2,0,L|184:344,1,180,2|10,0:0|0:0,0:0:0:0:
88,280,71793,1,0,0:0:0:0:
196,232,71976,6,0,L|216:124,1,90,2|0,0:0|0:0,0:0:0:0:
352,44,72342,2,0,L|332:152,1,90,10|0,0:0|0:0,0:0:0:0:
344,256,72708,1,2,0:0:0:0:
16,232,72890,1,0,0:0:0:0:
336,152,73073,1,10,0:0:0:0:
76,336,73256,2,0,L|4:360,1,45,2|0,0:0|0:0,0:0:0:0:
168,340,73439,5,2,0:0:0:0:
264,200,73622,1,0,0:0:0:0:
80,200,73805,5,10,0:0:0:0:
372,316,73988,1,0,0:0:0:0:
180,72,74171,1,2,0:0:0:0:
220,332,74354,1,0,0:0:0:0:
364,84,74537,1,10,0:0:0:0:
108,240,74720,1,0,0:0:0:0:
408,332,74903,6,0,B|308:304|344:360|224:336,1,180,2|10,0:0|0:0,0:0:0:0:
108,312,75451,1,0,0:0:0:0:
36,232,75634,2,0,L|52:136,1,90,2|0,0:0|0:0,0:0:0:0:
152,44,76000,2,0,L|168:140,1,90,10|0,0:0|0:0,0:0:0:0:
176,268,76366,6,0,L|264:284,1,67.5000025749208
344,296,76732,1,0,0:0:0:0:
440,364,76915,2,0,L|460:216,1,135.000005149842
372,184,77372,1,2,0:0:0:0:
372,157,77464,1,0,0:0:0:0:
372,130,77555,1,2,0:0:0:0:
372,103,77647,1,0,0:0:0:0:
372,75,77738,1,2,0:0:0:0:
372,52,77829,6,0,L|360:128,1,67.5000025749208
224,256,78195,2,0,L|236:180,1,67.5000025749208
240,96,78561,2,0,P|180:72|108:104,1,135.000005149842
72,204,79110,1,0,0:0:0:0:
48,296,79293,6,0,L|144:304,1,67.5000025749208,2|2,0:0|0:0,0:0:0:0:
204,348,79659,2,0,L|300:356,1,67.5000025749208,2|0,0:0|0:0,0:0:0:0:
364,352,80025,2,0,L|392:200|392:200,1,135.000005149842,2|2,0:0|0:0,0:0:0:0:
292,168,80573,1,0,0:0:0:0:
184,180,80756,6,0,P|188:136|256:80,2,135.000005149842,2|2|2,0:0|0:0|0:0,0:0:0:0:
108,272,81671,1,0,0:0:0:0:
192,336,81854,2,0,L|288:344,1,67.5000025749208,2|0,0:0|0:0,0:0:0:0:
472,256,82220,6,0,L|376:248,1,67.5000025749208,2|0,0:0|0:0,0:0:0:0:
304,168,82586,1,2,0:0:0:0:
264,260,82768,2,0,P|184:276|128:240,1,135.000005149842
128,208,83226,1,0,0:0:0:0:
129,179,83317,1,2,0:0:0:0:
131,150,83409,1,0,0:0:0:0:
132,121,83500,1,0,0:0:0:0:
134,92,83592,1,0,0:0:0:0:
136,60,83683,6,0,L|132:140,1,67.5000025749208,2|0,0:0|0:0,0:0:0:0:
300,248,84049,2,0,L|304:168,1,67.5000025749208,2|0,0:0|0:0,0:0:0:0:
348,88,84415,2,0,B|276:52|276:112|188:88,1,135.000005149842,2|2,0:0|0:0,0:0:0:0:
116,160,84964,1,0,0:0:0:0:
48,296,85147,6,0,P|104:312|176:260,2,135.000005149842,2|2|2,0:0|0:0|0:0,0:0:0:0:
96,208,86061,1,0,0:0:0:0:
184,108,86244,2,0,L|208:176,1,67.5000025749208,2|0,0:0|0:0,0:0:0:0:
332,272,86610,6,0,L|308:204,1,67.5000025749208,2|0,0:0|0:0,0:0:0:0:
368,112,86976,1,2,0:0:0:0:
368,112,87159,1,0,0:0:0:0:
280,64,87342,1,2,0:0:0:0:
280,64,87525,1,0,0:0:0:0:
288,160,87708,1,2,0:0:0:0:
400,272,88073,5,0,0:0:0:0:
216,296,88622,1,0,0:0:0:0:
340,128,89171,1,0,0:0:0:0:
128,208,89720,1,0,0:0:0:0:
240,52,90268,1,0,0:0:0:0:
288,296,90634,1,0,0:0:0:0:
288,296,90817,1,0,0:0:0:0:
132,112,91000,5,0,0:0:0:0:
376,192,91549,1,0,0:0:0:0:
264,40,92098,1,0,0:0:0:0:
176,272,92647,1,0,0:0:0:0:
440,120,93195,1,0,0:0:0:0:
440,120,93378,1,0,0:0:0:0:
440,120,93561,1,0,0:0:0:0:
412,284,93927,6,0,L|316:304,1,90,2|8,0:0|0:0,0:0:0:0:
172,208,94293,2,0,L|192:304,1,90,2|8,0:0|0:0,0:0:0:0:
252,364,94659,1,2,0:0:0:0:
348,208,94842,1,8,0:0:0:0:
268,156,95025,2,0,P|288:104|328:72,1,90,2|8,0:0|0:0,0:0:0:0:
187,205,95390,2,0,P|239:237|359:193,2,180,2|2|2,0:0|0:0|0:0,0:0:0:0:
120,132,96305,1,8,0:0:0:0:
32,252,96488,2,0,L|128:268,1,90,2|8,0:0|0:0,0:0:0:0:
232,336,96854,5,0,0:0:0:0:
224,72,97037,1,8,0:0:0:0:
336,336,97403,5,0,0:0:0:0:
332,68,97586,1,0,0:0:0:0:
448,344,97951,5,0,0:0:0:0:
448,64,98134,1,8,0:0:0:0:
324,200,98500,5,0,0:0:0:0:
100,316,98866,5,0,0:0:0:0:
272,56,99049,1,2,0:0:0:0:
16,172,99232,1,0,0:0:0:0:
272,272,99415,1,2,0:0:0:0:
112,56,99598,1,0,0:0:0:0:
364,136,99781,6,0,L|444:336,2,202.500007724762,2|0|2,0:0|0:0|0:0,0:0:0:0:
220,164,101244,6,0,P|216:88|344:36,2,202.500007724762,2|0|10,0:0|0:0|0:1,0:0:0:0:
280,288,102708,6,0,L|144:264,1,135.000005149842,2|2,0:0|0:0,0:0:0:0:
32,184,103256,1,0,0:0:0:0:
151,135,103439,2,0,P|166:205|134:281,1,135.000005149842,2|2,0:0|0:0,0:0:0:0:
208,340,103988,1,0,0:0:0:0:
344,244,104171,5,2,0:0:0:0:
416,332,104354,1,0,0:0:0:0:
344,244,104537,2,0,P|348:204|364:164,1,67.5000025749208,2|0,0:0|0:0,0:0:0:0:
428,266,104903,2,0,P|424:306|408:346,1,67.5000025749208,2|0,0:0|0:0,0:0:0:0:
312,344,105268,6,0,P|264:316|144:352,1,180,10|2,0:1|0:0,0:0:0:0:
60,352,105817,1,0,0:0:0:0:
271,170,106000,1,2,0:0:0:0:
36,216,106183,1,0,0:0:0:0:
184,188,106366,2,0,P|232:172|300:176,1,90,2|8,0:0|0:0,0:0:0:0:
440,256,106732,2,0,P|392:272|324:268,1,90,2|8,0:0|0:0,0:0:0:0:
248,312,107098,6,0,B|208:336|160:356|104:344|104:344|136:296,1,180,2|2,0:0|0:0,0:0:0:0:
188,212,107647,2,0,P|272:184|352:236,1,180
396,320,108195,1,10,0:1:0:0:
136,188,108561,6,0,B|68:152|68:152|44:120|44:112|60:60,2,135,2|0|0,0:0|0:0|0:0,0:0:0:0:
360,188,109293,2,0,B|428:152|428:152|452:120|452:112|436:60,2,135,2|0|8,0:0|0:0|0:0,0:0:0:0:
276,264,110025,5,0,0:0:0:0:
208,60,110208,1,0,0:0:0:0:
208,60,110299,1,0,0:0:0:0:
208,60,110390,1,0,0:0:0:0:
172,344,110573,1,0,0:0:0:0:
336,64,110756,1,0,0:0:0:0:
84,268,110939,1,0,0:0:0:0:
390,194,111122,1,0,0:0:0:0:
435,339,111488,6,0,P|447:243|355:191,1,180,6|10,0:0|0:0,0:0:0:0:
344,292,112037,1,0,0:0:0:0:
252,368,112220,2,0,P|224:320|224:272,1,90,2|0,0:0|0:0,0:0:0:0:
280,216,112586,1,10,0:0:0:0:
294,181,112677,1,8,0:0:0:0:
308,146,112768,1,0,0:0:0:0:
256,56,112951,6,0,P|348:40|408:132,1,180,2|10,0:0|0:0,0:0:0:0:
424,240,113500,1,0,0:0:0:0:
220,224,113683,1,2,0:0:0:0:
400,344,113866,1,0,0:0:0:0:
300,112,114049,1,10,0:0:0:0:
104,200,114232,1,8,0:0:0:0:
104,200,114323,1,8,0:0:0:0:
104,200,114415,6,0,P|96:256|104:308,1,90,2|0,0:0|0:0,0:0:0:0:
224,368,114781,2,0,L|240:272,1,90,10|0,0:0|0:0,0:0:0:0:
360,180,115147,2,0,L|344:276,1,90,2|0,0:0|0:0,0:0:0:0:
416,368,115512,1,10,0:0:0:0:
433,336,115604,1,8,0:0:0:0:
451,305,115695,1,0,0:0:0:0:
360,180,115878,6,0,B|312:180|312:180|260:208|260:208|180:208,1,180,2|10,0:0|0:0,0:0:0:0:
88,320,116427,1,0,0:0:0:0:
44,96,116610,1,2,0:0:0:0:
260,296,116793,1,0,0:0:0:0:
8,200,116976,1,10,0:0:0:0:
156,364,117159,1,0,0:0:0:0:
44,96,117342,6,0,P|140:68|216:112,1,180,6|10,0:0|0:0,0:0:0:0:
140,228,117890,1,0,0:0:0:0:
240,328,118073,2,0,B|288:308|324:344|324:344|376:312|412:328,1,180,2|10,0:0|0:0,0:0:0:0:
476,232,118622,1,0,0:0:0:0:
360,168,118805,6,0,L|380:80,1,90,2|0,0:0|0:0,0:0:0:0:
220,144,119171,2,0,L|240:232,1,90,10|0,0:0|0:0,0:0:0:0:
340,332,119537,1,2,0:0:0:0:
72,224,119720,1,0,0:0:0:0:
348,168,119903,1,10,0:0:0:0:
176,324,120086,2,0,L|132:356,1,45,8|8,0:0|0:0,0:0:0:0:
272,332,120268,5,2,0:0:0:0:
216,136,120451,1,0,0:0:0:0:
376,92,120634,5,10,0:0:0:0:
116,296,120817,1,0,0:0:0:0:
424,208,121000,1,2,0:0:0:0:
120,72,121183,1,0,0:0:0:0:
320,336,121366,2,0,L|312:288,1,45,10|8,0:0|0:0,0:0:0:0:
280,56,121549,1,0,0:0:0:0:
200,352,121732,6,0,P|112:320|120:232,1,180,2|10,0:0|0:0,0:0:0:0:
224,264,122281,1,0,0:0:0:0:
316,360,122464,1,2,0:0:0:0:
326,325,122555,1,0,0:0:0:0:
337,291,122647,1,8,0:0:0:0:
348,256,122738,1,8,0:0:0:0:
360,224,122829,2,0,L|376:320,1,90,10|0,0:0|0:0,0:0:0:0:
460,168,123195,6,0,P|388:120|288:152,1,180,6|10,0:0|0:0,0:0:0:0:
196,216,123744,1,0,0:0:0:0:
280,316,123927,2,0,B|228:320|228:320|200:352|144:356|144:356|104:328,1,180,2|10,0:0|0:0,0:0:0:0:
64,216,124476,1,0,0:0:0:0:
136,72,124659,6,0,L|164:168,1,90,2|0,0:0|0:0,0:0:0:0:
268,296,125025,2,0,L|296:200,1,90,10|0,0:0|0:0,0:0:0:0:
328,68,125390,1,2,0:0:0:0:
136,224,125573,1,0,0:0:0:0:
180,20,125756,1,10,0:0:0:0:
352,184,125939,1,8,0:0:0:0:
365,220,126031,1,8,0:0:0:0:
376,248,126122,6,0,P|388:296|392:340,1,90,2|0,0:0|0:0,0:0:0:0:
272,384,126488,2,0,P|260:336|256:292,1,90,10|0,0:0|0:0,0:0:0:0:
64,208,126854,1,2,0:0:0:0:
260,128,127037,1,0,0:0:0:0:
172,316,127220,1,10,0:0:0:0:
128,64,127403,1,0,0:0:0:0:
272,48,127586,6,0,P|324:72|312:196,1,180,2|10,0:0|0:0,0:0:0:0:
256,256,128134,1,0,0:0:0:0:
128,348,128317,2,0,L|96:296,1,45,2|0,0:0|0:0,0:0:0:0:
32,148,128500,1,0,0:0:0:0:
228,264,128683,1,10,0:0:0:0:
160,68,128866,1,0,0:0:0:0:
292,72,129049,6,0,L|364:260,1,180,6|10,0:0|0:0,0:0:0:0:
264,320,129598,1,0,0:0:0:0:
184,348,129781,2,0,P|172:288|268:236,1,180,2|10,0:0|0:0,0:0:0:0:
308,248,130238,1,8,0:0:0:0:
340,264,130329,1,8,0:0:0:0:
372,280,130421,1,0,0:0:0:0:
400,300,130512,6,0,L|328:236,1,90,6|0,0:0|0:0,0:0:0:0:
88,136,130878,2,0,L|160:200,1,90,10|0,0:0|0:0,0:0:0:0:
172,304,131244,1,2,0:0:0:0:
202,322,131336,1,0,0:0:0:0:
233,341,131427,1,0,0:0:0:0:
340,356,131610,1,10,0:0:0:0:
376,212,131793,2,0,L|424:180,1,45,8|8,0:0|0:0,0:0:0:0:
172,88,131976,5,2,0:0:0:0:
280,280,132159,1,0,0:0:0:0:
68,316,132342,5,10,0:0:0:0:
316,64,132525,1,0,0:0:0:0:
224,356,132708,1,2,0:0:0:0:
96,100,132890,1,0,0:0:0:0:
388,296,133073,2,0,L|312:276,1,45,8|0,0:0|0:0,0:0:0:0:
76,224,133256,1,0,0:0:0:0:
280,56,133439,6,0,L|304:160,1,90,6|0,0:0|0:0,0:0:0:0:
440,328,133805,2,0,L|416:224,1,90,14|0,0:0|0:0,0:0:0:0:
236,272,134171,1,2,0:0:0:0:
376,120,134354,1,0,0:0:0:0:
164,168,134537,1,10,0:0:0:0:
280,24,134720,1,0,0:0:0:0:
236,324,134903,5,6,0:0:0:0:
368,168,143317,5,0,0:0:0:0:
354,198,143409,1,0,0:0:0:0:
341,229,143500,1,0,0:0:0:0:
327,259,143592,1,0,0:0:0:0:
316,284,143683,6,0,P|288:312|236:184,1,270,2|2,0:0|0:0,0:0:0:0:
396,228,145147,2,0,L|416:128,1,90,2|2,0:0|0:0,0:0:0:0:
280,72,145878,2,0,P|148:72|92:188,1,270,2|2,0:0|0:0,0:0:0:0:
164,284,147342,2,0,L|264:296,2,90,2|2|2,0:0|0:0|0:0,0:0:0:0:
72,312,148439,2,0,P|68:256|96:212,2,90,2|2|2,0:0|0:0|0:0,0:0:0:0:
164,324,149537,2,0,L|256:336,1,90,2|2,0:0|0:0,0:0:0:0:
360,328,150268,5,2,0:0:0:0:
188,192,150817,1,0,0:0:0:0:
412,144,151366,1,2,0:0:0:0:
228,324,151915,1,0,0:0:0:0:
288,36,152464,1,2,0:0:0:0:
172,88,152647,5,8,0:0:0:0:
169,108,152738,1,8,0:0:0:0:
166,129,152829,1,8,0:0:0:0:
163,150,152921,1,8,0:0:0:0:
160,170,153012,1,8,0:0:0:0:
157,191,153104,1,8,0:0:0:0:
156,208,153195,6,0,L|152:300,1,90,2|0,0:0|0:0,0:0:0:0:
284,276,153560,1,2,0:0:0:0:
388,372,153743,2,0,P|432:328|392:216,1,180
368,200,154201,1,2,0:0:0:0:
347,176,154292,1,2,0:0:0:0:
321,159,154384,1,2,0:0:0:0:
291,149,154475,1,0,0:0:0:0:
259,148,154566,1,2,0:0:0:0:
224,152,154658,6,0,P|188:164|120:164,1,90,2|0,0:0|0:0,0:0:0:0:
0,80,155024,2,0,P|36:68|104:68,1,90,2|0,0:0|0:0,0:0:0:0:
224,152,155390,6,0,B|320:128|320:184|412:168,1,180,2|2,0:0|0:0,0:0:0:0:
456,272,155938,1,0,0:0:0:0:
340,348,156121,2,0,L|324:256,1,90,2|0,0:0|0:0,0:0:0:0:
152,112,156487,2,0,L|168:204,1,90,2|0,0:0|0:0,0:0:0:0:
100,280,156853,6,0,P|216:308|284:252,1,180,2|2,0:0|0:0,0:0:0:0:
300,160,157402,1,0,0:0:0:0:
384,232,157585,2,0,P|436:224|464:200,1,90,2|0,0:0|0:0,0:0:0:0:
300,160,157951,2,0,P|248:168|220:192,1,90,2|0,0:0|0:0,0:0:0:0:
384,232,158316,6,0,P|380:288|272:344,1,180,2|2,0:0|0:0,0:0:0:0:
256,236,158865,1,0,0:0:0:0:
120,160,159048,2,0,L|20:152,1,90,2|0,0:0|0:0,0:0:0:0:
148,276,159414,1,2,0:0:0:0:
256,336,159597,2,0,P|332:292|340:192,1,180
260,156,160054,1,2,0:0:0:0:
262,131,160146,1,2,0:0:0:0:
264,106,160237,1,2,0:0:0:0:
266,82,160329,1,0,0:0:0:0:
268,57,160420,1,2,0:0:0:0:
272,28,160512,6,0,L|252:128,1,90,2|0,0:0|0:0,0:0:0:0:
108,244,160877,2,0,L|128:144,1,90,2|0,0:0|0:0,0:0:0:0:
176,316,161243,6,0,B|232:296|232:296|292:320|292:320|372:296,1,180,2|2,0:0|0:0,0:0:0:0:
312,188,161792,1,0,0:0:0:0:
408,164,161975,2,0,L|428:72,1,90,2|0,0:0|0:0,0:0:0:0:
312,188,162341,2,0,L|292:280,1,90,2|0,0:0|0:0,0:0:0:0:
200,336,162707,6,0,B|152:332|152:332|104:360|104:360|24:348,1,180,2|2,0:0|0:0,0:0:0:0:
60,224,163255,1,0,0:0:0:0:
120,116,163438,2,0,P|176:116|212:128,1,90,2|0,0:0|0:0,0:0:0:0:
404,264,163804,2,0,P|348:264|312:252,1,90,2|0,0:0|0:0,0:0:0:0:
184,324,164170,1,2,0:0:0:0:
332,32,164353,1,8,0:0:0:0:
52,200,164536,1,2,0:0:0:0:
384,164,164719,1,8,0:0:0:0:
384,164,164810,1,8,0:0:0:0:
384,164,164902,1,8,0:0:0:0:
360,332,176609,6,0,P|296:336|224:280,1,135.000005149842,2|2,0:0|0:0,0:0:0:0:
192,188,177158,2,0,P|256:184|336:232,1,135.000005149842
448,276,177707,1,2,0:0:0:0:
396,96,178073,6,0,L|248:68,1,135.000005149842,2|2,0:0|0:0,0:0:0:0:
112,196,178621,2,0,L|260:224,1,135.000005149842
352,256,179170,1,10,0:1:0:0:
272,336,179536,6,0,P|212:308|144:316,1,135.000005149842,2|2,0:0|0:0,0:0:0:0:
32,252,180085,1,0,0:0:0:0:
137,180,180268,2,0,L|145:316,1,135.000005149842,2|2,0:0|0:0,0:0:0:0:
264,308,180816,1,0,0:0:0:0:
340,160,180999,5,2,0:0:0:0:
424,278,181182,1,0,0:0:0:0:
340,160,181365,2,0,L|380:104,1,67.5000025749208,2|0,0:0|0:0,0:0:0:0:
464,224,181731,2,0,L|424:280,1,67.5000025749208,2|0,0:0|0:0,0:0:0:0:
316,332,182097,6,0,P|220:328|176:248,1,180,2|2,0:0|0:0,0:0:0:0:
280,224,182646,1,0,0:0:0:0:
164,120,182829,1,2,0:0:0:0:
304,52,183012,1,0,0:0:0:0:
280,224,183194,6,0,P|328:240|376:240,1,90,2|0,0:0|0:0,0:0:0:0:
484,156,183560,2,0,P|436:140|388:140,1,90,2|0,0:0|0:0,0:0:0:0:
109,236,183926,2,0,P|157:252|289:216,1,180,2|2,0:0|0:0,0:0:0:0:
368,68,184475,2,0,L|396:268,1,180,0|8,0:0|0:0,0:0:0:0:
268,312,185024,1,10,0:0:0:0:
128,292,185207,1,8,0:0:0:0:
40,184,185390,6,0,B|136:140|136:208|248:156,1,180,2|10,0:0|0:0,0:0:0:0:
308,112,185938,1,0,0:0:0:0:
416,192,186121,6,0,L|444:100,1,90,2|0,0:0|0:0,0:0:0:0:
308,112,186487,1,8,0:0:0:0:
302,136,186579,1,8,0:0:0:0:
297,160,186670,1,8,0:0:0:0:
292,184,186762,1,8,0:0:0:0:
288,208,186853,2,0,P|232:220|184:216,1,90,2|0,0:0|0:0,0:0:0:0:
152,96,187219,1,8,0:0:0:0:
52,216,187402,1,8,0:0:0:0:
104,304,187585,6,0,L|204:300,1,90,0|8,0:0|0:0,0:0:0:0:
392,108,187951,2,0,L|292:112,1,90,0|8,0:0|0:0,0:0:0:0:
296,224,188316,6,0,L|328:360,2,135,2|0|8,0:0|0:0|0:0,0:0:0:0:
352,84,189048,2,0,L|488:52,2,135,0|0|8,0:0|0:0|0:0,0:0:0:0:
116,204,189780,1,2,0:0:0:0:
272,304,189963,1,8,0:0:0:0:
288,44,190146,1,8,0:0:0:0:
188,244,190329,5,0,0:0:0:0:
199,82,190512,1,0,0:0:0:0:
360,93,190694,1,0,0:0:0:0:
349,255,190877,1,0,0:0:0:0:
208,336,191243,6,0,L|216:216,1,90
332,64,191609,2,0,L|324:184,1,90
379,324,191975,6,0,B|323:320|323:320|275:348|275:348|191:332,1,180
64,308,192524,1,0,0:0:0:0:
32,188,192707,6,0,B|84:188|84:188|132:176|132:176|184:188|184:188|236:188,1,180,4|8,0:0|0:0,0:0:0:0:
440,124,193255,1,8,0:0:0:0:
264,348,193438,1,2,0:0:0:0:
324,76,193621,1,0,0:0:0:0:
384,324,193804,1,10,0:0:0:0:
144,220,193987,1,8,0:0:0:0:
144,220,194079,1,8,0:0:0:0:
144,220,194170,2,0,L|132:312,1,90,2|0,0:0|0:0,0:0:0:0:
272,356,194536,2,0,L|260:264,1,90,10|8,0:0|0:0,0:0:0:0:
384,168,194902,6,0,L|372:260,1,90,2|0,0:0|0:0,0:0:0:0:
428,360,195268,1,10,0:0:0:0:
444,328,195359,1,0,0:0:0:0:
461,296,195451,1,8,0:0:0:0:
316,228,195634,2,0,P|292:180|376:80,1,180,2|10,0:0|0:0,0:0:0:0:
432,168,196182,1,8,0:0:0:0:
256,316,196365,5,0,0:0:0:0:
280,40,196548,1,0,0:0:0:0:
408,296,196731,1,10,0:0:0:0:
188,160,196914,1,8,0:0:0:0:
80,88,197097,2,0,L|56:272,1,180,6|10,0:0|0:0,0:0:0:0:
164,264,197646,1,8,0:0:0:0:
244,340,197829,6,0,P|340:356|412:272,1,180,2|10,0:0|0:0,0:0:0:0:
304,224,198377,1,8,0:0:0:0:
336,136,198560,2,0,L|428:160,1,90,2|0,0:0|0:0,0:0:0:0:
228,224,198926,2,0,L|136:200,1,90,8|8,0:0|0:0,0:0:0:0:
28,196,199292,5,2,0:0:0:0:
396,92,199475,1,0,0:0:0:0:
136,320,199658,1,10,0:0:0:0:
272,56,199841,2,0,L|348:12,1,45,8|8,0:0|0:0,0:0:0:0:
304,200,200024,5,2,0:0:0:0:
128,68,200207,1,0,0:0:0:0:
84,272,200390,5,10,0:0:0:0:
368,48,200573,1,8,0:0:0:0:
288,336,200755,1,2,0:0:0:0:
168,40,200938,1,0,0:0:0:0:
408,212,201121,2,0,L|472:224,1,45,8|8,0:0|0:0,0:0:0:0:
164,320,201304,1,0,0:0:0:0:
40,176,201487,6,0,B|136:140|136:204|220:176,1,180,2|10,0:0|0:0,0:0:0:0:
288,80,202036,1,8,0:0:0:0:
424,124,202219,5,2,0:0:0:0:
416,165,202310,1,0,0:0:0:0:
409,206,202402,1,10,0:0:0:0:
402,247,202493,1,8,0:0:0:0:
396,276,202585,2,0,L|420:188,1,90,2|0,0:0|0:0,0:0:0:0:
344,104,202951,6,0,P|260:76|160:124,1,180,6|10,0:0|0:0,0:0:0:0:
116,212,203499,1,8,0:0:0:0:
188,324,203682,2,0,B|232:304|260:336|300:336|328:308|328:308|304:260,1,180,2|10,0:0|0:0,0:0:0:0:
240,164,204231,1,0,0:0:0:0:
336,96,204414,2,0,P|384:92|436:100,1,90,2|0,0:0|0:0,0:0:0:0:
288,248,204780,2,0,P|240:252|188:244,1,90,10|8,0:0|0:0,0:0:0:0:
52,328,205146,5,2,0:0:0:0:
208,80,205329,1,0,0:0:0:0:
200,332,205512,1,10,0:0:0:0:
316,176,205694,1,8,0:0:0:0:
327,200,205786,1,8,0:0:0:0:
340,224,205877,2,0,L|380:304,1,90,2|0,0:0|0:0,0:0:0:0:
288,384,206243,2,0,L|248:304,1,90,10|0,0:0|0:0,0:0:0:0:
112,236,206609,5,2,0:0:0:0:
344,168,206792,1,0,0:0:0:0:
172,64,206975,1,10,0:0:0:0:
248,292,207158,1,0,0:0:0:0:
304,64,207341,2,0,P|384:68|436:164,1,180,2|10,0:0|0:0,0:0:0:0:
396,276,207890,1,8,0:0:0:0:
328,348,208073,6,0,L|272:336,1,45,2|0,0:0|0:0,0:0:0:0:
84,296,208255,1,0,0:0:0:0:
316,216,208438,1,10,0:0:0:0:
96,104,208621,1,8,0:0:0:0:
256,68,208804,6,0,L|204:248,1,180,2|10,0:0|0:0,0:0:0:0:
236,352,209353,1,0,0:0:0:0:
337,310,209536,6,0,P|317:258|193:250,1,180,2|10,0:0|0:0,0:0:0:0:
136,288,209993,1,8,0:0:0:0:
118,256,210085,1,2,0:0:0:0:
101,224,210176,1,0,0:0:0:0:
92,196,210268,2,0,L|120:288,1,90,2|0,0:0|0:0,0:0:0:0:
288,352,210634,2,0,L|260:260,1,90,10|8,0:0|0:0,0:0:0:0:
256,144,210999,5,2,0:0:0:0:
290,154,211091,1,0,0:0:0:0:
324,164,211182,1,0,0:0:0:0:
380,288,211365,1,10,0:0:0:0:
444,188,211548,2,0,L|456:140,1,45,8|8,0:0|0:0,0:0:0:0:
420,40,211731,1,2,0:0:0:0:
292,216,211914,1,0,0:0:0:0:
224,56,212097,5,10,0:0:0:0:
112,324,212280,1,8,0:0:0:0:
356,144,212463,1,2,0:0:0:0:
36,184,212646,1,0,0:0:0:0:
344,28,212829,2,0,L|312:96,1,45,10|8,0:0|0:0,0:0:0:0:
216,332,213012,1,0,0:0:0:0:
344,340,213194,6,0,P|328:280|304:248,1,90,2|0,0:0|0:0,0:0:0:0:
152,112,213560,2,0,P|168:172|192:204,1,90,10|8,0:0|0:0,0:0:0:0:
212,336,213926,5,2,0:0:0:0:
416,212,214109,1,8,0:0:0:0:
184,208,214292,1,2,0:0:0:0:
380,108,214475,1,8,0:0:0:0:
248,60,214658,6,0,L|264:148,1,67.5000025749208,2|0,0:0|0:0,0:0:0:0:
196,274,215024,2,0,L|180:186,1,67.5000025749208
80,104,215390,2,0,L|96:192,1,67.5000025749208,2|0,0:0|0:0,0:0:0:0:
56,348,215755,2,0,L|144:332,1,67.5000025749208,2|0,0:0|0:0,0:0:0:0:
268,236,216121,2,0,L|180:252,1,67.5000025749208,2|0,0:0|0:0,0:0:0:0:
20,188,216487,2,0,L|108:172,1,67.5000025749208,2|0,0:0|0:0,0:0:0:0:
216,112,216853,5,2,0:0:0:0:
216,112,217036,1,0,0:0:0:0:
324,184,217219,1,2,0:0:0:0:
324,184,217402,1,0,0:0:0:0:
432,248,217585,6,0,L|420:332,1,67.5000025749208,2|0,0:0|0:0,0:0:0:0:
276,356,217951,2,0,L|288:272,1,67.5000025749208,2|0,0:0|0:0,0:0:0:0:
184,184,218316,2,0,L|172:268,1,67.5000025749208,2|0,0:0|0:0,0:0:0:0:
72,352,218682,2,0,L|84:268,1,67.5000025749208,2|0,0:0|0:0,0:0:0:0:
36,160,219048,2,0,L|120:172,1,67.5000025749208,2|0,0:0|0:0,0:0:0:0:
276,84,219414,2,0,L|192:72,1,67.5000025749208,2|0,0:0|0:0,0:0:0:0:
176,240,219780,5,2,0:0:0:0:
176,240,219963,1,0,0:0:0:0:
296,184,220146,1,2,0:0:0:0:
296,184,220329,1,0,0:0:0:0:
408,328,220512,6,0,L|424:136,2,180,2|2|0,0:0|0:0|0:0,0:0:0:0:
304,332,222158,1,0,0:0:0:0:
168,348,222524,2,0,L|144:288,1,45
228,264,222890,2,0,L|204:204,1,45
172,112,223255,1,0,0:0:0:0:
276,80,223438,2,0,P|348:64|452:120,2,180
332,188,225085,1,0,0:0:0:0:
168,264,225268,1,0,0:0:0:0:
104,136,225634,5,0,0:0:0:0:
104,136,225816,1,0,0:0:0:0:
196,128,225999,1,0,0:0:0:0:
196,128,226182,1,0,0:0:0:0:
232,232,226365,6,0,P|324:224|372:136,2,180
220,120,228012,1,0,0:0:0:0:
96,228,228377,1,0,0:0:0:0:
184,292,228560,2,0,L|192:236,1,45
292,224,228926,2,0,L|300:168,1,45
408,164,229292,2,0,L|416:108,1,45
280,68,229658,1,0,0:0:0:0:
120,200,229841,1,0,0:0:0:0:
168,48,230024,1,0,0:0:0:0:
280,268,230390,5,0,0:0:0:0:
132,292,230573,1,0,0:0:0:0:
216,144,230755,1,0,0:0:0:0:
216,332,230938,1,0,0:0:0:0:
364,320,231304,5,0,0:0:0:0:
408,216,231487,1,0,0:0:0:0:
392,112,231670,1,0,0:0:0:0:
312,40,231853,1,0,0:0:0:0:
208,24,232036,1,0,0:0:0:0:
