osu file format v14

[General]
AudioFilename: audio.mp3
AudioLeadIn: 0
PreviewTime: 110391
Countdown: 0
SampleSet: Soft
StackLeniency: 0.4
Mode: 0
LetterboxInBreaks: 1
WidescreenStoryboard: 1

[Editor]
Bookmarks: 9781,63652,101062
DistanceSpacing: 1
BeatDivisor: 4
GridSize: 4
TimelineZoom: 0.9

[Metadata]
Title:Kuchizuke Diamond
TitleUnicode:くちづけDiamond
Artist:WEAVER
ArtistUnicode:WEAVER
Creator:Broly
Version:Insane
Source:山田くんと7人の魔女
Tags:Yamada-kun to 7-nin no majo night rainbow a-sketch Celsius yShadowXOP_ victorfernando EriveltonGold
BeatmapID:1190973
BeatmapSetID:563229

[Difficulty]
HPDrainRate:6
CircleSize:4
OverallDifficulty:7
ApproachRate:9
SliderMultiplier:1.7
SliderTickRate:2

[Events]
//Background and Video events
0,0,"eJwNyFEOwiAMANC7cACKiNDtNowhm2GWtN2HMd7d_b28rzm5m9lsqkNmgHWXQrxaUeLcqm1Erdc8drGFDsiquWxHfauATwnjI95C8PcwuUtXoY-Ik4veISYXHCztSbww9Y99jWZ-f3PtJA0.jpg",0,0
//Break Periods
2,79492,84215
2,135103,142385
//Storyboard Layer 0 (Background)
//Storyboard Layer 1 (Fail)
//Storyboard Layer 2 (Pass)
//Storyboard Layer 3 (Foreground)
//Storyboard Sound Samples

[TimingPoints]
269,365.853658536585,4,2,1,60,1,0
269,-133.333333333333,4,2,1,60,0,0
11980,-100,4,2,1,60,0,0
23684,-133.333333333333,4,2,1,60,0,0
26701,-133.333333333333,4,2,0,60,0,0
26884,-133.333333333333,4,2,1,60,0,0
29628,-133.333333333333,4,2,0,60,0,0
29811,-133.333333333333,4,2,1,60,0,0
34110,-133.333333333333,4,2,2,60,0,0
34476,-133.333333333333,4,2,1,60,0,0
35389,-100,4,2,1,60,0,0
41243,-133.333333333333,4,2,1,60,0,0
44263,-133.333333333333,4,2,0,60,0,0
44445,-133.333333333333,4,2,1,60,0,0
47098,-133.333333333333,4,2,4,60,0,0
52586,-133.333333333333,4,2,6,60,0,0
52951,-133.333333333333,4,2,5,60,0,0
53043,-133.333333333333,4,2,0,60,0,0
53225,-133.333333333333,4,2,5,60,0,0
55970,-133.333333333333,4,2,0,60,0,0
56152,-133.333333333333,4,2,5,60,0,0
56702,-133.333333333333,4,2,0,60,0,0
56884,-133.333333333333,4,2,5,60,0,0
58897,-133.333333333333,4,2,0,60,0,0
59079,-133.333333333333,4,2,5,60,0,0
60360,-133.333333333333,4,2,0,60,0,0
60542,-133.333333333333,4,2,5,60,0,0
62464,-133.333333333333,4,2,3,60,0,0
63378,-133.333333333333,4,2,1,60,0,0
64659,-80,4,2,1,60,0,1
64751,-80,4,2,0,60,0,1
64933,-80,4,2,1,60,0,1
69781,-80,4,2,2,60,0,1
70329,-80,4,2,1,60,0,1
70604,-80,4,2,0,60,0,1
70787,-80,4,2,1,60,0,1
76366,-200,4,2,3,60,0,0
76549,-200,4,2,0,60,0,0
93926,-133.333333333333,4,2,1,60,0,0
97219,-100,4,2,1,60,0,0
98134,-100,4,2,7,60,0,0
98317,-100,4,2,1,60,0,0
99781,-133.333333333333,4,2,5,60,0,0
101336,-133.333333333333,4,2,0,60,0,0
101518,-133.333333333333,4,2,5,60,0,0
102799,-133.333333333333,4,2,0,60,0,0
102981,-133.333333333333,4,2,5,60,0,0
103530,-133.333333333333,4,2,0,60,0,0
103713,-133.333333333333,4,2,5,60,0,0
105726,-133.333333333333,4,2,0,60,0,0
105908,-133.333333333333,4,2,5,60,0,0
107189,-133.333333333333,4,2,0,60,0,0
107372,-133.333333333333,4,2,5,60,0,0
108561,-133.333333333333,4,2,1,60,0,0
108653,-133.333333333333,4,2,0,60,0,0
108835,-133.333333333333,4,2,1,60,0,0
111488,-80,4,2,1,60,0,1
111579,-80,4,2,0,60,0,1
111762,-80,4,2,1,60,0,1
116610,-80,4,2,2,60,0,1
116976,-80,4,2,1,60,0,1
117434,-80,4,2,0,60,0,1
117616,-80,4,2,1,60,0,1
123287,-80,4,2,0,60,0,1
123469,-80,4,2,1,60,0,1
128317,-80,4,2,2,60,0,1
128683,-80,4,2,1,60,0,1
129140,-80,4,2,0,60,0,1
129323,-80,4,2,1,60,0,1
134903,-100,4,2,1,60,0,0
143683,-200,4,2,1,40,0,0
148073,-200,4,2,1,45,0,0
149171,-200,4,2,1,50,0,0
150268,-200,4,2,1,55,0,0
152555,-200,4,2,0,40,0,0
152738,-200,4,2,1,60,0,0
153195,365.853658536585,4,2,1,60,1,1
153195,-100,4,2,1,60,0,1
164170,-100,4,2,1,60,0,1
164902,-200,4,2,0,40,0,0
176609,-133.333333333333,4,2,5,60,0,0
176701,-133.333333333333,4,2,0,60,0,0
176883,-133.333333333333,4,2,5,60,0,0
178164,-133.333333333333,4,2,0,60,0,0
178346,-133.333333333333,4,2,5,60,0,0
178895,-133.333333333333,4,2,0,60,0,0
179078,-133.333333333333,4,2,5,60,0,0
179627,-133.333333333333,4,2,0,60,0,0
179826,-133.333333333333,4,2,5,60,0,0
181091,-133.333333333333,4,2,0,60,0,0
181273,-133.333333333333,4,2,5,60,0,0
182554,-133.333333333333,4,2,0,60,0,0
182737,-133.333333333333,4,2,5,60,0,0
184017,-133.333333333333,4,2,0,60,0,0
184200,-133.333333333333,4,2,5,60,0,0
184841,-133.333333333333,4,2,1,60,0,0
186487,-133.333333333333,4,2,1,60,0,0
187402,-133.333333333333,4,2,3,60,0,0
187585,-133.333333333333,4,2,1,60,0,0
188408,-133.333333333333,4,2,0,60,0,0
188590,-133.333333333333,4,2,1,60,0,0
188865,-133.333333333333,4,2,3,60,0,0
189048,-133.333333333333,4,2,1,60,0,0
189140,-133.333333333333,4,2,0,60,0,0
189322,-133.333333333333,4,2,1,60,0,0
189963,-100,4,2,1,60,0,0
191243,-100,4,2,0,60,0,0
192707,-80,4,2,1,60,0,1
196365,-80,4,2,2,60,0,1
196914,-80,4,2,1,60,0,1
197188,-80,4,2,0,60,0,1
197371,-80,4,2,1,60,0,1
203042,-80,4,2,0,60,0,1
203225,-80,4,2,1,60,0,1
208073,-80,4,2,2,60,0,1
208438,-80,4,2,1,60,0,1
208896,-80,4,2,0,60,0,1
209078,-80,4,2,1,60,0,1
213926,-200,4,2,1,60,0,1
214658,-133.333333333333,4,2,1,40,0,0
220511,-200,4,2,0,30,0,0
231670,-200,4,2,0,20,0,0
231853,-200,4,2,0,15,0,0
232036,-200,4,2,0,10,0,0

[HitObjects]
116,136,269,6,0,P|152:152|184:148,1,63.7500024318696
296,32,634,2,0,P|260:16|228:20,1,63.7500024318696
92,200,1000,2,0,P|128:216|160:212,1,63.7500024318696
272,96,1365,2,0,P|236:80|204:84,1,63.7500024318696
164,148,1732,6,0,L|164:236,1,63.7500024318696
296,368,2098,2,0,L|216:328,1,63.7500024318696
120,196,2464,2,0,L|208:204,1,63.7500024318696
360,268,2829,2,0,L|272:272,1,63.7500024318696
368,120,3195,2,0,L|316:44,1,63.7500024318696
460,0,3561,2,0,L|484:84,1,63.7500024318696
368,256,3927,2,0,L|396:176,1,63.7500024318696
280,52,4293,2,0,L|308:136,1,63.7500024318696
228,296,4659,2,0,P|248:256|248:216,1,63.7500024318696
200,92,5025,2,0,P|180:132|180:172,1,63.7500024318696
72,208,5390,2,0,L|32:148,1,63.7500024318696
8,312,5756,2,0,L|76:332,1,63.7500024318696
152,264,6122,6,0,P|184:304|208:312,1,63.7500024318696,2|0,0:0|0:0,0:0:0:0:
108,128,6488,2,0,P|76:88|44:80,1,63.7500024318696,2|0,0:0|0:0,0:0:0:0:
280,44,6854,2,0,L|208:80,1,63.7500024318696,2|0,0:0|0:0,0:0:0:0:
176,264,7220,2,0,L|248:228,1,63.7500024318696,2|0,0:0|0:0,0:0:0:0:
444,82,7586,6,0,B|444:124|424:156,1,63.7500024318696,2|0,0:0|0:0,0:0:0:0:
284,232,7951,2,0,B|284:190|304:158,1,63.7500024318696,2|0,0:0|0:0,0:0:0:0:
288,80,8317,1,2,0:0:0:0:
228,264,8500,1,0,0:0:0:0:
120,228,8683,2,0,P|84:220|32:224,1,63.7500024318696,2|0,0:0|0:0,0:0:0:0:
192,0,9049,6,0,L|216:72,1,63.7500024318696,2|0,0:0|0:0,0:0:0:0:
256,196,9415,1,2,0:0:0:0:
304,56,9598,1,0,0:0:0:0:
144,284,9781,2,0,L|120:212,1,63.7500024318696,2|0,0:0|0:0,0:0:0:0:
80,88,10147,1,2,0:0:0:0:
32,228,10329,1,0,0:0:0:0:
220,112,10512,6,0,B|215:70|244:36,1,63.7500024318696,2|0,0:0|0:0,0:0:0:0:
272,232,10878,2,0,B|277:274|248:308,1,63.7500024318696,2|0,0:0|0:0,0:0:0:0:
416,160,11244,1,2,0:0:0:0:
372,336,11427,1,0,0:0:0:0:
308,232,11610,5,0,0:0:0:0:
285,209,11701,1,0,0:0:0:0:
257,194,11792,1,0,0:0:0:0:
226,188,11884,1,0,0:0:0:0:
196,188,11976,5,6,0:0:0:0:
272,56,12159,1,0,0:0:0:0:
356,216,12342,1,2,0:0:0:0:
224,128,12525,2,0,P|308:128|356:64,1,170
356,96,12982,1,0,0:0:0:0:
352,120,13073,1,2,0:0:0:0:
344,141,13165,1,0,0:0:0:0:
333,159,13256,1,0,0:0:0:0:
317,173,13348,1,0,0:0:0:0:
300,184,13439,6,0,P|259:184|227:157,1,85,2|0,0:0|0:0,0:0:0:0:
288,104,13805,1,2,0:0:0:0:
152,112,13988,2,0,P|80:152|52:240,1,170
148,212,14537,2,0,B|156:260|132:312,1,85,2|0,0:0|0:0,0:0:0:0:
188,364,14903,5,2,0:0:0:0:
280,292,15086,1,0,0:0:0:0:
124,184,15268,1,2,0:0:0:0:
216,248,15451,2,0,L|284:176,1,85,0|2,0:0|0:0,0:0:0:0:
292,80,15817,2,0,P|316:116|368:144,1,85,0|2,0:0|0:0,0:0:0:0:
376,60,16183,1,0,0:0:0:0:
340,328,16366,6,0,P|330:286|331:244,1,85,2|0,0:0|0:0,0:0:0:0:
392,144,16732,6,0,P|402:102|401:60,1,85,2|0,0:0|0:0,0:0:0:0:
184,92,17098,1,2,0:0:0:0:
132,256,17281,1,0,0:0:0:0:
296,216,17464,1,2,0:0:0:0:
124,152,17647,1,0,0:0:0:0:
240,268,17829,6,0,P|304:308|344:296,1,85,6|0,0:0|0:0,0:0:0:0:
392,248,18195,1,2,0:0:0:0:
348,152,18378,2,0,P|292:204|208:176,1,170
196,200,18836,1,0,0:0:0:0:
185,222,18927,1,2,0:0:0:0:
176,241,19018,1,0,0:0:0:0:
167,260,19110,1,0,0:0:0:0:
157,279,19201,1,0,0:0:0:0:
148,292,19293,6,0,P|165:255|155:214,1,85,2|0,0:0|0:0,0:0:0:0:
132,380,19659,1,2,0:0:0:0:
63,255,19842,6,0,P|52:295|163:375,1,170
248,292,20390,2,0,L|148:268,1,85,2|0,0:0|0:0,0:0:0:0:
160,156,20756,6,0,P|193:133|250:116,1,85,2|0,0:0|0:0,0:0:0:0:
348,112,21122,1,2,0:0:0:0:
448,48,21305,2,0,P|420:28|288:28,1,170
196,80,21854,1,2,0:0:0:0:
356,108,22037,6,0,P|384:128|516:116,1,170
172,64,22586,2,0,L|208:156,1,85,2|0,0:0|0:0,0:0:0:0:
156,312,22951,2,0,P|156:280|116:212,1,85,2|0,0:0|0:0,0:0:0:0:
88,144,23317,1,2,0:0:0:0:
236,132,23500,1,0,0:0:0:0:
236,132,23592,1,0,0:0:0:0:
236,132,23683,6,0,P|260:172|328:200,1,85,2|0,0:0|0:0,0:0:0:0:
392,224,24049,1,2,0:0:0:0:
408,376,24232,2,0,P|383:340|288:296,1,127.500004863739
200,340,24781,1,2,0:0:0:0:
264,232,24964,6,0,P|289:196|328:176,1,63.7500024318696,0|2,0:0|0:0,0:0:0:0:
416,120,25329,1,0,0:0:0:0:
416,120,25695,1,0,0:0:0:0:
304,0,25878,2,0,P|279:19|260:45,1,63.7500024318696,2|0,0:0|0:0,0:0:0:0:
320,152,26244,2,0,P|345:133|364:107,1,63.7500024318696,2|0,0:0|0:0,0:0:0:0:
112,120,26610,6,0,P|124:156|124:256,1,127.500004863739,2|2,0:0|0:0,0:0:0:0:
184,320,27159,1,0,0:0:0:0:
262,268,27342,1,0,0:0:0:0:
262,268,27708,2,2,B|286:232|280:184,1,63.7500024318696,2|0,0:0|0:0,0:0:0:0:
281,208,27982,1,0,0:0:0:0:
281,208,28073,6,0,P|325:208|357:184,2,63.7500024318696,2|0|2,0:0|0:0|0:0,0:0:0:0:
404,236,28622,1,0,0:0:0:0:
460,84,28805,1,2,0:0:0:0:
332,48,28988,1,0,0:0:0:0:
476,160,29171,1,2,0:0:0:0:
476,160,29537,6,0,P|434:142|344:127,1,127.500004863739,2|2,0:0|0:0,0:0:0:0:
208,120,30086,1,0,0:0:0:0:
216,244,30268,1,2,0:0:0:0:
216,244,30451,2,0,P|240:188|240:156,1,63.7500024318696,0|2,0:0|0:0,0:0:0:0:
236,24,30817,2,0,P|216:52|228:128,1,95.6250036478044
224,124,31183,6,0,L|316:128,1,63.7500024318696,0|2,0:0|0:0,0:0:0:0:
392,132,31549,1,0,0:0:0:0:
316,208,31732,1,2,0:0:0:0:
280,60,31915,1,0,0:0:0:0:
240,224,32098,2,0,L|220:312,1,63.7500024318696,2|0,0:0|0:0,0:0:0:0:
364,316,32464,6,0,P|403:302|436:304,1,63.7500024318696,2|0,0:0|0:0,0:0:0:0:
488,148,32829,1,2,0:0:0:0:
368,184,33012,2,0,P|329:170|236:184,1,127.500004863739
132,168,33561,1,2,0:0:0:0:
304,256,33744,1,0,0:0:0:0:
328,40,33927,5,2,0:0:0:0:
180,256,34110,1,4,0:0:0:0:
240,64,34476,6,0,P|264:83|279:111,1,63.7500024318696
180,200,34842,1,2,0:0:0:0:
164,211,34933,1,2,0:0:0:0:
148,222,35025,1,2,0:0:0:0:
133,233,35116,1,2,0:0:0:0:
117,244,35208,1,2,0:0:0:0:
102,255,35299,1,2,0:0:0:0:
84,268,35390,6,0,B|76:224|76:224|44:160,1,85,6|0,0:0|0:0,0:0:0:0:
0,64,35756,1,2,0:0:0:0:
128,104,35939,2,0,P|197:57|281:55,1,170
316,64,36397,1,0,0:0:0:0:
349,80,36488,1,2,0:0:0:0:
380,96,36579,1,0,0:0:0:0:
408,120,36671,1,0,0:0:0:0:
428,148,36762,1,0,0:0:0:0:
444,176,36854,6,0,B|444:224|444:224|424:276,1,85,2|0,0:0|0:0,0:0:0:0:
368,360,37220,1,2,0:0:0:0:
276,212,37403,2,0,B|272:320|144:340,1,170
188,236,37951,2,0,B|204:288|268:292,1,85,2|0,0:0|0:0,0:0:0:0:
120,120,38317,6,0,B|153:97|153:97|210:80,1,85,2|0,0:0|0:0,0:0:0:0:
228,0,38683,1,2,0:0:0:0:
368,112,38866,2,0,B|296:80|260:144|176:112,1,170
324,184,39415,1,2,0:0:0:0:
192,204,39598,1,0,0:0:0:0:
88,140,39781,6,0,B|120:112|120:112|132:60,1,85,2|0,0:0|0:0,0:0:0:0:
260,148,40147,2,0,B|228:176|228:176|216:228,1,85,2|0,0:0|0:0,0:0:0:0:
232,308,40512,1,2,0:0:0:0:
192,96,40695,1,0,0:0:0:0:
304,224,40878,1,2,0:0:0:0:
212,320,41061,1,0,0:0:0:0:
192,340,41153,1,0,0:0:0:0:
176,360,41244,6,0,L|100:360,1,63.7500024318696,2|0,0:0|0:0,0:0:0:0:
32,268,41610,1,2,0:0:0:0:
148,220,41793,2,0,P|172:252|256:296,1,127.500004863739
344,288,42342,1,2,0:0:0:0:
244,196,42525,6,0,P|225:169|144:108,1,127.500004863739
272,44,43073,1,2,0:0:0:0:
104,40,43256,2,0,P|120:92|136:108,1,63.7500024318696,0|2,0:0|0:0,0:0:0:0:
216,160,43622,1,0,0:0:0:0:
276,72,43805,1,2,0:0:0:0:
128,168,43988,1,0,0:0:0:0:
340,236,44171,6,0,P|280:220|220:172,1,127.500004863739,2|2,0:0|0:0,0:0:0:0:
72,120,44720,1,0,0:0:0:0:
72,120,45268,2,2,B|124:128|156:112,1,63.7500024318696,2|0,0:0|0:0,0:0:0:0:
348,60,45634,5,2,0:0:0:0:
256,44,45817,2,0,L|236:128,1,63.7500024318696,0|2,0:0|0:0,0:0:0:0:
316,160,46183,1,0,0:0:0:0:
192,160,46366,2,0,P|136:156|116:164,1,63.7500024318696,2|0,0:0|0:0,0:0:0:0:
188,280,46732,1,2,0:0:0:0:
72,296,46915,1,0,0:0:0:0:
72,296,47006,1,0,0:0:0:0:
72,296,47098,6,2,L|120:224,1,63.7500024318696,10|0,0:0|0:0,0:0:0:0:
186,122,47464,1,2,0:0:0:0:
152,176,47647,2,0,L|200:100,1,63.7500024318696,8|2,0:0|0:0,0:0:0:0:
188,0,48012,1,0,0:0:0:0:
280,80,48195,1,10,0:0:0:0:
128,135,48378,2,0,P|104:160|76:173,1,63.7500024318696,0|2,0:0|0:0,0:0:0:0:
28,30,48744,6,0,L|56:87,1,63.7500024318696,8|2,0:0|0:0,0:0:0:0:
132,228,49110,1,0,0:0:0:0:
36,320,49293,2,0,P|28:284|36:252,1,63.7500024318696,10|0,0:0|0:0,0:0:0:0:
40,168,49659,1,2,0:0:0:0:
128,252,49842,1,0,0:0:0:0:
168,348,50025,6,2,P|200:340|316:368,1,127.500004863739,10|2,0:0|0:0,0:0:0:0:
288,264,50573,2,0,P|312:236|356:228,2,63.7500024318696,8|2|0,0:0|0:0|0:0,0:0:0:0:
400,304,51122,2,0,P|431:302|461:290,1,63.7500024318696,10|0,0:0|0:0,0:0:0:0:
432,180,51488,5,2,0:0:0:0:
452,72,51671,2,0,L|500:8,1,63.7500024318696,8|2,0:0|0:0,0:0:0:0:
256,88,52037,1,0,0:0:0:0:
256,88,52220,2,0,P|284:120|292:148,1,63.7500024318696,10|0,0:0|0:0,0:0:0:0:
336,224,52586,1,2,0:0:0:0:
200,212,52768,1,0,0:0:0:0:
336,224,52951,6,2,P|376:216|456:256,1,127.500004863739,6|2,0:0|0:0,0:0:0:0:
380,296,53500,1,0,0:0:0:0:
452,152,53683,1,2,0:0:0:0:
296,108,53866,1,8,0:0:0:0:
452,152,54049,2,0,P|476:180|512:200,1,63.7500024318696,2|8,0:0|0:0,0:0:0:0:
268,188,54415,6,2,P|224:180|148:220,1,127.500004863739
268,108,54964,1,0,0:0:0:0:
56,108,55147,2,0,L|140:108,1,63.7500024318696,2|0,0:0|0:0,0:0:0:0:
224,264,55512,1,10,0:1:0:0:
224,264,55878,6,0,P|178:307|118:327,1,127.500004863739,2|2,0:0|0:0,0:0:0:0:
120,180,56427,1,0,0:0:0:0:
117,41,56610,2,0,P|57:59|11:104,1,127.500004863739,2|2,0:0|0:0,0:0:0:0:
212,224,57159,1,0,0:0:0:0:
120,120,57342,6,0,B|124:160|156:180,1,63.7500024318696,2|0,0:0|0:0,0:0:0:0:
280,256,57708,1,2,0:0:0:0:
402,152,57890,2,0,P|394:121|376:96,1,63.7500024318696,0|2,0:0|0:0,0:0:0:0:
248,20,58256,1,0,0:0:0:0:
420,12,58439,1,10,0:1:0:0:
304,164,58622,1,0,0:0:0:0:
304,164,58714,1,0,0:0:0:0:
304,163,58805,6,0,P|240:176|184:240,1,127.500004863739,6|2,0:0|0:0,0:0:0:0:
88,72,59354,1,0,0:0:0:0:
72,172,59537,1,2,0:0:0:0:
216,136,59720,1,8,0:0:0:0:
72,172,59903,2,0,P|48:200|12:220,1,63.7500024318696,2|8,0:0|0:0,0:0:0:0:
248,240,60268,6,0,P|292:288|352:296,1,127.500004863739,2|2,0:0|0:0,0:0:0:0:
448,236,60817,1,0,0:0:0:0:
312,148,61000,2,0,L|329:209,1,63.7500024318696,2|0,0:0|0:0,0:0:0:0:
368,40,61366,1,10,0:1:0:0:
368,40,61732,6,0,B|352:76|352:76|316:108,1,63.7500024318696,6|0,0:0|0:0,0:0:0:0:
316,228,62098,1,2,0:0:0:0:
240,112,62281,1,8,0:1:0:0:
144,184,62464,2,0,B|166:216|166:216|208:240,1,63.7500024318696,2|8,0:3|0:0,0:0:0:0:
316,272,62829,1,10,0:1:0:0:
140,324,63012,1,8,0:0:0:0:
260,136,63195,5,2,0:0:0:0:
192,244,63378,1,8,0:0:0:0:
185,254,63470,1,8,0:0:0:0:
179,264,63561,1,8,0:0:0:0:
88,112,63744,2,0,L|104:44,1,63.7500024318696
200,132,64110,1,0,0:0:0:0:
0,132,64293,1,0,0:0:0:0:
280,24,64659,6,0,P|308:96|432:164,1,212.5,6|2,0:0|0:0,0:0:0:0:
408,44,65208,1,8,0:1:0:0:
308,244,65390,2,0,L|210:203,1,106.25,2|0,0:0|0:0,0:0:0:0:
64,300,65756,2,2,P|88:288|128:280,2,53.125,10|8|0,0:0|0:0|0:0,0:0:0:0:
36,144,66122,6,0,P|40:92|36:12,1,106.25,2|0,0:0|0:0,0:0:0:0:
20,228,66488,1,2,0:0:0:0:
168,124,66671,1,8,0:1:0:0:
260,264,66854,2,0,L|358:307,1,106.25,2|0,0:0|0:0,0:0:0:0:
152,232,67220,1,2,0:0:0:0:
188,36,67403,1,8,0:0:0:0:
188,36,67494,1,8,0:0:0:0:
188,36,67586,5,2,0:0:0:0:
260,160,67768,1,0,0:0:0:0:
60,132,67951,1,2,0:0:0:0:
112,280,68134,2,10,L|202:225,1,106.25,8|2,0:1|0:0,0:0:0:0:
336,136,68500,1,0,0:0:0:0:
328,320,68683,2,0,P|356:304|388:304,2,53.125,10|8|8,0:0|0:0|0:0,0:0:0:0:
460,128,69049,5,2,0:0:0:0:
308,140,69232,2,0,P|260:108|232:60,1,106.25,0|2,0:0|0:0,0:0:0:0:
152,180,69598,1,8,0:1:0:0:
32,28,69781,2,2,L|76:136,1,106.25,2|8,0:0|0:0,0:0:0:0:
60,272,70147,1,2,0:0:0:0:
200,344,70329,1,8,0:0:0:0:
200,344,70421,1,8,0:0:0:0:
200,344,70512,6,8,L|428:344,1,212.5,6|2,0:0|0:0,0:0:0:0:
460,244,71061,1,8,0:1:0:0:
392,144,71244,2,0,P|352:184|328:232,1,106.25,2|0,0:0|0:0,0:0:0:0:
216,80,71610,2,0,P|200:48|184:24,2,53.125,10|8|8,0:0|0:0|0:0,0:0:0:0:
468,36,71976,5,2,0:0:0:0:
344,156,72159,1,0,0:0:0:0:
468,156,72342,1,2,0:0:0:0:
344,36,72525,1,8,0:1:0:0:
216,156,72708,2,10,L|135:78,1,106.25,2|0,0:0|0:0,0:0:0:0:
264,72,73073,1,2,0:0:0:0:
216,236,73256,1,8,0:0:0:0:
211,254,73348,1,8,0:0:0:0:
205,274,73439,5,2,0:0:0:0:
240,156,73622,1,0,0:0:0:0:
100,236,73805,1,2,0:0:0:0:
244,304,73988,1,8,0:1:0:0:
296,92,74171,1,2,0:0:0:0:
152,192,74354,1,0,0:0:0:0:
312,264,74537,1,10,0:0:0:0:
312,264,74628,1,8,0:0:0:0:
312,264,74720,1,0,0:0:0:0:
344,20,74903,5,2,0:0:0:0:
200,144,75086,1,0,0:0:0:0:
360,200,75268,1,2,0:0:0:0:
196,84,75451,2,0,B|187:205,1,106.25,8|2,0:1|0:0,0:0:0:0:
276,136,75817,1,8,0:0:0:0:
276,136,75909,1,8,0:0:0:0:
276,136,76000,1,2,0:0:0:0:
248,228,76183,2,8,L|216:304,1,53.125
216,308,76366,6,8,B|40:56|256:-76|600:20|364:376|168:272|220:116|284:140,1,680,2|2,0:0|0:0,0:0:0:0:
256,192,85147,12,0,87525,0:0:0:0:
188,92,88073,6,0,P|180:136|192:176,1,85
324,292,88622,2,0,P|332:248|320:208,1,85
184,264,89171,6,0,P|192:308|180:348,1,85
70,122,89720,2,0,P|111:115|152:128,1,85
112,300,90268,5,0,0:0:0:0:
53,241,90451,1,0,0:0:0:0:
112,182,90634,1,0,0:0:0:0:
170,241,90817,1,0,0:0:0:0:
304,304,91000,6,0,P|264:272|248:240,1,85
208,80,91549,2,0,P|248:112|264:144,1,85
408,256,92098,6,0,P|416:212|404:172,1,85
184,256,92647,2,0,P|225:263|266:250,1,85
320,168,93195,1,0,0:0:0:0:
261,109,93378,1,0,0:0:0:0:
203,168,93561,1,0,0:0:0:0:
264,228,93927,5,10,0:1:0:0:
316,332,94110,2,0,P|272:308|240:296,1,63.7500024318696,2|2,0:0|0:0,0:0:0:0:
148,144,94476,5,10,0:1:0:0:
200,232,94659,2,0,P|232:221|272:220,1,63.7500024318696,2|2,0:0|0:0,0:0:0:0:
328,48,95025,5,10,0:1:0:0:
248,120,95208,2,0,P|219:107|192:91,1,63.7500024318696,2|2,0:0|0:0,0:0:0:0:
416,16,95574,5,8,0:1:0:0:
448,124,95757,2,0,P|479:126|509:137,1,63.7500024318696,2|2,0:0|0:0,0:0:0:0:
332,128,96122,1,10,0:1:0:0:
216,148,96305,2,0,P|184:144|148:156,2,63.7500024318696,2|10|2,0:0|0:1|0:0,0:0:0:0:
188,220,96854,5,10,0:0:0:0:
236,72,97037,1,2,0:0:0:0:
72,132,97220,2,0,L|120:56,1,85,2|8,0:0|0:0,0:0:0:0:
164,208,97586,2,0,L|204:296,1,85
272,172,97951,2,0,L|320:96,1,85,10|8,0:0|0:0,0:0:0:0:
372,240,98317,5,2,0:0:0:0:
376,12,98500,1,4,0:0:0:0:
168,312,98866,5,8,0:0:0:0:
168,312,99049,2,0,P|212:332|252:328,1,85,2|8,0:0|0:0,0:0:0:0:
88,228,99415,1,2,0:0:0:0:
144,128,99598,1,8,0:0:0:0:
144,128,99689,1,8,0:0:0:0:
144,128,99781,6,0,P|189:100|265:96,1,127.500004863739,6|2,0:0|0:0,0:0:0:0:
360,192,100329,1,0,0:0:0:0:
128,216,100512,1,2,0:0:0:0:
296,240,100695,1,8,0:0:0:0:
199,351,100878,1,0,0:0:0:0:
252,128,101061,1,8,0:0:0:0:
317,319,101244,6,0,P|272:347|196:351,1,127.500004863739,2|2,0:0|0:0,0:0:0:0:
200,232,101793,2,0,P|236:224|308:160,1,127.500004863739
376,60,102342,1,10,0:1:0:0:
376,60,102708,6,0,P|336:108|323:170,1,127.500004863739,2|2,0:0|0:0,0:0:0:0:
248,32,103256,1,0,0:0:0:0:
128,36,103439,2,0,P|64:37|10:68,1,127.500004863739,2|2,0:0|0:0,0:0:0:0:
232,88,103988,1,0,0:0:0:0:
172,192,104171,5,2,0:0:0:0:
172,192,104354,2,0,L|116:244,1,63.7500024318696,0|2,0:0|0:0,0:0:0:0:
88,116,104720,1,0,0:0:0:0:
48,312,104903,1,2,0:0:0:0:
48,312,105086,2,0,B|136:320,1,63.7500024318696,0|10,0:0|0:1,0:0:0:0:
216,256,105451,1,0,0:0:0:0:
216,256,105543,1,0,0:0:0:0:
216,256,105634,6,0,P|228:224|312:152,1,127.500004863739,6|2,0:0|0:0,0:0:0:0:
308,40,106183,1,0,0:0:0:0:
444,248,106366,1,2,0:0:0:0:
464,92,106549,1,8,0:0:0:0:
367,181,106732,1,2,0:0:0:0:
408,4,106915,1,8,0:0:0:0:
491,175,107098,6,0,P|457:166|350:193,1,127.500004863739,2|2,0:0|0:0,0:0:0:0:
300,324,107647,2,0,P|258:305|202:235,1,127.500004863739
232,96,108195,1,10,0:1:0:0:
232,96,108561,6,0,P|196:152|144:168,1,95.6250036478044,6|0,0:0|0:0,0:0:0:0:
140,184,108927,2,0,L|220:224,1,63.7500024318696,2|8,0:0|0:1,0:0:0:0:
296,80,109293,1,0,0:0:0:0:
80,48,109476,2,0,B|120:32|172:40,2,63.7500024318696,0|10|0,0:0|0:1|0:0,0:0:0:0:
284,28,110025,5,0,0:0:0:0:
364,136,110208,2,0,L|332:92,2,31.8750012159348
212,92,110573,5,0,0:0:0:0:
296,200,110756,1,0,0:0:0:0:
296,36,110939,1,0,0:0:0:0:
296,200,111123,2,0,P|285:218|248:256,1,63.7500024318696
416,328,111488,6,0,P|424:224|448:108,1,212.5,6|2,0:0|0:0,0:0:0:0:
356,24,112037,1,8,0:1:0:0:
220,174,112220,2,0,L|304:240,1,106.25,2|0,0:0|0:0,0:0:0:0:
92,72,112586,1,10,0:0:0:0:
92,72,112677,1,8,0:0:0:0:
92,72,112768,1,0,0:0:0:0:
248,28,112951,5,2,0:0:0:0:
220,200,113134,1,0,0:0:0:0:
168,40,113317,1,2,0:0:0:0:
228,228,113500,2,0,L|116:292,1,106.25,8|2,0:1|0:0,0:0:0:0:
272,304,113866,1,0,0:0:0:0:
300,156,114049,1,2,0:0:0:0:
392,72,114232,1,8,0:0:0:0:
414,55,114323,1,8,0:0:0:0:
438,45,114415,6,0,L|448:160,1,106.25,2|0,0:0|0:0,0:0:0:0:
456,268,114781,1,2,0:0:0:0:
308,248,114964,2,8,L|376:152,1,106.25,8|2,0:1|0:0,0:0:0:0:
420,84,115329,1,0,0:0:0:0:
268,44,115512,1,10,0:0:0:0:
242,36,115603,1,8,0:0:0:0:
216,35,115694,1,0,0:0:0:0:
308,220,115878,5,2,0:0:0:0:
115,58,116061,2,0,L|196:128,1,106.25,0|2,0:0|0:0,0:0:0:0:
32,172,116427,1,8,0:1:0:0:
156,216,116610,1,2,0:0:0:0:
232,48,116793,1,8,0:0:0:0:
124,284,116976,2,8,L|36:368,1,106.25,2|8,0:0|0:0,0:0:0:0:
88,200,117342,6,0,P|156:136|272:136,1,212.5,6|2,0:0|0:0,0:0:0:0:
360,196,117890,1,8,0:1:0:0:
265,306,118073,2,0,P|227:269|200:224,1,106.25,2|0,0:0|0:0,0:0:0:0:
384,96,118439,1,10,0:0:0:0:
384,96,118531,1,8,0:0:0:0:
384,96,118622,1,0,0:0:0:0:
264,196,118805,6,0,P|272:240|260:300,1,106.25,2|0,0:0|0:0,0:0:0:0:
192,380,119171,1,2,0:0:0:0:
384,248,119354,1,8,0:1:0:0:
174,248,119537,2,0,L|68:248,1,106.25,2|0,0:0|0:0,0:0:0:0:
80,88,119903,1,2,0:0:0:0:
216,160,120086,1,8,0:0:0:0:
216,160,120177,1,8,0:0:0:0:
216,160,120268,6,8,L|152:292,1,106.25,2|0,0:0|0:0,0:0:0:0:
196,348,120634,1,2,0:0:0:0:
304,352,120817,2,0,P|360:308|376:264,1,106.25,8|2,0:1|0:0,0:0:0:0:
376,116,121183,1,0,0:0:0:0:
248,200,121366,1,10,0:0:0:0:
264,228,121458,1,8,0:0:0:0:
280,256,121549,1,0,0:0:0:0:
320,112,121732,6,0,P|276:104|216:116,1,106.25,2|0,0:0|0:0,0:0:0:0:
104,184,122098,1,2,0:0:0:0:
272,188,122281,1,8,0:1:0:0:
168,48,122464,1,2,0:0:0:0:
192,264,122647,1,8,0:0:0:0:
192,264,122738,1,8,0:0:0:0:
192,264,122829,1,2,0:0:0:0:
252,128,123012,1,10,0:0:0:0:
252,128,123104,1,8,0:0:0:0:
252,128,123195,6,2,B|312:88|384:160|468:120,1,212.5,6|2,0:0|0:0,0:0:0:0:
512,4,123744,1,8,0:1:0:0:
392,48,123927,2,0,P|440:128|492:144,1,106.25,2|0,0:0|0:0,0:0:0:0:
488,252,124293,1,10,0:0:0:0:
484,281,124384,1,8,0:0:0:0:
472,304,124476,1,0,0:0:0:0:
256,296,124659,6,0,L|299:198,1,106.25,2|0,0:0|0:0,0:0:0:0:
358,68,125025,1,2,0:0:0:0:
228,148,125208,1,8,0:1:0:0:
448,288,125390,2,8,P|396:252|346:254,1,106.25,2|0,0:0|0:0,0:0:0:0:
252,264,125756,1,2,0:0:0:0:
152,208,125939,1,8,0:0:0:0:
140,192,126031,1,8,0:0:0:0:
136,172,126122,6,0,P|184:144|237:142,1,106.25,2|0,0:0|0:0,0:0:0:0:
380,168,126488,1,2,0:0:0:0:
339,251,126671,2,0,L|264:176,1,106.25,8|2,0:1|0:0,0:0:0:0:
176,80,127037,1,0,0:0:0:0:
96,264,127220,1,10,0:0:0:0:
123,260,127311,1,8,0:0:0:0:
146,247,127402,1,0,0:0:0:0:
28,192,127586,5,2,0:0:0:0:
40,348,127768,2,0,L|136:304,1,106.25,0|2,0:0|0:0,0:0:0:0:
264,240,128134,1,8,0:1:0:0:
220,96,128317,2,0,P|176:104|120:148,1,106.25,2|8,0:0|0:0,0:0:0:0:
44,244,128683,1,2,0:0:0:0:
204,188,128866,1,8,0:0:0:0:
136,72,129049,6,0,L|148:308,1,212.5,6|2,0:0|0:0,0:0:0:0:
304,300,129598,1,8,0:1:0:0:
172,284,129781,2,0,P|120:260|84:220,1,106.25,2|0,0:0|0:0,0:0:0:0:
68,64,130147,1,10,0:0:0:0:
68,64,130238,1,8,0:0:0:0:
68,64,130329,1,0,0:0:0:0:
224,32,130512,6,8,B|232:84|192:136,1,106.25,2|0,0:0|0:0,0:0:0:0:
96,236,130878,1,2,0:0:0:0:
296,144,131061,1,8,0:1:0:0:
48,260,131244,2,0,L|112:360,1,106.25,2|0,0:0|0:0,0:0:0:0:
148,108,131610,1,2,0:0:0:0:
344,256,131793,1,8,0:0:0:0:
344,256,131884,6,0,L|344:172,1,53.125,8|2,0:0|0:0,0:0:0:0:
344,96,132159,1,0,0:0:0:0:
468,144,132342,1,2,0:0:0:0:
264,64,132525,2,0,L|280:188,1,106.25,8|2,0:1|0:0,0:0:0:0:
296,336,132890,1,0,0:0:0:0:
140,280,133073,1,8,0:0:0:0:
140,280,133165,2,0,L|156:180,1,53.125,8|0,0:0|0:0,0:0:0:0:
272,244,133439,6,0,P|221:260|176:288,1,106.25,2|0,0:0|0:0,0:0:0:0:
432,180,133805,1,2,0:0:0:0:
456,312,133988,1,8,1:0:0:0:
408,56,134171,2,2,P|446:29|508:8,1,106.25,2|10,0:0|1:0,0:0:0:0:
504,196,134537,1,10,0:1:0:0:
340,216,134720,1,8,0:1:0:0:
512,88,134903,1,10,0:0:0:0:
368,76,143317,5,0,0:0:0:0:
349,97,143409,1,0,0:0:0:0:
330,118,143500,1,0,0:0:0:0:
311,139,143592,1,0,0:0:0:0:
292,156,143683,6,0,L|192:168,1,85,6|2,0:0|0:0,0:0:0:0:
100,292,144232,1,8,0:0:0:0:
100,292,144415,2,0,L|200:304,1,85,2|2,0:0|0:0,0:0:0:0:
280,312,144964,1,0,0:0:0:0:
164,136,145147,6,0,L|192:188,1,42.5,2|8,0:0|0:0,0:0:0:0:
112,40,145512,1,2,0:0:0:0:
8,72,145695,1,0,0:0:0:0:
184,20,145878,6,0,P|232:16|272:48,1,85,2|2,0:0|0:0,0:0:0:0:
340,96,146427,1,8,0:0:0:0:
340,96,146610,1,2,0:0:0:0:
168,120,146793,1,0,0:0:0:0:
312,216,146976,6,0,L|312:112,1,85,2|2,0:0|0:0,0:0:0:0:
456,32,147525,2,0,L|456:136,1,85,8|0,0:0|0:0,0:0:0:0:
456,292,148073,6,0,P|416:284|360:300,1,85,6|2,0:0|0:0,0:0:0:0:
192,212,148622,2,0,P|232:220|288:204,1,85,8|0,0:0|0:0,0:0:0:0:
192,72,149171,6,0,P|152:64|96:80,1,85,2|2,0:0|0:0,0:0:0:0:
64,192,149720,2,0,L|84:248,1,42.5,8|2,0:0|0:0,0:0:0:0:
152,144,150086,1,0,0:0:0:0:
16,44,150268,6,0,P|72:32|112:40,1,85,10|2,0:0|0:0,0:0:0:0:
240,80,150817,2,0,L|248:32,2,42.5,8|2|0,0:0|0:0|0:0,0:0:0:0:
328,108,151366,6,0,P|276:136|264:160,1,85,10|2,0:0|0:0,0:0:0:0:
104,288,151915,2,0,P|156:260|168:236,1,85,8|0,0:0|0:0,0:0:0:0:
104,124,152464,6,0,P|72:148|56:196,1,85,10|10,0:0|0:0,0:0:0:0:
64,216,152921,1,8,0:0:0:0:
73,235,153012,1,8,0:0:0:0:
83,254,153104,1,8,0:0:0:0:
96,272,153195,6,2,L|212:280,1,85,6|0,0:0|0:0,0:0:0:0:
244,157,153560,2,2,L|160:152,1,85,10|0,0:0|0:0,0:0:0:0:
352,168,153926,1,2,0:0:0:0:
308,72,154109,1,0,0:0:0:0:
431,160,154292,1,10,0:0:0:0:
414,174,154384,1,0,0:0:0:0:
399,187,154475,1,0,0:0:0:0:
382,200,154566,1,0,0:0:0:0:
368,212,154658,6,0,P|360:252|376:304,1,85,2|0,0:0|0:0,0:0:0:0:
468,364,155024,2,0,P|476:324|460:272,1,85,10|0,0:0|0:0,0:0:0:0:
272,212,155390,2,0,P|300:236|364:244,1,85
424,192,155755,1,10,0:0:0:0:
288,88,155938,1,0,0:0:0:0:
288,88,156121,6,0,P|264:112|216:132,1,85,2|0,0:0|0:0,0:0:0:0:
32,112,156487,1,10,0:0:0:0:
176,56,156670,1,0,0:0:0:0:
52,0,156853,2,0,L|64:100,1,85,2|0,0:0|0:0,0:0:0:0:
76,232,157219,1,10,0:0:0:0:
188,128,157402,1,0,0:0:0:0:
0,136,157585,6,0,L|0:248,1,85,2|0,0:0|0:0,0:0:0:0:
240,212,157951,1,10,0:0:0:0:
104,120,158134,1,0,0:0:0:0:
100,288,158316,2,0,P|136:264|192:248,1,85,2|0,0:0|0:0,0:0:0:0:
216,160,158682,1,10,0:0:0:0:
216,160,158865,1,0,0:0:0:0:
308,28,159048,6,0,L|256:108,1,85,6|0,0:0|0:0,0:0:0:0:
332,188,159414,1,10,0:0:0:0:
332,188,159505,1,8,0:0:0:0:
332,188,159596,1,0,0:0:0:0:
64,196,159780,6,0,L|116:276,1,85,2|0,0:0|0:0,0:0:0:0:
40,356,160146,1,10,0:0:0:0:
40,356,160237,1,8,0:0:0:0:
40,356,160329,1,0,0:0:0:0:
268,280,160512,6,0,P|236:248|180:232,1,85,2|0,0:0|0:0,0:0:0:0:
240,128,160877,2,0,P|272:96|328:80,1,85,10|0,0:0|0:0,0:0:0:0:
452,116,161243,2,0,P|420:148|364:164,1,85,2|0,0:0|0:0,0:0:0:0:
160,60,161609,2,0,P|192:28|248:12,1,85,10|0,0:0|0:0,0:0:0:0:
412,16,161975,5,2,0:0:0:0:
248,96,162158,1,0,0:0:0:0:
416,168,162341,2,0,P|444:116|436:64,1,85,10|0,0:0|0:0,0:0:0:0:
360,252,162707,1,2,0:0:0:0:
208,152,162890,1,0,0:0:0:0:
344,72,163073,2,0,P|372:124|364:176,1,85,10|0,0:0|0:0,0:0:0:0:
148,64,163438,5,2,0:0:0:0:
296,132,163621,1,0,0:0:0:0:
128,204,163804,1,10,0:0:0:0:
220,88,163987,1,8,0:0:0:0:
268,284,164170,6,0,L|252:228,2,42.5,10|8|8,0:0|0:0|0:0,0:0:0:0:
232,140,164536,1,10,0:0:0:0:
352,212,164719,1,8,0:0:0:0:
352,212,164810,1,8,0:0:0:0:
352,212,164902,6,0,P|264:144|352:68,1,255
336,140,166365,6,0,P|424:208|340:284,1,255
352,212,167829,5,0,0:0:0:0:
340,276,169292,6,0,L|436:300,1,85
468,140,169841,2,0,L|392:184,1,85
228,96,170390,1,0,0:0:0:0:
152,236,170755,6,0,B|204:168|300:228|336:68,1,255
228,96,172219,6,0,B|268:208|376:152|420:248,1,255
328,272,173682,5,0,0:0:0:0:
308,88,175146,6,0,P|280:84|216:108,1,85
140,168,175694,1,0,0:0:0:0:
104,256,175877,2,0,L|160:240,1,42.5
236,220,176243,1,0,0:0:0:0:
436,132,176609,6,0,P|424:196|480:248,1,127.500004863739,2|2,0:0|0:0,0:0:0:0:
496,176,177158,1,0,0:0:0:0:
352,100,177341,2,0,L|320:168,1,63.7500024318696,2|8,0:0|0:0,0:0:0:0:
160,284,177707,2,0,L|192:216,1,63.7500024318696,2|8,0:0|0:0,0:0:0:0:
252,56,178073,6,0,P|264:120|212:172,1,127.500004863739,2|2,0:0|0:0,0:0:0:0:
192,100,178621,1,0,0:0:0:0:
116,156,178804,2,0,L|208:244,1,127.500004863739,2|10,0:0|0:1,0:0:0:0:
296,320,179353,1,0,0:0:0:0:
372,312,179536,6,0,P|336:256|272:248,1,127.500004863739,2|2,0:0|0:0,0:0:0:0:
324,164,180085,1,0,0:0:0:0:
265,24,180268,2,0,L|288:84,1,63.7500024318696,2|8,0:0|0:0,0:0:0:0:
224,132,180634,1,2,0:0:0:0:
368,72,180816,1,0,0:0:0:0:
368,72,180999,6,0,L|492:19,1,127.500004863739,2|2,0:0|0:0,0:0:0:0:
476,160,181548,1,0,0:0:0:0:
476,160,181731,2,0,P|444:144|392:140,2,63.7500024318696,2|0|10,0:0|0:0|0:1,0:0:0:0:
224,228,182463,6,0,P|246:286|295:325,1,127.500004863739,2|2,0:0|0:0,0:0:0:0:
316,236,183012,1,0,0:0:0:0:
252,120,183194,2,0,P|212:112|160:120,1,63.7500024318696,2|8,0:0|0:0,0:0:0:0:
244,196,183560,2,0,P|284:204|336:196,1,63.7500024318696,2|8,0:0|0:0,0:0:0:0:
128,126,183926,6,0,P|144:54|208:4,1,127.500004863739,2|2,0:0|0:0,0:0:0:0:
220,100,184475,1,0,0:0:0:0:
148,214,184658,2,0,P|96:220|60:208,1,63.7500024318696,2|8,0:0|0:0,0:0:0:0:
56,216,184932,1,8,0:0:0:0:
32,228,185024,2,0,P|84:234|120:222,1,63.7500024318696,10|8,0:0|0:0,0:0:0:0:
244,320,185390,6,0,P|280:300|308:268,1,63.7500024318696,2|0,0:0|0:0,0:0:0:0:
400,172,185755,1,10,0:1:0:0:
236,88,185938,1,0,0:0:0:0:
304,220,186121,2,0,L|268:148,1,63.7500024318696,2|0,0:0|0:0,0:0:0:0:
164,112,186487,1,8,0:0:0:0:
156,128,186579,1,8,0:0:0:0:
148,144,186670,1,8,0:0:0:0:
140,160,186762,1,8,0:0:0:0:
132,176,186853,6,0,L|80:240,1,63.7500024318696,2|0,0:0|0:0,0:0:0:0:
28,120,187219,1,8,0:1:0:0:
23,16,187402,1,2,0:0:0:0:
23,16,187585,2,0,P|53:5|84:4,1,63.7500024318696,0|8,0:0|0:0,0:0:0:0:
208,24,187951,1,2,0:0:0:0:
144,124,188134,1,8,0:0:0:0:
144,156,188225,1,8,0:0:0:0:
144,188,188316,6,2,L|76:304,1,127.500004863739,2|10,0:0|0:1,0:0:0:0:
208,272,188865,1,8,0:0:0:0:
232,136,189048,2,0,P|260:176|308:192,1,95.6250036478044
324,192,189414,1,10,0:0:0:0:
346,185,189505,1,8,0:0:0:0:
365,170,189596,1,8,0:0:0:0:
377,150,189688,1,8,0:0:0:0:
381,126,189780,5,10,0:0:0:0:
148,104,189963,1,8,0:0:0:0:
168,111,190054,1,8,0:0:0:0:
187,120,190146,1,4,0:0:0:0:
112,16,190329,5,0,0:0:0:0:
120,224,190512,2,0,P|80:252|32:304,2,85
60,52,191243,6,0,P|108:76|260:68,1,170
328,0,191792,1,0,0:0:0:0:
312,108,191975,2,0,P|272:148|248:240,1,127.5
232,256,192341,2,0,L|176:216,1,42.5
216,204,192524,2,0,L|208:148,1,42.5
204,116,192707,5,6,0:0:0:0:
336,40,192890,1,0,0:0:0:0:
364,71,192982,1,0,0:0:0:0:
392,104,193073,1,2,0:0:0:0:
172,88,193255,2,8,P|132:92|48:76,1,106.25,8|2,0:1|0:0,0:0:0:0:
280,184,193621,1,0,0:0:0:0:
368,100,193804,1,2,0:0:0:0:
240,224,193987,1,8,0:0:0:0:
224,240,194079,1,8,0:0:0:0:
208,256,194170,6,0,P|171:278|124:324,1,106.25,2|0,0:0|0:0,0:0:0:0:
212,344,194536,1,2,0:0:0:0:
276,176,194719,2,0,P|312:154|364:108,1,106.25,8|2,0:1|0:0,0:0:0:0:
160,56,195085,1,0,0:0:0:0:
184,212,195268,1,10,0:0:0:0:
204,228,195359,1,8,0:0:0:0:
224,244,195451,1,8,0:0:0:0:
244,259,195542,1,0,0:0:0:0:
268,276,195634,6,0,L|372:356,1,106.25,2|0,0:0|0:0,0:0:0:0:
232,148,195999,1,2,0:0:0:0:
160,296,196182,1,8,0:1:0:0:
52,92,196365,1,2,0:0:0:0:
104,192,196548,1,8,0:0:0:0:
144,28,196731,1,10,0:0:0:0:
92,240,196914,1,8,0:0:0:0:
88,260,197005,1,8,0:0:0:0:
84,280,197097,6,0,P|128:256|304:236,1,212.5,6|2,0:0|0:0,0:0:0:0:
436,252,197646,1,8,0:1:0:0:
472,120,197829,2,0,P|452:96|452:16,1,106.25,2|0,0:0|0:0,0:0:0:0:
332,204,198194,1,10,0:0:0:0:
290,215,198286,1,8,0:0:0:0:
249,226,198377,1,0,0:0:0:0:
168,111,198560,6,0,P|193:66|239:40,1,106.25,2|0,0:0|0:0,0:0:0:0:
456,64,198926,2,0,P|428:112|380:136,1,106.25,2|8,0:0|0:1,0:0:0:0:
277,106,199292,1,2,0:0:0:0:
200,180,199475,2,0,L|280:104,1,106.25,0|2,0:0|0:0,0:0:0:0:
116,260,199841,1,8,0:0:0:0:
102,274,199932,1,8,0:0:0:0:
88,288,200024,5,2,0:0:0:0:
356,356,200207,2,0,L|272:276,1,106.25,0|2,0:0|0:0,0:0:0:0:
128,168,200573,2,0,P|184:184|234:173,1,106.25,8|2,0:1|0:0,0:0:0:0:
352,92,200938,1,0,0:0:0:0:
252,84,201121,1,10,0:0:0:0:
252,84,201213,1,8,0:0:0:0:
252,84,201304,1,0,0:0:0:0:
252,84,201396,1,0,0:0:0:0:
252,84,201487,6,0,P|272:144|316:188,1,106.25,2|0,0:0|0:0,0:0:0:0:
424,232,201853,2,0,P|400:268|344:308,1,106.25,2|8,0:0|0:1,0:0:0:0:
188,226,202219,1,2,0:0:0:0:
188,68,202402,1,8,0:0:0:0:
224,104,202493,1,8,0:0:0:0:
260,148,202585,2,0,L|168:248,1,106.25,2|8,0:0|0:0,0:0:0:0:
160,256,202859,1,8,0:0:0:0:
124,292,202951,6,0,L|124:80,1,212.5,6|0,0:0|0:0,0:0:0:0:
44,0,203499,1,8,0:1:0:0:
296,136,203682,2,0,P|300:88|284:28,1,106.25,2|0,0:0|0:0,0:0:0:0:
178,202,204048,1,10,0:0:0:0:
172,221,204140,1,8,0:0:0:0:
166,242,204231,1,0,0:0:0:0:
268,200,204414,6,0,L|196:100,1,106.25,2|0,0:0|0:0,0:0:0:0:
56,20,204780,1,2,0:0:0:0:
240,32,204963,1,8,0:1:0:0:
126,90,205146,2,0,P|76:109|24:112,1,106.25,2|0,0:0|0:0,0:0:0:0:
68,196,205512,1,2,0:0:0:0:
176,312,205694,1,8,0:0:0:0:
204,340,205786,1,8,0:0:0:0:
232,368,205877,6,0,L|246:255,1,106.25,2|0,0:0|0:0,0:0:0:0:
264,120,206242,1,2,0:0:0:0:
344,48,206426,2,0,P|380:84|408:132,1,106.25,8|2,0:1|0:0,0:0:0:0:
424,248,206792,1,0,0:0:0:0:
212,212,206975,1,10,0:0:0:0:
192,209,207066,1,8,0:0:0:0:
175,205,207158,1,0,0:0:0:0:
240,120,207341,6,0,P|268:100|352:72,1,106.25,2|0,0:0|0:0,0:0:0:0:
148,112,207707,2,0,P|150:164|182:205,1,106.25,2|8,0:0|0:1,0:0:0:0:
288,192,208073,1,2,0:0:0:0:
288,88,208255,1,8,0:0:0:0:
188,28,208438,2,0,P|135:27|86:47,1,106.25,2|8,0:0|0:1,0:0:0:0:
351,200,208804,6,0,P|419:260|443:144,1,212.5,6|2,0:0|0:0,0:0:0:0:
384,344,209353,1,8,0:1:0:0:
268,288,209536,2,0,P|220:264|160:248,1,106.25,2|0,0:0|0:0,0:0:0:0:
72,128,209902,1,10,0:0:0:0:
88,140,209993,1,8,0:0:0:0:
104,152,210085,1,0,0:0:0:0:
293,182,210268,6,0,L|196:224,1,106.25,2|0,0:0|0:0,0:0:0:0:
340,104,210634,1,2,0:0:0:0:
276,276,210816,1,8,0:1:0:0:
260,88,210999,2,0,L|336:0,1,106.25,2|0,0:0|0:0,0:0:0:0:
344,256,211365,1,2,0:0:0:0:
180,100,211548,1,8,0:0:0:0:
161,81,211640,1,8,0:0:0:0:
144,64,211731,6,0,L|96:168,1,106.25,2|0,0:0|0:0,0:0:0:0:
24,324,212097,1,2,0:0:0:0:
248,216,212280,2,0,L|216:108,1,106.25,8|2,0:1|0:0,0:0:0:0:
144,256,212646,1,0,0:1:0:0:
341,27,212829,1,10,0:0:0:0:
341,27,212920,2,0,L|320:104,1,53.125,8|0,0:0|0:0,0:0:0:0:
260,312,213194,6,0,L|188:212,1,106.25,2|0,0:0|0:0,0:0:0:0:
448,44,213560,2,0,L|404:152,1,106.25,2|8,0:0|0:1,0:0:0:0:
348,288,213926,1,2,0:0:0:0:
496,180,214109,1,8,0:0:0:0:
496,180,214201,1,8,0:0:0:0:
496,180,214292,1,2,0:0:0:0:
468,352,214475,1,8,0:0:0:0:
468,352,214566,1,8,0:0:0:0:
468,352,214658,6,0,P|432:364|400:364,1,63.7500024318696,6|0,0:0|0:0,0:0:0:0:
380,280,215024,2,0,P|368:248|344:216,1,63.7500024318696,2|0,0:0|0:0,0:0:0:0:
152,132,215390,2,0,L|196:192,1,63.7500024318696,2|0,0:0|0:0,0:0:0:0:
232,60,215755,2,2,L|276:120,1,63.7500024318696,2|0,0:0|0:0,0:0:0:0:
104,32,216121,5,2,0:0:0:0:
164,132,216304,1,0,0:0:0:0:
32,176,216487,2,0,L|60:108,1,63.7500024318696,2|0,0:0|0:0,0:0:0:0:
168,200,216853,1,2,0:0:0:0:
72,300,217036,1,0,0:0:0:0:
200,360,217219,2,0,L|204:272,1,63.7500024318696,2|0,0:0|0:0,0:0:0:0:
276,168,217585,6,0,L|208:188,1,63.7500024318696,2|0,0:0|0:0,0:0:0:0:
328,256,217951,2,0,L|364:196,1,63.7500024318696,2|0,0:0|0:0,0:0:0:0:
512,200,218316,1,2,0:0:0:0:
444,288,218499,1,0,0:0:0:0:
456,68,218682,2,0,L|452:148,1,63.7500024318696,2|0,0:0|0:0,0:0:0:0:
220,140,219048,5,2,0:0:0:0:
368,104,219231,1,0,0:0:0:0:
296,232,219414,2,0,L|232:216,1,63.7500024318696,2|0,0:0|0:0,0:0:0:0:
120,304,219780,2,0,P|148:318|179:320,1,63.7500024318696,2|0,0:0|0:0,0:0:0:0:
352,244,220146,2,0,P|324:230|293:228,1,63.7500024318696,2|0,0:0|0:0,0:0:0:0:
120,104,220512,6,0,L|96:152,1,42.5
112,232,220877,1,2,0:0:0:0:
240,220,221060,2,0,L|208:168,1,42.5
260,72,221426,2,0,L|292:124,1,42.5
140,40,221792,6,0,L|216:76,1,85,2|0,0:0|0:0,0:0:0:0:
312,120,222341,1,0,0:0:0:0:
312,120,222524,2,0,L|344:80,2,42.5
428,64,223073,2,0,L|468:16,1,42.5,0|2,0:0|0:0,0:0:0:0:
376,124,223438,6,0,P|352:160|344:212,1,85,2|0,0:0|0:0,0:0:0:0:
260,148,223987,2,0,L|136:88,1,127.5,0|2,0:0|0:0,0:0:0:0:
100,88,224719,2,0,L|116:32,1,42.5
72,140,225085,6,2,P|128:156|164:184,1,85
256,196,225634,2,0,P|240:216|208:224,1,42.5,0|2,0:0|0:0,0:0:0:0:
168,252,225999,2,0,P|180:272|208:280,1,42.5
300,332,226365,6,0,L|240:340,1,42.5,0|2,0:0|0:0,0:0:0:0:
136,348,226731,1,0,0:0:0:0:
196,276,226914,2,0,L|208:360,1,85
304,268,227463,2,0,L|320:208,1,42.5,2|0,0:0|0:0,0:0:0:0:
252,152,227829,6,0,P|272:144|312:136,2,42.5,0|2|0,0:0|0:0|0:0,0:0:0:0:
160,212,228377,1,0,0:0:0:0:
124,237,228560,1,0,0:0:0:0:
96,268,228743,1,0,0:0:0:0:
72,304,228926,2,0,L|112:348,1,42.5
180,240,229292,6,0,L|104:292,1,85,2|0,0:0|0:0,0:0:0:0:
32,352,229841,1,0,0:0:0:0:
32,328,230024,2,0,L|32:268,1,42.5
36,132,230390,2,0,L|36:184,1,42.5,2|0,0:0|0:0,0:0:0:0:
120,104,230755,6,0,L|160:136,2,42.5
240,120,231304,2,2,P|252:100|276:84,1,42.5
344,116,231670,5,0,0:0:0:0:
304,160,231853,5,0,0:0:0:0:
284,216,232036,6,0,P|340:252|372:252,1,85
