osu file format v14

[General]
AudioFilename: audio.mp3
AudioLeadIn: 0
PreviewTime: 110391
Countdown: 0
SampleSet: Soft
StackLeniency: 0.7
Mode: 0
LetterboxInBreaks: 1
WidescreenStoryboard: 1

[Editor]
Bookmarks: 5938,63652,220328
DistanceSpacing: 1.7
BeatDivisor: 2
GridSize: 4
TimelineZoom: 1

[Metadata]
Title:Kuchizuke Diamond
TitleUnicode:くちづけDiamond
Artist:WEAVER
ArtistUnicode:WEAVER
Creator:Broly
Version:Celsius' Easy
Source:山田くんと7人の魔女
Tags:Yamada-kun to 7-nin no majo night rainbow a-sketch Celsius yShadowXOP_ victorfernando EriveltonGold
BeatmapID:1205560
BeatmapSetID:563229

[Difficulty]
HPDrainRate:3
CircleSize:3
OverallDifficulty:3
ApproachRate:3
SliderMultiplier:0.400000005960464
SliderTickRate:2

[Events]
//Background and Video events
0,0,"eJwNyFEOwiAMANC7cACKiNDtNowhm2GWtN2HMd7d_b28rzm5m9lsqkNmgHWXQrxaUeLcqm1Erdc8drGFDsiquWxHfauATwnjI95C8PcwuUtXoY-Ik4veISYXHCztSbww9Y99jWZ-f3PtJA0.jpg",0,0
//Break Periods
2,23499,33743
2,41060,51511
2,75834,77645
2,87889,92487
2,136182,142243
2,164719,175169
//Storyboard Layer 0 (Background)
//Storyboard Layer 1 (Fail)
//Storyboard Layer 2 (Pass)
//Storyboard Layer 3 (Foreground)
//Storyboard Sound Samples

[TimingPoints]
269,365.853658536585,4,2,1,60,1,0
269,-133.333333333333,4,2,1,60,0,0
64659,-133.333333333333,4,2,1,60,0,1
76366,-133.333333333333,4,2,1,60,0,0
96855,-133.333333333333,4,2,0,60,0,0
111488,-133.333333333333,4,2,1,60,0,1
134903,-133.333333333333,4,2,1,60,0,0
153195,365.853658536585,4,2,1,60,1,0
153195,-133.333333333333,4,2,0,60,0,0
153377,-133.333333333333,4,2,1,60,0,0
176609,-133.333333333333,4,2,0,60,0,0
192707,-133.333333333333,4,2,1,60,0,1
213926,-133.333333333333,4,2,1,60,0,0
214658,-133.333333333333,4,3,0,60,0,0

[Colours]
Combo1 : 255,255,255
Combo2 : 192,192,192

[HitObjects]
128,320,6122,6,0,P|180:324|192:320,1,60.0000031828881,4|2,0:0|0:0,0:0:0:0:
272,268,7586,2,0,P|316:256|332:256,1,60.0000008940697,4|2,0:0|0:0,0:0:0:0:
256,192,9049,12,0,11244,0:0:0:0:
60,304,11976,6,0,P|72:292|172:284,1,120.000006365776,6|0,0:0|0:0,0:0:0:0:
264,316,14171,1,10,0:0:0:0:
364,304,14903,6,0,P|420:320|480:308,1,120.000006365776,2|2,0:0|0:0,0:0:0:0:
492,208,17098,1,10,0:0:0:0:
436,124,17829,6,0,P|364:104|320:112,1,120.000006365776,4|2,0:0|0:0,0:0:0:0:
232,160,20025,1,8,0:0:0:0:
256,192,20756,12,4,22951,0:0:0:0:
60,344,35390,6,0,P|92:352|180:344,1,120.000006365776,4|2,0:0|0:0,0:0:0:0:
252,272,37586,1,4,0:0:0:0:
308,188,38317,6,0,P|388:168|424:172,1,120.000006365776,0|2,0:0|0:0,0:0:0:0:
480,256,40512,1,4,0:0:0:0:
56,136,52951,6,0,P|108:124|180:128,2,120.000006365776,4|0|0,1:0|0:0|0:0,0:0:0:0:
168,304,57342,5,0,0:0:0:0:
284,136,58805,6,0,P|340:116|400:120,2,120.000006365776,4|0|0,1:0|0:0|0:0,0:0:0:0:
376,316,63195,5,2,0:0:0:0:
208,200,64659,6,0,P|148:196|144:196,2,60.0000031828881,4|2|2,0:0|0:0|0:0,0:0:0:0:
308,212,66854,1,8,0:0:0:0:
408,220,67586,6,0,P|416:224|472:224,2,60.0000031828881,2|2|2,0:0|0:0|0:0,0:0:0:0:
396,120,69781,1,8,0:0:0:0:
296,108,70512,6,0,P|232:108|176:128,1,120.000006365776,4|0,0:0|0:0,0:0:0:0:
132,216,72708,1,8,0:0:0:0:
256,192,73439,12,0,75634,0:0:0:0:
256,192,79293,12,4,81488,1:0:0:0:
72,116,82220,6,0,P|104:88|236:92,1,180.000009548664,4|2,1:0|0:0,0:0:0:0:
320,144,85147,2,0,P|388:168|496:148,1,180.000009548664,2|0,0:0|0:0,0:0:0:0:
60,316,93927,6,0,L|240:312,1,180.000009548664,2|0,0:0|0:0,0:0:0:0:
340,300,96854,2,0,P|432:176|420:136,1,210.000011140108,2|0,0:0|0:0,0:0:0:0:
392,96,99781,6,0,P|340:96|148:104,1,240.000012731552,4|0,2:0|0:0,0:0:0:0:
104,300,104171,1,2,0:0:0:0:
260,172,105634,6,0,P|376:192|464:164,1,210.000011140108,4|0,0:0|0:0,0:0:0:0:
256,192,108561,12,0,110025,0:0:0:0:
84,216,111488,6,0,P|140:168|248:168,1,180.000009548664,4|8,0:0|0:0,0:0:0:0:
332,212,114415,2,0,P|396:216|456:128,1,180.000009548664,2|8,0:0|0:0,0:0:0:0:
372,72,117342,6,0,L|192:72,1,180.000009548664,4|8,0:0|0:0,0:0:0:0:
108,128,120268,5,2,0:0:0:0:
96,228,121000,2,0,P|168:244|224:240,1,120.000006365776,2|8,0:0|0:0,0:0:0:0:
312,216,123195,6,0,P|388:208|440:208,1,120.000006365776,4|0,1:2|0:0,0:0:0:0:
480,296,125390,1,8,0:0:0:0:
396,352,126122,6,0,P|296:320|212:328,1,180.000009548664,4|8,0:0|0:0,0:0:0:0:
124,304,129049,6,0,P|84:188|92:124,1,180.000009548664,4|8,0:0|0:0,0:0:0:0:
256,192,131976,12,6,134903,0:0:0:0:
72,112,143683,6,0,P|128:96|428:92,2,360.000019097329,6|4|4,0:0|0:0|0:0,0:0:0:0:
60,212,153195,6,0,P|120:256|232:240,1,180.000009548664,4|8,0:0|0:0,0:0:0:0:
272,156,156121,5,2,0:0:0:0:
328,240,156853,1,8,0:0:0:0:
340,340,157585,2,0,P|368:336|400:316,1,60.0000031828881,4|12,0:0|0:0,0:0:0:0:
436,228,159048,6,0,P|452:128|408:64,1,180.000009548664,4|8,0:0|0:0,0:0:0:0:
256,192,161975,12,4,164170,0:0:0:0:
104,264,176609,6,0,P|140:240|272:236,1,180.000009548664,4|4,0:0|0:0,0:0:0:0:
372,268,179536,2,0,P|404:220|404:208,1,60.0000031828881,4|4,0:0|0:0,0:0:0:0:
412,120,180999,6,0,P|380:88|304:88,1,120.000006365776,4|4,0:0|0:0,0:0:0:0:
188,248,183926,6,0,P|76:248|64:240,1,120.000006365776,2|4,0:0|0:0,0:0:0:0:
52,148,186121,1,8,0:0:0:0:
108,64,186853,6,0,P|224:52|236:52,1,120.000006365776
316,100,189048,1,8,0:0:0:0:
372,184,189780,5,0,0:0:0:0:
0,340,192707,6,0,P|-20:288|-16:212,1,120.000006365776,6|8,0:0|0:0,0:0:0:0:
36,140,194902,1,8,0:0:0:0:
120,196,195634,2,0,P|160:208|188:208,1,60.0000031828881,0|8,0:0|0:0,0:0:0:0:
272,172,197097,6,0,P|360:160|456:168,1,180.000009548664,4|8,0:0|0:0,0:0:0:0:
256,192,200024,12,8,202219,0:0:0:0:
52,112,202951,6,0,P|100:104|180:104,1,120.000006365776,4|0,0:0|0:0,0:0:0:0:
272,112,205146,1,8,0:0:0:0:
328,196,205877,5,2,0:0:0:0:
272,280,206609,2,0,P|208:296|204:296,1,60.0000031828881,4|2,0:0|0:0,0:0:0:0:
120,260,208073,1,8,0:0:0:0:
108,160,208804,6,0,L|192:72,1,120.000006365776,4|0,0:0|0:0,0:0:0:0:
268,8,210999,1,8,0:0:0:0:
256,192,211731,12,8,213926,0:0:0:0:
52,184,214658,6,0,P|80:188|120:188,1,60.0000031828881,4|4,3:0|3:0,3:0:0:0:
204,148,216121,6,4,P|228:148|268:152,1,60.0000031828881
352,200,217585,6,0,P|388:200|424:196,3,60.0000031828881,4|4|4|4,0:0|0:0|0:0|0:0,0:0:0:0:
448,292,220512,5,2,2:0:0:0:
