osu file format v14

[General]
AudioFilename: audio.mp3
AudioLeadIn: 0
PreviewTime: 190099
Countdown: 0
SampleSet: Soft
StackLeniency: 1
Mode: 0
LetterboxInBreaks: 0
WidescreenStoryboard: 0

[Editor]
Bookmarks: 11761,23468,35175,41029,52736,64444,76151,87858,99566,111273,120053,120602,121151,121700,122249,122614,122980,131761,132310,132858,133407,133956,134322,134688,143468,152980,164687,176394,185175,191028,199809,200358,200906,201455,202004,202370,211516,212065,212614,213162,213711,214077,214443,231821
DistanceSpacing: 0.6
BeatDivisor: 4
GridSize: 32
TimelineZoom: 2.3

[Metadata]
Title:Kuchizuke Diamond
TitleUnicode:くちづけDiamond
Artist:WEAVER
ArtistUnicode:WEAVER
Creator:-Mikan
Version:Aishiteru
Source:山田くんと7人の魔女
Tags:Dailycare Morinaga Affirmation Neoskylove Kowari Xen Xehn Xenon- Shizuku- Kazato Asa _kotachi_ -Brethia Blitzifyyy japanese anime opening op yamada kun to nana nin no majo yamada-kun 7-nin and the seven witches j-pop j-rock pop rock jpop jrock
BeatmapID:2197486
BeatmapSetID:1051509

[Difficulty]
HPDrainRate:6
CircleSize:4
OverallDifficulty:9.2
ApproachRate:9.2
SliderMultiplier:1.7
SliderTickRate:2

[Events]
//Background and Video events
0,0,"thumb-1920-809429.jpg",0,0
Video,0,"vid.avi"
//Break Periods
2,76336,78463
//Storyboard Layer 0 (Background)
//Storyboard Layer 1 (Fail)
//Storyboard Layer 2 (Pass)
//Storyboard Layer 3 (Foreground)
//Storyboard Layer 4 (Overlay)
//Storyboard Sound Samples

[TimingPoints]
39,365.853658536585,4,2,1,40,1,0
39,-200,4,2,1,40,0,0
5892,-200,4,2,1,50,0,0
11746,-100,4,2,1,70,0,1
23453,-133.333333333333,4,2,1,60,0,0
34063,-133.333333333333,4,2,1,5,0,0
34246,-133.333333333333,4,2,1,60,0,0
34612,-133.333333333333,4,2,1,60,0,0
35160,-100,4,2,1,70,0,0
41014,-111.111111111111,4,2,1,60,0,0
52721,-100,4,2,1,60,0,0
63514,-100,4,2,1,40,0,0
64429,-83.3333333333333,4,2,1,80,0,1
73209,-83.3333333333333,4,2,2,80,0,1
73392,-83.3333333333333,4,2,1,80,0,1
73758,-83.3333333333333,4,2,2,80,0,1
73941,-83.3333333333333,4,2,1,80,0,1
74307,-83.3333333333333,4,2,2,80,0,1
74490,-83.3333333333333,4,2,1,80,0,1
74673,-83.3333333333333,4,2,2,80,0,1
74856,-83.3333333333333,4,2,1,80,0,1
75404,-83.3333333333333,4,2,1,80,0,1
75770,-83.3333333333333,4,2,2,80,0,1
75953,-83.3333333333333,4,2,1,80,0,1
76136,-83.3333333333333,4,2,1,80,0,0
79063,-100,4,2,1,70,0,0
87843,-100,4,2,1,60,0,0
109795,-142.857142857143,4,2,2,40,0,0
110160,-142.857142857143,4,2,1,40,0,0
111258,-83.3333333333333,4,2,1,80,0,1
120038,-83.3333333333333,4,2,2,80,0,1
120221,-83.3333333333333,4,2,1,80,0,1
120587,-83.3333333333333,4,2,2,80,0,1
120770,-83.3333333333333,4,2,1,80,0,1
121136,-83.3333333333333,4,2,2,80,0,1
121319,-83.3333333333333,4,2,1,80,0,1
121685,-83.3333333333333,4,2,2,80,0,1
121868,-83.3333333333333,4,2,1,80,0,1
122234,-83.3333333333333,4,2,2,80,0,1
122417,-83.3333333333333,4,2,1,80,0,1
122599,-83.3333333333333,4,2,2,80,0,1
122782,-83.3333333333333,4,2,1,80,0,1
131746,-83.3333333333333,4,2,2,80,0,1
131929,-83.3333333333333,4,2,1,80,0,1
132295,-83.3333333333333,4,2,2,80,0,1
132478,-83.3333333333333,4,2,1,80,0,1
132843,-83.3333333333333,4,2,2,80,0,1
133026,-83.3333333333333,4,2,1,80,0,1
133392,-83.3333333333333,4,2,2,80,0,1
133575,-83.3333333333333,4,2,1,80,0,1
133941,-83.3333333333333,4,2,2,80,0,1
134124,-83.3333333333333,4,2,1,80,0,1
134307,-83.3333333333333,4,2,2,80,0,1
134490,-83.3333333333333,4,2,1,80,0,1
134673,365.853658536585,3,2,1,50,1,0
134673,-111.111111111111,3,2,1,50,0,0
143453,-99.9999999999999,3,2,1,60,0,0
150038,-99.9999999999999,3,2,1,65,0,0
151136,-99.9999999999999,3,2,1,70,0,0
152234,-99.9999999999999,3,2,1,75,0,0
152965,365.853658536585,4,2,1,80,1,0
152965,-90.9090909090909,4,2,1,80,0,1
164672,-90.9090909090909,4,2,1,40,0,0
170525,-166.666666666667,4,2,1,40,0,0
176379,-111.111111111111,4,2,1,50,0,0
184611,-111.111111111111,4,2,1,70,0,0
185160,-99.9999999999999,4,2,1,60,0,0
191013,-99.9999999999999,4,2,1,50,0,0
192477,-83.3333333333333,4,2,1,80,0,1
199794,-83.3333333333333,4,2,2,80,0,1
199977,-83.3333333333333,4,2,1,80,0,1
200343,-83.3333333333333,4,2,2,80,0,1
200525,-83.3333333333333,4,2,1,80,0,1
200891,-83.3333333333333,4,2,2,80,0,1
201074,-83.3333333333333,4,2,1,80,0,1
201440,-83.3333333333333,4,2,2,80,0,1
201623,-83.3333333333333,4,2,1,80,0,1
201989,-83.3333333333333,4,2,2,80,0,1
202172,-83.3333333333333,4,2,1,80,0,1
202355,-83.3333333333333,4,2,2,80,0,1
202538,-83.3333333333333,4,2,1,80,0,1
211501,-83.3333333333333,4,2,2,80,0,1
211684,-83.3333333333333,4,2,1,80,0,1
212050,-83.3333333333333,4,2,2,80,0,1
212233,-83.3333333333333,4,2,1,80,0,1
212599,-83.3333333333333,4,2,2,80,0,1
212782,-83.3333333333333,4,2,1,80,0,1
213147,-83.3333333333333,4,2,2,80,0,1
213330,-83.3333333333333,4,2,1,80,0,1
213696,-83.3333333333333,4,2,2,80,0,1
213879,-83.3333333333333,4,2,1,80,0,1
214062,-83.3333333333333,4,2,2,80,0,1
214245,-83.3333333333333,4,2,1,80,0,1
214428,-111.111111111111,4,2,1,50,0,0
220282,-133.333333333333,4,2,1,40,0,0
226958,-133.333333333333,4,2,1,5,0,0
227050,-105.263157894737,4,2,1,40,0,0
227964,-133.333333333334,4,2,1,40,0,0

[Colours]
Combo1 : 189,189,223
Combo2 : 255,147,147
Combo3 : 255,202,149
Combo4 : 255,255,166
Combo5 : 202,255,149
Combo6 : 172,255,255
Combo7 : 138,197,255

[HitObjects]
47,322,40,6,0,L|54:377,1,42.5,2|0,0:0|0:0,0:0:0:0:
117,297,405,2,0,L|124:352,1,42.5,2|0,0:0|0:0,0:0:0:0:
228,276,771,6,0,L|233:233,1,42.5,2|0,0:0|0:0,0:0:0:0:
295,304,1136,2,0,L|300:261,1,42.5,2|0,0:0|0:0,0:0:0:0:
133,155,1502,6,0,L|84:162,1,42.5,2|0,0:0|0:0,0:0:0:0:
146,81,1868,2,0,L|97:88,1,42.5,2|0,0:0|0:0,0:0:0:0:
265,39,2234,6,0,L|307:45,1,42.5,2|0,0:0|0:0,0:0:0:0:
274,58,2600,2,0,L|316:64,1,42.5,2|0,0:0|0:0,0:0:0:0:
404,220,2965,6,0,L|396:270,1,42.5,2|0,0:0|0:0,0:0:0:0:
478,215,3331,2,0,L|470:265,1,42.5,2|0,0:0|0:0,0:0:0:0:
351,159,3697,6,0,L|344:117,1,42.5,2|0,0:0|0:0,0:0:0:0:
276,154,4063,2,0,L|269:112,1,42.5,2|0,0:0|0:0,0:0:0:0:
190,237,4429,6,0,L|249:232,1,42.5,2|0,0:0|0:0,0:0:0:0:
186,308,4795,2,0,L|245:303,1,42.5,2|0,0:0|0:0,0:0:0:0:
372,310,5160,6,0,L|313:305,1,42.5,2|0,0:0|0:0,0:0:0:0:
383,329,5526,2,0,L|324:324,1,42.5,2|0,0:0|0:0,0:0:0:0:
186,307,5892,5,2,3:2:0:0:
204,384,6075,1,0,0:0:0:0:
186,307,6258,1,2,3:2:0:0:
204,384,6441,1,0,0:0:0:0:
347,229,6624,5,2,3:2:0:0:
329,306,6807,1,0,0:0:0:0:
347,229,6990,1,2,3:2:0:0:
329,306,7173,1,0,0:0:0:0:
179,169,7356,5,2,3:2:0:0:
276,154,7539,1,0,0:0:0:0:
179,169,7721,1,2,3:2:0:0:
276,154,7905,1,0,0:0:0:0:
86,46,8087,5,2,3:2:0:0:
183,61,8270,1,0,0:0:0:0:
101,61,8453,1,2,3:2:0:0:
171,41,8636,1,0,0:0:0:0:
79,239,8819,5,2,3:2:0:0:
61,162,9002,1,0,0:0:0:0:
79,239,9185,1,2,3:2:0:0:
61,162,9368,1,0,0:0:0:0:
186,307,9551,5,2,3:2:0:0:
204,230,9734,1,0,0:0:0:0:
186,307,9917,1,2,3:2:0:0:
204,230,10100,1,0,0:0:0:0:
31,353,10282,5,2,3:2:0:0:
128,368,10465,1,0,0:0:0:0:
31,353,10648,1,2,3:2:0:0:
128,368,10831,1,0,0:0:0:0:
204,230,11014,5,2,3:2:0:0:
301,215,11197,1,0,0:0:0:0:
102,288,11380,6,0,L|84:285,5,14.1666666666667,2|2|2|2|2|2,0:0|0:0|0:0|0:0|0:0|0:0,0:0:0:0:
123,279,11746,5,4,3:1:0:0:
169,66,11929,1,2,0:0:0:0:
204,230,12112,1,2,3:2:0:0:
187,52,12295,2,0,P|235:66|286:71,1,85,2|0,0:0|3:0,0:0:0:0:
497,60,12660,5,2,0:0:0:0:
486,36,12752,1,2,0:0:0:0:
466,20,12843,1,2,3:2:0:0:
441,12,12935,1,2,0:0:0:0:
415,12,13026,1,2,0:0:0:0:
391,22,13118,1,2,0:0:0:0:
375,41,13209,2,0,P|380:104|380:144,1,85,2|2,3:2|0:0,0:0:0:0:
493,193,13575,1,2,3:2:0:0:
478,289,13758,2,0,P|473:226|473:186,1,85,2|0,0:0|3:0,0:0:0:0:
245,163,14124,5,2,0:0:0:0:
223,256,14307,2,0,P|283:250|308:232,1,85,2|2,3:2|0:0,0:0:0:0:
245,163,14673,5,2,3:2:0:0:
191,345,14856,1,2,0:0:0:0:
376,295,15038,1,2,3:2:0:0:
223,256,15221,6,0,P|163:247|119:243,1,85,2|0,0:0|3:0,0:0:0:0:
269,70,15587,2,0,P|329:79|373:83,1,85,2|0,0:0|3:0,0:0:0:0:
212,0,15953,6,0,P|153:34|156:113,1,127.5,2|0,0:0|0:0,0:0:0:0:
156,104,16319,1,2,0:0:0:0:
353,81,16502,1,2,3:2:0:0:
248,247,16685,2,0,P|246:184|244:149,1,85,2|0,0:0|3:0,0:0:0:0:
456,42,17051,6,0,P|447:100|446:116,1,42.5,2|0,0:0|0:0,0:0:0:0:
353,81,17234,2,0,P|357:101|360:122,1,42.5,2|0,0:0|0:0,0:0:0:0:
436,162,17417,2,0,P|426:209|424:226,1,42.5,2|0,0:0|0:0,0:0:0:0:
359,275,17599,5,2,3:0:0:0:
123,209,17782,1,2,0:0:0:0:
359,275,17965,1,2,3:0:0:0:
269,70,18148,2,0,P|243:132|263:171,1,85,2|2,0:0|3:0,0:0:0:0:
311,357,18514,5,2,0:0:0:0:
335,346,18606,1,2,0:0:0:0:
351,326,18697,1,2,3:0:0:0:
359,301,18789,1,2,0:0:0:0:
359,275,18880,1,2,0:0:0:0:
349,251,18972,1,2,0:0:0:0:
330,235,19063,2,0,P|267:240|227:240,1,85,2|2,3:0|0:0,0:0:0:0:
164,88,19429,1,2,3:0:0:0:
70,99,19612,2,0,P|133:104|173:104,1,85,2|2,0:0|3:0,0:0:0:0:
332,12,19978,5,2,0:0:0:0:
322,1,20069,1,2,0:0:0:0:
309,2,20160,2,0,P|279:37|277:97,1,85,2|2,3:0|0:0,0:0:0:0:
437,275,20526,1,2,3:0:0:0:
457,86,20709,1,2,0:0:0:0:
277,160,20892,1,2,3:0:0:0:
389,178,21075,6,0,P|461:171|489:170,1,85,2|2,0:0|3:0,0:0:0:0:
307,289,21441,2,0,P|264:286|222:281,1,85,2|2,0:0|3:0,0:0:0:0:
379,384,21807,6,0,B|411:348|456:352|456:352|486:377|516:378,1,127.5,2|0,0:0|0:0,0:0:0:0:
510,367,22173,1,2,0:0:0:0:
307,289,22356,1,2,3:0:0:0:
389,178,22538,2,0,P|406:227|392:270,1,85,2|2,0:0|3:0,0:0:0:0:
232,361,22904,2,0,P|215:312|229:269,1,85,2|2,0:0|3:0,0:0:0:0:
125,133,23270,5,0,0:0:0:0:
60,169,23453,2,0,B|135:155|112:204|185:194,1,127.500004863739,2|0,3:2|3:2,0:0:0:0:
282,65,24002,2,0,P|264:93|261:123,1,63.7500024318696,2|0,0:0|3:0,0:0:0:0:
345,156,24368,2,0,P|362:127|365:97,1,63.7500024318696,2|0,0:0|3:0,0:0:0:0:
277,33,24734,2,0,P|246:67|251:160,1,127.500004863739,2|0,0:0|0:0,0:0:0:0:
320,109,25282,1,0,3:0:0:0:
467,191,25465,5,2,0:0:0:0:
378,221,25648,1,2,3:2:0:0:
467,191,25831,1,2,0:0:0:0:
375,249,26014,2,0,P|333:241|304:241,1,63.7500024318696,2|2,3:2|3:2,0:0:0:0:
148,265,26288,5,0,3:0:0:0:
148,265,26380,2,0,B|202:254|233:257|233:257|246:293|269:298,1,127.500004863739,2|0,3:2|3:0,0:0:0:0:
411,320,26929,2,0,B|322:342|322:342|336:386,1,127.500004863739,2|0,0:0|0:0,0:0:0:0:
240,353,27478,2,0,L|256:284,1,63.7500024318696,2|0,3:2|3:0,0:0:0:0:
277,275,27752,1,0,3:0:0:0:
276,275,27843,1,2,3:2:0:0:
148,265,28026,2,0,L|132:196,1,63.7500024318696,2|0,0:0|3:0,0:0:0:0:
184,128,28392,5,2,0:0:0:0:
160,44,28575,1,2,3:2:0:0:
73,38,28758,1,2,0:0:0:0:
30,112,28941,2,0,P|80:113|103:115,1,63.7500024318696,2|0,3:2|0:0,0:0:0:0:
320,56,29307,6,0,P|286:13|237:16,1,95.6250036478044,2|0,3:2|0:0,0:0:0:0:
228,4,29673,2,0,P|238:58|238:90,1,63.7500024318696,0|2,3:0|0:0,0:0:0:0:
342,207,30038,1,0,3:0:0:0:
346,128,30221,2,0,P|336:182|336:214,1,63.7500024318696,2|0,0:0|3:0,0:0:0:0:
198,286,30587,2,0,B|128:283|138:329|69:323,1,127.500004863739,2|2,0:0|0:0,0:0:0:0:
26,267,31136,1,0,3:0:0:0:
211,370,31319,5,2,0:0:0:0:
318,350,31502,1,2,3:2:0:0:
193,373,31685,1,2,0:0:0:0:
338,347,31868,2,0,P|387:353|413:362,1,63.7500024318696,2|0,3:2|3:0,0:0:0:0:
511,272,32142,5,0,3:0:0:0:
511,272,32234,2,0,B|487:243|444:241|444:241|426:268|399:278,1,127.500004863739,2|2,3:2|3:2,0:0:0:0:
297,209,32782,2,0,P|339:209|368:208,1,63.7500024318696,2|0,0:0|3:0,0:0:0:0:
506,33,33331,6,0,P|464:33|435:34,1,63.7500024318696,2|8,3:2|0:3,0:0:0:0:
447,47,33606,1,8,0:3:0:0:
450,61,33697,1,2,3:2:0:0:
360,208,33880,2,0,P|369:140|370:123,1,63.7500024318696,2|0,0:1|0:0,0:0:0:0:
368,144,34612,5,8,3:3:0:0:
338,129,34703,1,8,3:3:0:0:
299,130,34795,1,8,3:3:0:0:
267,151,34886,1,8,3:3:0:0:
243,182,34978,1,8,3:3:0:0:
205,186,35069,1,8,3:3:0:0:
169,169,35161,5,4,3:1:0:0:
234,303,35343,1,2,0:0:0:0:
183,153,35526,1,2,3:2:0:0:
133,341,35709,2,0,P|85:328|36:320,1,85,2|0,0:0|3:0,0:0:0:0:
400,357,36075,5,2,0:0:0:0:
421,341,36167,1,2,0:0:0:0:
433,318,36258,1,2,3:2:0:0:
436,292,36350,1,2,0:0:0:0:
431,267,36441,1,2,0:0:0:0:
417,245,36533,1,2,0:0:0:0:
395,233,36624,2,0,P|334:249|294:257,1,85,2|2,3:2|0:0,0:0:0:0:
146,356,36990,1,2,3:2:0:0:
50,321,37173,2,0,P|92:329|133:341,1,85,2|0,0:0|3:0,0:0:0:0:
256,152,37538,5,2,0:0:0:0:
223,293,37721,1,0,3:0:0:0:
121,122,37904,1,2,0:0:0:0:
336,102,38087,1,2,3:2:0:0:
108,140,38270,1,2,0:0:0:0:
395,233,38453,1,2,3:2:0:0:
248,67,38636,6,0,P|254:125|256:166,1,85,2|0,0:0|3:0,0:0:0:0:
402,317,39002,2,0,P|396:259|394:218,1,85,2|0,0:0|3:0,0:0:0:0:
223,293,39368,2,0,B|153:285|166:339|87:328,1,127.5,2|0,0:0|0:0,0:0:0:0:
84,316,39734,1,2,0:0:0:0:
288,359,39917,1,2,3:2:0:0:
255,151,40099,6,0,P|212:170|203:205,1,85,2|0,0:0|3:0,0:0:0:0:
288,359,40465,2,0,P|324:328|328:313,1,42.5,2|0,0:0|0:0,0:0:0:0:
332,255,40648,1,0,3:2:0:0:
223,293,40831,1,0,0:0:0:0:
105,235,41014,6,0,P|97:180|90:150,1,76.4999976654053,2|2,3:2|0:0,0:0:0:0:
286,59,41380,1,2,3:2:0:0:
255,151,41563,2,0,P|263:96|270:66,1,76.4999976654053,2|0,0:0|3:0,0:0:0:0:
166,6,41929,2,0,P|159:50|152:85,1,76.4999976654053,2|0,0:0|3:0,0:0:0:0:
237,227,42295,2,0,P|286:176|365:193,1,152.999995330811,2|2,0:0|0:0,0:0:0:0:
398,258,42843,1,0,3:0:0:0:
505,124,43026,5,2,0:0:0:0:
481,213,43209,1,2,3:2:0:0:
505,124,43392,1,2,0:0:0:0:
495,232,43575,1,2,3:2:0:0:
423,100,43758,1,2,0:0:0:0:
398,258,43941,6,0,P|408:305|412:346,1,76.4999976654053,2|0,3:2|0:0,0:0:0:0:
261,211,44307,1,2,3:2:0:0:
223,302,44490,2,0,P|227:264|236:226,1,76.4999976654053,2|0,0:0|3:0,0:0:0:0:
89,33,45038,6,0,P|40:56|41:129,1,114.749996498108,2|0,3:2|3:0,0:0:0:0:
57,132,45404,1,2,3:2:0:0:
267,75,45587,2,0,P|258:30|254:-7,1,76.4999976654053,2|0,0:0|3:0,0:0:0:0:
170,153,45953,5,2,0:0:0:0:
299,189,46136,1,2,3:2:0:0:
154,177,46319,1,2,0:0:0:0:
340,114,46502,2,0,P|388:110|423:103,1,76.4999976654053,2|0,3:2|0:0,0:0:0:0:
229,290,46868,5,2,3:0:0:0:
299,189,47051,1,2,0:0:0:0:
360,295,47234,1,2,3:2:0:0:
270,194,47417,2,0,P|233:184|182:179,1,76.4999976654053,2|0,0:3|3:0,0:0:0:0:
89,33,47782,2,0,P|126:28|163:18,1,76.4999976654053,2|2,0:0|3:0,0:0:0:0:
128,135,48148,6,0,P|144:197|153:278,1,114.749996498108,2|0,0:0|0:0,0:0:0:0:
142,268,48514,2,0,P|90:289|49:261,1,76.4999976654053,2|0,0:3|3:0,0:0:0:0:
270,194,48880,1,2,0:0:0:0:
244,300,49063,1,2,3:0:0:0:
256,175,49246,1,2,0:0:0:0:
347,330,49429,2,0,P|392:349|423:347,1,76.4999976654053,2|0,3:2|3:0,0:0:0:0:
438,337,49703,1,0,3:0:0:0:
446,322,49795,6,0,B|448:274|448:274|432:251|432:251|433:202,1,114.749996498108,2|0,3:0|0:0,0:0:0:0:
441,196,50160,1,2,3:2:0:0:
337,89,50343,2,0,P|343:133|347:173,1,76.4999976654053,2|0,0:3|3:0,0:0:0:0:
474,120,50709,1,0,0:0:0:0:
475,14,50892,6,0,P|469:58|465:98,1,76.4999976654053,2|0,3:0|3:0,0:0:0:0:
467,106,51167,1,0,3:0:0:0:
474,120,51258,1,2,3:2:0:0:
337,89,51441,2,0,P|272:86|234:82,1,76.4999976654053,2|0,0:3|3:0,0:0:0:0:
129,155,51807,5,2,0:0:0:0:
239,10,51990,1,2,3:0:0:0:
331,177,52173,1,2,0:0:0:0:
204,20,52356,1,10,0:0:0:0:
337,89,52538,1,2,0:0:0:0:
184,231,52721,6,0,B|94:223|123:300|6:277,1,170,4|0,3:1|3:0,0:0:0:0:
227,317,53270,2,0,B|321:309|321:309|358:343|382:345,1,127.5,2|0,0:0|0:0,0:0:0:0:
367,331,53636,5,4,3:0:0:0:
462,265,53819,1,4,3:0:0:0:
363,210,54002,1,4,3:0:0:0:
479,77,54185,6,0,P|460:146|448:259,1,170,2|0,3:2|3:0,0:0:0:0:
216,214,54734,2,0,B|259:169|325:177|325:177|352:213|387:217,1,170,2|0,0:0|0:0,0:0:0:0:
479,77,55282,1,8,0:0:0:0:
470,55,55648,6,0,B|417:36|375:72|375:72|342:105|292:90,1,170,2|0,3:2|3:0,0:0:0:0:
136,46,56197,1,2,0:0:0:0:
129,155,56380,2,0,P|125:99|121:61,1,85,2|0,3:2|0:0,0:0:0:0:
216,214,56746,5,0,3:0:0:0:
73,241,56929,1,2,0:0:0:0:
236,242,57112,2,0,P|286:243|334:251,1,85,2|2,3:2|0:0,0:0:0:0:
434,66,57478,1,0,3:0:0:0:
492,115,57660,2,0,B|425:107|445:159|360:156,1,127.5,2|0,0:0|0:0,0:0:0:0:
347,142,58026,1,2,0:1:0:0:
451,329,58209,2,0,P|459:280|467:229,1,85,10|0,0:0|0:0,0:0:0:0:
291,81,58575,6,0,P|308:164|320:248,1,170,4|0,3:1|3:0,0:0:0:0:
184,308,59124,2,0,B|133:296|97:295|97:295|64:312|34:317,1,127.5,2|0,0:0|0:0,0:0:0:0:
41,307,59490,1,4,3:0:0:0:
136,209,59673,1,4,3:0:0:0:
14,164,59856,1,4,3:0:0:0:
149,21,60038,6,0,P|137:83|119:202,1,170,2|0,3:2|3:0,0:0:0:0:
20,331,60587,2,0,B|9:299|9:299|33:265|108:267|126:316,1,170,2|2,0:0|0:0,0:0:0:0:
18,188,61136,2,0,P|12:140|3:95,1,85,10|0,0:0|0:0,0:0:0:0:
237,0,61502,6,0,P|284:29|272:102,1,127.5,4|2,3:1|0:0,0:0:0:0:
290,120,61868,2,0,P|240:113|192:112,1,85,2|8,3:2|0:0,0:0:0:0:
298,251,62234,1,2,3:2:0:0:
481,197,62417,1,2,3:2:0:0:
311,220,62599,5,8,0:0:0:0:
480,341,62782,1,2,3:2:0:0:
372,102,62965,1,2,3:1:0:0:
198,292,63148,1,8,0:1:0:0:
202,311,63240,1,8,0:1:0:0:
206,329,63331,1,8,0:1:0:0:
311,220,63514,5,2,0:0:0:0:
301,367,63697,1,2,0:0:0:0:
300,202,63880,1,2,0:0:0:0:
206,329,64063,1,2,0:0:0:0:
206,329,64429,6,0,P|140:296|141:221,1,152.999995330811,4|0,3:1|0:0,0:0:0:0:
158,217,64795,1,0,3:2:0:0:
372,102,64978,1,10,0:0:0:0:
237,0,65160,2,0,P|242:62|245:123,1,101.999996887207,2|2,3:2|0:1,0:0:0:0:
377,164,65526,1,8,0:1:0:0:
374,133,65617,1,8,0:1:0:0:
372,102,65709,1,2,0:1:0:0:
151,120,65892,6,0,B|122:84|75:87|75:87|43:129|6:131,1,152.999995330811,2|0,3:2|0:0,0:0:0:0:
7,124,66258,1,0,3:0:0:0:
239,246,66441,1,10,0:0:0:0:
321,40,66624,1,2,3:2:0:0:
211,251,66807,1,2,0:1:0:0:
377,164,66990,1,2,3:2:0:0:
161,116,67173,5,10,0:1:0:0:
133,122,67264,1,8,0:1:0:0:
108,130,67356,2,0,P|39:124|-4:123,1,101.999996887207,2|2,3:2|0:1,0:0:0:0:
166,330,67721,2,0,P|213:272|200:230,1,101.999996887207,0|10,3:0|0:0,0:0:0:0:
152,50,68087,2,0,P|105:108|118:150,1,101.999996887207,2|2,3:2|0:1,0:0:0:0:
328,175,68453,1,8,0:1:0:0:
352,169,68545,1,8,0:1:0:0:
377,164,68636,1,2,0:1:0:0:
210,250,68819,6,0,P|150:242|99:239,1,101.999996887207,2|2,3:2|0:1,0:0:0:0:
256,108,69185,1,0,3:0:0:0:
359,292,69368,1,10,0:0:0:0:
453,81,69551,1,2,3:2:0:0:
283,190,69734,1,2,3:1:0:0:
495,296,69917,1,2,3:2:0:0:
321,40,70099,2,0,L|309:125,1,50.9999984436036,10|0,0:1|0:0,0:0:0:0:
210,250,70282,6,0,P|156:213|170:127,1,152.999995330811,2|0,3:2|0:0,0:0:0:0:
181,127,70648,1,0,3:0:0:0:
495,296,70831,1,10,0:0:0:0:
352,384,71014,2,0,P|357:335|361:275,1,101.999996887207,2|2,3:2|0:1,0:0:0:0:
453,81,71380,1,8,0:1:0:0:
449,117,71471,1,8,0:1:0:0:
446,154,71562,1,2,0:1:0:0:
210,250,71746,6,0,B|150:232|107:282|107:282|71:329|-4:309,1,203.999993774414,2|0,3:2|3:0,0:0:0:0:
38,174,72295,1,10,0:0:0:0:
151,362,72478,1,2,3:2:0:0:
257,151,72660,1,2,0:1:0:0:
138,378,72843,1,2,3:2:0:0:
10,167,73026,5,10,0:1:0:0:
18,142,73118,1,8,0:1:0:0:
24,117,73209,2,0,P|93:129|133:135,1,101.999996887207,2|2,3:2|0:1,0:0:0:0:
357,47,73575,1,2,3:2:0:0:
105,219,73758,1,6,0:0:0:0:
345,29,73941,1,2,3:2:0:0:
344,261,74124,1,2,0:1:0:0:
189,80,74307,1,10,0:0:0:0:
182,55,74398,1,8,0:0:0:0:
183,28,74490,1,2,0:1:0:0:
439,80,74673,6,0,P|354:140|300:115,1,152.999995330811,2|0,3:2|0:0,0:0:0:0:
310,113,75038,1,0,3:0:0:0:
105,219,75221,2,0,P|167:225|212:234,1,101.999996887207,8|2,0:0|3:2,0:0:0:0:
189,80,75587,5,8,0:0:0:0:
163,85,75679,1,8,0:0:0:0:
140,97,75770,1,0,3:2:0:0:
344,261,75953,1,10,0:1:0:0:
376,267,76045,1,8,0:1:0:0:
404,281,76136,1,2,0:0:0:0:
255,297,79063,6,0,P|268:362|271:395,1,85,2|2,3:2|0:1,0:0:0:0:
359,169,79429,1,2,3:2:0:0:
353,188,79612,2,0,P|302:207|254:202,1,85,2|0,0:1|3:0,0:0:0:0:
468,101,79978,2,0,B|489:141|489:141|470:186,1,85,2|0,0:1|3:0,0:0:0:0:
369,83,80343,2,0,P|374:40|383:-1,1,85,2|0,0:1|3:0,0:0:0:0:
273,207,80709,5,2,0:1:0:0:
144,160,80892,1,2,3:2:0:0:
297,303,81075,2,0,P|311:263|294:220,1,85,2|0,0:1|3:0,0:0:0:0:
129,57,81441,2,0,P|115:97|131:139,1,85,2|0,0:1|3:0,0:0:0:0:
278,41,81807,5,2,0:1:0:0:
278,41,81898,1,2,0:0:0:0:
278,41,81990,1,2,3:0:0:0:
180,230,82173,1,2,0:1:0:0:
35,72,82356,1,2,3:0:0:0:
206,244,82538,2,0,P|198:297|193:348,1,85,2|2,0:1|3:0,0:0:0:0:
474,177,82904,5,2,0:1:0:0:
466,147,82996,1,2,0:0:0:0:
446,124,83087,1,2,3:0:0:0:
418,111,83179,1,2,0:0:0:0:
388,110,83270,1,2,0:1:0:0:
360,122,83362,1,2,0:0:0:0:
340,144,83453,2,0,P|349:204|352:240,1,85,2|2,3:0|0:1,0:0:0:0:
178,57,83819,1,2,3:0:0:0:
144,160,84002,2,0,P|148:117|155:75,1,85,2|2,0:1|3:0,0:0:0:0:
247,224,84368,5,2,0:1:0:0:
57,286,84551,1,2,3:0:0:0:
247,224,84734,1,2,0:1:0:0:
192,366,84917,1,2,3:0:0:0:
144,160,85099,1,2,0:1:0:0:
351,228,85282,1,2,3:0:0:0:
159,284,85465,6,0,P|104:275|51:270,1,85,2|2,0:1|3:0,0:0:0:0:
244,127,85831,2,0,P|299:136|352:141,1,85,2|2,0:1|3:0,0:0:0:0:
103,17,86197,2,0,P|113:101|117:176,1,127.5,2|0,0:1|0:0,0:0:0:0:
108,160,86563,1,2,0:1:0:0:
264,38,86746,1,2,3:0:0:0:
351,228,86929,2,0,P|357:170|364:128,1,85,2|2,0:1|3:0,0:0:0:0:
183,270,87295,5,8,3:0:0:0:
184,286,87386,1,8,3:0:0:0:
186,302,87478,1,10,3:0:0:0:
187,318,87569,1,8,3:0:0:0:
188,334,87660,1,8,3:0:0:0:
190,350,87752,1,8,3:0:0:0:
193,366,87843,6,0,P|250:362|307:360,1,85,2|0,3:1|0:0,0:0:0:0:
102,329,88209,1,2,0:0:0:0:
278,192,88392,2,0,P|275:247|274:282,1,85,2|0,3:1|0:0,0:0:0:0:
102,329,88758,1,2,0:0:0:0:
178,108,88941,2,0,P|182:161|182:211,1,85,2|0,3:1|0:0,0:0:0:0:
102,329,89307,1,2,0:0:0:0:
272,102,89490,6,0,P|343:111|377:114,1,85,2|0,3:1|0:0,0:0:0:0:
473,31,89856,1,2,0:0:0:0:
371,101,90038,1,2,0:1:0:0:
503,181,90221,1,2,0:0:0:0:
333,22,90404,1,2,0:1:0:0:
287,249,90587,1,2,0:0:0:0:
503,181,90770,6,0,P|434:188|394:193,1,85,2|0,3:1|0:0,0:0:0:0:
272,102,91136,1,2,0:0:0:0:
460,16,91319,2,0,P|454:69|450:118,1,85,2|0,3:1|0:0,0:0:0:0:
272,102,91685,1,2,0:0:0:0:
384,349,91868,2,0,P|380:306|375:264,1,85,2|0,3:1|0:0,0:0:0:0:
272,102,92234,1,2,0:0:0:0:
113,231,92417,6,0,B|76:256|76:256|17:248,1,85,2|0,3:1|0:0,0:0:0:0:
173,311,92782,1,2,0:0:0:0:
14,242,92965,1,2,0:1:0:0:
197,162,93148,1,2,0:0:0:0:
13,338,93331,1,2,0:1:0:0:
13,338,93514,1,2,0:0:0:0:
81,120,93697,5,10,0:0:0:0:
255,271,93880,1,2,3:2:0:0:
85,100,94063,1,2,3:2:0:0:
173,311,94246,5,10,0:0:0:0:
320,103,94429,1,0,3:0:0:0:
152,312,94612,1,2,3:2:0:0:
190,151,94795,5,10,0:0:0:0:
235,384,94978,1,2,3:2:0:0:
208,133,95160,1,0,3:2:0:0:
389,315,95343,5,10,0:0:0:0:
432,83,95526,1,0,3:0:0:0:
402,331,95709,1,2,3:2:0:0:
208,134,95892,5,8,0:0:0:0:
512,168,96075,1,2,3:2:0:0:
255,271,96258,1,10,0:0:0:0:
488,188,96441,1,2,3:2:0:0:
375,23,96624,5,12,0:0:0:0:
269,273,96807,2,0,P|275:333|277:372,1,85,2|0,3:2|3:2,0:0:0:0:
212,42,97173,1,12,0:0:0:0:
397,230,97356,2,0,P|390:291|387:331,1,85,2|0,3:2|0:0,0:0:0:0:
480,67,97721,5,12,0:0:0:0:
141,192,97904,1,2,3:2:0:0:
141,192,98087,1,2,3:2:0:0:
296,20,98270,6,0,L|279:124,1,85,10|0,0:0|0:0,0:0:0:0:
397,230,98636,1,0,3:0:0:0:
394,208,98728,1,0,3:0:0:0:
391,186,98819,1,2,3:1:0:0:
480,67,99002,1,8,0:0:0:0:
390,252,99185,1,2,3:2:0:0:
289,57,99368,1,8,0:0:0:0:
286,79,99460,1,8,0:0:0:0:
283,104,99551,6,0,B|227:90|192:140|192:140|155:186|104:162,1,170,4|0,3:1|3:0,0:0:0:0:
1,269,100099,2,0,B|64:273|93:282|93:282|121:323|138:322,1,127.5,2|0,0:0|0:0,0:0:0:0:
139,312,100465,1,4,3:0:0:0:
304,271,100648,1,4,3:0:0:0:
223,350,100831,1,4,3:0:0:0:
288,254,101014,6,0,B|316:211|371:223|371:223|400:267|454:264,1,170,2|0,3:2|3:0,0:0:0:0:
475,111,101563,2,0,B|438:138|438:138|446:191,1,85,2|0,0:0|3:0,0:0:0:0:
512,232,101929,1,2,0:0:0:0:
312,374,102112,2,0,P|303:310|294:268,1,85,8|0,0:0|0:0,0:0:0:0:
375,23,102478,6,0,P|420:39|424:118,1,127.5,2|0,3:2|0:0,0:0:0:0:
412,124,102843,1,0,3:0:0:0:
279,214,103026,1,2,0:0:0:0:
279,214,103209,2,0,B|369:197|342:283|459:261,1,170,2|0,3:2|3:0,0:0:0:0:
219,123,103758,5,2,0:0:0:0:
143,199,103941,2,0,P|161:142|187:123,1,85,2|2,3:2|0:0,0:0:0:0:
50,191,104307,1,0,3:0:0:0:
66,297,104490,2,0,P|30:248|30:216,1,85,2|0,0:0|3:0,0:0:0:0:
173,284,104856,1,2,0:1:0:0:
183,294,104947,1,0,0:0:0:0:
186,308,105038,2,0,P|251:309|291:311,1,85,8|0,0:0|0:0,0:0:0:0:
475,111,105404,6,0,P|393:108|296:104,1,170,4|0,3:1|3:0,0:0:0:0:
149,42,105953,2,0,B|184:12|184:12|158:108,1,127.5,2|0,0:0|0:0,0:0:0:0:
156,111,106319,1,4,3:0:0:0:
307,27,106502,1,4,3:0:0:0:
74,92,106685,1,4,3:0:0:0:
279,214,106868,6,0,B|309:172|362:175|362:175|384:215|427:214,1,170,2|0,3:2|3:0,0:0:0:0:
256,316,107417,2,0,P|196:306|145:304,1,85,2|0,0:0|3:0,0:0:0:0:
52,99,107782,1,2,0:0:0:0:
156,111,107965,2,0,P|96:121|45:123,1,85,8|0,0:0|0:0,0:0:0:0:
279,214,108331,6,0,P|326:160|304:102,1,127.5,4|0,3:1|0:0,0:0:0:0:
342,95,108697,2,0,P|308:63|312:19,1,85,2|8,3:2|0:0,0:0:0:0:
461,145,109063,5,2,3:2:0:0:
192,192,109246,1,2,3:2:0:0:
308,27,109429,1,8,0:0:0:0:
279,308,109612,1,2,3:2:0:0:
331,237,109795,6,0,L|322:192,4,29.7499990921021,2|0|0|0|2,0:0|0:0|0:0|0:0|0:0,0:0:0:0:
279,308,110343,5,2,0:0:0:0:
353,118,110526,1,2,0:0:0:0:
425,281,110709,1,2,0:0:0:0:
334,104,110892,1,2,0:0:0:0:
334,104,111258,6,0,P|269:101|219:97,1,101.999996887207,4|2,3:1|0:1,0:0:0:0:
72,22,111624,1,0,3:0:0:0:
185,263,111807,1,10,0:0:0:0:
10,196,111990,2,0,P|88:190|119:187,1,101.999996887207,2|2,3:2|0:1,0:0:0:0:
232,98,112356,5,8,0:1:0:0:
237,74,112447,1,8,0:1:0:0:
241,49,112538,1,2,0:1:0:0:
318,227,112721,1,2,3:2:0:0:
138,103,112904,1,2,0:1:0:0:
424,34,113087,1,0,3:0:0:0:
156,128,113270,5,10,0:0:0:0:
417,253,113453,1,2,3:2:0:0:
331,1,113636,1,2,0:1:0:0:
258,324,113819,1,2,3:2:0:0:
503,129,114002,5,10,0:1:0:0:
479,120,114093,1,8,0:1:0:0:
454,112,114185,2,0,P|389:117|350:118,1,101.999996887207,2|2,3:2|0:1,0:0:0:0:
467,300,114551,2,0,P|495:241|513:206,1,101.999996887207,0|10,3:0|0:0,0:0:0:0:
294,217,114917,2,0,P|330:270|351:304,1,101.999996887207,0|2,3:2|0:1,0:0:0:0:
407,214,115282,1,8,0:1:0:0:
407,214,115374,1,8,0:1:0:0:
407,214,115465,1,2,0:1:0:0:
258,324,115648,6,0,P|182:313|132:307,1,101.999996887207,0|2,3:0|0:1,0:0:0:0:
26,179,116014,1,0,3:0:0:0:
127,322,116197,1,10,0:0:0:0:
232,112,116380,1,2,3:2:0:0:
46,289,116563,1,2,3:1:0:0:
11,53,116746,1,2,3:2:0:0:
176,240,116929,1,10,0:1:0:0:
284,26,117112,6,0,B|196:18|196:18|159:26|151:67,1,152.999995330811,2|0,3:2|0:0,0:0:0:0:
156,79,117478,1,0,3:0:0:0:
326,269,117660,1,10,0:0:0:0:
189,334,117843,2,0,P|166:278|180:233,1,101.999996887207,2|2,3:2|0:1,0:0:0:0:
351,112,118209,1,8,0:1:0:0:
367,144,118300,1,8,0:1:0:0:
360,180,118391,1,2,0:1:0:0:
156,79,118575,6,0,P|94:82|35:87,1,101.999996887207,2|2,3:2|0:1,0:0:0:0:
175,239,118941,1,0,3:0:0:0:
284,26,119124,1,10,0:0:0:0:
189,259,119307,1,2,3:2:0:0:
54,85,119490,1,2,0:1:0:0:
297,199,119673,2,0,P|363:203|410:208,1,101.999996887207,2|10,3:2|0:1,0:0:0:0:
414,220,119947,1,8,0:1:0:0:
426,234,120038,1,2,3:2:0:0:
341,319,120221,5,2,0:1:0:0:
271,3,120404,1,2,3:2:0:0:
189,259,120587,1,6,0:0:0:0:
347,68,120770,1,2,3:2:0:0:
17,165,120953,1,2,0:1:0:0:
299,320,121136,1,10,0:0:0:0:
320,320,121228,1,8,0:0:0:0:
341,319,121319,1,2,0:1:0:0:
154,74,121502,6,0,P|164:143|168:187,1,101.999996887207,0|2,3:2|0:0,0:0:0:0:
365,338,121868,2,0,P|370:287|378:236,1,101.999996887207,0|10,3:0|0:0,0:0:0:0:
172,359,122234,1,2,3:2:0:0:
341,160,122417,1,10,0:1:0:0:
370,154,122508,1,8,0:1:0:0:
400,158,122599,1,2,3:2:0:0:
154,74,122782,5,10,0:1:0:0:
144,44,122874,1,8,0:1:0:0:
136,17,122965,2,0,B|242:-8|202:72|312:39,1,152.999995330811,4|0,3:1|0:0,0:0:0:0:
292,34,123331,1,0,3:0:0:0:
232,266,123514,1,10,0:0:0:0:
469,161,123697,2,0,P|405:158|355:155,1,101.999996887207,2|2,3:2|0:1,0:0:0:0:
214,292,124063,1,8,0:1:0:0:
247,293,124154,1,8,0:1:0:0:
280,295,124245,1,2,0:1:0:0:
73,92,124429,6,0,P|41:144|61:192,1,101.999996887207,2|2,3:2|0:1,0:0:0:0:
192,380,124795,2,0,P|224:328|204:280,1,101.999996887207,0|10,3:0|0:0,0:0:0:0:
56,295,125160,1,2,3:2:0:0:
258,127,125343,1,2,0:1:0:0:
66,264,125526,1,2,3:2:0:0:
378,236,125709,5,10,0:1:0:0:
408,241,125801,1,8,0:1:0:0:
437,246,125892,1,0,3:0:0:0:
258,127,126075,2,0,P|271:201|276:239,1,101.999996887207,2|0,0:1|3:0,0:0:0:0:
435,136,126441,1,10,0:0:0:0:
440,10,126624,2,0,P|427:84|422:122,1,101.999996887207,0|2,3:2|0:1,0:0:0:0:
194,35,126990,1,8,0:1:0:0:
224,30,127082,1,8,0:1:0:0:
253,25,127173,1,2,0:1:0:0:
437,246,127356,6,0,B|401:210|357:214|357:214|322:252|258:245,1,152.999995330811,2|0,3:2|0:0,0:0:0:0:
281,232,127721,1,0,3:0:0:0:
393,362,127904,1,10,0:0:0:0:
435,136,128087,1,2,3:2:0:0:
238,332,128270,1,2,3:1:0:0:
464,217,128453,1,2,3:2:0:0:
151,226,128636,1,10,0:1:0:0:
377,382,128819,6,0,P|383:318|391:262,1,101.999996887207,2|2,3:2|0:1,0:0:0:0:
253,25,129185,2,0,P|248:75|241:126,1,101.999996887207,0|10,3:0|0:0,0:0:0:0:
132,245,129551,1,2,3:2:0:0:
435,136,129734,1,2,0:1:0:0:
165,46,129917,1,8,0:1:0:0:
132,47,130008,1,8,0:1:0:0:
101,51,130099,1,2,0:1:0:0:
409,365,130282,6,0,B|412:289|392:216|392:216|444:218|410:293,1,203.999993774414,2|0,3:2|3:0,0:0:0:0:
242,125,130831,1,10,0:0:0:0:
160,348,131014,1,2,3:2:0:0:
262,146,131197,1,2,0:1:0:0:
409,365,131380,1,2,3:2:0:0:
132,245,131563,1,10,0:1:0:0:
161,238,131654,1,8,0:1:0:0:
191,233,131746,1,2,3:2:0:0:
368,26,131929,5,2,0:1:0:0:
293,354,132112,1,2,3:2:0:0:
100,72,132295,1,6,0:0:0:0:
160,348,132478,1,0,3:2:0:0:
262,146,132660,1,2,0:1:0:0:
4,299,132843,1,10,0:0:0:0:
34,307,132935,1,8,0:0:0:0:
64,312,133026,1,2,0:1:0:0:
283,164,133209,6,0,P|205:174|163:183,1,101.999996887207,0|2,3:0|0:0,0:0:0:0:
56,99,133575,1,0,3:0:0:0:
161,196,133758,1,10,0:0:0:0:
208,22,133941,1,2,3:2:0:0:
78,207,134124,5,10,0:0:0:0:
340,67,134307,1,6,0:0:0:0:
110,0,134490,1,10,0:0:0:0:
263,315,134673,6,0,P|272:245|283:161,1,152.999995330811,2|0,3:1|0:0,0:0:0:0:
492,222,135221,2,0,B|416:209|436:283|316:261,1,152.999995330811,2|0,3:1|0:0,0:0:0:0:
181,233,135770,2,0,B|239:223|239:223|264:319,1,152.999995330811,2|0,3:1|0:0,0:0:0:0:
410,120,136319,2,0,B|410:94|386:80|386:80|366:187,1,152.999995330811,2|0,3:1|0:0,0:0:0:0:
184,106,136868,6,0,P|208:44|306:51,1,152.999995330811,2|0,3:1|0:0,0:0:0:0:
155,209,137417,2,0,B|76:192|92:261|-2:241,1,152.999995330811,2|0,3:1|0:0,0:0:0:0:
268,368,137965,2,0,B|242:269|242:269|316:249,1,152.999995330811,2|0,3:1|3:0,0:0:0:0:
427,225,138514,5,2,3:1:0:0:
406,128,138697,2,0,P|402:186|401:232,1,76.4999976654053,0|0,3:0|0:0,0:0:0:0:
499,354,139063,2,0,P|461:316|362:342,1,152.999995330811,2|0,3:1|3:0,0:0:0:0:
208,206,139612,5,2,3:1:0:0:
229,303,139795,2,0,P|233:245|234:199,1,76.4999976654053,0|0,3:0|0:0,0:0:0:0:
85,340,140160,2,0,B|183:324|144:396|260:383,1,152.999995330811,2|0,3:1|3:0,0:0:0:0:
466,178,140709,5,2,3:1:0:0:
406,128,140892,2,0,P|361:149|343:192,1,76.4999976654053,0|0,3:0|0:0,0:0:0:0:
157,83,141258,2,0,P|249:87|328:89,1,152.999995330811,2|0,3:1|3:0,0:0:0:0:
186,207,141807,5,2,3:1:0:0:
232,302,141990,2,0,P|220:253|211:221,1,76.4999976654053,0|0,3:0|0:0,0:0:0:0:
320,341,142356,2,0,B|376:332|376:332|418:360|418:360|475:351,1,152.999995330811,2|0,3:1|3:0,0:0:0:0:
512,101,142904,5,2,3:1:0:0:
466,178,143087,1,2,3:2:0:0:
444,185,143179,1,2,0:0:0:0:
421,187,143270,1,2,0:0:0:0:
398,180,143362,1,2,0:0:0:0:
378,162,143453,6,0,P|384:114|386:71,1,85,4|0,3:1|0:0,0:0:0:0:
304,233,143819,2,0,P|259:251|221:271,1,85,0|2,3:0|0:1,0:0:0:0:
410,269,144185,2,0,P|448:298|484:321,1,85,0|0,3:0|0:0,0:0:0:0:
378,162,144551,1,2,3:1:0:0:
304,233,144734,1,0,0:0:0:0:
84,35,144917,6,0,P|136:59|179:42,1,85,0|2,3:0|0:1,0:0:0:0:
161,219,145282,2,0,P|155:161|119:133,1,85,2|2,3:2|0:0,0:0:0:0:
285,62,145648,2,0,P|238:95|231:140,1,85,2|0,3:1|0:0,0:0:0:0:
138,143,146014,1,0,3:0:0:0:
165,58,146197,1,8,0:0:0:0:
299,168,146380,6,0,P|290:231|287:282,1,85,0|0,3:0|0:0,0:0:0:0:
156,358,146746,2,0,P|215:334|260:311,1,85,2|0,3:1|0:0,0:0:0:0:
314,341,147112,1,0,3:0:0:0:
397,384,147295,2,0,P|346:344|304:316,1,85,10|0,0:0|3:0,0:0:0:0:
161,219,147660,1,2,0:0:0:0:
60,265,147843,6,0,P|122:250|163:236,1,85,4|0,3:1|0:0,0:0:0:0:
285,62,148209,1,0,3:0:0:0:
148,34,148392,1,2,0:1:0:0:
304,104,148575,2,0,P|312:47|319:8,1,85,0|0,3:0|0:0,0:0:0:0:
148,134,148941,2,0,P|155:175|160:218,1,85,8|0,0:0|0:0,0:0:0:0:
382,253,149307,1,0,3:0:0:0:
304,104,149490,1,10,0:0:0:0:
229,295,149673,1,2,3:2:0:0:
321,141,149856,1,2,0:0:0:0:
492,337,150038,6,0,B|416:343|416:343|395:374|360:385,1,127.5,2|0,3:1|0:0,0:0:0:0:
344,380,150404,1,0,3:0:0:0:
229,295,150587,2,0,P|288:295|342:305,1,85,2|0,3:1|3:0,0:0:0:0:
406,147,150953,1,2,0:0:0:0:
507,175,151136,2,0,P|448:175|394:165,1,85,12|0,0:0|0:0,0:0:0:0:
207,88,151502,5,0,3:0:0:0:
339,4,151685,1,14,0:0:0:0:
326,117,151868,2,0,P|316:59|307:16,1,85,0|0,3:0|0:0,0:0:0:0:
512,0,152234,6,0,P|501:45|488:152,1,127.5,4|0,3:2|0:0,0:0:0:0:
507,175,152599,1,8,0:1:0:0:
458,158,152691,1,8,0:1:0:0:
404,171,152782,1,8,0:1:0:0:
373,217,152874,1,8,0:1:0:0:
374,271,152965,5,4,3:1:0:0:
327,56,153147,1,2,0:1:0:0:
374,271,153330,1,10,0:0:0:0:
225,45,153513,2,0,P|271:23|330:52,1,93.5000028533936,2|0,0:1|3:0,0:0:0:0:
512,344,153879,5,2,0:1:0:0:
481,366,153971,1,2,0:0:0:0:
444,375,154062,1,10,0:0:0:0:
406,368,154154,1,2,0:0:0:0:
377,344,154245,1,2,0:1:0:0:
360,310,154336,1,2,0:0:0:0:
366,272,154428,2,0,P|380:202|383:176,1,93.5000028533936,2|2,3:2|0:1,0:0:0:0:
225,45,154794,1,10,0:0:0:0:
213,173,154977,2,0,P|199:103|196:77,1,93.5000028533936,2|2,0:1|3:2,0:0:0:0:
379,49,155343,5,2,0:1:0:0:
118,153,155525,1,10,0:0:0:0:
369,78,155708,1,2,0:1:0:0:
159,0,155891,1,2,3:2:0:0:
268,260,156074,1,2,0:1:0:0:
379,49,156257,1,10,0:0:0:0:
105,64,156440,6,0,P|87:125|116:175,1,93.5000028533936,2|0,0:1|3:0,0:0:0:0:
258,347,156806,2,0,P|276:286|247:236,1,93.5000028533936,2|8,0:1|0:0,0:0:0:0:
71,323,157172,1,2,0:1:0:0:
211,179,157355,5,2,3:0:0:0:
266,364,157538,1,2,0:1:0:0:
299,129,157721,1,2,3:0:0:0:
458,284,157904,6,0,P|399:275|351:270,1,93.5000028533936,2|2,0:1|3:0,0:0:0:0:
342,280,158178,1,2,0:0:0:0:
342,280,158269,1,2,0:1:0:0:
199,79,158452,1,10,0:0:0:0:
442,46,158635,1,2,0:1:0:0:
244,248,158818,5,4,3:1:0:0:
319,5,159001,1,2,0:1:0:0:
458,284,159184,1,2,3:0:0:0:
442,46,159367,1,2,0:1:0:0:
197,325,159550,1,2,3:0:0:0:
199,79,159733,2,0,P|206:114|210:141,1,46.7500014266968,2|2,0:1|0:0,0:0:0:0:
354,313,159916,5,2,3:0:0:0:
374,323,160007,1,2,0:0:0:0:
397,326,160099,1,2,0:1:0:0:
420,322,160190,1,2,0:0:0:0:
434,307,160282,2,0,B|367:301|384:364|286:351,1,140.25000428009,2|0,3:0|0:0,0:0:0:0:
284,345,160647,1,2,3:0:0:0:
95,151,160830,1,2,0:1:0:0:
111,138,160922,1,2,0:0:0:0:
137,140,161013,2,0,P|131:201|126:247,1,93.5000028533936,2|2,3:0|0:1,0:0:0:0:
284,345,161379,2,0,P|290:284|295:238,1,93.5000028533936,2|2,3:0|0:1,0:0:0:0:
106,336,161745,5,2,3:0:0:0:
274,222,161928,1,2,0:1:0:0:
111,138,162111,1,10,0:0:0:0:
293,251,162294,1,2,0:1:0:0:
436,0,162477,6,0,P|391:46|367:108,1,93.5000028533936,2|2,3:0|0:1,0:0:0:0:
431,248,162843,2,0,P|413:186|371:134,1,93.5000028533936,2|2,3:0|0:1,0:0:0:0:
220,117,163208,2,0,P|282:132|348:122,1,93.5000028533936,2|2,3:0|0:1,0:0:0:0:
436,0,163574,5,2,3:0:0:0:
366,28,163757,2,0,P|351:74|357:95,1,46.7500014266968,8|0,0:0|0:0,0:0:0:0:
431,248,163940,1,2,3:2:0:0:
454,175,164123,2,0,P|421:139|400:133,1,46.7500014266968,8|0,0:0|0:0,0:0:0:0:
220,117,164306,1,2,3:0:0:0:
275,172,164489,2,0,P|322:161|337:146,1,46.7500014266968,8|8,0:1|0:1,0:0:0:0:
436,0,164672,5,2,0:0:0:0:
66,110,166135,5,2,0:0:0:0:
431,248,167599,5,2,0:0:0:0:
132,325,169062,5,2,0:0:0:0:
184,267,169611,1,2,0:0:0:0:
107,252,170160,1,2,0:0:0:0:
275,298,170525,6,0,B|383:323|328:239|427:221|502:259|485:354|398:370|361:311,1,305.999990661621,2|0,0:0|0:0,0:0:0:0:
302,216,171989,6,0,P|277:167|439:145,1,305.999990661621,2|0,0:0|0:0,0:0:0:0:
179,181,173452,6,0,B|123:162|43:162|43:162|53:206|16:233,2,203.999993774414,2|0|0,0:0|0:0|3:0,0:0:0:0:
294,72,175282,6,0,P|290:43|280:21,1,50.9999984436036,2|0,0:0|0:0,0:0:0:0:
195,47,175647,2,0,P|199:76|209:98,1,50.9999984436036,2|0,0:0|0:0,0:0:0:0:
269,148,176013,1,2,0:0:0:0:
269,148,176379,6,0,P|336:140|360:135,1,76.4999976654053,4|0,3:1|0:0,0:0:0:0:
501,198,176745,2,0,P|464:202|425:208,1,76.4999976654053,0|2,3:0|0:0,0:0:0:0:
367,293,177111,1,0,3:0:0:0:
367,293,177294,1,4,3:0:0:0:
344,138,177477,1,4,3:0:0:0:
426,208,177660,1,4,3:0:0:0:
275,321,177843,6,0,P|222:315|183:314,1,76.4999976654053,2|0,3:2|0:0,0:0:0:0:
70,233,178208,2,0,P|108:230|147:226,1,76.4999976654053,0|2,3:0|0:0,0:0:0:0:
225,140,178574,1,0,3:0:0:0:
161,238,178757,1,0,0:0:0:0:
63,79,178940,1,10,0:0:0:0:
63,79,179306,6,0,P|101:34|189:71,1,152.999995330811,2|0,3:2|3:0,0:0:0:0:
212,166,179855,1,2,0:0:0:0:
294,121,180038,2,0,P|255:120|215:152,1,76.4999976654053,2|4,3:2|3:0,0:0:0:0:
256,242,180404,1,4,3:0:0:0:
182,58,180586,1,4,3:0:0:0:
73,205,180769,6,0,P|127:204|151:228,1,76.4999976654053,2|2,3:2|0:0,0:0:0:0:
250,326,181135,2,0,P|199:340|157:353,1,76.4999976654053,0|2,3:0|0:0,0:0:0:0:
256,242,181501,1,0,3:0:0:0:
361,342,181684,1,2,0:1:0:0:
457,267,181867,2,0,P|483:223|476:184,1,76.4999976654053,8|0,0:0|0:0,0:0:0:0:
377,43,182233,6,0,B|341:62|341:62|315:101|331:154|364:169,1,152.999995330811,4|0,3:1|3:0,0:0:0:0:
481,199,182782,1,2,0:0:0:0:
354,189,182964,1,0,3:0:0:0:
496,114,183147,1,4,3:0:0:0:
363,272,183330,1,4,3:0:0:0:
213,79,183513,1,4,3:0:0:0:
219,164,183696,6,0,P|226:125|234:76,1,76.4999976654053,2|0,3:2|0:0,0:0:0:0:
370,366,184062,1,0,3:0:0:0:
363,272,184245,2,0,P|356:311|348:360,1,76.4999976654053,2|0,0:0|3:0,0:0:0:0:
171,223,184611,5,8,0:0:0:0:
496,114,184794,1,10,0:0:0:0:
154,230,184977,1,8,0:0:0:0:
506,110,185160,6,0,P|515:57|522:17,1,85,4|2,3:1|0:0,0:0:0:0:
363,272,185525,1,8,0:0:0:0:
232,88,185708,1,2,3:2:0:0:
512,188,185891,2,0,P|452:207|403:180,1,85,2|0,0:0|0:0,0:0:0:0:
181,27,186257,5,8,0:0:0:0:
211,11,186349,1,8,0:0:0:0:
244,10,186440,1,8,0:0:0:0:
276,22,186532,1,8,0:0:0:0:
296,48,186623,1,2,3:2:0:0:
234,268,186806,1,0,0:0:0:0:
312,35,186989,1,8,0:0:0:0:
197,163,187172,6,0,P|207:212|210:251,1,85,0|2,3:0|0:0,0:0:0:0:
365,358,187538,2,0,P|375:312|381:296,1,42.5,8|0,0:0|0:0,0:0:0:0:
432,201,187721,1,2,0:0:0:0:
197,163,187904,5,8,0:0:0:0:
218,176,187995,1,8,0:0:0:0:
243,178,188086,2,0,P|290:152|274:69,1,127.5,2|0,3:2|0:0,0:0:0:0:
310,66,188452,2,0,P|254:65|203:61,1,85,10|2,0:0|3:2,0:0:0:0:
397,229,188818,2,0,P|453:230|504:234,1,85,2|0,0:0|0:0,0:0:0:0:
208,247,189184,5,8,0:1:0:0:
192,274,189275,1,8,0:1:0:0:
190,305,189367,1,8,0:1:0:0:
202,332,189458,1,8,0:1:0:0:
225,352,189550,2,0,L|308:342,1,42.5,2|0,3:1|0:0,0:0:0:0:
352,61,189733,6,8,L|304:66,1,42.5,8|8,0:1|0:1,0:1:0:0:
259,10,189916,1,8,0:1:0:0:
489,184,191013,5,2,0:0:0:0:
447,339,191196,1,0,0:0:0:0:
489,184,191379,1,2,0:0:0:0:
447,339,191562,1,0,0:0:0:0:
333,178,191745,5,2,0:0:0:0:
349,296,191928,1,2,0:0:0:0:
346,168,192111,1,2,0:0:0:0:
314,139,192202,1,2,0:0:0:0:
271,134,192294,1,2,0:0:0:0:
230,146,192385,1,2,0:0:0:0:
203,179,192477,6,0,P|213:237|217:285,1,101.999996887207,4|2,3:1|0:1,0:0:0:0:
428,47,192843,1,0,3:0:0:0:
349,296,193025,1,8,0:0:0:0:
232,61,193208,1,2,3:2:0:0:
489,184,193391,1,2,0:1:0:0:
232,38,193574,1,2,3:2:0:0:
126,264,193757,5,10,0:1:0:0:
149,275,193849,1,8,0:1:0:0:
181,269,193940,2,0,P|210:227|196:169,1,101.999996887207,2|2,3:2|0:1,0:0:0:0:
434,174,194306,2,0,P|383:169|339:211,1,101.999996887207,0|10,3:0|0:0,0:0:0:0:
215,0,194672,2,0,P|236:46|294:62,1,101.999996887207,0|2,3:2|0:1,0:0:0:0:
280,148,195038,1,8,0:1:0:0:
280,148,195129,1,8,0:1:0:0:
280,148,195221,1,2,0:1:0:0:
116,187,195404,6,0,P|67:177|11:171,1,101.999996887207,0|2,3:0|0:1,0:0:0:0:
181,350,195769,1,0,3:0:0:0:
280,148,195952,1,8,0:0:0:0:
171,323,196135,1,2,3:2:0:0:
15,171,196318,1,2,3:1:0:0:
305,269,196501,1,2,3:2:0:0:
0,353,196684,1,10,0:1:0:0:
321,292,196867,6,0,B|416:289|371:343|487:338,1,152.999995330811,2|0,3:2|0:0,0:0:0:0:
485,322,197233,1,0,3:0:0:0:
280,148,197416,1,10,0:0:0:0:
371,58,197599,2,0,P|383:125|390:175,1,101.999996887207,2|2,3:2|0:1,0:0:0:0:
210,283,197964,1,8,0:1:0:0:
204,255,198055,1,8,0:1:0:0:
200,228,198146,1,2,0:1:0:0:
483,190,198330,6,0,P|416:203|380:168,1,101.999996887207,2|2,3:2|0:1,0:0:0:0:
278,35,198696,2,0,P|344:21|380:56,1,101.999996887207,0|10,3:0|0:0,0:0:0:0:
200,228,199062,1,2,3:2:0:0:
440,118,199245,1,2,0:1:0:0:
212,197,199428,1,2,3:2:0:0:
426,335,199611,1,8,0:1:0:0:
455,328,199702,1,8,0:1:0:0:
485,322,199794,1,2,3:2:0:0:
368,38,199977,5,2,0:1:0:0:
321,321,200160,1,2,3:2:0:0:
350,20,200343,2,0,P|290:31|234:37,1,101.999996887207,6|0,0:0|3:0,0:0:0:0:
433,196,200708,1,2,0:1:0:0:
95,160,200891,1,10,0:0:0:0:
100,187,200983,1,8,0:0:0:0:
104,213,201074,1,2,0:1:0:0:
321,321,201257,6,0,P|326:267|333:211,1,101.999996887207,0|2,3:0|0:0,0:0:0:0:
237,21,201623,1,0,3:0:0:0:
433,196,201806,2,0,L|492:185,1,50.9999984436036,8|0,0:0|0:0,0:0:0:0:
175,294,201989,1,2,3:2:0:0:
420,42,202172,2,0,L|406:116,1,50.9999984436036,8|8,0:1|0:1,0:0:0:0:
359,364,202355,1,2,3:2:0:0:
101,249,202538,5,8,0:1:0:0:
104,213,202630,1,8,0:1:0:0:
124,205,202721,2,0,B|204:212|204:212|234:249|234:249|320:258,1,203.999993774414,4|0,3:1|3:0,0:0:0:0:
467,74,203269,1,10,0:0:0:0:
234,122,203452,1,2,3:2:0:0:
488,107,203635,1,2,0:1:0:0:
330,0,203818,1,8,0:1:0:0:
326,30,203910,1,8,0:1:0:0:
321,60,204001,1,2,0:1:0:0:
439,290,204184,6,0,P|454:222|465:178,1,101.999996887207,2|2,3:2|0:1,0:0:0:0:
297,338,204550,1,0,3:0:0:0:
234,122,204733,1,10,0:0:0:0:
416,304,204916,1,2,3:2:0:0:
169,223,205099,1,2,0:1:0:0:
451,157,205282,1,2,3:2:0:0:
143,23,205464,5,10,0:1:0:0:
112,26,205556,1,8,0:1:0:0:
87,48,205647,2,0,P|100:119|106:167,1,101.999996887207,2|2,3:2|0:1,0:0:0:0:
0,326,206013,2,0,P|54:279|93:250,1,101.999996887207,2|10,3:2|0:0,0:0:0:0:
288,257,206379,2,0,P|220:232|175:213,1,101.999996887207,0|2,3:2|0:1,0:0:0:0:
301,349,206745,1,8,0:1:0:0:
301,349,206836,1,8,0:1:0:0:
301,349,206928,1,2,0:1:0:0:
451,157,207111,6,0,B|423:193|423:193|446:276,1,101.999996887207,0|2,3:2|0:1,0:0:0:0:
310,109,207477,1,0,3:0:0:0:
219,313,207660,1,10,0:0:0:0:
294,74,207843,1,2,3:2:0:0:
410,341,208025,1,2,3:1:0:0:
398,34,208208,1,2,3:2:0:0:
288,257,208391,1,10,0:1:0:0:
41,76,208574,6,0,B|66:35|119:41|119:41|150:83|187:79,1,152.999995330811,2|0,3:2|0:0,0:0:0:0:
190,73,208940,1,0,3:0:0:0:
425,146,209123,1,10,0:0:0:0:
213,308,209306,2,0,P|142:301|95:298,1,101.999996887207,2|2,3:2|0:1,0:0:0:0:
338,131,209672,1,8,0:1:0:0:
344,166,209763,1,8,0:1:0:0:
347,201,209855,1,2,0:1:0:0:
167,79,210038,6,0,P|217:75|268:69,1,101.999996887207,2|2,3:2|0:1,0:0:0:0:
361,301,210404,1,0,3:0:0:0:
57,168,210586,1,10,0:0:0:0:
277,49,210769,1,2,3:2:0:0:
111,298,210952,1,2,0:1:0:0:
43,29,211135,1,2,3:2:0:0:
261,221,211318,1,10,0:1:0:0:
226,227,211409,1,8,0:1:0:0:
191,232,211501,1,2,3:2:0:0:
376,41,211684,5,2,0:1:0:0:
310,372,211867,1,2,3:2:0:0:
138,79,212050,1,6,0:0:0:0:
181,334,212233,1,0,3:2:0:0:
418,174,212416,1,2,0:1:0:0:
162,321,212599,6,0,L|191:244,1,50.9999984436036,10|8,0:0|0:0,0:0:0:0:
277,49,212782,1,2,0:1:0:0:
402,381,212964,5,2,3:2:0:0:
138,79,213147,1,2,0:0:0:0:
413,356,213330,1,2,3:2:0:0:
28,313,213513,5,10,0:0:0:0:
418,174,213696,1,2,3:2:0:0:
112,10,213879,1,10,0:1:0:0:
105,45,213971,1,8,0:1:0:0:
102,80,214062,1,2,3:2:0:0:
210,334,214245,2,8,P|200:281|193:256,1,50.9999984436036,10|8,0:1|0:1,0:1:0:0:
102,80,214428,6,0,P|26:98|4:97,1,76.4999976654053,2|0,3:2|0:0,0:0:0:0:
145,215,214794,2,0,P|167:140|179:121,1,76.4999976654053,2|0,3:2|0:0,0:0:0:0:
274,301,215160,6,0,P|198:283|176:284,1,76.4999976654053,2|0,3:2|0:0,0:0:0:0:
317,166,215525,2,0,P|339:240|351:259,1,76.4999976654053,2|0,3:2|0:0,0:0:0:0:
445,71,215891,6,0,P|369:89|347:88,1,76.4999976654053,2|0,3:2|0:0,0:0:0:0:
488,206,216257,2,0,P|510:131|522:112,1,76.4999976654053,2|0,3:2|0:0,0:0:0:0:
420,274,216623,5,2,3:2:0:0:
317,166,216806,1,0,0:0:0:0:
494,217,216989,1,2,3:2:0:0:
338,238,217172,1,0,0:0:0:0:
445,71,217355,6,0,P|470:109|461:160,1,76.4999976654053,2|0,3:2|0:0,0:0:0:0:
338,238,217721,2,0,P|313:200|322:149,1,76.4999976654053,2|0,3:2|0:0,0:0:0:0:
509,301,218086,6,0,P|460:300|415:302,1,76.4999976654053,2|0,3:2|0:0,0:0:0:0:
393,138,218452,2,0,P|431:138|469:137,1,76.4999976654053,2|0,3:2|0:0,0:0:0:0:
197,333,218818,6,0,P|246:332|291:334,1,76.4999976654053,2|0,3:2|0:0,0:0:0:0:
313,170,219184,2,0,P|274:170|236:169,1,76.4999976654053,2|0,3:2|0:0,0:0:0:0:
113,238,219550,1,2,3:2:0:0:
218,186,219733,1,0,0:0:0:0:
76,160,219916,1,2,3:2:0:0:
246,259,220099,1,0,0:0:0:0:
161,0,220282,6,0,P|154:42|146:70,1,63.7500024318696,2|2,0:0|0:0,0:0:0:0:
76,160,220647,1,2,0:0:0:0:
36,94,220830,2,0,B|114:86|83:140|172:131,1,127.500004863739,2|2,0:0|0:0,0:0:0:0:
284,71,221379,1,2,0:0:0:0:
367,99,221562,2,0,P|310:92|286:90,1,63.7500024318696,2|0,0:0|0:0,0:0:0:0:
220,201,221928,2,0,P|277:194|301:192,1,63.7500024318696,2|0,0:0|0:0,0:0:0:0:
432,271,222294,5,2,0:0:0:0:
409,373,222477,1,2,0:0:0:0:
453,257,222660,1,2,0:0:0:0:
385,381,222843,2,0,P|359:337|361:300,1,63.7500024318696,2|2,0:0|0:0,0:0:0:0:
445,148,223208,6,0,B|473:173|473:173|486:226|443:267,1,127.500004863739,2|2,0:0|0:0,0:0:0:0:
357,325,223757,2,0,P|301:320|272:318,1,63.7500024318696,2|0,0:0|0:0,0:0:0:0:
308,176,224123,1,0,0:0:0:0:
220,201,224306,2,0,P|251:198|283:195,1,63.7500024318696,2|0,0:0|0:0,0:0:0:0:
163,280,224672,5,2,0:0:0:0:
118,197,224855,2,0,P|125:163|152:132,1,63.7500024318696,2|0,0:0|0:0,0:0:0:0:
37,266,225221,1,2,0:0:0:0:
112,212,225404,1,2,0:0:0:0:
9,181,225586,1,2,0:0:0:0:
163,280,225769,2,0,P|198:281|236:285,1,63.7500024318696,2|0,0:0|0:0,0:0:0:0:
467,88,226135,5,2,0:0:0:0:
403,203,226318,1,2,0:0:0:0:
344,98,226501,1,2,0:0:0:0:
420,232,226684,2,0,B|370:226|383:266|316:253,1,95.6250036478044,2|0,0:0|0:0,0:0:0:0:
299,232,227050,2,0,B|313:220|326:195|326:195|378:220|381:291|341:321,2,161.499995687485,2|2|2,0:0|0:0|0:0,0:0:0:0:
141,140,227964,5,0,0:0:0:0:
241,162,228147,1,2,0:0:0:0:
120,165,228330,1,2,0:0:0:0:
229,76,228513,1,2,0:0:0:0:
185,0,228696,2,0,P|194:39|196:71,1,63.7500024318696,2|2,0:0|0:0,0:0:0:0:
326,194,229062,6,0,P|333:137|352:64,1,127.500004863739,2|2,0:0|0:0,0:0:0:0:
480,264,229611,2,0,B|449:234|399:235|399:235|374:267|353:274,1,127.500004863739,2|0,0:0|0:0,0:0:0:0:
236,315,230160,2,0,P|272:322|309:337,1,63.7500024318696,2|0,0:0|0:0,0:0:0:0:
223,159,230525,1,2,0:0:0:0:
120,165,230708,2,0,P|161:146|190:144,1,63.7500024318696,2|0,0:0|0:0,0:0:0:0:
60,348,231074,5,2,0:0:0:0:
11,221,231257,1,2,0:0:0:0:
65,327,231440,1,2,0:0:0:0:
26,236,231623,1,2,0:0:0:0:
39,138,231806,5,2,0:0:0:0:
