osu file format v14

[General]
AudioFilename: audio.mp3
AudioLeadIn: 0
PreviewTime: 190099
Countdown: 0
SampleSet: Soft
StackLeniency: 0.4
Mode: 0
LetterboxInBreaks: 0
WidescreenStoryboard: 1

[Editor]
Bookmarks: 160099
DistanceSpacing: 0.6
BeatDivisor: 4
GridSize: 16
TimelineZoom: 2.3

[Metadata]
Title:Kuchizuke Diamond
TitleUnicode:くちづけDiamond
Artist:WEAVER
ArtistUnicode:WEAVER
Creator:-Mikan
Version:AF's Extra
Source:山田くんと7人の魔女
Tags:Dailycare Morinaga Affirmation Neoskylove Kowari Xen Xehn Xenon- Shizuku- Kazato Asa _kotachi_ -Brethia Blitzifyyy japanese anime opening op yamada kun to nana nin no majo yamada-kun 7-nin and the seven witches j-pop j-rock pop rock jpop jrock
BeatmapID:2252634
BeatmapSetID:1051509

[Difficulty]
HPDrainRate:5.5
CircleSize:4
OverallDifficulty:9
ApproachRate:9.2
SliderMultiplier:0.999999999999999
SliderTickRate:1

[Events]
//Background and Video events
0,0,"thumb-1920-809429.jpg",0,0
Video,0,"vid.avi"
//Break Periods
2,76336,78493
2,164872,175809
//Storyboard Layer 0 (Background)
//Storyboard Layer 1 (Fail)
//Storyboard Layer 2 (Pass)
//Storyboard Layer 3 (Foreground)
//Storyboard Layer 4 (Overlay)
//Storyboard Sound Samples

[TimingPoints]
39,365.853658536585,4,2,1,40,1,0
5892,-83.3333333333333,4,2,1,50,0,0
11746,-58.8235294117647,4,2,1,70,0,0
23453,-71.4285714285714,4,2,1,60,0,0
34063,-71.4285714285714,4,2,1,5,0,0
34246,-71.4285714285714,4,2,1,60,0,0
34612,-71.4285714285714,4,2,1,60,0,0
35160,-62.5,4,2,1,70,0,0
41014,-71.4285714285714,4,2,1,60,0,0
52721,-66.6666666666667,4,2,1,60,0,0
63514,-66.6666666666667,4,2,1,40,0,0
64426,-66.6666666666667,4,2,1,80,0,0
64429,-55.5555555555556,4,2,1,80,0,1
73209,-55.5555555555556,4,2,2,80,0,1
73392,-55.5555555555556,4,2,1,80,0,1
73758,-55.5555555555556,4,2,2,80,0,1
73941,-55.5555555555556,4,2,1,80,0,1
74307,-55.5555555555556,4,2,2,80,0,1
74490,-55.5555555555556,4,2,1,80,0,1
74673,-55.5555555555556,4,2,2,80,0,1
74856,-55.5555555555556,4,2,1,80,0,1
75404,-55.5555555555556,4,2,1,80,0,1
75770,-55.5555555555556,4,2,2,80,0,1
75953,-55.5555555555556,4,2,1,80,0,1
76136,-55.5555555555556,4,2,1,80,0,0
79063,-83.3333333333333,4,2,1,70,0,0
81990,-62.5,4,2,1,70,0,0
87843,-111.111111111111,4,2,1,60,0,0
93697,-83.3333333333333,4,2,1,60,0,0
99551,-66.6666666666667,4,2,1,60,0,0
109795,-66.6666666666667,4,2,2,40,0,0
110160,-66.6666666666667,4,2,1,40,0,0
111258,-55.5555555555556,4,2,1,80,0,1
120038,-55.5555555555556,4,2,2,80,0,1
120221,-55.5555555555556,4,2,1,80,0,1
120587,-55.5555555555556,4,2,2,80,0,1
120770,-55.5555555555556,4,2,1,80,0,1
121136,-55.5555555555556,4,2,2,80,0,1
121319,-55.5555555555556,4,2,1,80,0,1
121685,-55.5555555555556,4,2,2,80,0,1
121868,-55.5555555555556,4,2,1,80,0,1
122234,-55.5555555555556,4,2,2,80,0,1
122417,-55.5555555555556,4,2,1,80,0,1
122599,-55.5555555555556,4,2,2,80,0,1
122782,-55.5555555555556,4,2,1,80,0,1
131746,-55.5555555555556,4,2,2,80,0,1
131929,-55.5555555555556,4,2,1,80,0,1
132295,-55.5555555555556,4,2,2,80,0,1
132478,-55.5555555555556,4,2,1,80,0,1
132843,-55.5555555555556,4,2,2,80,0,1
133026,-55.5555555555556,4,2,1,80,0,1
133392,-55.5555555555556,4,2,2,80,0,1
133575,-55.5555555555556,4,2,1,80,0,1
133941,-55.5555555555556,4,2,2,80,0,1
134124,-55.5555555555556,4,2,1,80,0,1
134307,-55.5555555555556,4,2,2,80,0,1
134490,-55.5555555555556,4,2,1,80,0,1
134673,365.853658536585,3,2,1,50,1,0
134673,-111.111111111111,3,2,1,50,0,0
139063,-83.3333333333333,3,2,1,50,0,0
143453,-71.4285714285714,3,2,1,60,0,0
147843,-66.6666666666667,3,2,1,60,0,0
150038,-66.6666666666667,3,2,1,65,0,0
151136,-66.6666666666667,3,2,1,70,0,0
152234,-66.6666666666667,3,2,1,75,0,0
152965,365.853658536585,4,2,1,80,1,0
152965,-62.5,4,2,1,80,0,0
164672,-62.5,4,2,1,40,0,0
176379,-83.3333333333333,4,2,1,50,0,0
184611,-83.3333333333333,4,2,1,70,0,0
185160,-66.6666666666667,4,2,1,60,0,0
191013,-90.9090909090909,4,2,1,50,0,0
192477,-55.5555555555556,4,2,1,80,0,1
199794,-55.5555555555556,4,2,2,80,0,1
199977,-55.5555555555556,4,2,1,80,0,1
200343,-55.5555555555556,4,2,2,80,0,1
200525,-55.5555555555556,4,2,1,80,0,1
200891,-55.5555555555556,4,2,2,80,0,1
201074,-55.5555555555556,4,2,1,80,0,1
201440,-55.5555555555556,4,2,2,80,0,1
201623,-55.5555555555556,4,2,1,80,0,1
201989,-55.5555555555556,4,2,2,80,0,1
202172,-55.5555555555556,4,2,1,80,0,1
202355,-55.5555555555556,4,2,2,80,0,1
202538,-55.5555555555556,4,2,1,80,0,1
211501,-55.5555555555556,4,2,2,80,0,1
211684,-55.5555555555556,4,2,1,80,0,1
212050,-55.5555555555556,4,2,2,80,0,1
212233,-55.5555555555556,4,2,1,80,0,1
212599,-55.5555555555556,4,2,2,80,0,1
212782,-55.5555555555556,4,2,1,80,0,1
213147,-55.5555555555556,4,2,2,80,0,1
213330,-55.5555555555556,4,2,1,80,0,1
213696,-55.5555555555556,4,2,2,80,0,1
213879,-55.5555555555556,4,2,1,80,0,1
214062,-55.5555555555556,4,2,2,80,0,1
214245,-55.5555555555556,4,2,1,80,0,1
214428,-100,4,2,1,50,0,0
220282,-100,4,2,1,40,0,0
226958,-100,4,2,1,5,0,0
227050,-100,4,2,1,40,0,0

[Colours]
Combo1 : 189,189,223
Combo2 : 255,147,147
Combo3 : 255,202,149
Combo4 : 255,255,166
Combo5 : 202,255,149
Combo6 : 172,255,255
Combo7 : 138,197,255

[HitObjects]
125,161,39,6,0,L|123:111,3,50,2|0|2|0,0:0|0:0|0:0|0:0,0:0:0:0:
199,201,770,2,0,L|241:174,3,50,2|0|2|0,0:0|0:0|0:0|0:0,0:0:0:0:
129,329,1502,2,0,L|131:378,3,50,2|0|2|0,0:0|0:0|0:0|0:0,0:0:0:0:
201,285,2234,2,0,L|245:308,3,50,2|0|2|0,0:0|0:0|0:0|0:0,0:0:0:0:
55,288,2965,6,0,L|12:314,3,50,2|0|2|0,0:0|0:0|0:0|0:0,0:0:0:0:
53,204,3697,2,0,L|8:180,3,50,2|0|2|0,0:0|0:0|0:0|0:0,0:0:0:0:
199,201,4429,2,0,L|241:174,3,50,2|0|2|0,0:0|0:0|0:0|0:0,0:0:0:0:
201,285,5160,2,0,L|245:308,1,50,2|0,0:0|0:0,0:0:0:0:
125,161,5526,2,0,L|123:111,1,50,2|0,0:0|0:0,0:0:0:0:
333,263,5892,6,0,P|340:292|342:322,1,59.9999981689453,2|0,3:2|0:0,0:0:0:0:
387,198,6258,2,0,P|415:206|442:219,1,59.9999981689453,2|0,3:2|0:0,0:0:0:0:
273,103,6624,2,0,P|265:73|263:43,1,59.9999981689453,2|0,3:2|0:0,0:0:0:0:
357,118,6990,2,0,P|378:97|403:80,1,59.9999981689453,2|0,3:2|0:0,0:0:0:0:
219,169,7356,6,0,P|190:160|163:147,1,59.9999981689453,2|0,3:2|0:0,0:0:0:0:
201,285,7721,2,0,P|225:268|247:247,1,59.9999981689453,2|0,3:2|0:0,0:0:0:0:
442,219,8087,2,0,P|415:206|387:198,1,59.9999981689453,2|0,3:2|0:0,0:0:0:0:
263,43,8453,2,0,P|265:73|273:103,1,59.9999981689453,2|0,3:2|0:0,0:0:0:0:
342,322,8819,6,0,P|340:292|333:263,1,59.9999981689453,2|0,3:2|0:0,0:0:0:0:
357,118,9185,2,0,P|378:97|403:80,1,59.9999981689453,2|0,3:2|0:0,0:0:0:0:
247,247,9551,2,0,P|225:268|201:285,1,59.9999981689453,2|0,3:2|0:0,0:0:0:0:
387,198,9917,2,0,P|415:206|442:219,1,59.9999981689453,2|0,3:2|0:0,0:0:0:0:
219,169,10282,6,0,P|190:160|163:147,1,59.9999981689453,2|0,3:2|0:0,0:0:0:0:
263,43,10648,2,0,P|265:72|272:102,1,59.9999981689453,2|0,3:2|0:0,0:0:0:0:
442,219,11014,2,0,P|415:206|387:198,1,59.9999981689453,2|0,3:2|0:0,0:0:0:0:
200,285,11380,2,0,L|174:281,5,19.9999993896484,2|2|2|2|2|2,0:0|0:0|0:0|0:0|0:0|0:0,0:0:0:0:
151,291,11746,6,0,P|144:248|137:207,1,85.0000016212463,4|2,3:1|0:0,0:0:0:0:
263,43,12112,1,2,3:2:0:0:
467,117,12295,2,0,P|428:189|347:198,1,170.000003242493,2|2,0:0|0:0,0:0:0:0:
276,159,12752,1,2,0:0:0:0:
276,159,12843,2,0,L|279:116,1,42.5000008106231,2|2,3:2|0:0,0:0:0:0:
177,65,13026,2,0,L|180:108,1,42.5000008106231,2|2,0:0|0:0,0:0:0:0:
200,243,13209,6,0,P|242:249|283:256,1,85.0000016212463,2|2,3:2|0:0,0:0:0:0:
361,79,13575,1,2,3:2:0:0:
168,35,13758,2,0,P|86:43|48:116,1,170.000003242493,2|2,0:0|0:0,0:0:0:0:
200,243,14307,2,0,P|206:200|213:159,1,85.0000016212463,2|2,3:2|0:0,0:0:0:0:
31,253,14673,6,0,P|38:294|45:337,1,85.0000016212463,2|2,3:2|0:0,0:0:0:0:
114,182,15038,1,2,3:2:0:0:
230,351,15221,2,0,P|293:296|376:294,1,170.000003242493,2|2,0:0|0:0,0:0:0:0:
458,356,15770,1,0,3:0:0:0:
336,123,15953,6,0,P|329:165|322:206,1,85.0000016212463,2|0,0:0|0:0,0:0:0:0:
231,68,16319,1,2,0:0:0:0:
420,177,16502,1,2,3:2:0:0:
197,195,16685,2,0,P|155:187|113:181,1,85.0000016212463,2|0,0:0|3:0,0:0:0:0:
338,99,17051,5,2,0:0:0:0:
302,312,17234,1,2,0:0:0:0:
338,99,17417,1,2,0:0:0:0:
188,298,17599,6,0,P|194:340|201:381,1,85.0000016212463,2|2,3:0|0:0,0:0:0:0:
377,256,17965,1,2,3:0:0:0:
235,179,18148,2,0,B|150:175|166:234|76:226,1,170.000003242493,2|2,0:0|0:0,0:0:0:0:
25,156,18606,1,2,0:0:0:0:
25,156,18697,2,0,L|28:113,1,42.5000008106231,2|2,3:0|0:0,0:0:0:0:
76,25,18880,2,0,L|33:28,1,42.5000008106231,2|2,0:0|0:0,0:0:0:0:
153,82,19063,6,0,L|146:166,1,85.0000016212463,2|2,3:0|0:0,0:0:0:0:
51,315,19429,1,2,3:0:0:0:
235,179,19612,2,0,P|315:186|346:261,1,170.000003242493,2|2,0:0|0:0,0:0:0:0:
180,382,20160,2,0,L|187:297,1,85.0000016212463,2|2,3:0|0:0,0:0:0:0:
394,341,20526,6,0,P|351:347|310:354,1,85.0000016212463,2|2,3:0|0:0,0:0:0:0:
482,252,20892,1,2,3:0:0:0:
235,179,21075,2,0,P|318:192|402:205,1,170.000003242493,2|2,0:0|0:0,0:0:0:0:
483,142,21624,1,2,3:0:0:0:
312,65,21807,6,0,P|318:107|325:148,1,85.0000016212463,2|2,0:0|3:0,0:0:0:0:
215,17,22173,1,2,0:0:0:0:
442,48,22356,1,2,3:0:0:0:
174,118,22538,2,0,P|132:121|96:100,1,85.0000016212463,2|2,0:0|3:0,0:0:0:0:
247,241,22904,6,0,P|319:198|402:205,1,170.000003242493,2|0,0:0|0:0,0:0:0:0:
172,324,23453,6,0,P|167:289|162:254,1,69.9999978637695,2|2,3:2|0:0,0:0:0:0:
256,171,23819,1,0,3:2:0:0:
256,171,24002,2,0,P|251:205|246:240,1,69.9999978637695,2|0,0:0|3:0,0:0:0:0:
298,337,24368,2,0,P|332:332|367:327,1,69.9999978637695,2|0,0:0|3:0,0:0:0:0:
504,263,24734,6,0,P|468:206|401:204,1,139.999995727539,2|0,0:0|0:0,0:0:0:0:
319,59,25282,2,0,P|323:93|328:128,1,69.9999978637695,0|2,3:0|0:0,0:0:0:0:
162,53,25648,1,2,3:2:0:0:
116,123,25831,1,2,0:0:0:0:
171,185,26014,2,0,P|166:219|161:254,1,69.9999978637695,2|2,3:2|3:2,0:0:0:0:
249,359,26380,6,0,P|292:307|279:240,1,139.999995727539,2|0,3:2|3:0,0:0:0:0:
193,166,26929,1,2,0:0:0:0:
193,166,27112,2,0,L|262:156,1,69.9999978637695,0|0,3:0|0:0,0:0:0:0:
388,116,27478,6,0,P|431:167|418:234,1,139.999995727539,2|2,3:2|3:2,0:0:0:0:
332,309,28026,1,2,0:0:0:0:
332,309,28209,2,0,L|401:318,1,69.9999978637695,0|2,3:0|0:0,0:0:0:0:
505,136,28575,5,2,3:2:0:0:
354,189,28758,1,2,0:0:0:0:
492,322,28941,2,0,P|503:289|501:254,1,69.9999978637695,2|0,3:2|0:0,0:0:0:0:
370,98,29307,6,0,P|437:118|504:135,1,139.999995727539,2|0,3:2|3:0,0:0:0:0:
355,191,29856,1,2,0:0:0:0:
450,43,30038,1,0,3:0:0:0:
265,55,30221,2,0,P|275:88|283:122,1,69.9999978637695,2|0,0:0|3:0,0:0:0:0:
154,230,30587,6,0,P|133:164|156:99,2,139.999995727539,2|2|2,0:0|0:0|0:0,0:0:0:0:
322,220,31502,2,0,P|288:209|254:201,1,69.9999978637695,2|2,3:2|0:0,0:0:0:0:
158,345,31868,2,0,P|191:336|225:326,1,69.9999978637695,2|0,3:2|3:0,0:0:0:0:
438,240,32234,6,0,P|385:197|321:219,1,139.999995727539,2|2,3:2|3:2,0:0:0:0:
391,334,32782,1,2,0:0:0:0:
391,334,32965,2,0,L|460:324,1,69.9999978637695,0|0,3:0|3:0,0:0:0:0:
507,140,33331,6,0,P|454:97|390:119,1,139.999995727539,2|2,3:2|3:2,0:0:0:0:
306,297,33880,1,2,0:1:0:0:
49,151,34429,5,2,0:0:0:0:
138,90,34612,1,8,3:3:0:0:
138,90,34703,1,8,3:3:0:0:
138,90,34795,2,0,L|172:91,3,34.9999989318848,8|8|8|8,3:3|3:3|3:3|3:3,0:0:0:0:
258,102,35160,6,0,L|254:22,1,79.9999999999999,4|2,3:1|0:0,0:0:0:0:
133,180,35526,1,2,3:2:0:0:
264,256,35709,2,0,B|347:252|323:197|406:194,1,160,2|2,0:0|0:0,0:0:0:0:
488,209,36167,1,2,0:0:0:0:
488,209,36258,2,0,L|492:170,1,40,2|2,3:2|0:0,0:0:0:0:
393,276,36441,2,0,L|397:315,1,40,2|2,0:0|0:0,0:0:0:0:
330,373,36624,6,0,P|291:361|252:352,1,79.9999999999999,2|2,3:2|0:0,0:0:0:0:
490,296,36990,1,2,3:2:0:0:
303,144,37173,2,0,P|226:166|148:185,1,160,2|2,0:0|0:0,0:0:0:0:
222,342,37721,2,0,P|233:303|242:264,1,79.9999999999999,0|2,3:0|0:0,0:0:0:0:
55,185,38087,6,0,P|64:223|75:262,1,79.9999999999999,2|2,3:2|0:0,0:0:0:0:
165,98,38453,1,2,3:2:0:0:
242,264,38636,2,0,P|306:220|383:233,1,160,2|2,0:0|0:0,0:0:0:0:
437,313,39185,1,0,3:0:0:0:
438,105,39368,6,0,P|399:115|360:123,1,79.9999999999999,2|0,0:0|3:0,0:0:0:0:
479,203,39734,1,2,0:0:0:0:
378,22,39917,1,2,3:2:0:0:
238,186,40099,2,0,P|230:225|241:263,1,79.9999999999999,2|0,0:0|3:0,0:0:0:0:
117,183,40465,6,0,P|138:106|123:28,1,160,2|0,0:0|0:0,0:0:0:0:
34,233,41014,6,0,P|40:268|45:303,1,69.9999978637695,2|2,3:2|0:0,0:0:0:0:
149,365,41380,1,2,3:2:0:0:
149,365,41563,2,0,P|153:330|160:295,1,69.9999978637695,2|0,0:0|3:0,0:0:0:0:
307,174,41929,2,0,P|272:180|237:185,1,69.9999978637695,2|0,0:0|3:0,0:0:0:0:
397,307,42295,6,0,P|328:294|258:284,1,139.999995727539,2|2,0:0|0:0,0:0:0:0:
396,144,42843,2,0,P|409:176|407:210,1,69.9999978637695,0|2,3:0|0:0,0:0:0:0:
288,63,43209,1,2,3:2:0:0:
362,23,43392,1,2,0:0:0:0:
437,60,43575,2,0,P|471:61|503:48,1,69.9999978637695,2|2,3:2|0:0,0:0:0:0:
307,174,43941,6,0,P|242:147|173:150,1,139.999995727539,2|2,3:2|3:2,0:0:0:0:
56,188,44490,1,2,0:0:0:0:
56,188,44673,2,0,L|62:257,1,69.9999978637695,0|0,3:0|0:0,0:0:0:0:
180,348,45038,6,0,P|249:351|313:324,1,139.999995727539,2|2,3:2|3:2,0:0:0:0:
438,345,45587,1,2,0:0:0:0:
438,345,45770,2,0,L|431:275,1,69.9999978637695,0|2,3:0|0:0,0:0:0:0:
393,86,46136,5,2,3:2:0:0:
507,149,46319,1,2,0:0:0:0:
320,222,46502,2,0,P|285:214|250:211,1,69.9999978637695,2|0,3:2|0:0,0:0:0:0:
108,356,46868,6,0,P|142:353|177:345,1,69.9999978637695,2|2,3:0|0:0,0:0:0:0:
275,301,47234,1,2,3:2:0:0:
135,191,47417,2,0,P|148:223|152:257,1,69.9999978637695,2|0,0:3|3:0,0:0:0:0:
281,375,47782,2,0,P|285:340|298:308,1,69.9999978637695,2|2,0:0|3:0,0:0:0:0:
461,187,48148,6,0,B|388:181|412:141|334:134,1,139.999995727539,2|2,0:0|0:3,0:0:0:0:
221,32,48697,2,0,P|255:40|289:45,1,69.9999978637695,0|2,3:0|0:0,0:0:0:0:
142,102,49063,1,2,3:0:0:0:
67,63,49246,1,2,0:0:0:0:
11,126,49429,2,0,P|16:160|24:194,1,69.9999978637695,2|0,3:2|3:0,0:0:0:0:
181,264,49795,6,0,P|113:272|73:327,1,139.999995727539,2|2,3:0|3:2,0:0:0:0:
238,371,50343,1,2,0:3:0:0:
237,371,50526,2,0,P|272:363|307:360,1,69.9999978637695,0|0,3:0|0:0,0:0:0:0:
288,200,50892,6,0,P|220:208|180:263,1,139.999995727539,2|2,3:0|3:2,0:0:0:0:
374,281,51441,1,2,0:3:0:0:
373,281,51624,2,0,P|380:246|383:211,1,69.9999978637695,0|2,3:0|0:0,0:0:0:0:
454,24,51990,5,2,3:0:0:0:
479,214,52173,1,2,0:0:0:0:
339,107,52356,1,10,0:0:0:0:
463,124,52538,1,2,0:0:0:0:
249,26,52721,6,0,P|176:29|130:86,1,150.000005722046,4|0,3:1|3:0,0:0:0:0:
124,273,53270,1,2,0:0:0:0:
257,181,53453,2,0,P|221:168|184:165,1,75.000002861023,0|4,3:0|3:0,0:0:0:0:
234,343,53819,2,0,P|271:340|306:327,1,75.000002861023,4|4,3:0|3:0,0:0:0:0:
379,225,54185,6,0,P|382:299|389:374,1,150.000005722046,2|0,3:2|3:0,0:0:0:0:
509,163,54734,2,0,P|492:106|397:99,1,150.000005722046,2|0,0:0|0:0,0:0:0:0:
305,209,55282,2,0,P|341:215|378:224,1,75.000002861023,8|0,0:0|0:0,0:0:0:0:
245,78,55648,6,0,P|170:85|95:88,1,150.000005722046,2|0,3:2|3:0,0:0:0:0:
155,244,56197,1,2,0:0:0:0:
155,244,56380,2,0,P|163:207|170:170,1,75.000002861023,2|0,3:2|0:0,0:0:0:0:
19,131,56746,2,0,P|25:167|34:204,1,75.000002861023,0|2,3:0|0:0,0:0:0:0:
154,363,57112,5,2,3:2:0:0:
77,315,57295,2,0,P|40:322|4:334,1,75.000002861023,2|0,0:0|3:0,0:0:0:0:
154,243,57660,2,0,P|225:266|299:282,1,150.000005722046,2|2,0:0|0:1,0:0:0:0:
410,291,58209,2,0,P|398:326|390:363,1,75.000002861023,10|0,0:0|0:0,0:0:0:0:
491,201,58575,6,0,P|511:132|473:70,1,150.000005722046,4|0,3:1|3:0,0:0:0:0:
314,24,59124,1,2,0:0:0:0:
332,153,59307,2,0,P|369:148|402:131,1,75.000002861023,0|4,3:0|3:0,0:0:0:0:
227,38,59673,2,0,P|190:43|157:60,1,75.000002861023,4|4,3:0|3:0,0:0:0:0:
202,286,60038,6,0,L|213:136,1,150.000005722046,2|0,3:2|3:0,0:0:0:0:
125,56,60587,2,0,P|53:59|20:123,1,150.000005722046,2|2,0:0|0:0,0:0:0:0:
46,264,61136,2,0,P|81:253|116:239,1,75.000002861023,10|0,0:0|0:0,0:0:0:0:
213,136,61502,6,0,B|273:130|257:169|318:163,1,112.500004291534,4|2,3:1|0:0,0:0:0:0:
339,154,61868,2,0,L|331:228,1,75.000002861023,2|8,3:2|0:0,0:0:0:0:
451,168,62234,1,2,3:2:0:0:
264,282,62417,1,2,3:2:0:0:
415,339,62599,2,0,P|450:328|487:321,1,75.000002861023,8|2,0:0|3:2,0:0:0:0:
453,71,62965,5,2,3:1:0:0:
166,163,63148,1,8,0:1:0:0:
147,162,63240,1,8,0:1:0:0:
129,161,63331,1,8,0:1:0:0:
129,161,64429,6,0,P|87:146|43:141,1,89.999997253418,4|2,3:1|0:1,0:0:0:0:
268,72,64795,1,0,3:2:0:0:
132,296,64978,1,10,0:0:0:0:
290,61,65160,2,0,P|295:105|310:147,1,89.999997253418,2|2,3:2|0:1,0:0:0:0:
252,374,65526,1,8,0:1:0:0:
252,374,65618,1,8,0:1:0:0:
252,374,65709,1,2,0:1:0:0:
508,295,65892,6,0,P|459:223|372:222,1,179.999994506836,2|0,3:2|3:0,0:0:0:0:
132,342,66441,1,10,0:0:0:0:
381,360,66624,1,2,3:2:0:0:
202,122,66807,1,2,0:1:0:0:
252,374,66990,1,2,3:2:0:0:
329,86,67173,5,10,0:1:0:0:
329,86,67264,1,8,0:1:0:0:
329,86,67356,1,2,3:2:0:0:
106,212,67538,2,0,L|16:203,1,89.999997253418,2|0,0:1|3:0,0:0:0:0:
278,267,67904,2,0,L|367:258,1,89.999997253418,10|2,0:0|3:2,0:0:0:0:
141,353,68270,1,2,0:1:0:0:
165,107,68453,2,0,L|162:62,2,44.999998626709,8|8|2,0:1|0:1|0:1,0:0:0:0:
119,327,68819,6,0,P|188:271|277:266,1,179.999994506836,2|0,3:2|3:0,0:0:0:0:
467,354,69368,1,10,0:0:0:0:
401,156,69551,1,2,3:2:0:0:
281,384,69734,1,2,3:1:0:0:
224,144,69917,2,0,P|217:99|207:55,1,89.999997253418,2|10,3:2|0:1,0:0:0:0:
401,156,70282,6,0,P|369:186|325:189,1,89.999997253418,2|2,3:2|0:1,0:0:0:0:
108,103,70648,1,0,3:0:0:0:
328,43,70831,1,10,0:0:0:0:
170,263,71014,2,0,P|126:253|81:246,1,89.999997253418,2|2,3:2|0:1,0:0:0:0:
325,189,71380,1,8,0:1:0:0:
325,189,71471,1,8,0:1:0:0:
325,189,71563,1,2,0:1:0:0:
98,354,71746,6,0,P|166:298|255:301,1,179.999994506836,2|0,3:2|3:0,0:0:0:0:
463,349,72295,1,10,0:0:0:0:
271,129,72478,1,2,3:2:0:0:
345,381,72660,1,2,0:1:0:0:
429,113,72843,1,2,3:2:0:0:
203,373,73026,5,10,0:1:0:0:
203,373,73118,1,8,0:1:0:0:
203,373,73209,1,2,3:2:0:0:
463,349,73392,2,0,P|475:306|476:261,1,89.999997253418,2|2,0:1|3:2,0:0:0:0:
294,138,73758,2,0,P|294:182|307:225,1,89.999997253418,6|2,0:0|3:2,0:0:0:0:
390,56,74124,1,2,0:1:0:0:
177,190,74307,2,0,L|132:186,2,44.999998626709,10|8|2,0:0|0:0|0:1,0:0:0:0:
506,134,74673,6,0,P|474:55|390:56,1,179.999994506836,2|0,3:2|3:0,0:0:0:0:
326,251,75221,2,0,P|370:241|415:233,1,89.999997253418,8|2,0:0|3:2,0:0:0:0:
212,42,75587,1,8,0:0:0:0:
212,42,75679,1,8,0:0:0:0:
212,42,75770,1,0,3:2:0:0:
238,318,75953,1,10,0:1:0:0:
238,318,76045,1,8,0:1:0:0:
238,318,76136,1,2,0:0:0:0:
134,326,79063,6,0,P|128:296|121:267,1,59.9999981689453,2|2,3:2|0:1,0:0:0:0:
221,208,79429,1,2,3:2:0:0:
221,208,79612,2,0,P|214:237|208:266,1,59.9999981689453,2|0,0:1|3:0,0:0:0:0:
289,337,79978,2,0,P|318:330|347:324,1,59.9999981689453,2|0,0:1|3:0,0:0:0:0:
467,244,80343,6,0,P|431:198|373:199,1,119.999996337891,2|2,0:1|0:1,0:0:0:0:
347,324,80892,1,2,3:2:0:0:
419,365,81075,2,0,P|448:358|477:352,1,59.9999981689453,2|0,0:1|3:0,0:0:0:0:
279,270,81441,2,0,P|220:282|161:294,1,119.999996337891,2|2,0:1|0:1,0:0:0:0:
263,146,81990,6,0,P|223:138|184:130,1,79.9999999999999,2|2,3:0|0:1,0:0:0:0:
330,28,82356,1,2,3:0:0:0:
425,173,82538,2,0,P|458:243|437:318,1,160,2|2,0:1|0:1,0:0:0:0:
365,356,82996,1,2,0:0:0:0:
365,356,83087,2,0,L|325:352,1,40,2|2,3:0|0:0,0:0:0:0:
380,253,83270,2,0,L|340:257,1,40,2|2,0:1|0:0,0:0:0:0:
250,293,83453,6,0,L|257:213,1,79.9999999999999,2|2,3:0|0:1,0:0:0:0:
170,87,83819,1,2,3:0:0:0:
27,241,84002,2,0,P|82:294|158:283,1,160,2|2,0:1|0:1,0:0:0:0:
265,181,84551,2,0,P|225:182|186:191,1,79.9999999999999,2|2,3:0|0:1,0:0:0:0:
334,78,84917,6,0,P|294:76|255:67,1,79.9999999999999,2|2,3:0|0:1,0:0:0:0:
415,0,85282,1,2,3:0:0:0:
264,180,85465,2,0,P|342:162|422:160,1,160,2|2,0:1|0:1,0:0:0:0:
473,241,86014,1,2,3:0:0:0:
318,363,86197,6,0,P|301:326|299:287,1,79.9999999999999,2|2,0:1|3:0,0:0:0:0:
504,155,86563,1,2,0:1:0:0:
436,339,86746,1,2,3:0:0:0:
264,180,86929,2,0,P|303:188|342:193,1,79.9999999999999,2|2,0:1|3:0,0:0:0:0:
198,55,87295,5,8,3:0:0:0:
172,53,87386,1,8,3:0:0:0:
147,60,87478,1,10,3:0:0:0:
125,76,87569,1,8,3:0:0:0:
111,98,87660,1,8,3:0:0:0:
105,124,87752,1,8,3:0:0:0:
110,150,87843,6,0,P|105:194|98:239,1,89.999997253418,2|2,3:1|0:0,0:0:0:0:
57,320,88392,2,0,P|101:324|146:331,1,89.999997253418,2|2,3:1|0:0,0:0:0:0:
227,373,88941,2,0,P|231:328|238:283,1,89.999997253418,2|2,3:1|0:0,0:0:0:0:
280,203,89490,2,0,P|235:198|190:191,1,89.999997253418,2|2,3:1|0:0,0:0:0:0:
109,150,90038,6,0,P|107:172|104:194,1,44.999998626709,2|2,0:1|0:0,0:0:0:0:
232,327,90404,2,0,P|234:305|238:283,1,44.999998626709,2|2,0:1|0:0,0:0:0:0:
291,113,90770,6,0,P|286:157|279:202,1,89.999997253418,2|2,3:1|0:0,0:0:0:0:
238,283,91319,2,0,P|282:287|327:294,1,89.999997253418,2|2,3:1|0:0,0:0:0:0:
408,336,91868,2,0,P|412:291|419:246,1,89.999997253418,2|2,3:1|0:0,0:0:0:0:
461,166,92417,2,0,P|416:161|371:154,1,89.999997253418,2|2,3:1|0:0,0:0:0:0:
290,113,92965,6,0,P|287:135|284:157,1,44.999998626709,2|2,0:1|0:0,0:0:0:0:
413,291,93331,2,0,P|415:268|418:246,1,44.999998626709,2|2,0:1|0:0,0:0:0:0:
474,107,93697,6,0,P|465:135|460:165,1,59.9999981689453,10|2,0:0|3:2,0:0:0:0:
503,238,94063,1,2,3:2:0:0:
426,349,94246,6,0,P|420:319|412:290,1,59.9999981689453,10|0,0:0|3:0,0:0:0:0:
338,249,94612,1,2,3:2:0:0:
186,348,94795,6,0,P|215:354|244:361,1,59.9999981689453,10|2,0:0|3:2,0:0:0:0:
325,339,95160,1,0,3:2:0:0:
167,226,95343,6,0,P|137:232|108:239,1,59.9999981689453,10|0,0:0|3:0,0:0:0:0:
51,300,95709,1,2,3:2:0:0:
269,228,95892,6,0,P|262:199|256:170,1,59.9999981689453,8|2,0:0|3:2,0:0:0:0:
156,320,96258,2,0,P|163:349|170:379,1,59.9999981689453,10|2,0:0|3:2,0:0:0:0:
127,155,96624,5,12,0:0:0:0:
256,334,96807,2,0,P|285:328|315:323,1,59.9999981689453,2|0,3:2|3:2,0:0:0:0:
51,300,97173,5,12,0:0:0:0:
283,147,97356,2,0,P|312:152|342:157,1,59.9999981689453,2|0,3:2|0:0,0:0:0:0:
170,379,97721,5,12,0:0:0:0:
34,114,97904,2,0,P|28:84|23:54,1,59.9999981689453,2|2,3:2|3:2,0:0:0:0:
191,260,98270,6,0,P|180:319|169:378,1,119.999996337891,10|0,0:0|3:0,0:0:0:0:
317,266,98819,1,2,3:1:0:0:
69,269,99002,1,8,0:0:0:0:
292,161,99185,1,2,3:2:0:0:
127,162,99368,1,8,0:0:0:0:
127,162,99459,1,8,0:0:0:0:
127,162,99551,6,0,P|101:93|135:29,1,150.000005722046,4|0,3:1|3:0,0:0:0:0:
256,170,100099,1,2,0:0:0:0:
152,268,100282,2,0,P|115:262|78:260,1,75.000002861023,0|4,3:0|3:0,0:0:0:0:
207,91,100648,2,0,P|244:88|281:83,1,75.000002861023,4|4,3:0|3:0,0:0:0:0:
379,225,101014,6,0,P|382:299|389:374,1,150.000005722046,2|0,3:2|3:0,0:0:0:0:
509,163,101563,2,0,P|492:106|397:99,1,150.000005722046,2|2,0:0|0:0,0:0:0:0:
305,209,102112,2,0,P|341:215|378:224,1,75.000002861023,8|0,0:0|0:0,0:0:0:0:
139,119,102478,6,0,P|146:194|149:269,1,150.000005722046,2|0,3:2|3:0,0:0:0:0:
305,209,103026,1,2,0:0:0:0:
305,209,103209,2,0,P|268:201|231:194,1,75.000002861023,2|0,3:2|0:0,0:0:0:0:
192,345,103575,2,0,P|228:339|265:330,1,75.000002861023,0|2,3:0|0:0,0:0:0:0:
357,138,103941,5,2,3:2:0:0:
434,186,104124,2,0,P|471:179|507:167,1,75.000002861023,2|0,0:0|3:0,0:0:0:0:
357,258,104490,2,0,P|286:235|212:219,1,150.000005722046,2|2,0:0|0:1,0:0:0:0:
134,148,105038,2,0,P|146:113|154:76,1,75.000002861023,8|0,0:0|0:0,0:0:0:0:
375,126,105404,6,0,P|395:195|357:257,1,150.000005722046,4|0,3:1|3:0,0:0:0:0:
198,303,105953,1,2,0:0:0:0:
216,174,106136,2,0,P|253:179|286:196,1,75.000002861023,0|4,3:0|3:0,0:0:0:0:
111,289,106502,2,0,P|74:284|41:267,1,75.000002861023,4|4,3:0|3:0,0:0:0:0:
130,49,106868,6,0,L|119:199,1,150.000005722046,2|0,3:2|3:0,0:0:0:0:
207,279,107417,2,0,P|279:276|312:212,1,150.000005722046,2|2,0:0|0:0,0:0:0:0:
286,71,107965,2,0,P|251:82|216:96,1,75.000002861023,8|0,0:0|0:0,0:0:0:0:
452,102,108331,6,0,B|458:162|419:146|425:207,1,112.500004291534,4|0,3:1|0:0,0:0:0:0:
434,228,108697,2,0,L|360:220,1,75.000002861023,2|8,3:2|0:0,0:0:0:0:
420,340,109063,1,2,3:2:0:0:
274,196,109246,1,2,3:2:0:0:
267,376,109429,2,0,P|260:339|249:304,1,75.000002861023,8|2,0:0|3:2,0:0:0:0:
289,90,109795,5,2,0:0:0:0:
362,143,109978,2,0,L|399:140,2,37.5000014305115,0|0|2,0:0|0:0|0:0,0:0:0:0:
362,143,111258,6,0,P|404:128|448:123,1,89.999997253418,4|2,3:1|0:1,0:0:0:0:
230,59,111624,1,0,3:0:0:0:
356,257,111807,1,10,0:0:0:0:
208,48,111990,2,0,P|203:92|188:134,1,89.999997253418,2|2,3:2|0:1,0:0:0:0:
256,333,112356,1,8,0:1:0:0:
256,333,112447,1,8,0:1:0:0:
256,333,112538,1,2,0:1:0:0:
0,276,112721,6,0,B|94:294|69:220|167:232,1,179.999994506836,2|0,3:2|3:0,0:0:0:0:
367,332,113270,1,10,0:0:0:0:
131,360,113453,1,2,3:2:0:0:
314,146,113636,1,2,0:1:0:0:
259,384,113819,1,2,3:2:0:0:
173,108,114002,5,10,0:1:0:0:
173,108,114093,1,8,0:1:0:0:
173,108,114185,1,2,3:2:0:0:
418,178,114368,2,0,L|508:169,1,89.999997253418,2|0,0:1|3:0,0:0:0:0:
234,260,114734,2,0,L|145:251,1,89.999997253418,10|0,0:0|3:2,0:0:0:0:
392,334,115099,1,2,0:1:0:0:
304,55,115282,2,0,L|307:10,2,44.999998626709,8|8|2,0:1|0:1|0:1,0:0:0:0:
490,279,115648,6,0,P|421:223|332:218,1,179.999994506836,0|0,3:0|3:0,0:0:0:0:
45,365,116197,1,10,0:0:0:0:
123,133,116380,1,2,3:2:0:0:
212,384,116563,1,2,3:1:0:0:
288,144,116746,2,0,P|295:99|305:55,1,89.999997253418,2|10,3:2|0:1,0:0:0:0:
111,156,117112,6,0,P|143:186|187:189,1,89.999997253418,2|2,3:2|0:1,0:0:0:0:
440,82,117478,1,0,3:0:0:0:
184,43,117660,1,10,0:0:0:0:
342,263,117843,2,0,P|386:253|431:246,1,89.999997253418,2|2,3:2|0:1,0:0:0:0:
187,189,118209,1,8,0:1:0:0:
187,189,118301,1,8,0:1:0:0:
187,189,118392,1,2,0:1:0:0:
413,353,118575,6,0,P|345:297|256:300,1,179.999994506836,2|0,3:2|3:0,0:0:0:0:
49,349,119124,1,10,0:0:0:0:
212,150,119307,1,2,3:2:0:0:
173,368,119490,1,2,0:1:0:0:
6,134,119673,1,2,3:2:0:0:
309,369,119856,5,10,0:1:0:0:
309,369,119947,1,8,0:1:0:0:
309,369,120038,1,2,3:2:0:0:
25,372,120221,2,0,P|13:329|12:284,1,89.999997253418,2|2,0:1|3:2,0:0:0:0:
234,166,120587,2,0,P|234:210|221:253,1,89.999997253418,6|2,0:0|3:2,0:0:0:0:
122,56,120953,1,2,0:1:0:0:
335,190,121136,2,0,L|380:186,2,44.999998626709,10|8|2,0:0|0:0|0:1,0:0:0:0:
6,134,121502,6,0,P|38:55|122:56,1,179.999994506836,0|0,3:2|3:0,0:0:0:0:
220,253,122051,2,0,P|176:243|131:235,1,89.999997253418,10|2,0:0|3:2,0:0:0:0:
352,37,122417,1,10,0:1:0:0:
352,37,122508,1,8,0:1:0:0:
352,37,122599,1,2,3:2:0:0:
315,271,122782,1,10,0:1:0:0:
315,271,122874,1,8,0:1:0:0:
315,271,122965,6,0,P|310:227|300:183,1,89.999997253418,4|2,3:1|0:1,0:0:0:0:
468,82,123331,1,0,3:0:0:0:
306,304,123514,1,10,0:0:0:0:
484,173,123697,2,0,P|474:216|469:261,1,89.999997253418,2|2,3:2|0:1,0:0:0:0:
249,117,124063,1,8,0:1:0:0:
249,117,124154,1,8,0:1:0:0:
249,117,124246,1,2,0:1:0:0:
444,378,124429,6,0,P|380:319|295:333,1,179.999994506836,2|0,3:2|3:0,0:0:0:0:
31,261,124978,1,10,0:0:0:0:
309,183,125160,1,2,3:2:0:0:
118,367,125343,1,2,0:1:0:0:
161,124,125526,1,2,3:2:0:0:
254,326,125709,5,10,0:1:0:0:
254,326,125801,1,8,0:1:0:0:
254,326,125892,1,0,3:0:0:0:
53,174,126075,2,0,P|33:134|35:89,1,89.999997253418,2|0,0:1|3:0,0:0:0:0:
169,245,126441,2,0,P|170:289|151:329,1,89.999997253418,10|0,0:0|3:2,0:0:0:0:
166,105,126807,1,2,0:1:0:0:
296,262,126990,2,0,L|291:306,2,44.999998626709,8|8|2,0:1|0:1|0:1,0:0:0:0:
466,51,127356,6,0,B|377:43|391:113|298:101,1,179.999994506836,2|0,3:2|3:0,0:0:0:0:
64,36,127904,1,10,0:0:0:0:
192,243,128087,1,2,3:2:0:0:
198,4,128270,1,2,3:1:0:0:
48,254,128453,1,2,3:2:0:0:
311,179,128636,1,10,0:1:0:0:
22,134,128819,6,0,P|60:112|105:115,1,89.999997253418,2|2,3:2|0:1,0:0:0:0:
285,333,129185,1,0,3:0:0:0:
65,274,129368,1,10,0:0:0:0:
209,144,129551,2,0,P|211:188|190:227,1,89.999997253418,2|2,3:2|0:1,0:0:0:0:
96,28,129917,1,8,0:1:0:0:
96,28,130008,1,8,0:1:0:0:
96,28,130099,1,2,0:1:0:0:
311,179,130282,6,0,P|382:231|470:228,1,179.999994506836,2|0,3:2|3:0,0:0:0:0:
375,71,130831,1,10,0:0:0:0:
261,330,131014,1,2,3:2:0:0:
271,83,131197,1,2,0:1:0:0:
386,341,131380,1,2,3:2:0:0:
371,45,131563,5,10,0:1:0:0:
371,45,131654,1,8,0:1:0:0:
371,45,131746,1,2,3:2:0:0:
182,293,131929,2,0,L|272:301,1,89.999997253418,2|2,0:1|3:2,0:0:0:0:
182,90,132295,2,0,L|272:83,1,89.999997253418,6|0,0:0|3:2,0:0:0:0:
85,292,132660,1,2,0:1:0:0:
32,94,132843,2,0,L|35:49,2,44.999998626709,10|8|2,0:0|0:0|0:1,0:0:0:0:
56,262,133209,6,0,P|123:203|211:200,1,179.999994506836,0|0,3:0|3:0,0:0:0:0:
437,293,133758,1,10,0:0:0:0:
169,311,133941,1,2,3:2:0:0:
374,149,134124,1,10,0:0:0:0:
302,359,134307,1,6,0:0:0:0:
188,87,134490,1,10,0:0:0:0:
312,335,134673,6,0,P|323:291|336:248,1,89.999997253418,2|0,3:1|0:0,0:0:0:0:
374,149,135221,2,0,P|330:137|287:124,1,89.999997253418,2|0,3:1|0:0,0:0:0:0:
188,87,135770,2,0,P|176:130|163:173,1,89.999997253418,2|0,3:1|0:0,0:0:0:0:
126,273,136319,2,0,P|169:284|212:297,1,89.999997253418,2|0,3:1|0:0,0:0:0:0:
336,248,136868,6,0,P|323:291|312:335,1,89.999997253418,2|0,3:1|0:0,0:0:0:0:
287,124,137417,2,0,P|330:137|374:149,1,89.999997253418,2|0,3:1|0:0,0:0:0:0:
163,173,137965,2,0,P|175:133|186:93,1,67.4999979400635,2|0,3:1|0:0,0:0:0:0:
188,87,138331,1,0,3:0:0:0:
212,297,138514,2,0,P|181:287|150:279,1,44.999998626709,2|0,3:1|3:0,0:0:0:0:
251,217,138880,1,0,0:0:0:0:
336,248,139063,6,0,P|365:243|395:238,2,59.9999981689453,2|0|0,3:1|0:0|3:0,0:0:0:0:
287,124,139612,2,0,P|282:94|277:64,2,59.9999981689453,2|0|0,3:1|3:0|0:0,0:0:0:0:
163,173,140160,2,0,P|133:177|103:182,2,59.9999981689453,2|0|0,3:1|0:0|3:0,0:0:0:0:
212,297,140709,2,0,P|216:326|221:356,2,59.9999981689453,2|0|0,3:1|3:0|0:0,0:0:0:0:
287,124,141258,6,0,P|282:94|277:64,2,59.9999981689453,2|0|0,3:1|0:0|3:0,0:0:0:0:
212,297,141807,2,0,P|216:326|221:356,2,59.9999981689453,2|0|0,3:1|3:0|0:0,0:0:0:0:
163,173,142356,2,0,P|133:177|103:182,2,59.9999981689453,2|0|0,3:1|0:0|3:0,0:0:0:0:
336,248,142904,1,2,3:1:0:0:
127,265,143087,1,2,3:2:0:0:
117,236,143179,1,2,0:0:0:0:
122,206,143270,1,2,0:0:0:0:
142,183,143362,1,2,0:0:0:0:
163,173,143453,6,0,P|128:168|93:167,1,69.9999978637695,4|0,3:1|0:0,0:0:0:0:
93,167,143819,1,0,3:0:0:0:
287,124,144002,2,0,P|291:89|292:54,1,69.9999978637695,2|0,0:1|3:0,0:0:0:0:
293,54,144368,1,0,0:0:0:0:
336,248,144551,2,0,P|370:252|405:253,1,69.9999978637695,2|0,3:1|0:0,0:0:0:0:
406,254,144917,1,0,3:0:0:0:
212,297,145099,2,0,P|207:331|206:366,1,69.9999978637695,2|2,0:1|3:2,0:0:0:0:
206,367,145465,1,2,0:0:0:0:
288,117,145648,6,0,P|292:82|293:47,1,69.9999978637695,2|0,3:1|0:0,0:0:0:0:
200,79,146014,1,0,3:0:0:0:
211,304,146197,2,0,P|206:338|205:373,1,69.9999978637695,8|0,0:0|3:0,0:0:0:0:
299,342,146563,1,0,0:0:0:0:
163,173,146746,2,0,P|128:168|93:167,1,69.9999978637695,2|0,3:1|0:0,0:0:0:0:
125,261,147112,1,0,3:0:0:0:
350,250,147295,2,0,P|384:254|419:255,1,69.9999978637695,10|0,0:0|3:0,0:0:0:0:
388,162,147660,1,2,0:0:0:0:
211,304,147843,6,0,P|217:340|216:378,1,75.000002861023,4|0,3:1|0:0,0:0:0:0:
125,261,148209,1,0,3:0:0:0:
377,351,148392,6,0,P|412:337|448:329,1,75.000002861023,2|0,0:1|3:0,0:0:0:0:
281,253,148758,1,0,0:0:0:0:
512,170,148941,6,0,P|475:162|440:148,1,75.000002861023,8|0,0:0|0:0,0:0:0:0:
273,49,149307,1,0,3:0:0:0:
295,282,149490,6,0,P|308:246|316:210,1,75.000002861023,10|2,0:0|3:2,0:0:0:0:
367,0,149856,1,2,0:0:0:0:
424,262,150038,5,2,3:1:0:0:
424,262,150221,1,0,0:0:0:0:
273,49,150404,1,0,3:0:0:0:
211,304,150587,5,2,3:1:0:0:
367,0,150770,1,0,3:0:0:0:
486,318,150953,1,2,0:0:0:0:
182,35,151136,5,12,0:0:0:0:
182,35,151319,1,0,0:0:0:0:
313,209,151502,1,0,3:0:0:0:
367,0,151685,5,14,0:0:0:0:
211,304,151868,1,0,3:0:0:0:
211,304,152051,1,0,0:0:0:0:
89,68,152234,5,4,3:2:0:0:
263,383,152416,1,0,3:0:0:0:
406,133,152599,1,8,0:1:0:0:
401,155,152691,1,8,0:1:0:0:
396,177,152782,1,8,0:1:0:0:
390,198,152874,1,8,0:1:0:0:
385,216,152965,6,0,P|425:224|464:232,1,79.9999999999999,4|2,3:1|0:1,0:0:0:0:
263,383,153330,1,10,0:0:0:0:
132,270,153513,2,0,P|99:200|120:125,1,160,2|2,0:1|0:1,0:0:0:0:
50,71,153971,1,2,0:0:0:0:
50,71,154062,2,0,L|10:67,1,40,10|2,0:0|0:0,0:0:0:0:
160,42,154245,2,0,L|164:2,1,40,2|2,0:1|0:0,0:0:0:0:
266,109,154428,6,0,L|259:189,1,79.9999999999999,2|2,3:2|0:1,0:0:0:0:
358,320,154794,1,10,0:0:0:0:
488,143,154977,2,0,P|433:90|357:101,1,160,2|2,0:1|0:1,0:0:0:0:
240,214,155525,2,0,P|280:213|319:204,1,79.9999999999999,10|2,0:0|0:1,0:0:0:0:
174,318,155891,6,0,P|214:320|253:329,1,79.9999999999999,2|2,3:2|0:1,0:0:0:0:
78,365,156257,1,10,0:0:0:0:
240,214,156440,2,0,P|162:232|82:234,1,160,2|2,0:1|0:1,0:0:0:0:
23,157,156989,1,8,0:0:0:0:
197,21,157172,6,0,P|214:58|216:97,1,79.9999999999999,2|2,0:1|3:0,0:0:0:0:
51,261,157538,1,2,0:1:0:0:
79,45,157721,1,2,3:0:0:0:
251,204,157904,2,0,P|212:196|173:191,1,79.9999999999999,2|2,0:1|3:0,0:0:0:0:
338,99,158269,5,2,0:1:0:0:
302,312,158452,1,10,0:0:0:0:
338,99,158635,1,2,0:1:0:0:
188,298,158818,6,0,P|193:337|200:377,1,79.9999999999999,4|2,3:1|0:1,0:0:0:0:
377,256,159184,1,2,3:0:0:0:
235,179,159367,2,0,B|150:175|166:234|86:226,1,160,2|2,0:1|0:1,0:0:0:0:
19,180,159824,1,2,0:0:0:0:
19,180,159916,2,0,L|21:140,1,40,2|2,3:0|0:0,0:0:0:0:
126,132,160099,2,0,L|124:92,1,40,2|2,0:1|0:0,0:0:0:0:
93,15,160282,6,0,P|55:27|16:31,1,79.9999999999999,2|2,3:0|0:1,0:0:0:0:
42,276,160647,2,0,P|92:260|145:254,1,79.9999999999999,2|2,3:0|0:1,0:0:0:0:
256,84,161013,2,0,P|196:142|110:119,1,160,2|2,3:0|3:0,0:0:0:0:
266,220,161562,1,2,0:1:0:0:
242,373,161745,6,0,P|281:366|321:361,1,79.9999999999999,2|2,3:0|0:1,0:0:0:0:
339,123,162111,1,10,0:0:0:0:
457,274,162294,1,2,0:1:0:0:
266,220,162478,2,0,P|345:208|424:196,1,160,2|2,3:0|3:0,0:0:0:0:
339,123,163025,6,0,P|300:118|260:111,1,79.9999999999999,2|2,0:1|3:0,0:0:0:0:
190,49,163391,1,2,0:1:0:0:
374,225,163574,1,2,3:0:0:0:
159,181,163757,1,8,0:0:0:0:
380,32,163940,5,2,3:2:0:0:
277,292,164123,1,8,0:0:0:0:
382,10,164306,1,2,3:0:0:0:
428,350,164489,1,8,0:1:0:0:
428,350,164580,1,8,0:1:0:0:
428,350,164672,1,2,0:0:0:0:
371,336,176379,6,0,P|376:306|381:277,1,59.9999981689453,4|0,3:1|0:0,0:0:0:0:
274,280,176745,2,0,P|268:250|263:221,1,59.9999981689453,0|2,3:0|0:0,0:0:0:0:
163,343,177111,2,0,P|168:313|173:284,1,59.9999981689453,0|4,3:0|3:0,0:0:0:0:
66,287,177477,2,0,P|60:257|55:228,1,59.9999981689453,4|4,3:0|3:0,0:0:0:0:
155,106,177843,6,0,P|149:135|144:164,1,59.9999981689453,2|0,3:2|0:0,0:0:0:0:
252,162,178208,2,0,P|257:191|262:220,1,59.9999981689453,0|2,3:0|0:0,0:0:0:0:
363,99,178574,2,0,P|357:128|352:157,1,59.9999981689453,0|0,3:0|0:0,0:0:0:0:
460,155,178940,2,0,P|465:184|470:213,1,59.9999981689453,10|0,0:0|0:0,0:0:0:0:
316,364,179306,6,0,P|362:328|421:319,1,119.999996337891,2|0,3:2|3:0,0:0:0:0:
222,332,179855,1,2,0:0:0:0:
222,332,180038,2,0,P|192:336|162:342,1,59.9999981689453,2|4,3:2|3:0,0:0:0:0:
287,248,180404,2,0,P|316:243|346:237,1,59.9999981689453,4|4,3:0|3:0,0:0:0:0:
128,202,180769,5,2,3:2:0:0:
197,154,180952,2,0,P|199:124|199:94,1,59.9999981689453,2|0,0:0|3:0,0:0:0:0:
41,200,181318,2,0,P|40:259|55:317,1,119.999996337891,2|2,0:0|0:1,0:0:0:0:
171,363,181867,2,0,P|199:353|228:345,1,59.9999981689453,8|0,0:0|0:0,0:0:0:0:
326,274,182233,6,0,P|287:230|229:233,1,119.999996337891,4|0,3:1|3:0,0:0:0:0:
138,138,182782,1,2,0:0:0:0:
138,138,182964,2,0,L|197:143,1,59.9999981689453,0|4,3:0|3:0,0:0:0:0:
326,42,183330,2,0,L|266:47,1,59.9999981689453,4|4,3:0|3:0,0:0:0:0:
406,171,183696,6,0,P|418:112|430:53,1,119.999996337891,2|0,3:2|3:0,0:0:0:0:
326,274,184245,1,2,0:0:0:0:
266,46,184428,1,0,3:0:0:0:
171,363,184611,5,8,0:0:0:0:
255,17,184794,1,10,0:0:0:0:
337,300,184977,1,8,0:0:0:0:
135,108,185160,6,0,B|57:113|77:160|1:168,1,150.000005722046,4|8,3:1|0:0,0:0:0:0:
178,275,185708,1,2,3:2:0:0:
244,116,185891,2,0,P|250:79|257:42,1,75.000002861023,2|0,0:0|0:0,0:0:0:0:
442,149,186257,1,8,0:0:0:0:
424,171,186349,1,8,0:0:0:0:
402,187,186440,1,8,0:0:0:0:
375,195,186532,1,8,0:0:0:0:
347,196,186623,6,0,P|339:232|333:269,1,75.000002861023,2|0,3:2|0:0,0:0:0:0:
216,371,186989,1,8,0:0:0:0:
127,199,187172,2,0,P|199:194|245:249,1,150.000005722046,0|8,3:0|0:0,0:0:0:0:
315,367,187721,1,2,0:0:0:0:
384,168,187904,1,8,0:0:0:0:
384,168,187995,1,8,0:0:0:0:
384,167,188086,6,0,P|376:112|376:56,1,112.500004291534,2|0,3:2|0:0,0:0:0:0:
381,34,188452,2,0,P|344:43|307:48,1,75.000002861023,10|2,0:0|3:2,0:0:0:0:
168,108,188818,2,0,P|205:112|241:122,1,75.000002861023,2|0,0:0|0:0,0:0:0:0:
470,249,189184,5,8,0:1:0:0:
432,247,189275,1,8,0:1:0:0:
395,244,189367,1,8,0:1:0:0:
357,241,189458,1,8,0:1:0:0:
320,237,189550,1,2,3:1:0:0:
126,354,189733,1,8,0:1:0:0:
163,350,189824,1,8,0:1:0:0:
200,347,189916,1,8,0:1:0:0:
225,348,191013,6,0,P|221:321|217:294,1,55.0000016784668,2|0,0:0|0:0,0:0:0:0:
304,208,191379,2,0,P|308:180|312:153,1,55.0000016784668,2|0,0:0|0:0,0:0:0:0:
368,318,191745,6,0,P|371:345|376:372,1,55.0000016784668,2|2,0:0|0:0,0:0:0:0:
507,176,192111,2,0,P|501:216|497:257,1,82.5000025177002,2|2,0:0|0:0,0:0:0:0:
512,276,192477,6,0,B|418:294|443:220|345:232,1,179.999994506836,4|0,3:1|3:0,0:0:0:0:
121,333,193025,1,8,0:0:0:0:
377,373,193208,1,2,3:2:0:0:
168,108,193391,1,2,0:1:0:0:
256,384,193574,1,2,3:2:0:0:
361,41,193757,5,10,0:1:0:0:
361,41,193849,1,8,0:1:0:0:
361,41,193940,1,2,3:2:0:0:
89,157,194123,2,0,L|-1:148,1,89.999997253418,2|0,0:1|3:0,0:0:0:0:
294,247,194489,2,0,L|383:238,1,89.999997253418,10|0,0:0|3:2,0:0:0:0:
110,375,194855,1,2,0:1:0:0:
199,96,195038,2,0,L|196:51,2,44.999998626709,8|8|2,0:1|0:1|0:1,0:0:0:0:
46,314,195404,6,0,P|115:258|204:253,1,179.999994506836,0|0,3:0|3:0,0:0:0:0:
439,361,195952,1,8,0:0:0:0:
370,97,196135,1,2,3:2:0:0:
288,368,196318,1,2,3:1:0:0:
199,96,196501,2,0,P|192:51|182:7,1,89.999997253418,2|10,3:2|0:1,0:0:0:0:
409,195,196867,6,0,P|377:225|333:228,1,89.999997253418,2|2,3:2|0:1,0:0:0:0:
96,132,197233,1,0,3:0:0:0:
326,0,197416,1,10,0:0:0:0:
170,263,197599,2,0,P|126:253|81:246,1,89.999997253418,2|2,3:2|0:1,0:0:0:0:
343,135,197964,1,8,0:1:0:0:
343,135,198056,1,8,0:1:0:0:
343,135,198147,1,2,0:1:0:0:
153,366,198330,6,0,P|221:310|310:313,1,179.999994506836,2|0,3:2|3:0,0:0:0:0:
487,372,198879,5,10,0:0:0:0:
299,118,199062,1,2,3:2:0:0:
374,380,199245,1,2,0:1:0:0:
450,56,199428,1,2,3:2:0:0:
201,287,199611,5,8,0:1:0:0:
201,287,199702,1,8,0:1:0:0:
201,287,199794,1,2,3:2:0:0:
487,372,199977,2,0,P|499:329|500:284,1,89.999997253418,2|2,0:1|3:2,0:0:0:0:
285,148,200343,2,0,P|285:192|298:235,1,89.999997253418,6|0,0:0|3:0,0:0:0:0:
383,28,200708,1,2,0:1:0:0:
148,180,200891,2,0,L|103:176,2,44.999998626709,10|8|2,0:0|0:0|0:1,0:0:0:0:
500,106,201257,6,0,P|468:27|384:28,1,179.999994506836,0|0,3:0|3:0,0:0:0:0:
326,251,201806,2,0,P|370:241|415:233,1,89.999997253418,8|2,0:0|3:2,0:0:0:0:
183,46,202172,1,8,0:1:0:0:
183,46,202263,1,8,0:1:0:0:
183,46,202355,1,2,3:2:0:0:
228,310,202538,1,8,0:1:0:0:
228,310,202629,1,8,0:1:0:0:
228,310,202721,6,0,P|233:266|243:222,1,89.999997253418,4|2,3:1|0:1,0:0:0:0:
85,67,203086,1,0,3:0:0:0:
342,294,203269,1,10,0:0:0:0:
99,180,203452,2,0,P|109:223|114:268,1,89.999997253418,2|2,3:2|0:1,0:0:0:0:
277,143,203818,1,8,0:1:0:0:
277,143,203910,1,8,0:1:0:0:
277,143,204001,1,2,0:1:0:0:
78,354,204184,6,0,P|142:295|227:309,1,179.999994506836,2|0,3:2|3:0,0:0:0:0:
477,262,204733,1,10,0:0:0:0:
172,150,204916,1,2,3:2:0:0:
407,359,205099,1,2,0:1:0:0:
336,47,205282,1,2,3:2:0:0:
270,384,205464,5,10,0:1:0:0:
270,384,205556,1,8,0:1:0:0:
270,384,205647,1,2,3:2:0:0:
459,174,205830,2,0,P|479:134|477:89,1,89.999997253418,2|2,0:1|3:2,0:0:0:0:
333,279,206196,2,0,P|332:323|351:363,1,89.999997253418,10|0,0:0|3:2,0:0:0:0:
331,120,206562,1,2,0:1:0:0:
169,297,206745,2,0,L|174:341,2,44.999998626709,8|8|2,0:1|0:1|0:1,0:0:0:0:
46,51,207111,6,0,B|135:43|121:113|214:101,1,179.999994506836,0|0,3:2|3:0,0:0:0:0:
416,28,207660,1,10,0:0:0:0:
299,276,207843,1,2,3:2:0:0:
273,0,208025,1,2,3:1:0:0:
459,282,208208,1,2,3:2:0:0:
151,177,208391,1,10,0:1:0:0:
490,134,208574,6,0,P|452:112|407:115,1,89.999997253418,2|2,3:2|0:1,0:0:0:0:
187,364,208940,1,0,3:0:0:0:
473,294,209123,1,10,0:0:0:0:
299,173,209306,2,0,P|297:217|318:256,1,89.999997253418,2|2,3:2|0:1,0:0:0:0:
426,18,209672,1,8,0:1:0:0:
426,18,209763,1,8,0:1:0:0:
426,18,209855,1,2,0:1:0:0:
201,179,210038,6,0,P|130:231|42:228,1,179.999994506836,2|0,3:2|3:0,0:0:0:0:
141,71,210586,1,10,0:0:0:0:
240,301,210769,1,2,3:2:0:0:
246,43,210952,1,2,0:1:0:0:
86,344,211135,1,2,3:2:0:0:
12,62,211318,5,10,0:1:0:0:
12,62,211410,1,8,0:1:0:0:
12,62,211501,1,2,3:2:0:0:
329,293,211684,2,0,L|239:301,1,89.999997253418,2|2,0:1|3:2,0:0:0:0:
335,49,212050,2,0,L|245:42,1,89.999997253418,6|0,0:0|3:2,0:0:0:0:
353,314,212416,1,2,0:1:0:0:
503,73,212599,2,0,L|500:28,2,44.999998626709,10|8|2,0:0|0:0|0:1,0:0:0:0:
507,256,212964,6,0,P|440:197|352:194,1,179.999994506836,2|2,3:2|3:2,0:0:0:0:
41,227,213513,1,10,0:0:0:0:
353,314,213696,1,2,3:2:0:0:
261,26,213879,1,10,0:1:0:0:
261,26,213971,1,8,0:1:0:0:
261,26,214062,1,2,3:2:0:0:
186,311,214245,1,10,0:1:0:0:
186,311,214336,1,8,0:1:0:0:
186,311,214428,6,0,L|188:360,3,50,2|0|2|0,3:2|0:0|3:2|0:0,0:0:0:0:
258,267,215160,2,0,L|302:290,3,50,2|0|2|0,3:2|0:0|3:2|0:0,0:0:0:0:
182,143,215891,2,0,L|180:93,3,50,2|0|2|0,3:2|0:0|3:2|0:0,0:0:0:0:
256,183,216623,2,0,L|298:156,3,50,2|0|2|0,3:2|0:0|3:2|0:0,0:0:0:0:
112,270,217355,6,0,L|69:296,3,50,2|0|2|0,3:2|0:0|3:2|0:0,0:0:0:0:
110,186,218086,2,0,L|65:162,3,50,2|0|2|0,3:2|0:0|3:2|0:0,0:0:0:0:
256,183,218818,2,0,L|298:156,3,50,2|0|2|0,3:2|0:0|3:2|0:0,0:0:0:0:
186,311,219550,2,0,L|188:360,1,50,2|0,3:2|0:0,0:0:0:0:
302,290,219916,2,0,L|258:267,1,50,2|0,3:2|0:0,0:0:0:0:
346,166,220282,6,0,P|322:158|298:155,2,50,2|2|2,0:0|0:0|0:0,0:0:0:0:
411,212,220830,2,0,P|407:262|405:312,1,99.9999999999999,2|2,0:0|0:0,0:0:0:0:
254,365,221562,2,0,P|252:315|248:265,1,99.9999999999999,2|2,0:0|0:0,0:0:0:0:
141,145,222294,2,0,L|91:148,2,50,2|2|2,0:0|0:0|0:0,0:0:0:0:
198,89,222843,2,0,L|247:92,1,50,2|2,0:0|0:0,0:0:0:0:
310,142,223208,6,0,P|357:125|404:110,1,99.9999999999999,2|2,0:0|0:0,0:0:0:0:
471,155,223757,1,2,0:0:0:0:
310,142,224306,6,0,P|357:125|404:110,1,99.9999999999999,2|2,0:0|0:0,0:0:0:0:
471,155,224855,1,2,0:0:0:0:
249,313,225221,5,2,0:0:0:0:
319,351,225404,2,0,P|343:347|368:343,1,50,2|2,0:0|0:0,0:0:0:0:
447,334,225769,1,2,0:0:0:0:
166,262,226135,6,0,P|142:266|117:270,1,50,2|2,0:0|0:0,0:0:0:0:
47,229,226501,1,2,0:0:0:0:
100,169,226684,2,0,P|103:120|102:70,1,99.9999999999999,2|2,0:0|0:0,0:0:0:0:
250,213,227416,2,0,P|247:262|248:312,1,99.9999999999999,2|2,0:0|0:0,0:0:0:0:
371,145,228147,6,0,P|370:121|369:96,2,50,2|2|2,0:0|0:0|0:0,0:0:0:0:
403,219,228696,2,0,P|424:231|447:242,1,50,2|2,0:0|0:0,0:0:0:0:
347,325,229062,6,0,P|297:317|247:312,1,99.9999999999999,2|2,0:0|0:0,0:0:0:0:
177,351,229611,1,2,0:0:0:0:
347,325,230160,6,0,P|297:317|247:312,1,99.9999999999999,2|2,0:0|0:0,0:0:0:0:
177,351,230708,1,2,0:0:0:0:
70,140,231074,6,0,P|70:116|71:91,2,50,2|2|2,0:0|0:0|0:0,0:0:0:0:
34,212,231623,1,2,0:0:0:0:
78,278,231806,1,2,0:0:0:0:
