osu file format v14

[General]
AudioFilename: audio.mp3
AudioLeadIn: 0
PreviewTime: 190099
Countdown: 0
SampleSet: Soft
StackLeniency: 1
Mode: 0
LetterboxInBreaks: 0
WidescreenStoryboard: 1

[Editor]
Bookmarks: 30496
DistanceSpacing: 0.6
BeatDivisor: 4
GridSize: 4
TimelineZoom: 2.3

[Metadata]
Title:Kuchizuke Diamond
TitleUnicode:くちづけDiamond
Artist:WEAVER
ArtistUnicode:WEAVER
Creator:-Mikan
Version:-Brethia's Insane
Source:山田くんと7人の魔女
Tags:Dailycare Morinaga Affirmation Neoskylove Kowari Xen Xehn Xenon- Shizuku- Kazato Asa _kotachi_ -Brethia Blitzifyyy japanese anime opening op yamada kun to nana nin no majo yamada-kun 7-nin and the seven witches j-pop j-rock pop rock jpop jrock
BeatmapID:2277139
BeatmapSetID:1051509

[Difficulty]
HPDrainRate:5.5
CircleSize:3.8
OverallDifficulty:8.5
ApproachRate:8.8
SliderMultiplier:1.7
SliderTickRate:2

[Events]
//Background and Video events
0,0,"thumb-1920-809429.jpg",0,0
Video,0,"vid.avi"
//Break Periods
2,76336,78434
2,164872,175750
2,190830,191482
//Storyboard Layer 0 (Background)
//Storyboard Layer 1 (Fail)
//Storyboard Layer 2 (Pass)
//Storyboard Layer 3 (Foreground)
//Storyboard Layer 4 (Overlay)
//Storyboard Sound Samples

[TimingPoints]
39,365.853658536585,4,2,1,40,1,0
39,-200,4,2,1,40,0,0
5892,-111.111111111111,4,2,1,50,0,0
11746,-100,4,2,1,70,0,1
23087,-333.333333333333,4,2,1,70,0,1
23453,-133.333333333333,4,2,1,60,0,0
34063,-100,4,2,1,5,0,0
34246,-100,4,2,1,60,0,0
34612,-100,4,2,1,60,0,0
35160,-100,4,2,1,70,0,0
41014,-133.333333333333,4,2,1,60,0,0
52721,-111.111111111111,4,2,1,60,0,0
63514,-111.111111111111,4,2,1,40,0,0
64426,-111.111111111111,4,2,1,80,0,0
64429,-90.9090909090909,4,2,1,80,0,1
73209,-100,4,2,2,80,0,1
73392,-100,4,2,1,80,0,1
73758,-100,4,2,2,80,0,1
73941,-100,4,2,1,80,0,1
74307,-100,4,2,2,80,0,1
74490,-100,4,2,1,80,0,1
74673,-100,4,2,2,80,0,1
74856,-100,4,2,1,80,0,1
75404,-100,4,2,1,80,0,1
75770,-100,4,2,2,80,0,1
75953,-100,4,2,1,80,0,1
76136,-100,4,2,1,80,0,0
79063,-100,4,2,1,70,0,0
87843,-133.333333333333,4,2,1,60,0,0
99551,-111.111111111111,4,2,1,60,0,0
109795,-100,4,2,2,40,0,0
110160,-100,4,2,1,40,0,0
111258,-90.9090909090909,4,2,1,80,0,1
120038,-90.9090909090909,4,2,2,80,0,1
120221,-90.9090909090909,4,2,1,80,0,1
120587,-90.9090909090909,4,2,2,80,0,1
120770,-90.9090909090909,4,2,1,80,0,1
121136,-90.9090909090909,4,2,2,80,0,1
121319,-90.9090909090909,4,2,1,80,0,1
121685,-90.9090909090909,4,2,2,80,0,1
121868,-90.9090909090909,4,2,1,80,0,1
122234,-90.9090909090909,4,2,2,80,0,1
122417,-90.9090909090909,4,2,1,80,0,1
122599,-90.9090909090909,4,2,2,80,0,1
122782,-90.9090909090909,4,2,1,80,0,1
131746,-90.9090909090909,4,2,2,80,0,1
131929,-90.9090909090909,4,2,1,80,0,1
132295,-90.9090909090909,4,2,2,80,0,1
132478,-90.9090909090909,4,2,1,80,0,1
132843,-90.9090909090909,4,2,2,80,0,1
133026,-90.9090909090909,4,2,1,80,0,1
133392,-90.9090909090909,4,2,2,80,0,1
133575,-90.9090909090909,4,2,1,80,0,1
133941,-90.9090909090909,4,2,2,80,0,1
134124,-90.9090909090909,4,2,1,80,0,1
134307,-90.9090909090909,4,2,2,80,0,1
134490,-90.9090909090909,4,2,1,80,0,1
134673,365.853658536585,3,2,1,50,1,0
134673,-100,3,2,1,50,0,0
143453,-100,3,2,1,60,0,0
150038,-142.857142857143,3,2,1,65,0,0
150587,-125,3,2,1,65,0,0
151136,-111.111111111111,3,2,1,70,0,0
151685,-100,3,2,1,70,0,0
152234,-100,3,2,1,75,0,0
152416,-100,3,2,1,75,0,0
152508,-100,3,2,1,75,0,0
152599,-100,3,2,1,75,0,0
152965,365.853658536585,4,2,1,80,1,0
152965,-90.9090909090909,4,2,1,80,0,1
164672,-100,4,2,1,40,0,0
170525,-100,4,2,1,40,0,0
176379,-111.111111111111,4,2,1,50,0,0
184611,-111.111111111111,4,2,1,70,0,0
185160,-100,4,2,1,60,0,0
189733,-90.9090909090909,4,2,1,60,0,0
191013,-90.9090909090909,4,2,1,50,0,0
192477,-86.9565217391304,4,2,1,80,0,1
199794,-86.9565217391304,4,2,2,80,0,1
199977,-86.9565217391304,4,2,1,80,0,1
200343,-86.9565217391304,4,2,2,80,0,1
200525,-86.9565217391304,4,2,1,80,0,1
200891,-86.9565217391304,4,2,2,80,0,1
201074,-86.9565217391304,4,2,1,80,0,1
201440,-86.9565217391304,4,2,2,80,0,1
201623,-86.9565217391304,4,2,1,80,0,1
201989,-86.9565217391304,4,2,2,80,0,1
202172,-86.9565217391304,4,2,1,80,0,1
202355,-86.9565217391304,4,2,2,80,0,1
202538,-86.9565217391304,4,2,1,80,0,1
211501,-86.9565217391304,4,2,2,80,0,1
211684,-86.9565217391304,4,2,1,80,0,1
212050,-86.9565217391304,4,2,2,80,0,1
212233,-86.9565217391304,4,2,1,80,0,1
212599,-86.9565217391304,4,2,2,80,0,1
212782,-86.9565217391304,4,2,1,80,0,1
213147,-86.9565217391304,4,2,2,80,0,1
213330,-86.9565217391304,4,2,1,80,0,1
213696,-86.9565217391304,4,2,2,80,0,1
213879,-86.9565217391304,4,2,1,80,0,1
214062,-86.9565217391304,4,2,2,80,0,1
214245,-86.9565217391304,4,2,1,80,0,1
214428,-111.111111111111,4,2,1,50,0,0
220282,-200,4,2,1,40,0,0
226958,-200,4,2,1,5,0,0
227050,-200,4,2,1,40,0,0
227964,-200,4,2,1,40,0,0

[Colours]
Combo1 : 189,189,223
Combo2 : 255,147,147
Combo3 : 255,202,149
Combo4 : 255,255,166
Combo5 : 202,255,149
Combo6 : 172,255,255
Combo7 : 138,197,255

[HitObjects]
421,326,39,6,0,L|428:284,1,42.5,2|0,0:0|0:0,0:0:0:0:
337,262,404,2,0,L|329:303,1,42.5,2|0,0:0|0:0,0:0:0:0:
407,189,770,6,0,L|414:147,1,42.5,2|0,0:0|0:0,0:0:0:0:
323,125,1136,2,0,L|315:166,1,42.5,2|0,0:0|0:0,0:0:0:0:
178,165,1502,6,0,L|219:172,1,42.5,2|0,0:0|0:0,0:0:0:0:
243,82,1868,2,0,L|201:74,1,42.5,2|0,0:0|0:0,0:0:0:0:
90,174,2234,6,0,L|95:216,1,42.5,2|0,0:0|0:0,0:0:0:0:
178,165,2599,2,0,L|183:207,1,42.5,2|0,0:0|0:0,0:0:0:0:
209,329,2965,6,0,L|201:287,1,42.5,2|0,0:0|0:0,0:0:0:0:
293,265,3331,2,0,L|300:306,1,42.5,2|0,0:0|0:0,0:0:0:0:
183,207,3697,6,0,L|175:165,1,42.5,2|0,0:0|0:0,0:0:0:0:
255,100,4063,2,0,L|262:141,1,42.5,2|0,0:0|0:0,0:0:0:0:
144,84,4429,6,0,L|102:75,1,42.5,2|0,0:0|0:0,0:0:0:0:
41,160,4795,2,0,L|83:169,1,42.5,2|0,0:0|0:0,0:0:0:0:
255,100,5160,6,0,L|297:91,1,42.5,2|0,0:0|0:0,0:0:0:0:
124,177,5526,2,0,L|82:168,1,42.5,2|0,0:0|0:0,0:0:0:0:
204,285,5892,5,2,3:2:0:0:
222,185,6075,1,0,0:0:0:0:
204,285,6258,2,0,P|258:278|295:273,1,76.4999976654053,2|0,3:2|0:0,0:0:0:0:
402,203,6624,5,2,3:2:0:0:
363,329,6807,1,0,0:0:0:0:
402,203,6990,2,0,P|364:197|326:193,1,76.4999976654053,2|0,3:2|0:0,0:0:0:0:
200,148,7356,5,2,3:2:0:0:
360,101,7538,1,0,0:0:0:0:
200,148,7721,2,0,P|194:109|187:63,1,76.4999976654053,2|0,3:2|0:0,0:0:0:0:
274,261,8087,5,2,3:2:0:0:
138,214,8269,1,0,0:0:0:0:
274,261,8453,2,0,P|280:222|287:176,1,76.4999976654053,2|0,3:2|0:0,0:0:0:0:
188,72,8819,6,0,P|150:66|112:58,1,76.4999976654053,2|0,3:2|0:0,0:0:0:0:
135,194,9185,1,2,3:2:0:0:
100,50,9368,1,0,0:0:0:0:
42,218,9551,6,0,P|52:255|60:293,1,76.4999976654053,2|0,3:2|0:0,0:0:0:0:
128,174,9917,1,2,3:2:0:0:
53,306,10099,1,0,0:0:0:0:
219,316,10282,6,0,P|259:319|298:324,1,76.4999976654053,2|0,3:2|0:0,0:0:0:0:
142,265,10648,1,2,3:2:0:0:
291,201,10831,1,0,0:0:0:0:
121,150,11014,5,2,3:2:0:0:
307,211,11197,1,0,0:0:0:0:
270,121,11380,6,0,L|268:96,5,25.4999992218018,2|2|2|2|2|2,0:0|0:0|0:0|0:0|0:0|0:0,0:0:0:0:
261,80,11746,6,0,P|306:88|346:96,1,85,4|2,3:1|0:0,0:0:0:0:
483,73,12112,1,2,3:2:0:0:
445,261,12295,2,0,P|388:201|306:210,1,170,2|2,0:0|0:0,0:0:0:0:
199,315,12843,1,2,3:2:0:0:
175,323,12934,1,2,0:0:0:0:
151,324,13025,1,2,0:0:0:0:
129,315,13117,1,2,0:0:0:0:
110,299,13209,6,0,P|117:262|121:214,1,85,2|2,3:2|0:0,0:0:0:0:
46,104,13575,1,2,3:2:0:0:
194,188,13758,2,0,B|294:211|257:136|361:163,1,170,2|2,0:0|0:0,0:0:0:0:
341,325,14307,2,0,P|331:284|324:237,1,85,2|2,3:2|0:0,0:0:0:0:
510,118,14673,5,2,3:2:0:0:
419,234,14856,1,2,0:0:0:0:
363,55,15038,1,2,3:2:0:0:
512,214,15221,2,0,P|488:301|400:327,1,170,2|2,0:0|0:0,0:0:0:0:
354,161,15770,1,0,3:0:0:0:
354,161,15953,6,0,P|390:140|432:139,1,85,2|0,0:0|0:0,0:0:0:0:
334,252,16319,1,2,0:0:0:0:
329,75,16502,1,2,3:2:0:0:
188,167,16685,2,0,P|207:121|114:38,1,170,2|2,0:0|0:0,0:0:0:0:
20,139,17234,1,2,0:0:0:0:
123,26,17417,1,2,0:0:0:0:
171,175,17599,6,0,P|214:171|256:168,1,85,2|2,3:0|0:0,0:0:0:0:
336,108,17965,1,2,3:0:0:0:
390,291,18148,2,0,P|340:280|222:264,1,170,2|2,0:0|0:0,0:0:0:0:
336,108,18697,5,2,3:0:0:0:
357,93,18788,1,2,0:0:0:0:
383,87,18879,1,2,0:0:0:0:
409,89,18971,1,2,0:0:0:0:
433,99,19063,2,0,L|421:192,1,85,2|2,3:0|0:0,0:0:0:0:
416,308,19429,1,2,3:0:0:0:
292,185,19612,2,0,P|214:200|197:278,1,170,2|2,0:0|0:0,0:0:0:0:
328,356,20160,2,0,P|323:314|303:276,1,85,2|2,3:0|0:0,0:0:0:0:
174,197,20526,6,0,P|129:208|72:220,1,85,2|2,3:0|0:0,0:0:0:0:
217,295,20892,1,2,3:0:0:0:
291,167,21075,2,0,B|302:47|302:47|267:81,1,170,2|2,0:0|0:0,0:0:0:0:
175,226,21624,1,2,3:0:0:0:
175,226,21807,6,0,L|89:216,1,85,2|2,0:0|3:0,0:0:0:0:
219,307,22173,1,2,0:0:0:0:
141,140,22356,1,2,3:0:0:0:
123,305,22538,1,2,0:0:0:0:
222,162,22721,5,2,3:0:0:0:
33,294,22904,1,2,0:0:0:0:
93,84,23087,2,0,L|99:125,1,38.2499988327027,2|0,3:0|0:0,0:0:0:0:
170,168,23453,6,0,L|241:158,2,63.7500024318696,2|2|0,3:2|0:0|3:2,0:0:0:0:
301,262,24002,2,0,P|307:229|309:198,1,63.7500024318696,2|0,0:0|3:0,0:0:0:0:
381,125,24368,2,0,P|385:159|389:188,1,63.7500024318696,2|0,0:0|3:0,0:0:0:0:
491,253,24734,6,0,P|440:261|419:338,1,127.500004863739,2|0,0:0|0:0,0:0:0:0:
501,258,25282,2,0,L|498:188,1,63.7500024318696,0|2,3:0|0:0,0:0:0:0:
474,58,25648,1,2,3:2:0:0:
378,178,25831,1,2,0:0:0:0:
382,45,26014,1,2,3:2:0:0:
492,181,26197,1,2,3:2:0:0:
318,107,26380,6,0,P|259:112|225:184,1,127.500004863739,2|0,3:2|3:0,0:0:0:0:
183,296,26929,2,0,P|162:235|139:176,1,127.500004863739,2|0,0:0|0:0,0:0:0:0:
27,110,27478,2,0,P|58:95|84:78,1,63.7500024318696,2|0,3:2|3:0,0:0:0:0:
82,79,27752,1,0,3:0:0:0:
82,79,27843,6,0,L|163:86,2,63.7500024318696,2|2|0,3:2|0:0|3:0,0:0:0:0:
139,176,28392,1,2,0:0:0:0:
279,89,28575,1,2,3:2:0:0:
289,254,28758,1,2,0:0:0:0:
370,199,28941,2,0,L|384:307,1,95.6250036478044,2|0,3:2|0:0,0:0:0:0:
440,346,29307,6,0,B|373:370|389:316|302:343,1,127.500004863739,2|0,3:2|3:0,0:0:0:0:
216,363,29856,1,2,0:0:0:0:
216,363,30038,2,0,P|221:325|225:296,2,63.7500024318696,0|2|0,3:0|0:0|3:0,0:0:0:0:
74,341,30587,6,0,P|105:331|135:321,1,63.7500024318696,2|0,0:0|3:0,0:0:0:0:
20,222,30953,2,0,P|50:231|80:242,1,63.7500024318696,2|0,0:0|3:0,0:0:0:0:
135,320,31319,1,2,0:0:0:0:
197,191,31502,1,2,3:2:0:0:
80,242,31685,1,2,0:0:0:0:
249,256,31868,1,2,3:2:0:0:
148,119,32051,1,0,3:0:0:0:
148,119,32142,1,0,3:0:0:0:
148,119,32234,6,0,P|205:94|281:103,1,127.500004863739,2|2,3:2|3:2,0:0:0:0:
351,148,32782,2,0,P|354:115|363:79,1,63.7500024318696,2|0,0:0|3:0,0:0:0:0:
301,15,33148,1,0,3:0:0:0:
433,130,33331,2,0,L|504:116,1,63.7500024318696,2|8,3:2|0:3,0:0:0:0:
495,117,33606,1,8,0:3:0:0:
495,117,33697,1,2,3:2:0:0:
483,359,33880,1,2,0:1:0:0:
189,167,34612,5,8,3:3:0:0:
191,188,34703,1,8,3:3:0:0:
193,209,34794,1,8,3:3:0:0:
195,230,34886,1,8,3:3:0:0:
197,251,34977,1,8,3:3:0:0:
199,272,35069,1,8,3:3:0:0:
201,293,35160,6,0,L|106:278,1,85,4|2,3:1|0:0,0:0:0:0:
30,326,35526,1,2,3:2:0:0:
161,192,35709,2,0,P|177:120|111:58,1,170,2|2,0:0|0:0,0:0:0:0:
18,174,36258,1,2,3:2:0:0:
37,165,36349,1,2,0:0:0:0:
57,157,36440,1,2,0:0:0:0:
76,149,36532,1,2,0:0:0:0:
96,141,36624,6,0,L|184:105,1,85,2|2,3:2|0:0,0:0:0:0:
276,29,36990,1,2,3:2:0:0:
288,198,37173,2,0,P|277:82|275:27,1,170,2|2,0:0|0:0,0:0:0:0:
360,148,37721,1,0,3:0:0:0:
186,91,37904,1,2,0:0:0:0:
298,19,38087,6,0,P|356:25|394:31,1,85,2|2,3:2|0:0,0:0:0:0:
450,155,38453,1,2,3:2:0:0:
281,219,38636,2,0,P|224:230|103:265,1,170,2|2,0:0|0:0,0:0:0:0:
165,75,39185,2,0,L|180:167,1,85,0|2,3:0|0:0,0:0:0:0:
209,327,39551,5,0,3:0:0:0:
90,177,39734,1,2,0:0:0:0:
206,248,39917,1,2,3:2:0:0:
50,335,40099,1,2,0:0:0:0:
194,117,40282,5,0,3:0:0:0:
119,266,40465,1,2,0:0:0:0:
14,89,40648,1,0,3:2:0:0:
106,179,40831,1,0,0:0:0:0:
126,26,41014,6,0,P|116:57|107:87,2,63.7500024318696,2|2|2,3:2|0:0|3:2,0:0:0:0:
194,117,41563,2,0,P|204:152|210:186,1,63.7500024318696,2|0,0:0|3:0,0:0:0:0:
311,60,41929,2,0,P|302:90|295:121,1,63.7500024318696,2|0,0:0|3:0,0:0:0:0:
360,202,42295,6,0,P|423:189|487:185,1,127.500004863739,2|2,0:0|0:0,0:0:0:0:
393,302,42843,2,0,P|361:295|328:291,1,63.7500024318696,0|2,3:0|0:0,0:0:0:0:
175,344,43209,1,2,3:2:0:0:
274,233,43392,1,2,0:0:0:0:
110,210,43575,1,2,3:2:0:0:
198,264,43758,1,2,0:0:0:0:
198,264,43849,1,0,0:0:0:0:
198,264,43941,6,0,L|186:117,1,127.500004863739,2|2,3:2|3:2,0:0:0:0:
152,35,44490,2,0,P|175:82|244:92,1,127.500004863739,2|0,0:0|0:0,0:0:0:0:
365,50,45038,2,0,P|320:40|284:47,1,63.7500024318696,2|0,3:2|0:0,0:0:0:0:
367,136,45404,5,2,3:2:0:0:
444,4,45587,2,0,P|453:84|461:148,1,127.500004863739,2|2,0:0|0:0,0:0:0:0:
384,233,46136,1,2,3:2:0:0:
454,147,46319,1,2,0:0:0:0:
470,311,46502,1,2,3:2:0:0:
245,263,46868,6,0,L|172:274,1,63.7500024318696,2|2,3:0|0:0,0:0:0:0:
100,323,47234,1,2,3:2:0:0:
178,189,47417,2,0,L|105:178,1,63.7500024318696,2|0,0:3|3:0,0:0:0:0:
268,260,47782,2,0,L|341:249,1,63.7500024318696,2|2,0:0|3:0,0:0:0:0:
277,60,48148,6,0,L|268:126,1,63.7500024318696,2|0,0:0|3:0,0:0:0:0:
404,72,48514,2,0,L|395:8,1,63.7500024318696,2|0,0:3|3:0,0:0:0:0:
458,164,48880,1,2,0:0:0:0:
359,144,49063,1,2,3:0:0:0:
438,264,49246,1,2,0:0:0:0:
349,128,49429,1,2,3:2:0:0:
302,278,49612,1,0,3:0:0:0:
404,72,49795,6,0,L|268:95,1,127.500004863739,2|2,3:0|3:2,0:0:0:0:
148,164,50343,2,0,P|116:128|145:51,1,127.500004863739,2|0,0:3|0:0,0:0:0:0:
235,180,50892,2,0,P|220:217|212:245,1,63.7500024318696,2|0,3:0|3:0,0:0:0:0:
191,338,51258,1,2,3:2:0:0:
75,246,51441,2,0,P|88:276|97:306,1,63.7500024318696,2|0,0:3|3:0,0:0:0:0:
148,164,51807,5,2,0:0:0:0:
0,277,51990,1,2,3:0:0:0:
83,111,52173,1,2,0:0:0:0:
213,239,52356,1,10,0:0:0:0:
82,227,52538,1,2,0:0:0:0:
192,84,52721,6,0,P|282:93|349:102,1,152.999995330811,4|0,3:1|3:0,0:0:0:0:
482,0,53270,2,0,B|446:18|421:67|421:67|432:96|429:129,1,152.999995330811,2|4,0:0|3:0,0:0:0:0:
386,252,53819,2,0,P|376:298|371:337,1,76.4999976654053,4|4,3:0|3:0,0:0:0:0:
460,214,54185,6,0,L|308:234,1,152.999995330811,2|0,3:2|3:0,0:0:0:0:
165,302,54734,2,0,P|108:258|126:188,1,152.999995330811,2|0,0:0|0:0,0:0:0:0:
232,255,55282,2,0,P|245:303|239:340,1,76.4999976654053,8|0,0:0|0:0,0:0:0:0:
126,188,55648,6,0,L|277:167,1,152.999995330811,2|0,3:2|3:0,0:0:0:0:
383,92,56197,1,2,0:0:0:0:
383,92,56380,2,0,L|231:71,1,152.999995330811,2|0,3:2|3:0,0:0:0:0:
78,42,56929,1,2,0:0:0:0:
196,162,57112,5,2,3:2:0:0:
165,12,57295,2,0,L|150:100,1,76.4999976654053,2|0,0:0|3:0,0:0:0:0:
165,257,57660,2,0,P|111:206|36:206,1,152.999995330811,2|2,0:0|0:1,0:0:0:0:
70,363,58209,1,10,0:0:0:0:
62,371,58575,6,0,P|148:353|217:345,1,152.999995330811,4|0,3:1|3:0,0:0:0:0:
343,360,59124,2,0,B|360:254|360:254|311:277,1,152.999995330811,2|4,0:0|3:0,0:0:0:0:
435,331,59673,2,0,L|515:318,1,76.4999976654053,4|4,3:0|3:0,0:0:0:0:
501,151,60038,6,0,B|422:131|430:192|340:170,1,152.999995330811,2|0,3:2|3:0,0:0:0:0:
248,109,60587,2,0,P|268:182|284:257,1,152.999995330811,2|2,0:0|0:0,0:0:0:0:
379,88,61136,1,10,0:0:0:0:
387,77,61502,6,0,L|510:62,2,114.749996498108,4|2|8,3:1|0:0|0:0,0:0:0:0:
274,131,62234,2,0,L|151:116,2,114.749996498108,2|0|2,3:2|0:0|3:2,0:0:0:0:
386,171,62965,5,2,3:1:0:0:
371,294,63147,1,8,0:1:0:0:
373,275,63240,1,8,0:1:0:0:
375,256,63330,1,8,0:1:0:0:
286,245,63514,5,2,0:0:0:0:
465,274,63697,1,2,0:0:0:0:
317,368,63880,1,2,0:0:0:0:
380,219,64063,1,2,0:0:0:0:
380,219,64429,6,0,P|303:220|265:121,1,187.000005706787,4|0,3:1|3:2,0:0:0:0:
314,44,64978,1,10,0:0:0:0:
176,144,65160,2,0,P|128:147|83:155,1,93.5000028533936,2|2,3:2|0:1,0:0:0:0:
147,315,65526,1,8,0:1:0:0:
147,315,65618,1,8,0:1:0:0:
147,315,65709,1,2,0:1:0:0:
72,164,65892,6,0,P|77:116|88:55,2,93.5000028533936,2|2|0,3:2|0:1|3:0,0:0:0:0:
168,293,66441,1,10,0:0:0:0:
262,127,66624,2,0,L|354:111,1,93.5000028533936,2|2,3:2|0:1,0:0:0:0:
260,308,66990,2,0,L|167:292,1,93.5000028533936,2|10,3:2|0:1,0:0:0:0:
168,293,67264,1,8,0:1:0:0:
168,293,67356,6,0,P|233:315|293:207,1,187.000005706787,2|0,3:2|3:0,0:0:0:0:
186,66,67904,2,0,P|172:111|163:157,1,93.5000028533936,10|2,0:0|3:2,0:0:0:0:
280,142,68270,1,2,0:1:0:0:
90,86,68453,2,0,L|20:65,2,46.7500014266968,8|8|2,0:1|0:1|0:1,0:0:0:0:
223,237,68819,6,0,P|287:223|414:202,1,187.000005706787,2|0,3:2|3:0,0:0:0:0:
487,267,69368,1,10,0:0:0:0:
415,114,69551,1,2,3:2:0:0:
379,298,69734,1,2,3:1:0:0:
492,167,69917,1,2,3:2:0:0:
329,130,70099,1,10,0:1:0:0:
329,130,70191,1,0,0:0:0:0:
329,130,70282,6,0,B|224:112|261:190|144:178,1,187.000005706787,2|0,3:2|3:0,0:0:0:0:
45,101,70831,1,10,0:0:0:0:
22,239,71014,2,0,P|33:300|153:272,1,187.000005706787,2|8,3:2|0:1,0:0:0:0:
139,300,71471,1,8,0:1:0:0:
139,300,71563,1,2,0:1:0:0:
220,127,71746,6,0,P|217:70|212:28,1,93.5000028533936,2|2,3:2|0:1,0:0:0:0:
79,178,72112,1,0,3:0:0:0:
235,253,72295,1,10,0:0:0:0:
136,92,72478,2,0,P|87:78|37:66,1,93.5000028533936,2|2,3:2|0:1,0:0:0:0:
291,188,72843,2,0,P|336:176|381:163,1,93.5000028533936,2|10,3:2|0:1,0:0:0:0:
381,163,73118,1,8,0:1:0:0:
381,163,73209,5,2,3:2:0:0:
250,84,73392,1,2,0:1:0:0:
343,282,73575,1,2,3:2:0:0:
360,61,73758,1,6,0:0:0:0:
174,224,73941,5,2,3:2:0:0:
301,158,74124,1,2,0:1:0:0:
115,63,74307,1,10,0:0:0:0:
115,63,74398,1,8,0:0:0:0:
115,63,74490,1,2,0:1:0:0:
148,307,74673,5,2,3:2:0:0:
205,140,74856,1,2,0:1:0:0:
59,216,75038,1,0,3:0:0:0:
303,321,75221,1,8,0:0:0:0:
174,224,75404,1,2,3:2:0:0:
379,142,75587,5,8,0:0:0:0:
379,142,75679,1,8,0:0:0:0:
379,142,75770,1,0,3:2:0:0:
266,245,75953,5,10,0:1:0:0:
266,245,76045,1,8,0:1:0:0:
266,245,76136,1,2,0:0:0:0:
100,224,79063,6,0,L|106:313,1,85,2|2,3:2|0:1,0:0:0:0:
51,142,79429,1,2,3:2:0:0:
194,163,79612,2,0,P|192:82|119:47,1,170,2|2,0:1|0:1,0:0:0:0:
288,158,80161,2,0,P|330:146|378:134,1,85,0|2,3:0|0:1,0:0:0:0:
325,259,80527,5,0,3:0:0:0:
455,153,80710,1,2,0:1:0:0:
318,69,80892,1,2,3:2:0:0:
393,306,81075,2,0,L|223:288,1,170,2|2,0:1|0:1,0:0:0:0:
112,349,81624,2,0,L|104:249,1,85,0|2,3:0|0:1,0:0:0:0:
230,110,81990,6,0,L|217:223,1,85,2|2,3:0|0:1,0:0:0:0:
47,144,82356,1,2,3:0:0:0:
208,27,82539,2,0,B|276:33|276:33|305:66|305:66|372:77,1,170,2|2,0:1|0:1,0:0:0:0:
485,33,83087,1,2,3:0:0:0:
480,53,83178,1,2,0:0:0:0:
476,74,83269,1,2,0:1:0:0:
472,95,83361,1,2,0:0:0:0:
469,117,83453,6,0,L|485:217,1,85,2|2,3:0|0:1,0:0:0:0:
345,163,83819,1,2,3:0:0:0:
401,314,84002,2,0,B|313:339|340:273|230:298,1,170,2|2,0:1|0:1,0:0:0:0:
80,348,84551,2,0,P|96:312|118:271,1,85,2|2,3:0|0:1,0:0:0:0:
189,107,84917,6,0,P|209:144|226:183,1,85,2|2,3:0|0:1,0:0:0:0:
99,164,85282,1,2,3:0:0:0:
274,72,85465,2,0,L|81:55,1,170,2|2,0:1|0:1,0:0:0:0:
189,259,86014,2,0,P|206:220|226:182,1,85,2|2,3:0|0:1,0:0:0:0:
372,49,86380,5,2,3:0:0:0:
306,220,86563,1,2,0:1:0:0:
274,72,86746,1,2,3:0:0:0:
429,186,86929,1,2,0:1:0:0:
273,310,87112,1,2,3:0:0:0:
328,187,87295,5,8,3:0:0:0:
328,187,87386,1,8,3:0:0:0:
328,187,87478,1,10,3:0:0:0:
328,187,87569,1,8,3:0:0:0:
328,187,87660,1,8,3:0:0:0:
194,318,87843,6,0,P|141:285|133:224,1,127.500004863739,2|2,3:1|0:0,0:0:0:0:
267,93,88392,2,0,P|319:125|327:186,1,127.500004863739,2|2,3:1|0:0,0:0:0:0:
134,225,88941,6,0,P|68:210|-1:200,1,127.500004863739,2|2,3:1|0:0,0:0:0:0:
267,93,89490,2,0,P|201:108|132:118,1,127.500004863739,2|2,3:1|0:0,0:0:0:0:
354,5,90038,6,0,L|364:67,1,63.7500024318696,2|2,0:1|0:0,0:0:0:0:
466,151,90404,2,0,L|476:88,1,63.7500024318696,2|2,0:1|0:0,0:0:0:0:
333,170,90770,6,0,L|356:320,1,127.500004863739,2|2,3:1|0:0,0:0:0:0:
150,345,91319,2,0,B|179:318|217:319|217:319|237:343|270:353,1,127.500004863739,2|2,3:1|0:0,0:0:0:0:
58,298,91868,6,0,B|37:221|37:221|69:173,1,127.500004863739,2|2,3:1|0:0,0:0:0:0:
172,77,92417,2,0,B|193:154|193:154|161:202,1,127.500004863739,2|2,3:1|0:0,0:0:0:0:
32,83,92965,2,0,L|40:16,1,63.7500024318696,2|2,0:1|0:0,0:0:0:0:
63,181,93331,2,0,L|70:244,1,63.7500024318696,2|2,0:1|0:0,0:0:0:0:
190,67,93697,6,0,L|269:52,2,63.7500024318696,10|2|2,0:0|3:2|3:2,0:0:0:0:
332,120,94246,2,0,L|411:135,2,63.7500024318696,10|0|2,0:0|3:0|3:2,0:0:0:0:
463,23,94795,2,0,P|467:80|469:107,1,63.7500024318696,10|2,0:0|3:2,0:0:0:0:
488,255,95160,5,0,3:2:0:0:
334,201,95343,2,0,L|272:190,1,63.7500024318696,10|0,0:0|3:0,0:0:0:0:
466,172,95709,1,2,3:2:0:0:
296,285,95892,2,0,L|233:273,1,63.7500024318696,8|2,0:0|3:2,0:0:0:0:
124,140,96258,2,0,L|186:128,1,63.7500024318696,10|2,0:0|3:2,0:0:0:0:
318,108,96624,5,12,0:0:0:0:
233,273,96807,1,2,3:2:0:0:
233,273,97173,5,12,0:0:0:0:
171,35,97356,1,2,3:2:0:0:
171,35,97721,5,12,0:0:0:0:
418,169,97904,1,2,3:2:0:0:
418,169,98270,2,0,B|347:158|366:200|291:191,1,127.500004863739,10|0,0:0|3:0,0:0:0:0:
205,141,98819,1,2,3:1:0:0:
122,236,99002,1,8,0:0:0:0:
201,155,99185,1,2,3:2:0:0:
65,72,99368,1,8,0:0:0:0:
65,72,99459,1,8,0:0:0:0:
65,72,99551,6,0,B|149:89|122:28|218:48,1,152.999995330811,4|0,3:1|3:0,0:0:0:0:
343,81,100099,2,0,B|301:60|301:60|318:179,1,152.999995330811,2|4,0:0|3:0,0:0:0:0:
423,215,100648,2,0,L|435:136,1,76.4999976654053,4|4,3:0|3:0,0:0:0:0:
257,313,101014,6,0,P|321:325|406:345,1,152.999995330811,2|0,3:2|3:0,0:0:0:0:
316,165,101563,2,0,B|261:179|261:179|242:209|242:209|173:226,1,152.999995330811,2|2,0:0|0:0,0:0:0:0:
28,161,102112,1,8,0:0:0:0:
38,152,102477,6,0,L|18:321,1,152.999995330811,2|0,3:2|3:0,0:0:0:0:
125,154,103026,1,2,0:0:0:0:
125,154,103209,2,0,P|111:94|23:67,1,152.999995330811,2|0,3:2|3:0,0:0:0:0:
68,234,103758,1,2,0:0:0:0:
220,126,103941,5,2,3:2:0:0:
38,152,104124,2,0,L|53:240,1,76.4999976654053,2|0,0:0|3:0,0:0:0:0:
171,317,104490,2,0,L|329:285,1,152.999995330811,2|2,0:0|0:1,0:0:0:0:
446,178,105038,1,8,0:0:0:0:
455,186,105404,6,0,L|472:30,1,152.999995330811,4|0,3:1|3:0,0:0:0:0:
250,19,105953,2,0,B|268:170,1,152.999995330811,2|4,0:0|3:0,0:0:0:0:
360,311,106502,2,0,L|284:323,1,76.4999976654053,4|4,3:0|3:0,0:0:0:0:
51,272,106868,6,0,B|130:292|122:231|212:253,1,152.999995330811,2|0,3:2|3:0,0:0:0:0:
363,176,107416,2,0,B|397:245|397:245|354:320,1,152.999995330811,2|2,0:0|0:0,0:0:0:0:
249,131,107965,1,8,0:0:0:0:
261,123,108331,6,0,L|290:-5,2,114.749996498108,4|0|8,3:1|0:0|0:0,0:0:0:0:
218,268,109063,2,0,L|91:246,2,114.749996498108,2|0|2,3:2|0:0|3:2,0:0:0:0:
394,319,109795,5,2,0:0:0:0:
400,315,109886,1,0,0:0:0:0:
406,303,109978,1,0,0:0:0:0:
409,286,110069,1,0,0:0:0:0:
405,267,110160,1,2,0:0:0:0:
53,107,111258,6,0,B|105:68|166:114|166:114|201:96|227:96,1,187.000005706787,4|0,3:1|3:0,0:0:0:0:
93,231,111807,1,10,0:0:0:0:
224,349,111990,2,0,P|234:297|250:237,1,93.5000028533936,2|2,3:2|0:1,0:0:0:0:
314,119,112356,1,8,0:1:0:0:
314,119,112447,1,8,0:1:0:0:
314,119,112538,1,2,0:1:0:0:
106,243,112721,6,0,L|4:233,2,93.5000028533936,2|2|0,3:2|0:1|3:0,0:0:0:0:
243,257,113270,1,10,0:0:0:0:
155,66,113453,2,0,P|166:116|178:156,1,93.5000028533936,2|2,3:2|0:1,0:0:0:0:
239,347,113819,2,0,P|284:343|319:313,1,93.5000028533936,2|10,3:2|0:1,0:0:0:0:
319,313,114093,1,8,0:1:0:0:
319,313,114185,6,0,L|335:118,1,187.000005706787,2|0,3:2|3:0,0:0:0:0:
127,41,114734,2,0,P|167:19|213:17,1,93.5000028533936,10|0,0:0|3:2,0:0:0:0:
228,195,115099,1,2,0:1:0:0:
73,119,115282,2,0,L|31:99,2,46.7500014266968,8|8|2,0:1|0:1|0:1,0:0:0:0:
252,95,115648,5,0,3:0:0:0:
157,274,115831,1,2,0:1:0:0:
351,184,116014,1,0,3:0:0:0:
330,288,116197,5,10,0:0:0:0:
168,129,116380,1,2,3:2:0:0:
351,184,116563,1,2,3:1:0:0:
262,222,116746,2,0,L|267:175,1,46.7500014266968,2|0,3:2|0:0,0:0:0:0:
385,55,116929,2,0,L|390:101,1,46.7500014266968,10|0,0:1|0:0,0:0:0:0:
425,273,117112,6,0,B|357:284|357:284|326:324|326:324|243:339,1,187.000005706787,2|0,3:2|3:0,0:0:0:0:
107,303,117660,1,10,0:0:0:0:
167,116,117843,2,0,P|225:131|216:260,1,187.000005706787,2|8,3:2|0:1,0:0:0:0:
237,242,118301,1,8,0:1:0:0:
237,242,118392,1,2,0:1:0:0:
97,337,118575,6,0,L|4:325,1,93.5000028533936,2|2,3:2|0:1,0:0:0:0:
177,194,118941,1,0,3:0:0:0:
210,355,119124,1,10,0:0:0:0:
71,254,119307,2,0,P|57:214|60:159,1,93.5000028533936,2|2,3:2|0:1,0:0:0:0:
285,128,119673,2,0,P|299:168|296:223,1,93.5000028533936,2|10,3:2|0:1,0:0:0:0:
297,218,119947,1,8,0:1:0:0:
297,218,120038,5,2,3:2:0:0:
196,38,120221,1,2,0:1:0:0:
196,175,120404,1,2,3:2:0:0:
327,10,120587,1,6,0:0:0:0:
403,120,120770,5,2,3:2:0:0:
224,262,120953,1,2,0:1:0:0:
195,24,121136,1,10,0:0:0:0:
195,24,121227,1,8,0:0:0:0:
195,24,121319,1,2,0:1:0:0:
308,201,121502,5,0,3:2:0:0:
149,118,121685,1,2,0:0:0:0:
124,291,121867,1,0,3:0:0:0:
244,141,122050,1,10,0:0:0:0:
64,97,122233,1,2,3:2:0:0:
168,314,122416,5,10,0:1:0:0:
168,314,122508,1,8,0:1:0:0:
168,314,122599,1,2,3:2:0:0:
149,118,122782,1,10,0:1:0:0:
149,118,122874,1,8,0:1:0:0:
149,118,122965,6,0,B|256:86|224:183|337:141,1,187.000005706787,4|0,3:1|3:0,0:0:0:0:
241,243,123514,1,10,0:0:0:0:
370,67,123697,2,0,B|407:24|407:24|429:152,1,187.000005706787,2|8,3:2|0:1,0:0:0:0:
429,152,124154,1,8,0:1:0:0:
429,152,124246,1,2,0:1:0:0:
394,343,124429,6,0,L|295:333,1,93.5000028533936,2|2,3:2|0:1,0:0:0:0:
175,348,124795,1,0,3:0:0:0:
328,227,124978,1,10,0:0:0:0:
141,164,125160,2,0,L|151:256,1,93.5000028533936,2|2,3:2|0:1,0:0:0:0:
235,92,125526,1,2,3:2:0:0:
65,88,125709,1,10,0:1:0:0:
65,88,125801,1,8,0:1:0:0:
65,88,125892,6,0,B|116:52|116:52|235:92,1,187.000005706787,0|0,3:0|3:0,0:0:0:0:
337,272,126441,2,0,L|244:284,1,93.5000028533936,10|0,0:0|3:2,0:0:0:0:
141,164,126807,1,2,0:1:0:0:
328,142,126990,2,0,L|337:89,2,46.7500014266968,8|8|2,0:1|0:1|0:1,0:0:0:0:
245,311,127356,5,2,3:2:0:0:
240,140,127539,1,2,0:1:0:0:
388,210,127722,1,0,3:0:0:0:
166,242,127905,5,10,0:0:0:0:
335,95,128088,1,2,3:2:0:0:
277,301,128271,1,2,3:1:0:0:
148,147,128454,2,0,L|153:100,1,46.7500014266968,2|0,3:2|0:0,0:0:0:0:
324,26,128637,2,0,L|329:72,1,46.7500014266968,10|0,0:1|0:0,0:0:0:0:
347,236,128819,6,0,P|264:219|156:247,1,187.000005706787,2|0,3:2|3:0,0:0:0:0:
316,322,129368,1,10,0:0:0:0:
403,152,129551,2,0,L|506:138,1,93.5000028533936,2|2,3:2|0:1,0:0:0:0:
281,94,129917,2,0,P|275:117|277:141,2,46.7500014266968,8|8|2,0:1|0:1|0:1,0:0:0:0:
390,339,130282,6,0,L|507:326,1,93.5000028533936,2|2,3:2|0:1,0:0:0:0:
403,152,130648,1,0,3:0:0:0:
280,299,130831,1,10,0:0:0:0:
482,213,131014,2,0,P|496:173|493:118,1,93.5000028533936,2|2,3:2|0:1,0:0:0:0:
253,75,131380,2,0,L|367:59,1,93.5000028533936,2|10,3:2|0:1,0:0:0:0:
345,62,131654,1,8,0:1:0:0:
345,62,131745,5,2,3:2:0:0:
346,229,131928,1,2,0:1:0:0:
200,191,132111,1,2,3:2:0:0:
247,358,132294,1,6,0:0:0:0:
285,163,132477,5,0,3:2:0:0:
181,292,132660,1,2,0:1:0:0:
409,346,132843,1,10,0:0:0:0:
409,346,132934,1,8,0:0:0:0:
409,346,133026,1,2,0:1:0:0:
263,266,133209,5,0,3:0:0:0:
380,133,133392,1,2,0:0:0:0:
355,265,133574,1,0,3:0:0:0:
258,54,133757,1,10,0:0:0:0:
396,110,133940,1,2,3:2:0:0:
194,193,134123,5,10,0:0:0:0:
380,133,134306,1,6,0:0:0:0:
161,50,134489,1,10,0:0:0:0:
446,231,134673,6,0,L|471:58,1,170,2|0,3:1|0:0,0:0:0:0:
325,188,135221,2,0,L|349:356,1,170,2|0,3:1|0:0,0:0:0:0:
179,320,135770,2,0,B|142:347|142:347|20:322,1,170,2|0,3:1|0:0,0:0:0:0:
167,163,136319,2,0,B|204:136|204:136|325:160,1,170,2|0,3:1|0:0,0:0:0:0:
81,210,136868,2,0,P|61:131|121:77,1,170,2|0,3:1|0:0,0:0:0:0:
240,113,137417,2,0,P|259:191|199:245,1,170,2|0,3:1|0:0,0:0:0:0:
203,25,137965,2,0,L|381:48,1,170,2|0,3:1|3:0,0:0:0:0:
465,20,138514,1,2,3:1:0:0:
444,186,138697,2,0,P|434:133|433:93,1,85,0|0,3:0|0:0,0:0:0:0:
316,263,139063,2,0,B|409:242|382:316|475:294,1,170,2|0,3:1|3:0,0:0:0:0:
345,341,139612,2,0,P|299:356|253:377,1,85,2|0,3:1|3:0,0:0:0:0:
230,267,139978,1,0,0:0:0:0:
230,267,140160,2,0,P|189:254|150:237,1,85,2|0,3:1|0:0,0:0:0:0:
99,148,140526,1,0,3:0:0:0:
250,76,140709,1,2,3:1:0:0:
164,30,140892,2,0,L|174:137,1,85,0|0,3:0|0:0,0:0:0:0:
44,271,141258,2,0,P|25:224|104:148,1,170,2|0,3:1|3:0,0:0:0:0:
230,267,141807,2,0,L|126:262,1,85,2|0,3:1|3:0,0:0:0:0:
252,150,142173,1,0,0:0:0:0:
331,229,142356,2,0,B|340:167|340:167|372:139|372:139|386:71,1,170,2|0,3:1|3:0,0:0:0:0:
252,150,142904,1,2,3:1:0:0:
415,210,143087,1,2,3:2:0:0:
435,206,143178,1,2,0:0:0:0:
456,202,143269,1,2,0:0:0:0:
477,198,143361,1,2,0:0:0:0:
498,194,143453,6,0,L|465:375,1,170,4|0,3:1|3:0,0:0:0:0:
351,281,144002,2,0,L|260:296,1,85,2|0,0:1|3:0,0:0:0:0:
151,348,144368,1,0,0:0:0:0:
245,214,144551,2,0,P|248:173|226:132,1,85,2|0,3:1|0:0,0:0:0:0:
56,103,144917,1,0,3:0:0:0:
162,187,145099,1,2,0:1:0:0:
171,22,145282,2,0,P|151:59|154:101,1,85,2|2,3:2|0:0,0:0:0:0:
330,191,145648,6,0,P|439:167|507:156,1,170,2|0,3:1|3:0,0:0:0:0:
349,17,146197,2,0,P|338:63|336:108,1,85,8|0,0:0|3:0,0:0:0:0:
402,262,146563,1,0,0:0:0:0:
330,191,146746,2,0,P|286:184|245:183,1,85,2|0,3:1|0:0,0:0:0:0:
157,238,147112,1,0,3:0:0:0:
241,33,147295,1,10,0:0:0:0:
150,88,147478,1,0,3:0:0:0:
245,183,147660,1,2,0:0:0:0:
64,79,147843,6,0,L|248:42,1,170,4|0,3:1|3:0,0:0:0:0:
329,194,148392,2,0,L|231:181,1,85,2|0,0:1|3:0,0:0:0:0:
336,39,148758,1,0,0:0:0:0:
427,167,148941,2,0,P|429:220|411:259,1,85,8|0,0:0|0:0,0:0:0:0:
287,329,149307,2,0,L|194:338,1,85,0|10,3:0|0:0,0:0:0:0:
417,249,149673,2,0,L|507:260,1,85,2|2,3:2|0:0,0:0:0:0:
442,82,150038,6,0,P|412:80|383:89,1,59.4999981842042,2|0,3:1|0:0,0:0:0:0:
315,167,150404,1,0,3:0:0:0:
362,3,150587,6,0,P|335:17|310:48,1,68,2|0,3:1|3:0,0:0:0:0:
326,182,150953,1,2,0:0:0:0:
224,0,151136,6,0,P|215:28|221:76,1,76.4999976654053,12|0,0:0|0:0,0:0:0:0:
343,190,151502,1,0,3:0:0:0:
126,133,151685,6,0,P|146:154|198:177,1,85,14|0,0:0|3:0,0:0:0:0:
359,184,152051,1,0,0:0:0:0:
220,74,152234,5,4,3:2:0:0:
220,74,152416,1,0,3:2:0:0:
204,260,152598,1,8,0:1:0:0:
202,239,152690,1,8,0:1:0:0:
200,218,152781,1,8,0:1:0:0:
198,197,152873,1,8,0:1:0:0:
196,176,152965,6,0,L|103:189,1,93.5000028533936,4|2,3:1|0:1,0:0:0:0:
220,74,153330,1,10,0:0:0:0:
301,259,153513,2,0,P|306:212|314:166,1,93.5000028533936,2|0,0:1|3:0,0:0:0:0:
442,45,153879,1,2,0:1:0:0:
442,45,153971,1,2,0:0:0:0:
442,45,154062,2,0,P|450:91|455:137,1,93.5000028533936,10|2,0:0|0:1,0:0:0:0:
390,309,154428,5,2,3:2:0:0:
314,166,154611,1,2,0:1:0:0:
463,222,154794,1,10,0:0:0:0:
278,272,154977,2,0,L|181:296,1,93.5000028533936,2|2,0:1|3:2,0:0:0:0:
82,177,155343,1,2,0:1:0:0:
110,361,155525,1,10,0:0:0:0:
82,177,155708,1,2,0:1:0:0:
187,294,155891,6,0,L|278:272,1,93.5000028533936,2|2,3:2|0:1,0:0:0:0:
394,309,156257,1,10,0:0:0:0:
392,118,156440,2,0,L|365:208,1,93.5000028533936,2|0,0:1|3:0,0:0:0:0:
234,114,156806,2,0,L|260:23,1,93.5000028533936,2|8,0:1|0:0,0:0:0:0:
284,188,157172,1,2,0:1:0:0:
128,61,157355,5,2,3:0:0:0:
330,107,157538,1,2,0:1:0:0:
150,232,157721,5,2,3:0:0:0:
284,188,157904,1,2,0:1:0:0:
109,152,158086,5,2,3:0:0:0:
264,276,158269,1,2,0:1:0:0:
201,124,158452,5,10,0:0:0:0:
140,347,158635,1,2,0:1:0:0:
140,347,158727,1,0,0:0:0:0:
140,347,158818,2,0,B|207:337|207:337|251:370|251:370|322:357,1,187.000005706787,4|2,3:1|3:0,0:0:0:0:
445,274,159367,2,0,L|434:177,1,93.5000028533936,2|2,0:1|3:0,0:0:0:0:
468,38,159733,1,2,0:1:0:0:
468,38,159825,1,2,0:0:0:0:
468,38,159916,2,0,P|428:51|361:42,1,93.5000028533936,2|2,3:0|0:1,0:0:0:0:
198,38,160282,6,0,L|210:131,1,93.5000028533936,2|2,3:0|0:1,0:0:0:0:
313,345,160647,2,0,L|302:253,1,93.5000028533936,2|2,3:0|0:1,0:0:0:0:
186,240,160922,1,2,0:0:0:0:
186,240,161013,2,0,L|94:257,1,93.5000028533936,2|2,3:0|0:1,0:0:0:0:
326,144,161379,2,0,L|417:126,1,93.5000028533936,2|2,3:0|0:1,0:0:0:0:
432,364,161745,6,0,L|337:352,1,93.5000028533936,2|2,3:0|0:1,0:0:0:0:
186,240,162111,1,10,0:0:0:0:
326,144,162294,2,0,L|311:236,1,93.5000028533936,2|2,0:1|3:0,0:0:0:0:
200,332,162660,2,0,L|185:239,1,93.5000028533936,2|2,0:1|3:0,0:0:0:0:
242,55,163025,1,2,0:1:0:0:
416,145,163208,5,2,3:0:0:0:
244,173,163391,1,2,0:1:0:0:
425,124,163574,1,2,3:0:0:0:
326,303,163757,5,8,0:0:0:0:
326,303,163849,1,0,0:0:0:0:
326,303,163940,1,2,3:2:0:0:
336,68,164123,1,8,0:0:0:0:
506,233,164306,1,2,3:0:0:0:
337,182,164489,1,8,0:1:0:0:
337,182,164580,1,8,0:1:0:0:
337,182,164672,1,2,0:0:0:0:
86,282,176379,6,0,P|169:288|239:306,1,152.999995330811,4|0,3:1|3:0,0:0:0:0:
286,137,176928,2,0,P|217:144|214:214,1,152.999995330811,2|4,0:0|3:0,0:0:0:0:
336,325,177477,2,0,P|376:316|420:309,1,76.4999976654053,4|4,3:0|3:0,0:0:0:0:
502,111,177842,6,0,P|427:93|352:78,1,152.999995330811,2|0,3:2|3:0,0:0:0:0:
214,214,178391,2,0,P|233:167|147:129,1,152.999995330811,2|0,0:0|0:0,0:0:0:0:
70,300,178940,1,10,0:0:0:0:
80,313,179306,6,0,L|254:296,1,152.999995330811,2|0,3:2|3:0,0:0:0:0:
381,367,179854,1,2,0:0:0:0:
381,367,180038,2,0,L|395:273,2,76.4999976654053,2|4|4,3:2|3:0|3:0,0:0:0:0:
311,217,180586,1,4,3:0:0:0:
473,290,180769,5,2,3:2:0:0:
449,155,180952,2,0,L|436:79,1,76.4999976654053,2|0,0:0|3:0,0:0:0:0:
323,15,181318,2,0,B|242:-9|262:63|168:36,1,152.999995330811,2|2,0:0|0:1,0:0:0:0:
43,6,181866,1,8,0:0:0:0:
34,8,182233,6,0,L|17:160,1,152.999995330811,4|0,3:1|3:0,0:0:0:0:
76,291,182781,2,0,B|104:290|130:271|130:271|167:288|167:288|192:270|223:271,1,152.999995330811,2|4,0:0|3:0,0:0:0:0:
355,346,183330,2,0,L|365:254,1,76.4999976654053,4|4,3:0|3:0,0:0:0:0:
312,163,183696,6,0,B|270:152|242:132|242:132|227:164|190:187,1,152.999995330811,2|0,3:2|3:0,0:0:0:0:
44,95,184245,2,0,P|62:161|68:195,1,76.4999976654053,2|0,0:0|3:0,0:0:0:0:
60,267,184611,1,8,0:0:0:0:
139,86,184794,1,10,0:0:0:0:
158,318,184977,1,8,0:0:0:0:
342,180,185160,6,0,L|165:162,1,170,4|8,3:1|0:0,0:0:0:0:
271,344,185708,2,0,P|277:302|295:256,1,85,2|2,3:2|0:0,0:0:0:0:
429,157,186074,1,0,0:0:0:0:
436,341,186257,1,8,0:0:0:0:
415,336,186348,1,8,0:0:0:0:
394,332,186439,1,8,0:0:0:0:
373,327,186531,1,8,0:0:0:0:
352,323,186623,6,0,L|178:294,1,170,2|8,3:2|0:0,0:0:0:0:
26,347,187172,1,0,3:0:0:0:
136,218,187355,2,0,L|155:135,1,85,2|8,0:0|0:0,0:0:0:0:
76,11,187721,1,2,0:0:0:0:
30,159,187904,1,8,0:0:0:0:
30,159,187995,1,8,0:0:0:0:
30,159,188086,6,0,B|194:127,1,127.5,2|0,3:2|0:0,0:0:0:0:
168,144,188452,2,0,L|253:130,1,85,10|2,0:0|3:2,0:0:0:0:
226,284,188818,2,0,B|62:252,1,127.5,2|0,0:0|0:0,0:0:0:0:
86,252,189184,2,0,L|171:238,1,85,8|8,0:1|0:1,0:0:0:0:
403,229,189550,6,0,P|401:260|391:283,1,42.5,2|0,3:1|0:0,0:0:0:0:
272,170,189733,6,8,P|274:139|286:110,1,46.7500014266968,8|8,0:1|0:1,0:1:0:0:
409,12,189916,5,8,0:1:0:0:
146,134,192111,6,0,L|102:129,6,23.3750007133484,2|2|2|2|2|2|2,0:0|0:0|0:0|0:0|0:0|0:0|0:0,0:0:0:0:
161,125,192477,6,0,L|178:354,1,195.500003728867,4|0,3:1|3:0,0:0:0:0:
253,170,193025,1,8,0:0:0:0:
58,244,193208,1,2,3:2:0:0:
134,30,193391,1,2,0:1:0:0:
182,225,193574,1,2,3:2:0:0:
273,31,193757,1,10,0:1:0:0:
273,31,193849,1,8,0:1:0:0:
273,31,193940,6,0,B|340:21|340:21|387:59|387:59|473:43,1,195.500003728867,2|0,3:2|3:0,0:0:0:0:
305,252,194489,2,0,P|310:202|313:154,1,97.7500018644333,10|0,0:0|3:2,0:0:0:0:
157,35,194855,1,2,0:1:0:0:
224,199,195038,1,8,0:1:0:0:
224,199,195129,1,8,0:1:0:0:
224,199,195221,1,2,0:1:0:0:
73,238,195404,5,0,3:0:0:0:
174,124,195587,1,2,0:1:0:0:
144,299,195770,1,0,3:0:0:0:
63,145,195953,5,8,0:0:0:0:
224,228,196136,1,2,3:2:0:0:
142,44,196319,1,2,3:1:0:0:
218,276,196501,2,0,L|223:220,1,48.8750009322167,2|0,3:2|0:0,0:0:0:0:
289,53,196684,2,0,L|294:101,1,48.8750009322167,10|0,0:1|0:0,0:0:0:0:
343,249,196867,6,0,P|338:193|453:137,1,195.500003728867,2|0,3:2|3:0,0:0:0:0:
512,272,197416,1,10,0:0:0:0:
396,368,197599,2,0,B|324:349|324:349|282:366|282:366|207:352,1,195.500003728867,2|8,3:2|0:1,0:0:0:0:
207,352,198056,1,8,0:1:0:0:
207,352,198147,1,2,0:1:0:0:
225,148,198330,6,0,P|240:201|247:254,1,97.7500018644333,2|2,3:2|0:1,0:0:0:0:
66,351,198696,1,0,3:0:0:0:
149,217,198879,1,10,0:0:0:0:
207,352,199062,1,2,3:2:0:0:
42,238,199245,1,2,0:1:0:0:
225,148,199428,2,0,L|333:94,1,97.7500018644333,2|8,3:2|0:1,0:0:0:0:
312,104,199702,1,8,0:1:0:0:
312,104,199793,5,2,3:2:0:0:
225,263,199976,1,2,0:1:0:0:
227,39,200159,1,2,3:2:0:0:
397,150,200342,1,6,0:0:0:0:
225,148,200525,5,0,3:0:0:0:
420,60,200708,1,2,0:1:0:0:
412,278,200891,1,10,0:0:0:0:
412,278,200982,1,8,0:0:0:0:
412,278,201074,1,2,0:1:0:0:
181,252,201257,5,0,3:0:0:0:
307,177,201440,1,2,0:0:0:0:
241,330,201622,1,0,3:0:0:0:
139,131,201805,1,8,0:0:0:0:
317,279,201988,1,2,3:2:0:0:
243,93,202171,5,8,0:1:0:0:
243,93,202263,1,8,0:1:0:0:
243,93,202354,1,2,3:2:0:0:
124,314,202537,1,8,0:1:0:0:
124,314,202629,1,8,0:1:0:0:
124,314,202720,6,0,P|229:293|332:276,1,195.500003728867,4|0,3:1|3:0,0:0:0:0:
416,306,203270,1,10,0:0:0:0:
387,151,203452,2,0,L|367:47,1,97.7500018644333,2|2,3:2|0:1,0:0:0:0:
476,184,203818,1,8,0:1:0:0:
476,184,203910,1,8,0:1:0:0:
476,184,204001,1,2,0:1:0:0:
289,149,204184,6,0,L|183:130,2,97.7500018644333,2|2|0,3:2|0:1|3:0,0:0:0:0:
416,306,204733,1,10,0:0:0:0:
240,359,204916,2,0,L|226:262,1,97.7500018644333,2|2,3:2|0:1,0:0:0:0:
384,86,205282,2,0,L|379:195,1,97.7500018644333,2|10,3:2|0:1,0:0:0:0:
379,183,205556,1,8,0:1:0:0:
379,183,205648,6,0,P|314:205|253:83,1,195.500003728867,2|2,3:2|3:2,0:0:0:0:
461,39,206196,2,0,L|457:139,1,97.7500018644333,10|0,0:0|3:2,0:0:0:0:
303,13,206562,1,2,0:1:0:0:
307,225,206745,1,8,0:1:0:0:
307,225,206836,1,8,0:1:0:0:
307,225,206928,1,2,0:1:0:0:
369,96,207111,5,0,3:2:0:0:
211,181,207294,1,2,0:1:0:0:
303,13,207477,1,0,3:0:0:0:
317,236,207660,5,10,0:0:0:0:
183,63,207843,1,2,3:2:0:0:
369,96,208025,1,2,3:1:0:0:
222,247,208208,2,0,L|216:193,1,48.8750009322167,2|0,3:2|0:0,0:0:0:0:
303,13,208391,2,0,L|308:61,1,48.8750009322167,10|0,0:1|0:0,0:0:0:0:
317,236,208574,6,0,P|199:218|105:209,1,195.500003728867,2|0,3:2|3:0,0:0:0:0:
35,307,209123,1,10,0:0:0:0:
89,92,209306,2,0,P|112:48|137:7,1,97.7500018644333,2|2,3:2|0:1,0:0:0:0:
217,200,209672,1,8,0:1:0:0:
217,200,209763,1,8,0:1:0:0:
217,200,209855,1,2,0:1:0:0:
287,33,210038,6,0,L|383:17,1,97.7500018644333,2|2,3:2|0:1,0:0:0:0:
448,214,210404,2,0,L|352:230,1,97.7500018644333,0|10,3:0|0:0,0:0:0:0:
103,320,210769,2,0,P|117:266|140:206,1,97.7500018644333,2|2,3:2|0:1,0:0:0:0:
287,33,211135,2,0,P|303:79|315:126,1,97.7500018644333,2|10,3:2|0:1,0:0:0:0:
315,126,211410,1,8,0:1:0:0:
315,126,211501,5,2,3:2:0:0:
226,309,211684,1,2,0:1:0:0:
222,108,211867,1,2,3:2:0:0:
352,230,212050,1,6,0:0:0:0:
102,127,212233,5,0,3:2:0:0:
264,226,212416,1,2,0:1:0:0:
243,7,212599,1,10,0:0:0:0:
243,7,212690,1,8,0:0:0:0:
243,7,212782,1,2,0:1:0:0:
163,225,212964,5,2,3:2:0:0:
361,68,213147,1,2,0:0:0:0:
216,156,213330,1,2,3:2:0:0:
291,266,213513,5,10,0:0:0:0:
153,81,213696,1,2,3:2:0:0:
382,159,213879,1,10,0:1:0:0:
382,159,213971,1,8,0:1:0:0:
382,159,214062,1,2,3:2:0:0:
153,237,214245,1,10,0:1:0:0:
153,237,214336,1,8,0:1:0:0:
153,237,214428,6,0,L|74:228,1,76.4999976654053,2|0,3:2|0:0,0:0:0:0:
96,320,214794,2,0,L|175:329,1,76.4999976654053,2|0,3:2|0:0,0:0:0:0:
326,249,215160,6,0,L|334:169,1,76.4999976654053,2|0,3:2|0:0,0:0:0:0:
243,191,215526,2,0,L|234:270,1,76.4999976654053,2|0,3:2|0:0,0:0:0:0:
427,336,215891,6,0,L|506:345,1,76.4999976654053,2|0,3:2|0:0,0:0:0:0:
484,253,216257,2,0,L|405:244,1,76.4999976654053,2|0,3:2|0:0,0:0:0:0:
234,267,216623,6,0,L|243:191,1,76.4999976654053,2|0,3:2|0:0,0:0:0:0:
334,172,216989,2,0,L|326:249,1,76.4999976654053,2|0,3:2|0:0,0:0:0:0:
223,99,217355,6,0,L|144:90,1,76.4999976654053,2|0,3:2|0:0,0:0:0:0:
166,182,217721,2,0,L|245:191,1,76.4999976654053,2|0,3:2|0:0,0:0:0:0:
353,81,218086,6,0,L|432:72,1,76.4999976654053,2|0,3:2|0:0,0:0:0:0:
410,164,218452,2,0,L|331:173,1,76.4999976654053,2|0,3:2|0:0,0:0:0:0:
265,288,218818,6,0,L|269:367,1,76.4999976654053,2|0,3:2|0:0,0:0:0:0:
177,340,219184,2,0,L|172:260,1,76.4999976654053,2|0,3:2|0:0,0:0:0:0:
375,257,219550,6,0,L|370:336,1,76.4999976654053,2|0,3:2|0:0,0:0:0:0:
463,309,219916,2,0,L|467:229,1,76.4999976654053,2|0,3:2|0:0,0:0:0:0:
447,97,220282,6,0,L|490:93,2,42.5,2|2|2,0:0|0:0|0:0,0:0:0:0:
371,143,220830,2,0,L|277:134,1,85,2|2,0:0|0:0,0:0:0:0:
190,176,221379,1,2,0:0:0:0:
210,73,221562,2,0,L|216:31,1,42.5,2|0,0:0|0:0,0:0:0:0:
94,18,221928,2,0,L|110:101,1,85,2|2,0:0|0:0,0:0:0:0:
92,202,222477,2,0,L|33:194,1,42.5,2|2,0:0|0:0,0:0:0:0:
24,291,222843,2,0,L|83:283,1,42.5,2|2,0:0|0:0,0:0:0:0:
171,252,223208,6,0,L|163:336,1,85,2|2,0:0|0:0,0:0:0:0:
256,202,223757,2,0,L|263:286,1,85,2|0,0:0|0:0,0:0:0:0:
337,347,224306,2,0,L|393:338,1,42.5,2|0,0:0|0:0,0:0:0:0:
434,260,224672,1,2,0:0:0:0:
434,260,224855,2,0,L|426:175,1,85,2|2,0:0|0:0,0:0:0:0:
362,98,225404,2,0,L|357:52,2,42.5,2|2|2,0:0|0:0|0:0,0:0:0:0:
362,98,226135,6,0,L|316:103,2,42.5,2|2|2,0:0|0:0|0:0,0:0:0:0:
328,190,226684,2,0,L|243:202,1,85,2|2,0:0|0:0,0:0:0:0:
158,152,227233,1,0,0:0:0:0:
111,247,227416,2,0,L|120:295,1,42.5,2|0,0:0|0:0,0:0:0:0:
93,241,227782,2,0,L|109:329,1,85,2|2,0:0|0:0,0:0:0:0:
208,349,228330,2,0,L|264:335,1,42.5,2|2,0:0|0:0,0:0:0:0:
341,320,228696,2,0,L|382:330,1,42.5,2|2,0:0|0:0,0:0:0:0:
473,352,229062,6,0,L|488:260,1,85,2|2,0:0|0:0,0:0:0:0:
505,166,229611,2,0,L|404:185,1,85,2|0,0:0|0:0,0:0:0:0:
329,204,230160,2,0,L|333:149,1,42.5,2|0,0:0|0:0,0:0:0:0:
345,61,230525,1,2,0:0:0:0:
345,61,230708,2,0,L|244:80,1,85,2|2,0:0|0:0,0:0:0:0:
177,116,231257,6,0,L|165:63,3,42.5,2|2|2|2,0:0|0:0|0:0|0:0,0:0:0:0:
