osu file format v14

[General]
AudioFilename: audio.mp3
AudioLeadIn: 0
PreviewTime: 54297
Countdown: 0
SampleSet: Soft
StackLeniency: 0.7
Mode: 0
LetterboxInBreaks: 0
WidescreenStoryboard: 0

[Editor]
Bookmarks: 43126
DistanceSpacing: 1.3
BeatDivisor: 4
GridSize: 32
TimelineZoom: 1

[Metadata]
Title:Dakara Boku wa Boku o Tebanasu (TV Size)
TitleUnicode:だから僕は僕を手放す (TV Size)
Artist:WEAVER
ArtistUnicode:WEAVER
Creator:Firika
Version:Normal
Source:サクラダリセット
Tags:sagrada sakurada reset opening 2nd A/W japanese pop anime
BeatmapID:2336785
BeatmapSetID:1118794

[Difficulty]
HPDrainRate:3
CircleSize:3
OverallDifficulty:4
ApproachRate:5
SliderMultiplier:1.2
SliderTickRate:1

[Events]
//Background and Video events
0,0,"bg.png",0,0
//Break Periods
//Storyboard Layer 0 (Background)
//Storyboard Layer 1 (Fail)
//Storyboard Layer 2 (Pass)
//Storyboard Layer 3 (Foreground)
//Storyboard Layer 4 (Overlay)
//Storyboard Sound Samples

[TimingPoints]
1583,428.571428571429,4,2,2,20,1,0
1583,-111.111111111111,4,2,2,20,0,0
2440,-111.111111111111,4,2,2,25,0,0
3297,-111.111111111111,4,2,2,30,0,0
4154,-111.111111111111,4,2,2,35,0,0
5011,-111.111111111111,4,2,2,20,0,0
5440,-111.111111111111,4,2,2,25,0,0
5868,-111.111111111111,4,2,2,30,0,0
6297,-111.111111111111,4,2,2,40,0,0
6725,-111.111111111111,4,2,2,50,0,0
7368,-111.111111111111,4,2,2,60,0,0
7583,-111.111111111111,4,2,2,70,0,0
8440,-100,4,2,2,60,0,0
15297,-111.111111111111,4,2,5,40,0,0
29011,-100,4,2,2,50,0,0
53011,-111.111111111111,4,2,2,50,0,0
56440,-90.9090909090909,4,2,2,60,0,1
83868,-100,4,2,2,60,0,0
86440,454.545454545455,4,2,2,60,1,0

[Colours]
Combo1 : 223,159,191
Combo2 : 0,128,255
Combo3 : 213,43,213
Combo4 : 100,219,219

[HitObjects]
388,152,1583,6,0,P|430:156|458:189,1,80.9999975280762,2|0,0:2|0:0,0:0:0:0:
472,286,2225,1,2,0:0:0:0:
472,286,2440,2,0,P|447:320|403:328,1,80.9999975280762,2|0,1:2|0:0,0:0:0:0:
313,293,3083,1,2,0:0:0:0:
313,293,3297,6,0,L|232:304,1,80.9999975280762,2|0,0:2|0:0,0:0:0:0:
154,242,3940,1,2,0:0:0:0:
154,242,4154,2,0,L|165:161,1,80.9999975280763,2|0,1:2|0:0,0:0:0:0:
256,107,4797,1,2,0:2:0:0:
256,107,5011,6,0,P|243:55|212:36,1,80.9999975280762,2|2,1:2|1:2,0:0:0:0:
125,71,5654,1,2,1:2:0:0:
125,71,5868,2,0,P|79:43|43:51,1,80.9999975280762,2|2,1:2|1:2,0:0:0:0:
4,139,6511,1,2,1:2:0:0:
4,139,6725,6,0,P|33:179|38:229,1,80.9999975280762,2|2,1:2|1:2,0:0:0:0:
112,291,7368,1,2,1:2:0:0:
112,290,7583,2,0,P|188:278|246:338,1,161.999995056152,2|2,0:2|0:2,0:0:0:0:
307,379,8440,6,0,L|438:367,1,120,6|0,3:2|3:0,0:0:0:0:
484,315,9082,1,2,1:2:0:0:
484,315,9297,2,0,P|503:270|462:190,1,120,2|0,3:2|3:0,0:0:0:0:
337,144,10154,2,0,L|210:164,1,120,2|0,3:2|3:0,0:0:0:0:
176,230,10797,1,2,1:2:0:0:
176,230,11011,2,0,P|106:214|86:174,1,120,2|0,3:2|3:0,0:0:0:0:
5,41,11868,6,0,P|48:18|132:27,1,120,2|0,3:2|3:0,0:0:0:0:
184,71,12511,1,2,1:2:0:0:
184,71,12725,2,0,L|199:194,1,120,2|0,3:2|3:0,0:0:0:0:
355,187,13582,2,0,L|340:310,1,120,2|0,3:2|3:0,0:0:0:0:
279,352,14225,1,2,3:2:0:0:
279,352,14440,2,0,P|253:336|224:333,1,60,0|2,3:0|1:2,0:0:0:0:
151,361,14868,1,0,1:0:0:0:
76,244,15297,6,0,B|120:214|120:214|174:222,1,107.999996704102,4|0,3:2|3:0,0:0:0:0:
233,94,16154,2,0,B|280:117|280:117|301:167,1,107.999996704102,0|0,3:0|3:0,0:0:0:0:
441,154,17011,2,0,B|444:207|444:207|411:249,1,107.999996704102,0|0,3:0|3:0,0:0:0:0:
324,361,17868,1,0,3:0:0:0:
185,339,18297,1,0,3:0:0:0:
102,225,18725,6,0,P|86:173|102:124,1,107.999996704102,0|0,3:0|3:0,0:0:0:0:
232,179,19582,2,0,P|243:127|283:91,1,107.999996704102,0|0,3:0|3:0,0:0:0:0:
369,203,20440,2,0,P|405:163|456:152,1,107.999996704102,0|0,3:0|3:0,0:0:0:0:
481,290,21297,1,0,3:0:0:0:
357,356,21725,1,0,3:0:0:0:
255,259,22154,6,0,L|364:248,1,107.999996704102,0|0,3:0|3:0,0:0:0:0:
423,210,22797,1,10,0:0:0:0:
423,210,23011,2,0,P|446:165|436:104,1,107.999996704102,0|0,3:0|3:0,0:0:0:0:
311,49,23868,2,0,L|198:64,1,107.999996704102,0|0,3:0|3:0,0:0:0:0:
137,39,24511,1,8,0:0:0:0:
137,39,24725,2,0,P|112:86|114:139,1,107.999996704102,0|0,3:0|3:0,0:0:0:0:
157,202,25368,1,10,0:0:0:0:
157,202,25582,6,0,L|269:191,1,107.999996704102,0|0,3:0|3:0,0:0:0:0:
328,317,26440,2,0,L|216:328,1,107.999996704102,0|0,3:0|3:0,0:0:0:0:
88,375,27297,2,0,P|89:311|49:268,1,107.999996704102,0|2,3:0|3:2,0:0:0:0:
6,237,27940,2,0,L|15:176,1,53.9999983520508,10|2,0:0|3:2,0:0:0:0:
122,94,28582,1,0,3:0:0:0:
122,94,28797,1,8,1:2:0:0:
122,94,29011,6,0,P|189:117|223:105,1,90,6|2,3:2|0:2,0:0:0:0:
309,58,29654,1,2,0:2:0:0:
309,58,29868,2,0,L|410:71,1,90,2|10,3:2|0:2,0:0:0:0:
458,176,30511,1,10,0:2:0:0:
458,176,30725,2,0,L|357:189,1,90,0|2,3:0|0:0,0:0:0:0:
284,268,31368,1,2,0:0:0:0:
284,268,31582,2,0,P|234:231|163:258,1,120,2|10,3:2|1:2,0:0:0:0:
127,298,32225,1,2,0:0:0:0:
127,298,32440,6,0,L|30:289,1,90,2|2,3:2|0:2,0:0:0:0:
11,175,33082,1,2,0:2:0:0:
11,175,33297,2,0,P|41:140|95:131,1,90,2|10,3:2|0:2,0:0:0:0:
187,74,33940,1,10,0:2:0:0:
187,74,34154,2,0,P|217:109|271:118,1,90,0|2,3:0|0:0,0:0:0:0:
360,188,34797,1,2,0:0:0:0:
360,188,35011,2,0,P|372:120|425:73,1,120,2|10,3:2|1:2,0:0:0:0:
482,71,35654,1,10,0:0:0:0:
482,71,35868,6,0,L|474:165,1,90,2|2,3:2|0:0,0:0:0:0:
360,188,36511,1,2,0:0:0:0:
360,188,36725,2,0,L|374:330,1,120,2|0,3:2|1:0,0:0:0:0:
312,358,37368,1,8,0:0:0:0:
312,358,37582,2,0,P|252:333|216:332,1,90,2|2,3:2|0:0,0:0:0:0:
141,253,38225,2,0,P|105:296|39:287,1,120,2|2,0:0|0:0,0:0:0:0:
1,226,38868,2,0,L|9:157,1,60,2|2,1:2|0:0,0:0:0:0:
72,121,39297,6,0,P|113:114|190:154,1,120,2|0,3:2|1:0,0:0:0:0:
210,218,39940,1,2,0:0:0:0:
210,218,40154,2,0,L|333:231,1,120,0|0,3:0|1:0,0:0:0:0:
464,152,41011,2,0,P|469:107|393:52,1,120,4|2,3:2|1:2,0:0:0:0:
344,40,41654,2,0,L|282:50,1,60,2|2,0:0|3:2,0:0:0:0:
163,147,42297,1,2,3:2:0:0:
163,147,42511,1,2,1:2:0:0:
163,147,42725,6,0,P|184:191|190:244,1,90,6|2,3:2|0:2,0:0:0:0:
279,307,43368,1,2,0:2:0:0:
279,307,43582,2,0,L|383:295,1,90,2|10,3:2|0:2,0:0:0:0:
419,193,44225,1,10,0:2:0:0:
419,193,44440,2,0,L|315:205,1,90,0|2,3:0|0:0,0:0:0:0:
266,111,45082,1,2,0:0:0:0:
266,111,45297,2,0,L|128:99,1,120,2|10,3:2|1:2,0:0:0:0:
81,140,45940,1,2,0:0:0:0:
81,140,46154,6,0,L|68:231,1,90,2|2,3:2|0:2,0:0:0:0:
131,327,46797,1,2,0:2:0:0:
131,327,47011,2,0,P|173:317|201:274,1,90,2|10,3:2|0:2,0:0:0:0:
320,292,47654,1,10,0:2:0:0:
320,292,47868,2,0,P|342:255|332:205,1,90,0|2,3:0|0:0,0:0:0:0:
278,114,48511,1,2,0:0:0:0:
278,114,48725,2,0,L|408:104,1,120,2|10,3:2|1:2,0:0:0:0:
479,103,49368,1,10,0:0:0:0:
479,103,49582,6,0,L|488:-5,2,90,2|0|2,3:2|0:0|0:0,0:0:0:0:
472,180,50440,1,2,3:2:0:0:
349,273,50868,1,0,1:0:0:0:
349,273,51082,1,8,0:0:0:0:
349,273,51297,2,0,P|353:331|386:379,2,90,2|0|2,3:2|0:0|0:0,0:0:0:0:
215,192,52368,2,0,L|139:205,2,60,2|2|2,0:0|3:2|1:2,0:0:0:0:
266,133,53011,6,0,L|248:356,1,215.999993408203,6|2,3:2|3:2,0:0:0:0:
117,376,54297,1,2,1:2:0:0:
117,376,54511,1,2,1:2:0:0:
117,376,54725,2,0,P|91:332|98:271,1,107.999996704102,2|2,0:2|0:0,0:0:0:0:
225,223,55582,2,0,P|251:176|246:123,1,107.999996704102,2|2,0:0|0:0,0:0:0:0:
105,22,56440,6,0,B|53:31|53:31|22:66,2,99.0000030212403,6|2|2,3:2|1:2|1:2,0:0:0:0:
152,93,57297,2,0,B|111:126|111:126|103:172,2,99.0000030212403,0|10|10,3:0|0:2|0:2,0:0:0:0:
228,130,58154,2,0,B|209:179|209:179|225:223,2,99.0000030212403,2|2|2,3:2|1:2|1:2,0:0:0:0:
298,80,59011,2,0,L|432:65,1,132.00000402832,0|2,3:0|3:2,0:0:0:0:
446,236,59868,6,0,P|469:280|470:329,2,99.0000030212403,2|2|2,3:2|1:2|1:2,0:0:0:0:
368,272,60725,2,0,P|365:321|341:364,2,99.0000030212403,0|10|10,3:0|0:2|0:2,0:0:0:0:
282,262,61582,2,0,P|255:303|213:328,2,99.0000030212403,2|2|2,3:2|1:2|1:2,0:0:0:0:
237,188,62440,2,0,P|179:183|108:222,1,132.00000402832,2|8,3:2|0:3,0:0:0:0:
70,289,63082,1,8,0:3:0:0:
5,232,63297,6,0,L|19:130,1,99.0000030212403,6|2,3:2|1:2,0:0:0:0:
123,59,63940,1,2,1:2:0:0:
123,59,64154,2,0,P|171:80|222:77,1,99.0000030212403,0|10,3:0|0:0,0:0:0:0:
319,166,64797,1,10,0:2:0:0:
319,166,65011,2,0,P|367:145|418:148,2,99.0000030212403,2|2|2,3:2|1:2|1:2,0:0:0:0:
192,282,66082,2,0,L|121:291,2,66.0000020141602,2|2|10,0:0|3:2|0:2,0:0:0:0:
277,278,66725,6,0,P|297:311|295:377,2,99.0000030212403,2|2|2,3:2|1:2|1:2,0:0:0:0:
340,219,67582,2,0,P|373:237|405:295,2,99.0000030212403,2|2|2,3:2|1:2|1:2,0:0:0:0:
283,153,68440,2,0,P|223:196|148:196,1,132.00000402832,2|2,3:2|3:2,0:0:0:0:
84,174,69082,1,2,1:2:0:0:
118,95,69297,2,0,P|178:52|253:52,1,132.00000402832,2|2,3:2|3:2,0:0:0:0:
384,130,70154,6,0,B|407:89|407:89|401:37,2,99.0000030212403,6|2|2,3:2|1:2|1:2,0:0:0:0:
367,214,71011,2,0,B|414:213|414:213|455:182,2,99.0000030212403,0|10|10,3:0|0:2|0:2,0:0:0:0:
285,241,71868,2,0,B|309:281|309:281|356:302,2,99.0000030212403,2|2|2,3:2|1:2|1:2,0:0:0:0:
206,205,72725,2,0,L|59:229,1,132.00000402832,0|2,3:0|3:2,0:0:0:0:
67,54,73582,6,0,P|121:31|181:51,2,99.0000030212403,2|2|2,3:2|1:2|1:2,0:0:0:0:
127,115,74440,2,0,P|181:136|209:193,2,99.0000030212403,0|10|10,3:0|0:2|0:2,0:0:0:0:
126,200,75297,2,0,P|148:254|128:314,2,99.0000030212403,2|2|2,3:2|1:2|1:2,0:0:0:0:
39,199,76154,2,0,P|25:248|67:328,1,132.00000402832,2|8,3:2|0:3,0:0:0:0:
119,377,76797,1,8,0:3:0:0:
201,354,77011,6,0,L|300:361,1,99.0000030212403,6|2,3:2|1:2,0:0:0:0:
417,307,77654,1,2,1:2:0:0:
417,307,77868,2,0,P|423:263|378:217,1,99.0000030212403,0|10,3:0|0:0,0:0:0:0:
275,179,78511,1,10,0:2:0:0:
275,179,78725,2,0,P|269:135|314:89,2,99.0000030212403,2|2|2,3:2|1:2|1:2,0:0:0:0:
142,289,79797,2,0,L|135:356,2,66.0000020141602,2|2|10,0:0|3:2|0:2,0:0:0:0:
151,203,80440,6,0,L|34:189,2,99.0000030212403,2|2|2,3:2|1:2|1:2,0:0:0:0:
222,155,81297,2,0,L|339:141,2,99.0000030212403,2|2|2,3:2|1:2|1:2,0:0:0:0:
145,116,82154,2,0,P|137:84|215:33,1,132.00000402832,0|2,3:0|1:2,0:0:0:0:
284,63,82797,1,2,1:2:0:0:
357,18,83011,2,0,L|487:34,1,132.00000402832,8|2,0:3|1:2,0:0:0:0:
419,175,83868,6,0,P|452:203|463:246,1,90,6|2,3:2|1:2,0:0:0:0:
431,362,84511,1,2,1:2:0:0:
431,362,84725,2,0,L|324:355,1,90,2|2,3:2|1:2,0:0:0:0:
272,267,85368,1,2,1:2:0:0:
272,267,85582,2,0,L|379:260,1,90,2|2,3:2|1:2,0:0:0:0:
423,163,86225,1,2,1:2:0:0:
423,163,86440,2,0,L|432:73,2,90,2|2|2,3:2|1:2|1:2,0:0:0:0:
