osu file format v14

[General]
AudioFilename: audio.mp3
AudioLeadIn: 0
PreviewTime: 54297
Countdown: 0
SampleSet: Soft
StackLeniency: 0.2
Mode: 0
LetterboxInBreaks: 0
WidescreenStoryboard: 1

[Editor]
Bookmarks: 25019,43126
DistanceSpacing: 1.5
BeatDivisor: 4
GridSize: 8
TimelineZoom: 1.8

[Metadata]
Title:Dakara Boku wa Boku o Tebanasu (TV Size)
TitleUnicode:だから僕は僕を手放す (TV Size)
Artist:WEAVER
ArtistUnicode:WEAVER
Creator:Firika
Version:Insane
Source:サクラダリセット
Tags:sagrada sakurada reset opening 2nd A/W japanese pop anime
BeatmapID:2337162
BeatmapSetID:1118794

[Difficulty]
HPDrainRate:5
CircleSize:4
OverallDifficulty:7.5
ApproachRate:8.3
SliderMultiplier:1.8
SliderTickRate:1

[Events]
//Background and Video events
0,0,"bg.png",0,0
//Break Periods
//Storyboard Layer 0 (Background)
//Storyboard Layer 1 (Fail)
//Storyboard Layer 2 (Pass)
//Storyboard Layer 3 (Foreground)
//Storyboard Layer 4 (Overlay)
//Storyboard Sound Samples

[TimingPoints]
1583,428.571428571429,4,2,2,20,1,0
1583,-125,4,2,2,20,0,0
2440,-125,4,2,2,25,0,0
3297,-125,4,2,2,30,0,0
4154,-125,4,2,2,35,0,0
5011,-125,4,2,2,20,0,0
5440,-125,4,2,2,25,0,0
5868,-125,4,2,2,30,0,0
6297,-125,4,2,2,40,0,0
6725,-100,4,2,2,50,0,0
7368,-66.6666666666667,4,2,2,60,0,0
7583,-66.6666666666667,4,2,2,70,0,0
7797,-66.6666666666667,4,2,2,5,0,0
7904,-66.6666666666667,4,2,2,70,0,0
8118,-66.6666666666667,4,2,2,5,0,0
8225,-66.6666666666667,4,2,2,70,0,0
8333,-66.6666666666667,4,2,2,5,0,0
8440,-83.3333333333333,4,2,2,60,0,0
14440,-66.6666666666667,4,2,2,60,0,0
15297,-125,4,2,5,40,0,0
22154,-111.111111111111,4,2,5,40,0,0
28368,-200,4,2,2,40,0,0
28582,-133.333333333333,4,2,2,40,0,0
28797,-100,4,2,2,40,0,0
29011,-83.3333333333333,4,2,2,50,0,0
53011,-111.111111111111,4,2,2,50,0,0
54725,-125,4,2,2,50,0,0
56011,-125,4,2,2,50,0,0
56440,-66.6666666666667,4,2,2,60,0,1
83868,-83.3333333333333,4,2,2,60,0,0
86440,454.545454545455,4,2,2,60,1,0
86440,-66.6666666666667,4,2,2,60,0,0

[Colours]
Combo1 : 223,159,191
Combo2 : 0,128,255
Combo3 : 213,43,213
Combo4 : 100,219,219

[HitObjects]
137,311,1583,6,0,P|95:333|18:327,2,108,2|0|0,0:2|0:0|0:0,0:0:0:0:
110,206,2440,2,0,P|56:204|8:228,2,108,2|0|0,1:2|0:0|0:0,0:0:0:0:
238,266,3297,6,0,B|225:237|225:237|248:163,2,108,2|0|0,0:2|0:0|0:0,0:0:0:0:
342,284,4154,2,0,B|363:261|363:261|366:184,2,108,2|0|2,1:2|0:0|0:2,0:0:0:0:
473,322,5011,5,2,1:2:0:0:
462,333,5118,1,0,1:0:0:0:
447,343,5225,1,0,1:0:0:0:
431,351,5333,1,2,1:2:0:0:
413,357,5440,5,0,1:0:0:0:
394,361,5547,1,0,1:0:0:0:
373,364,5654,1,2,1:2:0:0:
352,364,5761,1,0,1:0:0:0:
330,360,5868,5,2,1:2:0:0:
309,352,5975,1,0,1:0:0:0:
290,340,6083,1,0,1:0:0:0:
273,323,6190,1,2,1:2:0:0:
260,303,6297,5,0,1:0:0:0:
249,280,6404,1,0,1:0:0:0:
242,254,6511,1,2,1:2:0:0:
239,227,6618,1,0,1:0:0:0:
244,199,6725,5,2,1:2:0:0:
272,214,6833,1,0,1:0:0:0:
294,242,6940,5,0,1:0:0:0:
302,281,7047,1,2,1:2:0:0:
289,323,7154,5,0,1:0:0:0:
252,354,7261,1,0,1:0:0:0:
199,358,7368,6,0,P|168:349|144:318,1,67.5000025749208,2|2,1:2|1:2,0:0:0:0:
119,209,7583,6,0,B|182:179|182:179|244:199,1,135.000005149842,2|0,0:2|0:0,0:0:0:0:
240,183,7904,6,0,B|178:163|178:163|115:193,1,135.000005149842,2|0,0:2|0:0,0:0:0:0:
37,129,8225,6,0,L|47:56,1,67.5000025749208,2|0,0:2|0:0,0:0:0:0:
186,22,8440,6,0,L|172:129,1,107.999996704102,6|0,3:2|0:0,0:0:0:0:
254,156,8761,1,2,1:2:0:0:
273,137,8868,2,0,L|259:244,1,107.999996704102,0|2,3:0|1:2,0:0:0:0:
346,381,9297,6,0,P|389:340|446:338,1,107.999996704102,2|0,3:2|0:0,0:0:0:0:
507,270,9618,1,2,1:2:0:0:
507,270,9725,2,0,P|485:254|476:229,1,53.9999983520508,0|0,3:0|0:0,0:0:0:0:
419,132,9940,5,2,1:2:0:0:
426,106,10047,1,2,0:0:0:0:
433,80,10154,2,0,L|297:98,1,107.999996704102,2|0,3:2|0:0,0:0:0:0:
267,31,10475,1,2,1:2:0:0:
278,6,10583,2,0,L|142:24,1,107.999996704102,0|2,3:0|1:2,0:0:0:0:
84,193,11011,6,0,P|114:150|101:100,1,107.999996704102,2|0,3:2|0:0,0:0:0:0:
27,44,11333,1,2,1:2:0:0:
27,44,11440,2,0,P|12:67|8:94,1,53.9999983520508,0|0,3:0|0:0,0:0:0:0:
85,194,11654,5,2,1:2:0:0:
111,197,11761,1,2,0:0:0:0:
138,201,11868,2,0,L|152:308,1,107.999996704102,2|0,3:2|0:0,0:0:0:0:
252,261,12190,1,2,1:2:0:0:
262,236,12297,2,0,L|276:343,1,107.999996704102,0|2,3:0|1:2,0:0:0:0:
505,216,12725,6,0,P|461:173|382:187,1,107.999996704102,2|0,3:2|0:0,0:0:0:0:
320,155,13047,1,2,1:2:0:0:
320,155,13154,2,0,P|323:128|340:107,1,53.9999983520508,0|0,3:0|0:0,0:0:0:0:
394,23,13368,5,2,1:2:0:0:
367,17,13475,1,2,0:0:0:0:
340,12,13583,2,0,L|227:22,1,107.999996704102,2|0,3:2|0:0,0:0:0:0:
133,71,13904,1,2,1:2:0:0:
112,54,14011,2,0,P|99:106|146:168,1,107.999996704102,0|2,3:0|3:2,0:0:0:0:
213,216,14333,1,2,1:2:0:0:
238,204,14440,6,0,B|249:231|249:231|231:264,1,67.5000025749208,0|0,3:0|0:0,0:0:0:0:
127,246,14654,2,0,B|115:218|115:218|133:185,1,67.5000025749208,2|0,1:2|0:0,0:0:0:0:
252,122,14868,5,0,1:0:0:0:
319,176,14975,2,0,P|396:184|462:126,1,135.000005149842,0|0,1:0|1:0,0:0:0:0:
466,61,15297,6,0,P|434:103|442:155,1,108,4|2,3:2|0:0,0:0:0:0:
460,178,15725,2,0,P|486:208|481:248,1,72,0|2,3:0|0:0,0:0:0:0:
424,328,16154,1,0,3:0:0:0:
323,260,16475,1,2,0:0:0:0:
329,277,16583,5,0,3:0:0:0:
258,358,16797,1,2,0:0:0:0:
258,358,16904,1,2,0:0:0:0:
258,358,17011,2,0,P|214:335|152:344,1,108,0|2,3:0|0:0,0:0:0:0:
134,328,17440,2,0,L|145:250,1,72,0|2,3:0|0:0,0:0:0:0:
60,188,17868,5,0,3:0:0:0:
56,170,17975,1,2,0:0:0:0:
127,88,18190,5,2,0:0:0:0:
123,70,18297,1,0,3:0:0:0:
211,154,18511,5,2,0:0:0:0:
229,158,18618,1,2,0:0:0:0:
247,162,18725,6,0,L|372:144,1,108,0|2,3:0|0:0,0:0:0:0:
371,125,19154,2,0,L|377:160,2,36,0|2|2,3:0|0:0|0:0,0:0:0:0:
321,251,19583,1,0,3:0:0:0:
408,321,19904,1,2,0:0:0:0:
414,304,20011,5,0,3:0:0:0:
505,247,20225,1,2,0:0:0:0:
505,247,20333,1,2,0:0:0:0:
505,247,20440,2,0,P|508:189|475:139,1,108,0|2,3:0|0:0,0:0:0:0:
461,133,20868,2,0,L|471:58,1,72,0|2,3:0|0:0,0:0:0:0:
374,12,21297,5,0,3:0:0:0:
356,16,21404,1,2,0:0:0:0:
286,98,21618,5,2,0:0:0:0:
303,101,21725,1,0,3:0:0:0:
286,71,21833,5,2,0:0:0:0:
255,53,21940,1,2,0:0:0:0:
219,52,22047,1,2,0:0:0:0:
188,69,22154,6,0,L|94:84,1,80.9999975280763,0|8,3:0|0:0,0:0:0:0:
31,176,22583,1,0,3:0:0:0:
31,176,22690,1,2,0:0:0:0:
31,176,22797,1,10,0:0:0:0:
73,289,23011,1,0,3:0:0:0:
150,197,23225,1,8,0:0:0:0:
192,310,23440,1,0,3:0:0:0:
305,268,23654,2,0,L|311:226,1,40.4999987640381,10|2,0:0|0:0,0:0:0:0:
248,164,23868,6,0,L|236:66,1,80.9999975280763,0|10,3:0|0:0,0:0:0:0:
340,17,24297,1,0,3:0:0:0:
340,17,24404,1,2,0:0:0:0:
340,17,24511,1,8,0:0:0:0:
425,102,24725,5,0,3:0:0:0:
441,89,24833,2,0,L|433:148,1,40.4999987640381,0|10,0:0|0:0,0:0:0:0:
490,200,25047,5,2,0:0:0:0:
488,220,25154,1,0,3:0:0:0:
411,314,25368,5,10,0:0:0:0:
391,316,25475,1,2,0:0:0:0:
371,318,25583,6,0,L|286:328,1,80.9999975280763,0|10,3:0|0:0,0:0:0:0:
210,338,25904,2,0,L|170:343,1,40.4999987640381,2|0,0:0|3:0,0:0:0:0:
207,219,26225,1,10,0:0:0:0:
207,219,26333,1,2,0:0:0:0:
207,219,26440,2,0,L|100:231,1,80.9999975280763,0|8,3:0|0:0,0:0:0:0:
46,238,26761,2,0,L|40:278,1,40.4999987640381,2|0,0:0|3:0,0:0:0:0:
58,134,27083,5,8,0:0:0:0:
58,134,27190,1,2,0:0:0:0:
58,134,27297,1,0,3:0:0:0:
160,69,27511,5,10,0:0:0:0:
185,101,27618,1,2,0:0:0:0:
222,117,27725,5,2,3:2:0:0:
255,120,27833,1,2,0:0:0:0:
287,113,27940,5,10,0:0:0:0:
307,99,28047,1,2,0:0:0:0:
321,79,28154,5,2,3:2:0:0:
327,64,28261,1,2,0:0:0:0:
330,48,28368,6,0,L|335:13,1,22.5,8|2,0:0|0:0,0:0:0:0:
453,25,28583,2,0,L|448:60,1,33.7500012874604,0|0,3:0|0:0,0:0:0:0:
363,185,28797,5,8,1:2:0:0:
395,154,28904,1,0,1:0:0:0:
439,150,29011,6,0,P|454:208|424:284,1,107.999996704102,6|0,3:2|0:0,0:0:0:0:
379,341,29333,1,2,0:2:0:0:
379,341,29440,2,0,P|431:337|474:369,1,107.999996704102,0|2,1:0|0:2,0:0:0:0:
312,264,29868,6,0,L|200:277,1,107.999996704102,2|2,3:2|0:0,0:0:0:0:
146,333,30190,2,0,P|122:320|95:322,1,53.9999983520508,10|0,0:2|1:0,0:0:0:0:
19,152,30511,2,0,P|42:139|69:141,1,53.9999983520508,10|0,0:2|0:0,0:0:0:0:
161,197,30725,6,0,L|173:76,2,107.999996704102,0|2|0,3:0|0:0|1:0,0:0:0:0:
305,122,31368,2,0,L|311:61,1,53.9999983520508,2|0,0:0|0:0,0:0:0:0:
406,181,31583,5,2,3:2:0:0:
413,155,31690,1,2,0:0:0:0:
430,134,31797,1,2,0:0:0:0:
453,121,31904,1,2,0:0:0:0:
479,117,32011,1,10,1:2:0:0:
311,68,32225,2,0,L|305:121,1,53.9999983520508,2|0,0:0|0:0,0:0:0:0:
215,277,32440,6,0,P|297:266|346:308,1,107.999996704102,2|0,3:2|0:0,0:0:0:0:
393,353,32761,1,2,0:2:0:0:
393,353,32868,2,0,P|408:302|455:278,1,107.999996704102,0|2,1:0|0:2,0:0:0:0:
305,121,33297,6,0,L|198:133,1,107.999996704102,2|2,3:2|0:0,0:0:0:0:
130,91,33618,2,0,P|132:68|150:28,1,53.9999983520508,10|0,0:2|1:0,0:0:0:0:
10,183,33940,2,0,P|19:208|22:234,1,53.9999983520508,10|0,0:2|0:0,0:0:0:0:
85,324,34154,6,0,P|144:294|221:315,2,107.999996704102,0|2|0,3:0|0:0|1:0,0:0:0:0:
254,217,34797,2,0,L|307:224,1,53.9999983520508,2|0,0:0|0:0,0:0:0:0:
462,354,35011,5,2,3:2:0:0:
435,352,35118,1,2,0:0:0:0:
412,339,35225,1,2,0:0:0:0:
396,317,35333,1,2,0:0:0:0:
392,291,35440,1,10,1:2:0:0:
399,265,35547,1,2,0:0:0:0:
417,245,35654,1,10,0:0:0:0:
447,217,35761,1,10,0:0:0:0:
458,177,35868,6,0,P|449:125|408:92,1,107.999996704102,2|0,3:2|0:0,0:0:0:0:
307,224,36297,1,0,1:0:0:0:
149,185,36511,1,2,0:0:0:0:
269,44,36725,6,0,P|295:90|291:143,1,107.999996704102,2|2,3:2|0:0,0:0:0:0:
307,224,37047,2,0,P|288:251|255:262,1,53.9999983520508,10|0,0:2|1:0,0:0:0:0:
99,198,37368,2,0,P|128:184|163:191,1,53.9999983520508,8|2,0:0|0:0,0:0:0:0:
244,268,37583,6,0,P|241:315|208:368,2,107.999996704102,2|2|0,3:2|0:0|1:0,0:0:0:0:
182,71,38225,2,0,P|157:60|130:59,1,53.9999983520508,2|0,0:0|0:0,0:0:0:0:
43,206,38440,5,2,3:2:0:0:
69,200,38547,1,2,0:0:0:0:
96,195,38654,1,2,0:0:0:0:
122,190,38761,1,2,0:0:0:0:
149,185,38868,2,0,L|210:173,1,53.9999983520508,2|0,1:2|0:0,0:0:0:0:
292,91,39083,1,2,0:0:0:0:
332,98,39190,1,2,0:0:0:0:
372,105,39297,6,0,B|395:244|395:244|470:231,1,215.999993408203,2|0,3:2|1:0,0:0:0:0:
504,62,39940,1,2,0:0:0:0:
332,98,40154,5,0,3:0:0:0:
292,91,40261,1,2,0:0:0:0:
206,156,40475,1,10,0:0:0:0:
213,196,40583,1,0,1:0:0:0:
335,302,40797,2,0,P|365:286|399:289,1,53.9999983520508,8|0,0:0|0:0,0:0:0:0:
249,365,41011,5,4,3:2:0:0:
127,259,41225,1,2,0:0:0:0:
110,280,41333,1,2,0:0:0:0:
86,291,41440,1,2,1:2:0:0:
60,290,41547,1,2,0:0:0:0:
36,277,41654,1,2,0:0:0:0:
22,255,41761,1,2,0:0:0:0:
19,228,41868,5,2,3:2:0:0:
27,188,41975,1,2,1:2:0:0:
35,148,42083,2,0,L|46:89,1,53.9999983520508,0|0,1:0|0:0,0:0:0:0:
64,11,42297,1,2,3:2:0:0:
152,128,42511,1,2,1:2:0:0:
192,120,42618,1,2,1:2:0:0:
232,112,42725,6,0,B|248:145|248:145|235:223,1,107.999996704102,6|0,3:2|0:0,0:0:0:0:
301,310,43047,1,2,0:2:0:0:
301,310,43154,2,0,L|420:292,1,107.999996704102,0|2,1:0|0:2,0:0:0:0:
482,149,43583,6,0,L|363:131,1,107.999996704102,2|0,3:2|0:0,0:0:0:0:
368,52,43904,2,0,P|341:55|320:72,1,53.9999983520508,10|0,0:2|1:0,0:0:0:0:
236,215,44225,2,0,P|209:211|188:194,1,53.9999983520508,10|0,0:2|0:0,0:0:0:0:
81,147,44440,6,0,P|70:86|35:39,2,107.999996704102,0|2|0,3:0|0:0|1:0,0:0:0:0:
74,309,45083,2,0,L|97:251,1,53.9999983520508,2|0,0:0|0:0,0:0:0:0:
188,194,45297,5,2,3:2:0:0:
215,190,45404,1,2,0:0:0:0:
241,195,45511,1,2,0:0:0:0:
265,207,45618,1,2,0:0:0:0:
283,227,45725,1,10,1:2:0:0:
375,361,45940,2,0,L|436:351,1,53.9999983520508,2|0,0:0|0:0,0:0:0:0:
502,264,46154,6,0,P|502:211|471:168,1,107.999996704102,2|0,3:2|0:0,0:0:0:0:
366,129,46475,1,2,0:2:0:0:
366,129,46583,2,0,L|378:13,1,107.999996704102,0|2,1:0|0:2,0:0:0:0:
178,88,47011,6,0,L|190:204,1,107.999996704102,2|2,3:2|0:0,0:0:0:0:
132,253,47333,2,0,P|107:242|81:245,1,53.9999983520508,10|0,0:2|1:0,0:0:0:0:
231,358,47654,2,0,P|255:347|281:350,1,53.9999983520508,10|0,0:2|0:0,0:0:0:0:
374,283,47868,6,0,P|418:315|470:323,2,107.999996704102,0|2|0,3:0|0:0|1:0,0:0:0:0:
290,104,48511,2,0,L|281:50,1,53.9999983520508,2|0,0:0|0:0,0:0:0:0:
442,25,48725,5,2,3:2:0:0:
448,52,48833,1,2,0:0:0:0:
446,79,48940,1,2,0:0:0:0:
437,104,49047,1,2,0:0:0:0:
422,126,49154,1,10,1:2:0:0:
242,260,49368,1,10,0:0:0:0:
202,255,49475,1,10,0:0:0:0:
162,250,49583,6,0,P|106:204|105:140,1,107.999996704102,2|0,3:2|0:0,0:0:0:0:
189,10,50011,1,0,1:0:0:0:
206,155,50225,1,2,0:0:0:0:
324,68,50440,6,0,B|345:93|345:93|334:175,1,107.999996704102,2|2,3:2|0:0,0:0:0:0:
382,232,50761,2,0,L|435:223,1,53.9999983520508,10|0,0:2|1:0,0:0:0:0:
486,364,51083,2,0,L|433:355,1,53.9999983520508,8|2,0:0|0:0,0:0:0:0:
330,297,51297,6,0,P|265:296|229:336,2,107.999996704102,2|2|0,3:2|0:0|1:0,0:0:0:0:
492,167,51940,1,2,0:0:0:0:
398,49,52154,5,2,3:2:0:0:
373,40,52261,1,2,1:2:0:0:
346,39,52368,1,2,0:0:0:0:
320,45,52475,1,2,0:2:0:0:
297,58,52583,1,2,3:2:0:0:
174,166,52797,5,2,1:2:0:0:
133,160,52904,1,2,1:2:0:0:
92,155,53011,6,0,P|22:150|43:83,1,161.999995056153,6|2,3:2|3:2,0:0:0:0:
174,166,53654,1,2,1:2:0:0:
174,166,53868,1,2,3:2:0:0:
254,222,54083,5,2,1:2:0:0:
274,218,54190,1,2,1:2:0:0:
300,217,54297,5,2,1:2:0:0:
325,223,54404,1,2,1:2:0:0:
353,239,54511,5,2,1:2:0:0:
373,265,54618,1,2,1:2:0:0:
382,296,54725,6,0,P|397:219|435:167,2,144,2|2|2,0:2|0:0|0:0,0:0:0:0:
177,334,56011,6,0,B|223:338|223:338|222:327|222:327|272:331,1,108,2|0,0:0|0:0,0:0:0:0:
382,296,56440,6,0,P|319:287|290:344,1,135.000005149842,6|0,3:2|0:0,0:0:0:0:
450,374,56761,1,2,1:2:0:0:
477,355,56868,2,0,P|493:325|493:291,1,67.5000025749208,0|0,3:0|0:0,0:0:0:0:
440,201,57083,2,0,P|410:184|376:184,1,67.5000025749208,2|0,1:2|0:0,0:0:0:0:
186,72,57297,6,0,P|173:102|188:131,2,67.5000025749208,0|2|0,3:0|0:2|0:0,0:0:0:0:
239,227,57618,2,0,P|271:222|289:195,2,67.5000025749208,10|2|0,0:2|3:2|0:0,0:0:0:0:
346,103,57940,2,0,P|325:77|293:75,1,67.5000025749208,10|0,0:2|0:0,0:0:0:0:
188,131,58154,6,0,B|143:125|143:125|126:133|126:133|52:127,1,135.000005149842,2|0,3:2|0:0,0:0:0:0:
131,260,58475,1,2,1:2:0:0:
154,284,58583,2,0,L|161:217,1,67.5000025749208,0|0,3:0|0:0,0:0:0:0:
55,128,58797,2,0,L|48:60,1,67.5000025749208,2|0,1:2|0:0,0:0:0:0:
218,8,59011,5,0,3:0:0:0:
293,75,59118,2,0,L|277:209,1,135.000005149842,2|0,0:2|1:0,0:0:0:0:
267,310,59440,2,0,L|333:298,1,67.5000025749208,2|0,3:2|0:0,0:0:0:0:
468,168,59654,1,0,1:0:0:0:
434,162,59761,1,0,1:0:0:0:
401,156,59868,6,0,P|352:199|287:188,1,135.000005149842,2|0,3:2|0:0,0:0:0:0:
187,112,60190,1,2,1:2:0:0:
162,89,60297,2,0,P|128:90|97:129,1,67.5000025749208,0|0,3:0|0:0,0:0:0:0:
160,217,60511,2,0,P|143:246|162:293,1,67.5000025749208,2|0,1:2|0:0,0:0:0:0:
256,328,60725,6,0,L|322:316,2,67.5000025749208,0|2|0,3:0|0:2|0:0,0:0:0:0:
434,227,61047,2,0,L|367:215,2,67.5000025749208,10|2|0,0:2|3:2|0:0,0:0:0:0:
295,109,61368,2,0,L|306:42,1,67.5000025749208,10|0,0:2|0:0,0:0:0:0:
160,8,61583,6,0,B|179:42|179:42|162:137,1,135.000005149842,2|0,3:2|0:0,0:0:0:0:
25,226,61904,1,2,1:2:0:0:
8,196,62011,2,0,L|83:209,1,67.5000025749208,0|0,3:0|0:0,0:0:0:0:
213,280,62225,2,0,L|138:293,1,67.5000025749208,2|2,1:2|0:0,0:0:0:0:
36,349,62440,6,0,P|61:262|147:292,1,202.500007724762,2|2,3:2|0:2,0:0:0:0:
225,366,62868,1,8,0:3:0:0:
271,361,62975,1,8,0:3:0:0:
318,356,63083,1,8,0:3:0:0:
365,351,63190,1,8,0:3:0:0:
412,346,63297,6,0,B|388:293|441:267|417:215,1,135.000005149842,6|0,3:2|0:0,0:0:0:0:
319,120,63618,1,2,1:2:0:0:
287,131,63725,2,0,P|272:172|285:206,1,67.5000025749208,0|0,3:0|0:0,0:0:0:0:
417,215,63940,2,0,P|432:174|419:140,1,67.5000025749208,2|0,1:2|0:0,0:0:0:0:
374,35,64154,5,0,3:0:0:0:
319,119,64261,2,0,P|252:124|189:100,1,135.000005149842,2|10,0:2|0:0,0:0:0:0:
130,17,64583,2,0,P|97:12|67:27,1,67.5000025749208,2|0,3:2|0:0,0:0:0:0:
51,134,64797,2,0,P|83:137|113:122,1,67.5000025749208,10|0,0:2|0:0,0:0:0:0:
206,221,65011,6,0,P|151:231|154:359,1,202.500007724762,2|2,3:2|1:2,0:0:0:0:
147,354,65440,2,0,P|185:329|273:335,1,135.000005149842,2|2,3:2|1:2,0:0:0:0:
425,352,65868,6,0,P|385:345|364:328,1,67.5000025749208,2|0,3:2|0:0,0:0:0:0:
448,227,66083,1,2,0:0:0:0:
448,227,66190,1,10,0:2:0:0:
448,226,66297,2,0,P|416:201|407:176,1,67.5000025749208,2|0,3:2|0:0,0:0:0:0:
472,80,66511,2,0,P|503:54|512:29,1,67.5000025749208,10|0,0:2|0:0,0:0:0:0:
348,37,66725,6,0,B|299:20|299:20|309:170,2,202.500007724762,2|2|2,3:2|1:2|1:2,0:0:0:0:
247,259,67583,6,0,B|332:269|332:269|355:254|355:254|446:263,2,202.500007724762,2|2|2,3:2|1:2|1:2,0:0:0:0:
102,84,68440,5,2,3:2:0:0:
84,75,68547,1,2,1:2:0:0:
61,79,68654,1,2,1:2:0:0:
44,95,68761,1,2,0:2:0:0:
36,121,68868,5,2,3:2:0:0:
44,147,68975,1,2,0:0:0:0:
67,167,69083,1,2,1:2:0:0:
97,171,69190,1,2,1:2:0:0:
129,161,69297,5,2,3:2:0:0:
158,142,69404,1,2,0:0:0:0:
194,133,69511,1,2,1:2:0:0:
231,138,69618,1,2,1:2:0:0:
266,158,69725,5,2,3:2:0:0:
293,193,69833,1,2,3:2:0:0:
336,214,69940,5,2,3:2:0:0:
386,208,70047,1,2,3:2:0:0:
428,174,70154,6,0,B|449:135|449:135|439:36,1,135.000005149842,6|0,3:2|0:0,0:0:0:0:
323,8,70475,1,2,1:2:0:0:
294,26,70583,2,0,L|301:108,1,67.5000025749208,0|0,3:0|0:0,0:0:0:0:
386,208,70797,2,0,L|468:215,1,67.5000025749208,2|0,1:2|0:0,0:0:0:0:
292,290,71011,6,0,B|292:326|292:326|266:344,2,67.5000025749208,0|2|0,3:0|0:2|0:0,0:0:0:0:
162,351,71333,2,0,B|131:333|131:333|129:302,2,67.5000025749208,10|2|0,0:2|3:2|0:0,0:0:0:0:
174,208,71654,2,0,B|205:190|205:190|234:204,1,67.5000025749208,10|0,0:2|0:0,0:0:0:0:
73,156,71868,6,0,P|66:89|32:31,1,135.000005149842,2|0,3:2|0:0,0:0:0:0:
177,73,72190,1,2,1:2:0:0:
179,39,72297,2,0,P|195:68|192:101,1,67.5000025749208,0|0,3:0|0:0,0:0:0:0:
61,219,72511,2,0,P|58:185|74:156,1,67.5000025749208,2|0,1:2|0:0,0:0:0:0:
192,101,72725,5,0,3:0:0:0:
255,181,72833,2,0,L|405:164,1,135.000005149842,2|0,0:2|1:0,0:0:0:0:
463,96,73154,2,0,L|473:21,1,67.5000025749208,2|0,3:2|0:0,0:0:0:0:
511,238,73368,5,0,1:0:0:0:
477,244,73475,1,0,1:0:0:0:
444,250,73583,2,0,P|432:300|347:308,1,135.000005149842,2|0,3:2|0:0,0:0:0:0:
244,353,73904,1,2,1:2:0:0:
218,333,74011,2,0,L|226:265,1,67.5000025749208,0|0,3:0|0:0,0:0:0:0:
124,177,74225,2,0,L|115:244,1,67.5000025749208,2|0,1:2|0:0,0:0:0:0:
42,367,74440,6,0,P|69:347|103:342,2,67.5000025749208,0|2|0,3:0|0:2|0:0,0:0:0:0:
115,244,74761,2,0,P|148:249|174:269,2,67.5000025749208,10|2|0,0:2|3:2|0:0,0:0:0:0:
252,207,75083,2,0,P|271:233|276:267,1,67.5000025749208,10|0,0:2|0:0,0:0:0:0:
431,361,75297,6,0,P|380:322|395:260,1,135.000005149842,2|0,3:2|0:0,0:0:0:0:
467,162,75618,1,2,1:2:0:0:
499,154,75725,2,0,P|477:130|445:134,1,67.5000025749208,0|0,3:0|0:0,0:0:0:0:
313,86,75940,2,0,P|335:61|367:65,1,67.5000025749208,2|2,1:2|0:0,0:0:0:0:
317,191,76154,6,0,B|243:205|243:205|221:181|221:181|127:176,1,202.500007724762,2|2,3:2|0:2,0:0:0:0:
21,94,76583,1,8,0:3:0:0:
64,77,76690,1,8,0:3:0:0:
108,91,76797,1,8,0:3:0:0:
132,130,76904,1,8,0:3:0:0:
127,176,77011,6,0,L|108:309,1,135.000005149842,6|0,3:2|0:0,0:0:0:0:
212,370,77333,1,2,1:2:0:0:
225,339,77440,2,0,L|291:330,1,67.5000025749208,0|0,3:0|0:0,0:0:0:0:
411,257,77654,2,0,L|344:248,1,67.5000025749208,2|0,1:2|0:0,0:0:0:0:
217,114,77868,5,0,3:0:0:0:
272,29,77975,2,0,P|313:80|310:146,1,135.000005149842,2|10,0:2|0:0,0:0:0:0:
220,237,78297,2,0,P|191:219|157:217,1,67.5000025749208,2|0,3:2|0:0,0:0:0:0:
94,139,78511,2,0,P|70:162|59:194,1,67.5000025749208,10|0,0:2|0:0,0:0:0:0:
43,341,78725,6,0,B|138:302|138:302|221:360,1,202.500007724762,2|2,3:2|1:2,0:0:0:0:
220,359,79154,2,0,L|238:225,1,135.000005149842,2|2,3:2|1:2,0:0:0:0:
94,139,79583,6,0,L|85:72,1,67.5000025749208,2|0,3:2|0:0,0:0:0:0:
198,23,79797,1,2,0:0:0:0:
198,23,79904,1,10,0:2:0:0:
198,23,80011,2,0,L|207:90,1,67.5000025749208,2|0,3:2|0:0,0:0:0:0:
310,146,80225,2,0,L|319:79,1,67.5000025749208,10|0,0:2|0:0,0:0:0:0:
427,15,80440,6,0,B|454:44|454:44|432:215,2,202.500007724762,2|2|2,3:2|1:2|1:2,0:0:0:0:
310,146,81297,6,0,P|244:112|139:199,2,202.500007724762,2|2|2,3:2|1:2|1:2,0:0:0:0:
421,340,82154,6,0,P|453:333|480:313,1,67.5000025749208,0|0,3:0|0:0,0:0:0:0:
433,205,82368,2,0,P|400:211|373:231,1,67.5000025749208,0|0,1:0|0:0,0:0:0:0:
303,326,82583,5,2,1:2:0:0:
268,357,82690,1,2,1:2:0:0:
223,368,82797,1,2,1:2:0:0:
178,357,82904,1,2,1:2:0:0:
142,326,83011,5,8,0:3:0:0:
138,310,83118,1,8,0:3:0:0:
133,294,83225,1,8,0:3:0:0:
128,278,83333,1,8,0:3:0:0:
123,261,83440,5,2,1:2:0:0:
159,227,83547,1,2,1:2:0:0:
164,178,83654,1,2,1:2:0:0:
136,137,83761,1,2,1:2:0:0:
89,123,83868,6,0,P|48:80|81:20,1,107.999996704102,6|0,3:2|0:0,0:0:0:0:
165,52,84190,1,2,1:2:0:0:
165,52,84297,2,0,P|172:21|195:4,1,53.9999983520508,0|0,3:0|0:0,0:0:0:0:
277,88,84511,1,2,1:2:0:0:
303,84,84618,1,2,0:0:0:0:
330,80,84725,6,0,L|314:216,1,107.999996704102,2|0,3:2|0:0,0:0:0:0:
387,240,85047,1,2,1:2:0:0:
406,221,85154,2,0,L|389:356,1,107.999996704102,0|2,3:0|1:2,0:0:0:0:
237,375,85583,6,0,P|199:336|148:323,1,107.999996704102,2|0,3:2|0:0,0:0:0:0:
49,278,85904,1,2,1:2:0:0:
49,278,86011,2,0,P|33:234|50:210,1,53.9999983520508,0|0,3:0|0:0,0:0:0:0:
132,133,86225,1,2,1:2:0:0:
158,136,86333,1,0,0:0:0:0:
185,140,86440,6,0,P|222:194|227:275,1,135.000005149842,2|0,3:2|0:0,0:0:0:0:
329,275,86780,2,0,P|357:214|412:175,1,135.000005149842,2|0,1:2|0:0,0:0:0:0:
500,226,87121,1,2,1:2:0:0:
