osu file format v14

[General]
AudioFilename: audio.mp3
AudioLeadIn: 0
PreviewTime: 54297
Countdown: 0
SampleSet: Soft
StackLeniency: 0.7
Mode: 0
LetterboxInBreaks: 0
WidescreenStoryboard: 1

[Editor]
Bookmarks: 43126
DistanceSpacing: 1.5
BeatDivisor: 4
GridSize: 4
TimelineZoom: 1

[Metadata]
Title:Dakara Boku wa Boku o Tebanasu (TV Size)
TitleUnicode:だから僕は僕を手放す (TV Size)
Artist:WEAVER
ArtistUnicode:WEAVER
Creator:Firika
Version:Hard
Source:サクラダリセット
Tags:sagrada sakurada reset opening 2nd A/W japanese pop anime
BeatmapID:2336869
BeatmapSetID:1118794

[Difficulty]
HPDrainRate:5
CircleSize:3.6
OverallDifficulty:6
ApproachRate:7
SliderMultiplier:1.4
SliderTickRate:1

[Events]
//Background and Video events
0,0,"bg.png",0,0
//Break Periods
//Storyboard Layer 0 (Background)
//Storyboard Layer 1 (Fail)
//Storyboard Layer 2 (Pass)
//Storyboard Layer 3 (Foreground)
//Storyboard Layer 4 (Overlay)
//Storyboard Sound Samples

[TimingPoints]
1583,428.571428571429,4,2,2,20,1,0
1583,-125,4,2,2,20,0,0
2440,-125,4,2,2,25,0,0
3297,-125,4,2,2,30,0,0
4154,-125,4,2,2,35,0,0
5011,-125,4,2,2,20,0,0
5440,-117.647058823529,4,2,2,25,0,0
5868,-111.111111111111,4,2,2,30,0,0
6297,-105.263157894737,4,2,2,40,0,0
6725,-100,4,2,2,50,0,0
7368,-100,4,2,2,60,0,0
7583,-125,4,2,2,70,0,0
8440,-100,4,2,2,60,0,0
15297,-111.111111111111,4,2,5,40,0,0
29011,-100,4,2,2,50,0,0
53011,-111.111111111111,4,2,2,50,0,0
56440,-83.3333333333333,4,2,2,60,0,1
83868,-100,4,2,2,60,0,0
86440,454.545454545455,4,2,2,60,1,0

[Colours]
Combo1 : 223,159,191
Combo2 : 0,128,255
Combo3 : 213,43,213
Combo4 : 100,219,219

[HitObjects]
237,292,1583,6,0,P|196:286|164:312,2,84,2|0|0,0:2|0:0|0:0,0:0:0:0:
321,236,2440,2,0,P|361:230|394:256,2,84,2|0|0,1:2|0:0|0:0,0:0:0:0:
231,190,3297,6,0,L|225:88,2,84,2|0|0,0:2|0:0|0:0,0:0:0:0:
321,236,4154,2,0,L|315:338,2,84,2|0|2,1:2|0:0|0:2,0:0:0:0:
401,174,5011,6,0,L|428:171,3,28,2|0|0|2,1:2|1:0|1:0|1:2,0:0:0:0:
376,78,5440,6,0,L|406:56,3,29.7500005674362,0|0|2|0,1:0|1:0|1:2|1:0,0:0:0:0:
286,43,5868,6,0,L|293:1,3,31.4999990386963,2|0|0|2,1:2|1:0|1:0|1:2,0:0:0:0:
185,66,6297,6,0,L|165:31,3,33.2499991121292,0|0|2|0,1:0|1:0|1:2|1:0,0:0:0:0:
118,145,6725,6,0,L|86:129,3,35,2|0|0|2,1:2|1:0|1:0|1:2,0:0:0:0:
11,176,7154,5,0,1:0:0:0:
15,200,7261,1,0,1:0:0:0:
19,224,7368,1,2,1:2:0:0:
46,240,7475,1,2,1:2:0:0:
73,256,7583,6,0,B|58:293|58:293|68:337,2,84,2|2|2,0:2|0:2|0:2,0:0:0:0:
191,192,8440,6,0,L|179:296,1,105,6|2,3:2|1:2,0:0:0:0:
195,317,8868,2,0,P|244:297|280:309,1,70,0|2,3:0|1:2,0:0:0:0:
351,362,9297,2,0,P|373:314|364:263,1,105,2|2,3:2|1:2,0:0:0:0:
378,241,9725,2,0,L|447:248,1,70,0|2,3:0|1:2,0:0:0:0:
323,142,10154,6,0,L|429:131,1,105,2|2,3:2|1:2,0:0:0:0:
453,142,10583,2,0,P|470:91|460:60,1,70,0|2,3:0|1:2,0:0:0:0:
380,5,11011,2,0,P|346:42|271:42,1,105,2|2,3:2|1:2,0:0:0:0:
269,41,11440,2,0,L|200:49,1,70,0|2,3:0|1:2,0:0:0:0:
121,169,11868,6,0,L|227:180,1,105,2|2,3:2|1:2,0:0:0:0:
243,200,12297,2,0,P|250:248|239:274,1,70,0|2,3:0|1:2,0:0:0:0:
158,340,12725,2,0,P|105:362|34:351,1,105,2|2,3:2|1:2,0:0:0:0:
34,349,13154,2,0,L|21:260,1,70,0|2,3:0|1:2,0:0:0:0:
121,169,13583,6,0,L|227:180,1,105,2|2,3:2|1:2,0:0:0:0:
243,200,14011,1,0,3:0:0:0:
327,136,14225,1,2,3:2:0:0:
327,136,14333,1,2,1:2:0:0:
327,136,14440,6,0,L|334:59,1,70,0|2,3:0|1:2,0:0:0:0:
241,13,14868,1,0,1:0:0:0:
224,18,14975,1,0,1:0:0:0:
207,22,15083,1,0,1:0:0:0:
190,26,15190,1,0,1:0:0:0:
173,28,15297,6,0,B|145:68|145:68|157:113,2,94.499997116089,4|2|2,3:2|0:0|0:0,0:0:0:0:
254,89,16154,2,0,L|349:103,2,94.499997116089,0|2|2,3:0|0:0|0:0,0:0:0:0:
165,137,17011,6,0,P|118:138|81:165,2,94.499997116089,0|2|2,3:0|0:0|0:0,0:0:0:0:
256,180,17868,1,0,3:0:0:0:
277,166,17975,2,0,L|271:231,1,62.9999980773926,2|2,0:0|0:0,0:0:0:0:
269,254,18297,1,0,3:0:0:0:
337,341,18511,5,2,0:0:0:0:
337,341,18618,1,2,0:0:0:0:
336,340,18725,2,0,P|378:362|424:355,2,94.499997116089,0|2|2,3:0|0:0|0:0,0:0:0:0:
396,258,19583,2,0,L|409:162,2,94.499997116089,0|2|2,3:0|0:0|0:0,0:0:0:0:
304,214,20440,6,0,B|257:208|257:208|215:241,2,94.499997116089,0|2|2,3:0|0:0|0:0,0:0:0:0:
408,165,21297,1,0,3:0:0:0:
427,182,21404,2,0,L|436:108,1,62.9999980773926,2|2,0:0|0:0,0:0:0:0:
438,94,21725,1,0,3:0:0:0:
362,26,21940,5,2,0:0:0:0:
362,26,22047,1,2,0:0:0:0:
362,26,22154,2,0,L|270:44,1,94.499997116089,0|0,3:0|0:0,0:0:0:0:
245,40,22583,2,0,L|259:121,1,62.9999980773926,0|10,3:0|0:0,0:0:0:0:
296,187,23011,2,0,P|295:247|251:276,1,94.499997116089,0|0,3:0|0:0,0:0:0:0:
257,289,23440,2,0,P|225:274|192:274,1,62.9999980773926,0|10,3:0|0:0,0:0:0:0:
110,307,23868,6,0,P|63:294|41:242,1,94.499997116089,0|0,3:0|0:0,0:0:0:0:
35,232,24297,2,0,L|42:169,1,62.9999980773926,0|8,3:0|0:0,0:0:0:0:
117,102,24725,1,0,3:0:0:0:
132,81,24833,2,0,L|139:144,1,62.9999980773926,2|2,0:0|0:0,0:0:0:0:
143,168,25154,1,0,3:0:0:0:
236,130,25368,5,10,0:0:0:0:
236,130,25475,1,2,0:0:0:0:
236,130,25583,2,0,P|268:129|296:142,1,62.9999980773926,0|10,3:0|0:0,0:0:0:0:
310,162,25904,1,2,0:0:0:0:
320,185,26011,2,0,L|309:266,1,62.9999980773926,0|10,3:0|0:0,0:0:0:0:
225,288,26440,2,0,L|236:369,1,62.9999980773926,0|10,3:0|0:0,0:0:0:0:
254,365,26761,1,2,0:0:0:0:
275,380,26868,2,0,P|322:359|362:363,1,62.9999980773926,0|8,3:0|0:0,0:0:0:0:
426,319,27297,6,0,L|433:236,1,62.9999980773926,0|10,3:0|0:0,0:0:0:0:
418,235,27618,1,2,0:0:0:0:
405,214,27725,2,0,L|408:169,3,31.4999990386963,2|2|10|2,3:2|0:0|0:0|0:0,0:0:0:0:
409,157,28154,2,0,L|334:166,1,62.9999980773926,2|8,3:2|0:0,0:0:0:0:
274,226,28583,1,0,3:0:0:0:
191,148,28797,5,8,1:2:0:0:
191,148,28904,1,0,1:0:0:0:
191,148,29011,2,0,P|149:120|97:124,2,105,6|2|2,3:2|0:2|0:2,0:0:0:0:
274,226,29868,2,0,P|316:197|368:201,2,105,2|10|10,3:2|0:2|0:2,0:0:0:0:
171,272,30725,6,0,L|165:379,2,105,0|2|2,3:0|0:0|0:0,0:0:0:0:
93,205,31583,1,2,3:2:0:0:
93,205,31690,1,2,0:0:0:0:
93,205,31797,1,2,0:0:0:0:
179,133,32011,1,10,1:2:0:0:
121,37,32225,5,2,0:0:0:0:
121,37,32333,1,2,0:0:0:0:
121,37,32440,2,0,B|68:27|68:27|27:58,2,105,2|2|2,3:2|0:2|0:2,0:0:0:0:
179,133,33297,2,0,B|143:173|143:173|150:224,2,105,2|10|10,3:2|0:2|0:2,0:0:0:0:
291,124,34154,6,0,L|303:3,2,105,0|2|2,3:0|0:0|0:0,0:0:0:0:
410,118,35011,1,2,3:2:0:0:
410,118,35118,1,2,0:0:0:0:
410,118,35225,1,2,0:0:0:0:
478,208,35440,2,0,P|475:242|457:272,1,70,10|10,1:2|0:0,0:0:0:0:
434,287,35761,1,10,0:0:0:0:
434,287,35868,6,0,P|383:282|344:315,2,105,2|2|2,3:2|0:0|0:0,0:0:0:0:
368,195,36725,1,2,3:2:0:0:
271,251,36940,2,0,L|266:302,2,35,2|10|0,0:0|0:2|1:0,0:0:0:0:
200,179,37368,5,8,0:0:0:0:
200,179,37475,1,2,0:0:0:0:
200,179,37583,2,0,P|187:120|149:86,2,105,2|2|2,3:2|0:0|0:0,0:0:0:0:
271,251,38440,1,2,3:2:0:0:
271,251,38547,1,2,0:0:0:0:
271,251,38654,2,0,L|265:338,1,70,2|2,0:0|1:2,0:0:0:0:
161,362,39083,1,2,0:0:0:0:
59,315,39297,6,0,B|35:284|35:284|50:167,1,140,2|0,3:2|1:0,0:0:0:0:
132,110,39940,1,2,0:0:0:0:
193,203,40154,2,0,P|253:207|296:171,1,105,0|10,3:0|0:0,0:0:0:0:
301,158,40583,2,0,L|305:78,1,70,0|8,1:0|0:0,0:0:0:0:
394,21,41011,5,4,3:2:0:0:
459,111,41225,1,2,0:0:0:0:
459,111,41333,1,2,0:0:0:0:
459,111,41440,2,0,L|512:100,2,35,2|2|2,1:2|0:0|0:0,0:0:0:0:
386,196,41868,1,2,3:2:0:0:
386,196,41975,1,2,1:2:0:0:
386,196,42083,1,0,1:0:0:0:
485,246,42297,1,2,3:2:0:0:
412,331,42511,5,2,1:2:0:0:
412,331,42618,1,2,1:2:0:0:
412,331,42725,2,0,P|471:343|502:380,2,105,6|2|2,3:2|0:2|0:2,0:0:0:0:
352,235,43583,2,0,P|411:222|442:185,2,105,2|10|10,3:2|0:2|0:2,0:0:0:0:
254,173,44440,6,0,L|248:55,2,105,0|2|2,3:0|0:0|0:0,0:0:0:0:
223,286,45297,1,2,3:2:0:0:
223,286,45404,1,2,0:0:0:0:
223,286,45511,1,2,0:0:0:0:
124,232,45725,1,10,1:2:0:0:
92,344,45940,5,2,0:0:0:0:
92,344,46047,1,2,0:0:0:0:
92,344,46154,2,0,P|59:310|-1:316,2,105,2|2|2,3:2|0:2|0:2,0:0:0:0:
193,295,47011,2,0,P|226:261|286:267,2,105,2|10|10,3:2|0:2|0:2,0:0:0:0:
103,227,47868,6,0,L|88:117,2,105,0|2|2,3:0|0:0|0:0,0:0:0:0:
201,168,48725,1,2,3:2:0:0:
201,168,48833,1,2,0:0:0:0:
201,168,48940,1,2,0:0:0:0:
205,63,49154,2,0,L|281:56,1,70,10|10,1:2|0:0,0:0:0:0:
297,39,49475,1,10,0:0:0:0:
297,39,49583,6,0,P|346:40|403:91,2,105,2|2|2,3:2|0:0|0:0,0:0:0:0:
310,150,50440,2,0,P|266:167|236:231,1,105,2|10,3:2|0:2,0:0:0:0:
233,243,50868,2,0,L|247:328,1,70,0|8,1:0|0:0,0:0:0:0:
260,327,51190,1,2,0:0:0:0:
276,342,51297,6,0,L|412:351,2,105,2|2|2,3:2|0:0|0:0,0:0:0:0:
167,371,52154,1,2,3:2:0:0:
167,371,52261,1,2,1:2:0:0:
167,371,52368,1,2,0:0:0:0:
122,267,52583,1,2,3:2:0:0:
35,335,52797,5,2,1:2:0:0:
35,335,52904,1,2,1:2:0:0:
35,335,53011,2,0,P|81:317|97:247,1,125.999996154785,6|0,3:2|3:0,0:0:0:0:
59,154,53654,1,2,1:2:0:0:
131,84,53868,1,2,3:2:0:0:
218,134,54083,5,2,1:2:0:0:
233,139,54190,1,2,1:2:0:0:
248,144,54297,1,2,1:2:0:0:
272,138,54404,1,2,1:2:0:0:
297,132,54511,1,2,1:2:0:0:
363,50,54725,1,2,0:2:0:0:
489,166,56440,6,0,L|477:264,1,83.9999974365235,6|0,3:2|0:0,0:0:0:0:
453,271,56761,1,2,1:2:0:0:
453,271,56868,2,0,P|401:239|369:246,1,83.9999974365235,0|2,3:0|1:2,0:0:0:0:
289,329,57297,1,0,3:0:0:0:
184,279,57511,1,0,0:0:0:0:
184,279,57618,1,10,0:2:0:0:
184,279,57725,2,0,L|118:294,2,41.9999987182618,2|0|10,3:2|0:0|0:2,0:0:0:0:
297,222,58154,6,0,P|303:178|287:143,1,83.9999974365235,2|0,3:2|0:0,0:0:0:0:
259,125,58475,1,2,1:2:0:0:
259,125,58583,2,0,L|175:114,1,83.9999974365235,0|2,3:0|1:2,0:0:0:0:
51,135,59011,1,0,3:0:0:0:
32,108,59119,2,0,L|41:203,1,83.9999974365235,2|0,0:2|1:0,0:0:0:0:
43,224,59440,1,2,3:2:0:0:
142,301,59654,5,0,1:0:0:0:
142,301,59761,1,0,1:0:0:0:
142,301,59868,2,0,P|185:278|239:284,1,83.9999974365235,2|0,3:2|0:0,0:0:0:0:
252,287,60190,1,2,1:2:0:0:
252,287,60297,2,0,L|261:371,1,83.9999974365235,0|2,3:0|1:2,0:0:0:0:
380,330,60725,1,0,3:0:0:0:
460,234,60940,1,0,0:0:0:0:
460,234,61047,1,10,0:2:0:0:
460,234,61154,2,0,L|508:242,2,41.9999987182618,2|0|10,3:2|0:0|0:2,0:0:0:0:
358,158,61583,6,0,L|269:172,1,83.9999974365235,2|0,3:2|0:0,0:0:0:0:
250,195,61904,1,2,1:2:0:0:
250,195,62011,2,0,P|210:202|175:181,1,83.9999974365235,0|2,3:0|1:2,0:0:0:0:
73,106,62440,2,0,P|110:70|190:57,1,125.999996154785,2|2,3:2|0:2,0:0:0:0:
214,62,62868,2,0,L|257:82,3,41.9999987182618,8|8|8|8,0:3|0:3|0:3|0:3,0:0:0:0:
284,93,63297,6,0,P|336:68|416:78,2,125.999996154785,6|2|2,3:2|1:2|1:2,0:0:0:0:
222,203,64154,2,0,P|170:178|90:188,2,125.999996154785,0|10|10,3:0|0:0|0:0,0:0:0:0:
298,303,65011,2,0,B|329:326|329:326|427:313,2,125.999996154785,2|2|2,3:2|1:2|1:2,0:0:0:0:
188,366,65868,1,2,3:2:0:0:
88,307,66083,1,2,0:0:0:0:
88,307,66190,1,10,0:0:0:0:
88,307,66297,1,2,3:2:0:0:
179,220,66511,1,10,0:0:0:0:
81,140,66725,6,0,B|60:113|60:113|74:20,2,125.999996154785,2|2|2,3:2|1:2|1:2,0:0:0:0:
179,220,67583,2,0,P|220:184|303:198,2,125.999996154785,2|2|2,3:2|1:2|1:2,0:0:0:0:
88,307,68440,2,0,L|4:299,1,83.9999974365235,2|2,3:2|1:2,0:0:0:0:
171,370,68868,5,2,3:2:0:0:
259,280,69083,1,2,1:2:0:0:
259,280,69190,1,2,1:2:0:0:
259,280,69297,2,0,L|306:289,3,41.9999987182618,2|2|2|2,3:2|0:0|1:2|1:2,0:0:0:0:
368,239,69725,2,0,L|415:248,3,41.9999987182618,2|2|2|2,3:2|3:2|3:2|3:2,0:0:0:0:
471,190,70154,6,0,L|460:106,1,83.9999974365235,6|0,3:2|0:0,0:0:0:0:
468,74,70475,1,2,1:2:0:0:
468,74,70583,2,0,P|421:51|378:62,1,83.9999974365235,0|2,3:0|1:2,0:0:0:0:
282,119,71011,1,0,3:0:0:0:
193,47,71225,1,0,0:0:0:0:
193,47,71333,1,10,0:2:0:0:
193,47,71440,2,0,L|135:55,2,41.9999987182618,2|0|10,3:2|0:0|0:2,0:0:0:0:
282,119,71868,6,0,P|285:161|268:199,1,83.9999974365235,2|0,3:2|0:0,0:0:0:0:
245,224,72190,1,2,1:2:0:0:
245,224,72297,2,0,L|161:217,1,83.9999974365235,0|2,3:0|1:2,0:0:0:0:
52,156,72725,1,0,3:0:0:0:
71,128,72833,2,0,L|62:223,1,83.9999974365235,2|0,0:2|1:0,0:0:0:0:
60,245,73154,1,2,3:2:0:0:
139,343,73368,5,0,1:0:0:0:
139,343,73475,1,0,1:0:0:0:
139,343,73583,2,0,P|188:321|240:335,1,83.9999974365235,2|0,3:2|0:0,0:0:0:0:
247,339,73904,1,2,1:2:0:0:
247,339,74011,2,0,L|255:242,1,83.9999974365235,0|2,3:0|1:2,0:0:0:0:
367,199,74440,1,0,3:0:0:0:
454,289,74654,1,0,0:0:0:0:
454,289,74761,1,10,0:2:0:0:
454,289,74868,2,0,L|503:284,2,41.9999987182618,2|0|10,3:2|0:0|0:2,0:0:0:0:
346,355,75297,6,0,L|335:271,1,83.9999974365235,2|0,3:2|0:0,0:0:0:0:
353,243,75618,1,2,1:2:0:0:
353,243,75725,2,0,P|368:195|356:154,1,83.9999974365235,0|2,3:0|1:2,0:0:0:0:
275,70,76154,2,0,P|212:64|155:90,1,125.999996154785,2|2,3:2|0:2,0:0:0:0:
132,114,76583,2,0,L|112:153,3,41.9999987182618,8|8|8|8,0:3|0:3|0:3|0:3,0:0:0:0:
98,181,77011,6,0,P|77:117|15:78,2,125.999996154785,6|2|2,3:2|1:2|1:2,0:0:0:0:
133,302,77868,2,0,P|67:288|2:322,2,125.999996154785,0|10|10,3:0|0:0|0:2,0:0:0:0:
250,254,78725,2,0,L|262:117,2,125.999996154785,2|2|2,3:2|1:2|1:2,0:0:0:0:
318,360,79583,1,2,3:2:0:0:
440,316,79797,1,2,0:0:0:0:
440,316,79904,1,10,0:0:0:0:
440,316,80011,1,2,3:2:0:0:
372,210,80225,1,10,0:2:0:0:
250,254,80440,6,0,L|262:117,2,125.999996154785,2|2|2,3:2|1:2|1:2,0:0:0:0:
124,235,81297,2,0,L|136:372,2,125.999996154785,2|2|2,3:2|1:2|1:2,0:0:0:0:
27,153,82154,2,0,P|8:108|25:61,1,83.9999974365235,0|0,3:0|1:0,0:0:0:0:
131,24,82583,5,2,1:2:0:0:
151,30,82690,1,2,1:2:0:0:
171,36,82797,1,2,1:2:0:0:
191,42,82904,1,2,1:2:0:0:
211,48,83011,2,0,L|221:97,3,41.9999987182618,8|8|8|8,0:3|0:3|0:3|0:3,0:0:0:0:
244,112,83440,2,0,L|233:199,1,83.9999974365235,2|2,1:2|1:2,0:0:0:0:
146,286,83868,6,0,P|164:334|235:342,1,105,6|2,3:2|1:2,0:0:0:0:
234,367,84297,2,0,P|262:345|296:343,1,70,0|2,3:0|1:2,0:0:0:0:
399,324,84725,2,0,L|415:194,1,105,2|2,3:2|1:2,0:0:0:0:
390,202,85154,2,0,L|379:131,1,70,0|2,3:0|1:2,0:0:0:0:
399,29,85583,6,0,P|347:26|305:57,1,105,2|2,3:2|1:2,0:0:0:0:
293,82,86011,1,0,3:0:0:0:
214,147,86225,1,2,1:2:0:0:
214,147,86333,1,0,0:0:0:0:
214,147,86440,6,0,B|217:195|217:195|222:203|222:203|214:261,2,105,2|2|2,3:2|1:2|1:2,0:0:0:0:
