osu file format v14

[General]
AudioFilename: audio.mp3
AudioLeadIn: 0
PreviewTime: -1
Countdown: 0
SampleSet: Normal
StackLeniency: 0.7
Mode: 3
LetterboxInBreaks: 0
SpecialStyle: 1
WidescreenStoryboard: 0

[Editor]
DistanceSpacing: 1.4
BeatDivisor: 4
GridSize: 32
TimelineZoom: 1.5

[Metadata]
Title:Ich mach was mit Medien
TitleUnicode:Ich mach was mit Medien
Artist:WE BUTTER THE BREAD WITH BUTTER
ArtistUnicode:WE BUTTER THE BREAD WITH BUTTER
Creator:Tona
Version:verruckt
Source:Germany
Tags:german song and there's a cat somewhere
BeatmapID:1570522
BeatmapSetID:744924

[Difficulty]
HPDrainRate:8
CircleSize:4
OverallDifficulty:8
ApproachRate:5
SliderMultiplier:1.4
SliderTickRate:1

[Events]
//Background and Video events
0,0,"maxresdefault.jpg",0,0
//Break Periods
//Storyboard Layer 0 (Background)
//Storyboard Layer 1 (Fail)
//Storyboard Layer 2 (Pass)
//Storyboard Layer 3 (Foreground)
//Storyboard Sound Samples

[TimingPoints]
397,315.789473684211,4,1,0,60,1,0

[HitObjects]
64,192,397,5,0,0:0:0:0:
192,192,397,1,0,0:0:0:0:
448,192,397,1,0,0:0:0:0:
320,192,554,1,0,0:0:0:0:
192,192,712,1,0,0:0:0:0:
64,192,712,1,0,0:0:0:0:
448,192,712,1,0,0:0:0:0:
320,192,870,1,0,0:0:0:0:
320,192,1028,1,0,0:0:0:0:
448,192,1028,1,0,0:0:0:0:
192,192,1028,1,0,0:0:0:0:
320,192,1186,1,0,0:0:0:0:
320,192,1344,1,0,0:0:0:0:
320,192,1502,1,0,0:0:0:0:
192,192,1660,1,0,0:0:0:0:
64,192,1660,1,0,0:0:0:0:
448,192,1660,1,0,0:0:0:0:
320,192,1818,1,0,0:0:0:0:
192,192,1975,1,0,0:0:0:0:
64,192,1975,1,0,0:0:0:0:
320,192,1975,1,0,0:0:0:0:
320,192,2133,1,0,0:0:0:0:
448,192,2291,1,0,0:0:0:0:
192,192,2291,1,0,0:0:0:0:
64,192,2291,1,0,0:0:0:0:
320,192,2449,1,0,0:0:0:0:
320,192,2686,1,0,0:0:0:0:
64,192,2686,1,0,0:0:0:0:
192,192,2765,1,0,0:0:0:0:
448,192,2765,1,0,0:0:0:0:
192,192,2923,1,0,0:0:0:0:
64,192,2923,1,0,0:0:0:0:
448,192,2923,1,0,0:0:0:0:
320,192,3081,1,0,0:0:0:0:
192,192,3239,1,0,0:0:0:0:
64,192,3239,1,0,0:0:0:0:
320,192,3239,1,0,0:0:0:0:
320,192,3397,1,0,0:0:0:0:
320,192,3554,1,0,0:0:0:0:
448,192,3554,1,0,0:0:0:0:
448,192,3712,128,0,4186:0:0:0:0:
192,192,3712,1,0,0:0:0:0:
192,192,4186,1,0,0:0:0:0:
64,192,4186,1,0,0:0:0:0:
320,192,4186,1,0,0:0:0:0:
320,192,4344,1,0,0:0:0:0:
192,192,4502,1,0,0:0:0:0:
64,192,4502,1,0,0:0:0:0:
448,192,4502,1,0,0:0:0:0:
320,192,4660,1,0,0:0:0:0:
320,192,4818,1,0,0:0:0:0:
448,192,4818,1,0,0:0:0:0:
192,192,4818,1,0,0:0:0:0:
320,192,4975,1,0,0:0:0:0:
320,192,5133,1,0,0:0:0:0:
448,192,5133,1,0,0:0:0:0:
64,192,5133,1,0,0:0:0:0:
64,192,5291,1,0,0:0:0:0:
192,192,5291,1,0,0:0:0:0:
320,192,5449,128,0,5607:0:0:0:0:
448,192,5607,128,0,5765:0:0:0:0:
320,192,5765,1,0,0:0:0:0:
192,192,5765,128,0,5923:0:0:0:0:
64,192,5923,128,0,6081:0:0:0:0:
448,192,6081,1,0,0:0:0:0:
320,192,6081,128,0,6239:0:0:0:0:
192,192,6239,128,0,6397:0:0:0:0:
320,192,6397,128,0,6554:0:0:0:0:
64,192,6397,1,0,0:0:0:0:
64,192,6554,128,0,6712:0:0:0:0:
192,192,6633,1,0,0:0:0:0:
448,192,6712,128,0,6870:0:0:0:0:
320,192,6712,1,0,0:0:0:0:
64,192,6870,128,0,7028:0:0:0:0:
320,192,7028,1,0,0:0:0:0:
192,192,7028,128,0,7186:0:0:0:0:
320,192,7186,128,0,7344:0:0:0:0:
448,192,7344,1,0,0:0:0:0:
64,192,7344,128,0,7502:0:0:0:0:
192,192,7502,128,0,7660:0:0:0:0:
320,192,7502,1,0,0:0:0:0:
64,192,7660,128,0,7818:0:0:0:0:
448,192,7660,1,0,0:0:0:0:
320,192,7818,1,0,0:0:0:0:
320,192,7975,128,0,8133:0:0:0:0:
192,192,8133,128,0,8291:0:0:0:0:
64,192,8291,128,0,8449:0:0:0:0:
192,192,8449,128,0,8607:0:0:0:0:
320,192,8528,1,0,0:0:0:0:
448,192,8607,1,0,0:0:0:0:
64,192,8607,128,0,8765:0:0:0:0:
320,192,8765,128,0,8923:0:0:0:0:
192,192,8923,128,0,9081:0:0:0:0:
320,192,9081,1,0,0:0:0:0:
320,192,9239,128,0,9397:0:0:0:0:
192,192,9397,128,0,9554:0:0:0:0:
64,192,9554,128,0,9712:0:0:0:0:
448,192,9554,1,0,0:0:0:0:
192,192,9712,128,0,9870:0:0:0:0:
448,192,9870,1,0,0:0:0:0:
320,192,9870,128,0,10028:0:0:0:0:
64,192,10028,128,0,10186:0:0:0:0:
192,192,10186,128,0,10344:0:0:0:0:
64,192,10344,128,0,10502:0:0:0:0:
192,192,10502,1,0,0:0:0:0:
320,192,10502,128,0,10660:0:0:0:0:
64,192,10660,1,0,0:0:0:0:
192,192,10660,128,0,10818:0:0:0:0:
320,192,10818,128,0,10975:0:0:0:0:
64,192,10975,128,0,11133:0:0:0:0:
192,192,11133,128,0,11291:0:0:0:0:
320,192,11133,1,0,0:0:0:0:
448,192,11133,1,0,0:0:0:0:
320,192,11291,1,0,0:0:0:0:
64,192,11291,128,0,11449:0:0:0:0:
192,192,11449,128,0,11607:0:0:0:0:
320,192,11528,1,0,0:0:0:0:
448,192,11607,1,0,0:0:0:0:
448,192,11765,128,0,11923:0:0:0:0:
320,192,11765,1,0,0:0:0:0:
320,192,11923,128,0,12081:0:0:0:0:
192,192,11923,1,0,0:0:0:0:
64,192,12081,128,0,12239:0:0:0:0:
448,192,12081,1,0,0:0:0:0:
192,192,12239,128,0,12397:0:0:0:0:
320,192,12239,1,0,0:0:0:0:
448,192,12397,1,0,0:0:0:0:
320,192,12397,128,0,12554:0:0:0:0:
192,192,12554,128,0,12712:0:0:0:0:
64,192,12554,1,0,0:0:0:0:
64,192,12712,128,0,12870:0:0:0:0:
448,192,12712,1,0,0:0:0:0:
192,192,12870,128,0,13028:0:0:0:0:
320,192,13028,128,0,13186:0:0:0:0:
64,192,13186,128,0,13344:0:0:0:0:
448,192,13186,1,0,0:0:0:0:
192,192,13344,128,0,13502:0:0:0:0:
320,192,13344,1,0,0:0:0:0:
64,192,13502,128,0,13660:0:0:0:0:
320,192,13581,1,0,0:0:0:0:
192,192,13660,128,0,13818:0:0:0:0:
448,192,13660,1,0,0:0:0:0:
320,192,13818,128,0,13975:0:0:0:0:
192,192,13975,128,0,14133:0:0:0:0:
448,192,14291,128,0,15554:0:0:0:0:
320,192,14291,128,0,15475:0:0:0:0:
192,192,14291,128,0,15397:0:0:0:0:
64,192,14291,128,0,15318:0:0:0:0:
192,192,15554,1,0,0:0:0:0:
64,192,15554,1,0,0:0:0:0:
320,192,15554,128,0,15712:0:0:0:0:
448,192,15712,128,0,15870:0:0:0:0:
192,192,15712,1,0,0:0:0:0:
64,192,15870,1,0,0:0:0:0:
192,192,15870,1,0,0:0:0:0:
320,192,15870,1,0,0:0:0:0:
64,192,16028,1,0,0:0:0:0:
320,192,16028,1,0,0:0:0:0:
448,192,16028,1,0,0:0:0:0:
192,192,16186,1,0,0:0:0:0:
320,192,16186,1,0,0:0:0:0:
448,192,16186,1,0,0:0:0:0:
192,192,16344,1,0,0:0:0:0:
448,192,16344,1,0,0:0:0:0:
320,192,16502,1,0,0:0:0:0:
192,192,16502,1,0,0:0:0:0:
320,192,16660,1,0,0:0:0:0:
448,192,16660,1,0,0:0:0:0:
320,192,16818,128,0,16975:0:0:0:0:
192,192,16818,1,0,0:0:0:0:
64,192,16818,1,0,0:0:0:0:
64,192,16975,1,0,0:0:0:0:
192,192,16975,128,0,17133:0:0:0:0:
320,192,17133,1,0,0:0:0:0:
64,192,17291,1,0,0:0:0:0:
448,192,17291,1,0,0:0:0:0:
320,192,17291,1,0,0:0:0:0:
64,192,17449,1,0,0:0:0:0:
320,192,17449,1,0,0:0:0:0:
64,192,17607,1,0,0:0:0:0:
448,192,17607,1,0,0:0:0:0:
192,192,17607,1,0,0:0:0:0:
192,192,17765,1,0,0:0:0:0:
320,192,17765,1,0,0:0:0:0:
448,192,17765,1,0,0:0:0:0:
64,192,17923,1,0,0:0:0:0:
320,192,17923,1,0,0:0:0:0:
64,192,18081,1,0,0:0:0:0:
448,192,18081,1,0,0:0:0:0:
320,192,18081,128,0,18239:0:0:0:0:
192,192,18239,128,0,18397:0:0:0:0:
448,192,18397,1,0,0:0:0:0:
320,192,18397,1,0,0:0:0:0:
64,192,18397,1,0,0:0:0:0:
320,192,18554,1,0,0:0:0:0:
448,192,18554,1,0,0:0:0:0:
192,192,18554,1,0,0:0:0:0:
64,192,18712,1,0,0:0:0:0:
320,192,18712,1,0,0:0:0:0:
448,192,18712,1,0,0:0:0:0:
192,192,18870,1,0,0:0:0:0:
64,192,19028,1,0,0:0:0:0:
320,192,19028,1,0,0:0:0:0:
448,192,19028,1,0,0:0:0:0:
192,192,19186,1,0,0:0:0:0:
64,192,19344,1,0,0:0:0:0:
192,192,19344,1,0,0:0:0:0:
320,192,19423,1,0,0:0:0:0:
448,192,19423,1,0,0:0:0:0:
192,192,19502,1,0,0:0:0:0:
64,192,19502,1,0,0:0:0:0:
64,192,19660,1,0,0:0:0:0:
320,192,19660,1,0,0:0:0:0:
448,192,19660,1,0,0:0:0:0:
64,192,19818,128,0,20133:0:0:0:0:
320,192,19818,128,0,20133:0:0:0:0:
192,192,19818,1,0,0:0:0:0:
192,192,20133,128,0,20449:0:0:0:0:
448,192,20133,128,0,20449:0:0:0:0:
320,192,20449,1,0,0:0:0:0:
64,192,20449,1,0,0:0:0:0:
320,192,20607,128,0,20765:0:0:0:0:
448,192,20607,1,0,0:0:0:0:
192,192,20607,1,0,0:0:0:0:
192,192,20765,128,0,20923:0:0:0:0:
448,192,20765,1,0,0:0:0:0:
320,192,20923,1,0,0:0:0:0:
320,192,21081,1,0,0:0:0:0:
64,192,21081,1,0,0:0:0:0:
192,192,21081,1,0,0:0:0:0:
192,192,21239,1,0,0:0:0:0:
320,192,21239,1,0,0:0:0:0:
448,192,21239,1,0,0:0:0:0:
192,192,21397,1,0,0:0:0:0:
64,192,21397,1,0,0:0:0:0:
448,192,21397,1,0,0:0:0:0:
64,192,21554,1,0,0:0:0:0:
320,192,21554,1,0,0:0:0:0:
448,192,21554,1,0,0:0:0:0:
64,192,21712,1,0,0:0:0:0:
320,192,21712,1,0,0:0:0:0:
192,192,21712,1,0,0:0:0:0:
320,192,21870,128,0,22028:0:0:0:0:
448,192,21870,1,0,0:0:0:0:
192,192,21870,1,0,0:0:0:0:
192,192,22028,128,0,22186:0:0:0:0:
64,192,22028,1,0,0:0:0:0:
320,192,22186,1,0,0:0:0:0:
448,192,22186,1,0,0:0:0:0:
192,192,22344,1,0,0:0:0:0:
448,192,22344,1,0,0:0:0:0:
320,192,22344,1,0,0:0:0:0:
64,192,22502,1,0,0:0:0:0:
320,192,22502,1,0,0:0:0:0:
448,192,22502,1,0,0:0:0:0:
64,192,22660,1,0,0:0:0:0:
320,192,22660,1,0,0:0:0:0:
448,192,22660,1,0,0:0:0:0:
320,192,22818,1,0,0:0:0:0:
192,192,22818,1,0,0:0:0:0:
320,192,22975,1,0,0:0:0:0:
192,192,23054,1,0,0:0:0:0:
320,192,23133,128,0,23291:0:0:0:0:
448,192,23133,1,0,0:0:0:0:
64,192,23133,1,0,0:0:0:0:
448,192,23291,128,0,23449:0:0:0:0:
192,192,23291,1,0,0:0:0:0:
320,192,23449,1,0,0:0:0:0:
64,192,23449,1,0,0:0:0:0:
320,192,23607,1,0,0:0:0:0:
64,192,23607,1,0,0:0:0:0:
320,192,23765,1,0,0:0:0:0:
448,192,23765,1,0,0:0:0:0:
64,192,23765,1,0,0:0:0:0:
64,192,23923,1,0,0:0:0:0:
192,192,23923,1,0,0:0:0:0:
448,192,23923,1,0,0:0:0:0:
64,192,24081,1,0,0:0:0:0:
192,192,24081,1,0,0:0:0:0:
320,192,24081,1,0,0:0:0:0:
448,192,24239,1,0,0:0:0:0:
320,192,24239,1,0,0:0:0:0:
64,192,24239,1,0,0:0:0:0:
448,192,24397,1,0,0:0:0:0:
320,192,24397,1,0,0:0:0:0:
64,192,24475,1,0,0:0:0:0:
192,192,24475,1,0,0:0:0:0:
320,192,24554,1,0,0:0:0:0:
448,192,24554,1,0,0:0:0:0:
192,192,24633,1,0,0:0:0:0:
320,192,24712,1,0,0:0:0:0:
64,192,24712,1,0,0:0:0:0:
192,192,24791,1,0,0:0:0:0:
448,192,24870,1,0,0:0:0:0:
64,192,24870,128,0,25186:0:0:0:0:
320,192,24870,128,0,25186:0:0:0:0:
192,192,25186,128,0,25660:0:0:0:0:
448,192,25186,128,0,25660:0:0:0:0:
320,192,25660,1,0,0:0:0:0:
64,192,25660,128,0,29449:0:0:0:0:
320,192,25818,1,0,0:0:0:0:
192,192,25975,1,0,0:0:0:0:
320,192,25975,1,0,0:0:0:0:
448,192,25975,1,0,0:0:0:0:
320,192,26133,1,0,0:0:0:0:
320,192,26291,1,0,0:0:0:0:
320,192,26449,1,0,0:0:0:0:
448,192,26449,1,0,0:0:0:0:
192,192,26607,1,0,0:0:0:0:
448,192,26607,1,0,0:0:0:0:
320,192,26607,1,0,0:0:0:0:
320,192,26765,1,0,0:0:0:0:
320,192,26923,1,0,0:0:0:0:
192,192,27081,1,0,0:0:0:0:
320,192,27081,1,0,0:0:0:0:
192,192,27239,1,0,0:0:0:0:
448,192,27239,1,0,0:0:0:0:
192,192,27397,1,0,0:0:0:0:
448,192,27397,1,0,0:0:0:0:
320,192,27554,1,0,0:0:0:0:
192,192,27712,1,0,0:0:0:0:
448,192,27712,1,0,0:0:0:0:
448,192,27870,1,0,0:0:0:0:
320,192,27870,1,0,0:0:0:0:
320,192,28028,1,0,0:0:0:0:
192,192,28186,1,0,0:0:0:0:
320,192,28186,1,0,0:0:0:0:
320,192,28344,1,0,0:0:0:0:
320,192,28502,1,0,0:0:0:0:
448,192,28502,1,0,0:0:0:0:
192,192,28660,1,0,0:0:0:0:
192,192,28818,1,0,0:0:0:0:
320,192,28818,1,0,0:0:0:0:
448,192,28975,1,0,0:0:0:0:
320,192,28975,1,0,0:0:0:0:
192,192,29133,1,0,0:0:0:0:
448,192,29133,1,0,0:0:0:0:
320,192,29291,1,0,0:0:0:0:
192,192,29449,1,0,0:0:0:0:
320,192,29449,1,0,0:0:0:0:
448,192,29449,1,0,0:0:0:0:
320,192,29607,1,0,0:0:0:0:
192,192,29607,128,0,30712:0:0:0:0:
320,192,29765,1,0,0:0:0:0:
448,192,29765,1,0,0:0:0:0:
64,192,29923,1,0,0:0:0:0:
320,192,30081,1,0,0:0:0:0:
448,192,30081,1,0,0:0:0:0:
320,192,30239,1,0,0:0:0:0:
64,192,30397,1,0,0:0:0:0:
448,192,30554,1,0,0:0:0:0:
448,192,30712,1,0,0:0:0:0:
320,192,30712,1,0,0:0:0:0:
64,192,30712,128,0,33239:0:0:0:0:
192,192,31028,1,0,0:0:0:0:
320,192,31028,1,0,0:0:0:0:
448,192,31028,1,0,0:0:0:0:
320,192,31344,1,0,0:0:0:0:
192,192,31502,1,0,0:0:0:0:
448,192,31502,1,0,0:0:0:0:
192,192,31660,1,0,0:0:0:0:
320,192,31660,1,0,0:0:0:0:
448,192,31660,1,0,0:0:0:0:
192,192,31975,1,0,0:0:0:0:
320,192,31975,1,0,0:0:0:0:
320,192,32133,1,0,0:0:0:0:
448,192,32133,1,0,0:0:0:0:
192,192,32291,1,0,0:0:0:0:
320,192,32291,1,0,0:0:0:0:
448,192,32291,1,0,0:0:0:0:
192,192,32449,1,0,0:0:0:0:
448,192,32449,1,0,0:0:0:0:
192,192,32765,1,0,0:0:0:0:
320,192,32765,1,0,0:0:0:0:
448,192,32923,1,0,0:0:0:0:
320,192,32923,1,0,0:0:0:0:
192,192,33002,1,0,0:0:0:0:
448,192,33081,1,0,0:0:0:0:
320,192,33081,1,0,0:0:0:0:
448,192,33239,128,0,34502:0:0:0:0:
192,192,33239,128,0,34186:0:0:0:0:
320,192,33239,128,0,33870:0:0:0:0:
64,192,33554,1,0,0:0:0:0:
64,192,33870,1,0,0:0:0:0:
64,192,34186,1,0,0:0:0:0:
192,192,34344,1,0,0:0:0:0:
320,192,34502,1,0,0:0:0:0:
64,192,34502,1,0,0:0:0:0:
192,192,34502,128,0,35133:0:0:0:0:
320,192,34818,1,0,0:0:0:0:
64,192,35133,128,0,35765:0:0:0:0:
320,192,35133,1,0,0:0:0:0:
448,192,35133,1,0,0:0:0:0:
192,192,35449,1,0,0:0:0:0:
192,192,35607,1,0,0:0:0:0:
320,192,35607,1,0,0:0:0:0:
192,192,35765,1,0,0:0:0:0:
320,192,35765,128,0,36081:0:0:0:0:
448,192,35844,128,0,36081:0:0:0:0:
192,192,36081,1,0,0:0:0:0:
64,192,36239,1,0,0:0:0:0:
192,192,36239,1,0,0:0:0:0:
320,192,36239,1,0,0:0:0:0:
192,192,36397,1,0,0:0:0:0:
320,192,36397,1,0,0:0:0:0:
448,192,36397,1,0,0:0:0:0:
64,192,36554,1,0,0:0:0:0:
448,192,36554,1,0,0:0:0:0:
320,192,36554,1,0,0:0:0:0:
64,192,36712,1,0,0:0:0:0:
448,192,36712,1,0,0:0:0:0:
192,192,36712,1,0,0:0:0:0:
448,192,36870,1,0,0:0:0:0:
64,192,36870,1,0,0:0:0:0:
192,192,36949,1,0,0:0:0:0:
320,192,36949,1,0,0:0:0:0:
64,192,37028,1,0,0:0:0:0:
448,192,37028,1,0,0:0:0:0:
320,192,37186,128,0,37502:0:0:0:0:
192,192,37186,1,0,0:0:0:0:
448,192,37265,128,0,37502:0:0:0:0:
192,192,37344,1,0,0:0:0:0:
64,192,37344,1,0,0:0:0:0:
64,192,37502,1,0,0:0:0:0:
192,192,37502,1,0,0:0:0:0:
64,192,37660,1,0,0:0:0:0:
192,192,37660,1,0,0:0:0:0:
320,192,37660,1,0,0:0:0:0:
192,192,37818,1,0,0:0:0:0:
320,192,37818,1,0,0:0:0:0:
448,192,37818,1,0,0:0:0:0:
192,192,37975,1,0,0:0:0:0:
64,192,37975,1,0,0:0:0:0:
448,192,37975,1,0,0:0:0:0:
64,192,38133,1,0,0:0:0:0:
192,192,38133,1,0,0:0:0:0:
320,192,38133,1,0,0:0:0:0:
320,192,38291,128,0,38607:0:0:0:0:
448,192,38370,128,0,38607:0:0:0:0:
192,192,38449,1,0,0:0:0:0:
64,192,38449,1,0,0:0:0:0:
64,192,38607,1,0,0:0:0:0:
192,192,38686,1,0,0:0:0:0:
320,192,38765,1,0,0:0:0:0:
448,192,38765,1,0,0:0:0:0:
64,192,38923,1,0,0:0:0:0:
448,192,38923,1,0,0:0:0:0:
320,192,38923,1,0,0:0:0:0:
64,192,39081,1,0,0:0:0:0:
192,192,39081,1,0,0:0:0:0:
320,192,39081,1,0,0:0:0:0:
192,192,39239,1,0,0:0:0:0:
320,192,39239,1,0,0:0:0:0:
448,192,39239,1,0,0:0:0:0:
320,192,39397,1,0,0:0:0:0:
64,192,39397,1,0,0:0:0:0:
192,192,39397,1,0,0:0:0:0:
64,192,39554,1,0,0:0:0:0:
192,192,39554,1,0,0:0:0:0:
320,192,39633,1,0,0:0:0:0:
448,192,39633,1,0,0:0:0:0:
192,192,39712,1,0,0:0:0:0:
64,192,39712,1,0,0:0:0:0:
64,192,39870,1,0,0:0:0:0:
320,192,39870,1,0,0:0:0:0:
192,192,39870,1,0,0:0:0:0:
192,192,40028,128,0,40186:0:0:0:0:
448,192,40028,1,0,0:0:0:0:
320,192,40186,1,0,0:0:0:0:
64,192,40186,128,0,40502:0:0:0:0:
192,192,40344,128,0,40502:0:0:0:0:
320,192,40502,1,0,0:0:0:0:
192,192,40660,1,0,0:0:0:0:
320,192,40660,1,0,0:0:0:0:
320,192,40818,128,0,41133:0:0:0:0:
448,192,40897,128,0,41133:0:0:0:0:
192,192,40975,1,0,0:0:0:0:
64,192,40975,1,0,0:0:0:0:
192,192,41133,1,0,0:0:0:0:
64,192,41133,1,0,0:0:0:0:
64,192,41291,1,0,0:0:0:0:
192,192,41291,1,0,0:0:0:0:
448,192,41291,1,0,0:0:0:0:
448,192,41449,1,0,0:0:0:0:
64,192,41449,1,0,0:0:0:0:
320,192,41449,1,0,0:0:0:0:
64,192,41607,1,0,0:0:0:0:
192,192,41607,1,0,0:0:0:0:
320,192,41607,1,0,0:0:0:0:
192,192,41765,1,0,0:0:0:0:
320,192,41765,1,0,0:0:0:0:
192,192,41923,1,0,0:0:0:0:
64,192,41923,1,0,0:0:0:0:
320,192,41923,1,0,0:0:0:0:
320,192,42081,128,0,42397:0:0:0:0:
192,192,42160,1,0,0:0:0:0:
448,192,42160,128,0,42397:0:0:0:0:
64,192,42239,1,0,0:0:0:0:
192,192,42397,1,0,0:0:0:0:
64,192,42397,1,0,0:0:0:0:
64,192,42554,1,0,0:0:0:0:
320,192,42554,1,0,0:0:0:0:
192,192,42712,1,0,0:0:0:0:
320,192,42712,1,0,0:0:0:0:
448,192,42712,1,0,0:0:0:0:
64,192,42870,1,0,0:0:0:0:
192,192,42870,1,0,0:0:0:0:
192,192,43028,1,0,0:0:0:0:
320,192,43028,1,0,0:0:0:0:
448,192,43028,1,0,0:0:0:0:
192,192,43186,1,0,0:0:0:0:
64,192,43186,1,0,0:0:0:0:
320,192,43344,128,0,43660:0:0:0:0:
192,192,43423,1,0,0:0:0:0:
448,192,43423,128,0,43660:0:0:0:0:
64,192,43502,1,0,0:0:0:0:
64,192,43660,1,0,0:0:0:0:
64,192,43818,1,0,0:0:0:0:
192,192,43818,1,0,0:0:0:0:
448,192,43818,1,0,0:0:0:0:
192,192,43975,1,0,0:0:0:0:
320,192,43975,1,0,0:0:0:0:
64,192,44133,1,0,0:0:0:0:
192,192,44133,1,0,0:0:0:0:
320,192,44133,1,0,0:0:0:0:
192,192,44291,1,0,0:0:0:0:
448,192,44291,1,0,0:0:0:0:
192,192,44449,1,0,0:0:0:0:
320,192,44449,1,0,0:0:0:0:
448,192,44607,1,0,0:0:0:0:
192,192,44607,1,0,0:0:0:0:
320,192,44686,1,0,0:0:0:0:
64,192,44686,1,0,0:0:0:0:
192,192,44765,1,0,0:0:0:0:
448,192,44765,1,0,0:0:0:0:
64,192,44923,1,0,0:0:0:0:
192,192,44923,1,0,0:0:0:0:
320,192,44923,1,0,0:0:0:0:
192,192,45081,128,0,45397:0:0:0:0:
448,192,45081,128,0,45397:0:0:0:0:
320,192,45081,1,0,0:0:0:0:
64,192,45081,1,0,0:0:0:0:
64,192,45397,128,0,45712:0:0:0:0:
320,192,45397,128,0,45712:0:0:0:0:
192,192,45712,1,0,0:0:0:0:
448,192,45712,1,0,0:0:0:0:
192,192,45870,1,0,0:0:0:0:
320,192,45870,128,0,46186:0:0:0:0:
192,192,46028,1,0,0:0:0:0:
64,192,46186,1,0,0:0:0:0:
192,192,46186,1,0,0:0:0:0:
448,192,46186,1,0,0:0:0:0:
64,192,46344,1,0,0:0:0:0:
320,192,46344,1,0,0:0:0:0:
192,192,46502,1,0,0:0:0:0:
448,192,46502,1,0,0:0:0:0:
320,192,46502,1,0,0:0:0:0:
64,192,46660,1,0,0:0:0:0:
320,192,46660,1,0,0:0:0:0:
192,192,46818,1,0,0:0:0:0:
320,192,46818,1,0,0:0:0:0:
448,192,46818,1,0,0:0:0:0:
64,192,46975,1,0,0:0:0:0:
320,192,46975,1,0,0:0:0:0:
448,192,46975,1,0,0:0:0:0:
192,192,47133,1,0,0:0:0:0:
448,192,47133,128,0,47449:0:0:0:0:
64,192,47212,1,0,0:0:0:0:
320,192,47212,128,0,47449:0:0:0:0:
192,192,47291,1,0,0:0:0:0:
192,192,47449,1,0,0:0:0:0:
64,192,47449,1,0,0:0:0:0:
64,192,47607,1,0,0:0:0:0:
192,192,47607,1,0,0:0:0:0:
320,192,47765,1,0,0:0:0:0:
448,192,47765,1,0,0:0:0:0:
64,192,47765,1,0,0:0:0:0:
64,192,47923,1,0,0:0:0:0:
320,192,47923,1,0,0:0:0:0:
64,192,48081,1,0,0:0:0:0:
320,192,48081,1,0,0:0:0:0:
448,192,48081,1,0,0:0:0:0:
192,192,48239,1,0,0:0:0:0:
448,192,48239,128,0,48554:0:0:0:0:
320,192,48318,128,0,48554:0:0:0:0:
64,192,48397,1,0,0:0:0:0:
192,192,48554,1,0,0:0:0:0:
64,192,48712,1,0,0:0:0:0:
192,192,48712,1,0,0:0:0:0:
320,192,48712,1,0,0:0:0:0:
64,192,48870,1,0,0:0:0:0:
448,192,48870,1,0,0:0:0:0:
192,192,49028,1,0,0:0:0:0:
320,192,49028,1,0,0:0:0:0:
448,192,49028,1,0,0:0:0:0:
64,192,49186,1,0,0:0:0:0:
320,192,49186,1,0,0:0:0:0:
192,192,49344,1,0,0:0:0:0:
448,192,49344,1,0,0:0:0:0:
64,192,49344,1,0,0:0:0:0:
192,192,49502,1,0,0:0:0:0:
448,192,49502,1,0,0:0:0:0:
64,192,49660,1,0,0:0:0:0:
320,192,49660,1,0,0:0:0:0:
192,192,49739,1,0,0:0:0:0:
448,192,49739,1,0,0:0:0:0:
320,192,49818,1,0,0:0:0:0:
64,192,49818,1,0,0:0:0:0:
192,192,49975,1,0,0:0:0:0:
320,192,49975,1,0,0:0:0:0:
448,192,49975,1,0,0:0:0:0:
192,192,50133,128,0,50449:0:0:0:0:
448,192,50133,128,0,50449:0:0:0:0:
64,192,50133,1,0,0:0:0:0:
320,192,50133,1,0,0:0:0:0:
64,192,50449,128,0,50765:0:0:0:0:
320,192,50449,128,0,50765:0:0:0:0:
192,192,50765,1,0,0:0:0:0:
448,192,50765,1,0,0:0:0:0:
192,192,50923,1,0,0:0:0:0:
320,192,50923,128,0,51239:0:0:0:0:
448,192,51002,128,0,51239:0:0:0:0:
192,192,51081,1,0,0:0:0:0:
64,192,51239,1,0,0:0:0:0:
64,192,51397,1,0,0:0:0:0:
320,192,51397,1,0,0:0:0:0:
448,192,51397,1,0,0:0:0:0:
192,192,51554,1,0,0:0:0:0:
448,192,51554,1,0,0:0:0:0:
64,192,51712,1,0,0:0:0:0:
192,192,51712,1,0,0:0:0:0:
320,192,51712,1,0,0:0:0:0:
192,192,51870,1,0,0:0:0:0:
320,192,51870,1,0,0:0:0:0:
64,192,52028,1,0,0:0:0:0:
192,192,52028,1,0,0:0:0:0:
448,192,52028,1,0,0:0:0:0:
320,192,52186,128,0,52502:0:0:0:0:
192,192,52186,1,0,0:0:0:0:
64,192,52265,1,0,0:0:0:0:
448,192,52265,128,0,52502:0:0:0:0:
192,192,52344,1,0,0:0:0:0:
64,192,52502,1,0,0:0:0:0:
64,192,52660,1,0,0:0:0:0:
320,192,52660,1,0,0:0:0:0:
448,192,52660,1,0,0:0:0:0:
192,192,52818,1,0,0:0:0:0:
64,192,52818,1,0,0:0:0:0:
320,192,52818,1,0,0:0:0:0:
320,192,52975,1,0,0:0:0:0:
192,192,52975,128,0,53133:0:0:0:0:
64,192,52975,128,0,53133:0:0:0:0:
64,192,53291,128,0,53449:0:0:0:0:
192,192,53291,128,0,53449:0:0:0:0:
320,192,53291,1,0,0:0:0:0:
320,192,53449,128,0,53765:0:0:0:0:
448,192,53528,128,0,53765:0:0:0:0:
192,192,53607,1,0,0:0:0:0:
64,192,53765,1,0,0:0:0:0:
192,192,53844,1,0,0:0:0:0:
320,192,53923,1,0,0:0:0:0:
448,192,53923,1,0,0:0:0:0:
64,192,54081,1,0,0:0:0:0:
192,192,54081,1,0,0:0:0:0:
320,192,54081,1,0,0:0:0:0:
64,192,54239,1,0,0:0:0:0:
192,192,54239,1,0,0:0:0:0:
448,192,54239,1,0,0:0:0:0:
192,192,54397,1,0,0:0:0:0:
320,192,54397,1,0,0:0:0:0:
448,192,54397,1,0,0:0:0:0:
64,192,54475,1,0,0:0:0:0:
192,192,54554,1,0,0:0:0:0:
448,192,54554,1,0,0:0:0:0:
320,192,54633,1,0,0:0:0:0:
64,192,54712,1,0,0:0:0:0:
192,192,54712,1,0,0:0:0:0:
320,192,54791,1,0,0:0:0:0:
192,192,54870,1,0,0:0:0:0:
448,192,54870,1,0,0:0:0:0:
64,192,54870,1,0,0:0:0:0:
320,192,54949,1,0,0:0:0:0:
192,192,55028,1,0,0:0:0:0:
64,192,55107,1,0,0:0:0:0:
320,192,55186,128,0,55502:0:0:0:0:
192,192,55186,1,0,0:0:0:0:
448,192,55186,128,0,55502:0:0:0:0:
192,192,55502,128,0,55818:0:0:0:0:
64,192,55502,128,0,55818:0:0:0:0:
320,192,55818,1,0,0:0:0:0:
448,192,55818,1,0,0:0:0:0:
320,192,55975,1,0,0:0:0:0:
448,192,55975,1,0,0:0:0:0:
192,192,56054,1,0,0:0:0:0:
64,192,56054,1,0,0:0:0:0:
320,192,56133,1,0,0:0:0:0:
448,192,56133,1,0,0:0:0:0:
192,192,56212,1,0,0:0:0:0:
320,192,56291,128,0,56449:0:0:0:0:
64,192,56291,128,0,56449:0:0:0:0:
64,192,56607,1,0,0:0:0:0:
192,192,56607,1,0,0:0:0:0:
320,192,56607,1,0,0:0:0:0:
64,192,57239,1,0,0:0:0:0:
320,192,57239,1,0,0:0:0:0:
448,192,57239,1,0,0:0:0:0:
192,192,57318,1,0,0:0:0:0:
448,192,57397,1,0,0:0:0:0:
320,192,57397,1,0,0:0:0:0:
64,192,57475,1,0,0:0:0:0:
448,192,57554,1,0,0:0:0:0:
320,192,57554,1,0,0:0:0:0:
192,192,57633,1,0,0:0:0:0:
448,192,57712,1,0,0:0:0:0:
64,192,57712,1,0,0:0:0:0:
192,192,57791,1,0,0:0:0:0:
320,192,57870,1,0,0:0:0:0:
448,192,57870,1,0,0:0:0:0:
192,192,57949,1,0,0:0:0:0:
64,192,58028,1,0,0:0:0:0:
320,192,58028,1,0,0:0:0:0:
192,192,58107,1,0,0:0:0:0:
320,192,58186,1,0,0:0:0:0:
448,192,58186,1,0,0:0:0:0:
64,192,58186,1,0,0:0:0:0:
320,192,58344,1,0,0:0:0:0:
64,192,58344,1,0,0:0:0:0:
192,192,58502,1,0,0:0:0:0:
64,192,58502,1,0,0:0:0:0:
448,192,58581,1,0,0:0:0:0:
320,192,58581,1,0,0:0:0:0:
192,192,58660,1,0,0:0:0:0:
64,192,58660,1,0,0:0:0:0:
320,192,58818,1,0,0:0:0:0:
64,192,58818,128,0,59133:0:0:0:0:
192,192,59133,128,0,59449:0:0:0:0:
320,192,59133,1,0,0:0:0:0:
320,192,59291,128,0,59449:0:0:0:0:
64,192,59291,1,0,0:0:0:0:
64,192,59449,128,0,59765:0:0:0:0:
448,192,59449,1,0,0:0:0:0:
320,192,59607,128,0,59765:0:0:0:0:
448,192,59607,1,0,0:0:0:0:
192,192,59765,128,0,60081:0:0:0:0:
320,192,59923,1,0,0:0:0:0:
448,192,59923,1,0,0:0:0:0:
64,192,60081,128,0,60239:0:0:0:0:
320,192,60081,128,0,60239:0:0:0:0:
192,192,60239,128,0,60397:0:0:0:0:
448,192,60239,128,0,60397:0:0:0:0:
320,192,60397,128,0,60554:0:0:0:0:
64,192,60397,128,0,60554:0:0:0:0:
192,192,60554,128,0,61028:0:0:0:0:
320,192,60712,1,0,0:0:0:0:
448,192,60712,1,0,0:0:0:0:
64,192,60870,1,0,0:0:0:0:
320,192,61028,1,0,0:0:0:0:
448,192,61028,1,0,0:0:0:0:
192,192,61107,1,0,0:0:0:0:
64,192,61107,1,0,0:0:0:0:
320,192,61186,1,0,0:0:0:0:
448,192,61186,128,0,61660:0:0:0:0:
64,192,61344,1,0,0:0:0:0:
192,192,61344,1,0,0:0:0:0:
64,192,61660,1,0,0:0:0:0:
192,192,61660,1,0,0:0:0:0:
320,192,61660,1,0,0:0:0:0:
192,192,61818,1,0,0:0:0:0:
192,192,62133,1,0,0:0:0:0:
64,192,62291,1,0,0:0:0:0:
192,192,62291,1,0,0:0:0:0:
448,192,62370,1,0,0:0:0:0:
320,192,62370,1,0,0:0:0:0:
192,192,62449,1,0,0:0:0:0:
64,192,62449,128,0,62607:0:0:0:0:
192,192,62607,128,0,62923:0:0:0:0:
320,192,62607,1,0,0:0:0:0:
64,192,62765,128,0,62923:0:0:0:0:
448,192,62765,1,0,0:0:0:0:
320,192,62923,1,0,0:0:0:0:
448,192,62923,1,0,0:0:0:0:
192,192,63002,1,0,0:0:0:0:
64,192,63002,1,0,0:0:0:0:
320,192,63081,1,0,0:0:0:0:
448,192,63081,1,0,0:0:0:0:
192,192,63239,1,0,0:0:0:0:
448,192,63239,1,0,0:0:0:0:
64,192,63239,128,0,63554:0:0:0:0:
192,192,63554,1,0,0:0:0:0:
448,192,63554,1,0,0:0:0:0:
320,192,63633,1,0,0:0:0:0:
64,192,63633,1,0,0:0:0:0:
192,192,63712,1,0,0:0:0:0:
448,192,63712,1,0,0:0:0:0:
192,192,63870,128,0,64186:0:0:0:0:
320,192,63870,1,0,0:0:0:0:
64,192,63870,1,0,0:0:0:0:
320,192,64028,1,0,0:0:0:0:
320,192,64186,128,0,64344:0:0:0:0:
64,192,64186,1,0,0:0:0:0:
448,192,64186,1,0,0:0:0:0:
192,192,64344,128,0,64502:0:0:0:0:
448,192,64344,1,0,0:0:0:0:
64,192,64502,128,0,64660:0:0:0:0:
320,192,64502,1,0,0:0:0:0:
448,192,64502,1,0,0:0:0:0:
192,192,64660,128,0,64818:0:0:0:0:
320,192,64660,1,0,0:0:0:0:
448,192,64818,128,0,65133:0:0:0:0:
320,192,64818,1,0,0:0:0:0:
64,192,64818,1,0,0:0:0:0:
64,192,65133,1,0,0:0:0:0:
320,192,65133,128,0,65449:0:0:0:0:
192,192,65133,1,0,0:0:0:0:
448,192,65449,1,0,0:0:0:0:
192,192,65449,128,0,65765:0:0:0:0:
64,192,65449,1,0,0:0:0:0:
64,192,65765,128,0,66081:0:0:0:0:
320,192,65765,1,0,0:0:0:0:
448,192,65765,1,0,0:0:0:0:
192,192,66081,1,0,0:0:0:0:
320,192,66081,1,0,0:0:0:0:
448,192,66081,1,0,0:0:0:0:
192,192,66239,1,0,0:0:0:0:
448,192,66239,1,0,0:0:0:0:
64,192,66397,1,0,0:0:0:0:
192,192,66397,1,0,0:0:0:0:
320,192,66397,1,0,0:0:0:0:
192,192,66554,1,0,0:0:0:0:
64,192,66554,1,0,0:0:0:0:
320,192,66712,1,0,0:0:0:0:
448,192,66712,1,0,0:0:0:0:
192,192,66712,1,0,0:0:0:0:
64,192,66870,1,0,0:0:0:0:
320,192,66870,1,0,0:0:0:0:
64,192,67028,1,0,0:0:0:0:
320,192,67028,1,0,0:0:0:0:
192,192,67028,1,0,0:0:0:0:
192,192,67186,1,0,0:0:0:0:
320,192,67186,1,0,0:0:0:0:
192,192,67344,1,0,0:0:0:0:
320,192,67344,1,0,0:0:0:0:
448,192,67344,1,0,0:0:0:0:
64,192,67502,1,0,0:0:0:0:
320,192,67502,1,0,0:0:0:0:
192,192,67660,1,0,0:0:0:0:
64,192,67660,1,0,0:0:0:0:
448,192,67660,1,0,0:0:0:0:
192,192,67818,1,0,0:0:0:0:
64,192,67818,1,0,0:0:0:0:
320,192,67975,128,0,68133:0:0:0:0:
448,192,67975,1,0,0:0:0:0:
192,192,67975,1,0,0:0:0:0:
192,192,68133,128,0,68291:0:0:0:0:
448,192,68133,1,0,0:0:0:0:
64,192,68291,128,0,68449:0:0:0:0:
320,192,68291,1,0,0:0:0:0:
448,192,68291,1,0,0:0:0:0:
320,192,68449,1,0,0:0:0:0:
64,192,68607,1,0,0:0:0:0:
192,192,68607,1,0,0:0:0:0:
448,192,68607,1,0,0:0:0:0:
192,192,68765,1,0,0:0:0:0:
320,192,68765,1,0,0:0:0:0:
64,192,68923,1,0,0:0:0:0:
320,192,68923,1,0,0:0:0:0:
448,192,68923,1,0,0:0:0:0:
192,192,69081,1,0,0:0:0:0:
64,192,69081,1,0,0:0:0:0:
192,192,69239,1,0,0:0:0:0:
320,192,69239,1,0,0:0:0:0:
448,192,69239,1,0,0:0:0:0:
192,192,69397,1,0,0:0:0:0:
448,192,69397,1,0,0:0:0:0:
192,192,69554,1,0,0:0:0:0:
64,192,69554,1,0,0:0:0:0:
448,192,69554,1,0,0:0:0:0:
192,192,69712,128,0,70028:0:0:0:0:
448,192,69712,1,0,0:0:0:0:
64,192,69870,1,0,0:0:0:0:
320,192,69870,1,0,0:0:0:0:
320,192,70028,128,0,70344:0:0:0:0:
64,192,70028,1,0,0:0:0:0:
448,192,70186,1,0,0:0:0:0:
192,192,70186,1,0,0:0:0:0:
448,192,70344,128,0,70660:0:0:0:0:
64,192,70344,1,0,0:0:0:0:
320,192,70502,1,0,0:0:0:0:
192,192,70502,1,0,0:0:0:0:
320,192,70660,1,0,0:0:0:0:
64,192,70818,1,0,0:0:0:0:
320,192,70818,1,0,0:0:0:0:
192,192,70975,1,0,0:0:0:0:
448,192,70975,1,0,0:0:0:0:
64,192,71133,1,0,0:0:0:0:
320,192,71133,1,0,0:0:0:0:
448,192,71133,1,0,0:0:0:0:
192,192,71291,1,0,0:0:0:0:
320,192,71291,1,0,0:0:0:0:
64,192,71449,1,0,0:0:0:0:
320,192,71449,1,0,0:0:0:0:
448,192,71449,1,0,0:0:0:0:
192,192,71607,1,0,0:0:0:0:
448,192,71607,1,0,0:0:0:0:
64,192,71765,1,0,0:0:0:0:
192,192,71765,1,0,0:0:0:0:
320,192,71765,1,0,0:0:0:0:
320,192,71923,1,0,0:0:0:0:
448,192,71923,1,0,0:0:0:0:
64,192,72081,1,0,0:0:0:0:
320,192,72081,1,0,0:0:0:0:
448,192,72081,1,0,0:0:0:0:
64,192,72239,1,0,0:0:0:0:
192,192,72239,1,0,0:0:0:0:
192,192,72397,1,0,0:0:0:0:
320,192,72397,1,0,0:0:0:0:
448,192,72397,1,0,0:0:0:0:
192,192,72554,1,0,0:0:0:0:
320,192,72554,1,0,0:0:0:0:
64,192,72712,1,0,0:0:0:0:
448,192,72712,1,0,0:0:0:0:
320,192,72712,1,0,0:0:0:0:
64,192,72870,1,0,0:0:0:0:
320,192,72870,1,0,0:0:0:0:
320,192,73028,1,0,0:0:0:0:
448,192,73028,1,0,0:0:0:0:
192,192,73028,1,0,0:0:0:0:
320,192,73186,128,0,73344:0:0:0:0:
192,192,73186,1,0,0:0:0:0:
192,192,73344,128,0,73502:0:0:0:0:
64,192,73344,1,0,0:0:0:0:
448,192,73344,1,0,0:0:0:0:
64,192,73502,128,0,73660:0:0:0:0:
320,192,73502,1,0,0:0:0:0:
192,192,73660,1,0,0:0:0:0:
448,192,73660,1,0,0:0:0:0:
192,192,73818,1,0,0:0:0:0:
320,192,73818,1,0,0:0:0:0:
64,192,73975,1,0,0:0:0:0:
320,192,73975,1,0,0:0:0:0:
448,192,73975,1,0,0:0:0:0:
448,192,74133,1,0,0:0:0:0:
320,192,74133,1,0,0:0:0:0:
64,192,74291,1,0,0:0:0:0:
192,192,74291,1,0,0:0:0:0:
448,192,74291,1,0,0:0:0:0:
64,192,74449,1,0,0:0:0:0:
320,192,74449,1,0,0:0:0:0:
192,192,74607,1,0,0:0:0:0:
64,192,74607,1,0,0:0:0:0:
320,192,74607,1,0,0:0:0:0:
192,192,74765,128,0,75081:0:0:0:0:
320,192,74765,1,0,0:0:0:0:
320,192,74923,1,0,0:0:0:0:
64,192,74923,1,0,0:0:0:0:
320,192,75081,128,0,75397:0:0:0:0:
448,192,75081,1,0,0:0:0:0:
64,192,75239,1,0,0:0:0:0:
448,192,75239,1,0,0:0:0:0:
448,192,75397,128,0,75712:0:0:0:0:
192,192,75397,1,0,0:0:0:0:
64,192,75554,1,0,0:0:0:0:
320,192,75554,1,0,0:0:0:0:
192,192,75712,1,0,0:0:0:0:
64,192,75870,1,0,0:0:0:0:
320,192,75870,1,0,0:0:0:0:
192,192,75870,1,0,0:0:0:0:
64,192,76028,1,0,0:0:0:0:
192,192,76028,1,0,0:0:0:0:
320,192,76028,1,0,0:0:0:0:
320,192,76186,128,0,76502:0:0:0:0:
448,192,76265,128,0,76502:0:0:0:0:
192,192,76502,1,0,0:0:0:0:
64,192,76502,1,0,0:0:0:0:
192,192,76660,1,0,0:0:0:0:
448,192,76660,1,0,0:0:0:0:
192,192,76818,1,0,0:0:0:0:
64,192,76818,1,0,0:0:0:0:
320,192,76818,1,0,0:0:0:0:
192,192,76975,1,0,0:0:0:0:
448,192,76975,1,0,0:0:0:0:
320,192,77133,1,0,0:0:0:0:
192,192,77133,1,0,0:0:0:0:
64,192,77133,1,0,0:0:0:0:
192,192,77291,1,0,0:0:0:0:
320,192,77291,1,0,0:0:0:0:
320,192,77449,128,0,77765:0:0:0:0:
192,192,77449,1,0,0:0:0:0:
64,192,77449,1,0,0:0:0:0:
448,192,77528,128,0,77765:0:0:0:0:
64,192,77607,1,0,0:0:0:0:
192,192,77765,1,0,0:0:0:0:
64,192,77923,1,0,0:0:0:0:
192,192,77923,1,0,0:0:0:0:
448,192,77923,1,0,0:0:0:0:
192,192,78081,1,0,0:0:0:0:
320,192,78081,1,0,0:0:0:0:
64,192,78239,1,0,0:0:0:0:
320,192,78239,1,0,0:0:0:0:
192,192,78397,1,0,0:0:0:0:
320,192,78397,1,0,0:0:0:0:
64,192,78397,1,0,0:0:0:0:
320,192,78554,1,0,0:0:0:0:
448,192,78554,1,0,0:0:0:0:
320,192,78712,128,0,79028:0:0:0:0:
192,192,78712,1,0,0:0:0:0:
64,192,78712,1,0,0:0:0:0:
448,192,78791,128,0,79028:0:0:0:0:
64,192,78870,1,0,0:0:0:0:
192,192,79028,1,0,0:0:0:0:
64,192,79186,1,0,0:0:0:0:
320,192,79186,1,0,0:0:0:0:
192,192,79344,1,0,0:0:0:0:
448,192,79344,1,0,0:0:0:0:
64,192,79344,1,0,0:0:0:0:
192,192,79502,1,0,0:0:0:0:
320,192,79502,1,0,0:0:0:0:
64,192,79660,1,0,0:0:0:0:
192,192,79660,1,0,0:0:0:0:
448,192,79660,1,0,0:0:0:0:
192,192,79818,1,0,0:0:0:0:
448,192,79818,1,0,0:0:0:0:
192,192,79975,1,0,0:0:0:0:
64,192,79975,1,0,0:0:0:0:
320,192,80054,1,0,0:0:0:0:
448,192,80054,1,0,0:0:0:0:
192,192,80133,1,0,0:0:0:0:
64,192,80133,1,0,0:0:0:0:
192,192,80291,1,0,0:0:0:0:
320,192,80291,1,0,0:0:0:0:
448,192,80291,1,0,0:0:0:0:
192,192,80449,128,0,80765:0:0:0:0:
448,192,80449,128,0,80765:0:0:0:0:
320,192,80449,1,0,0:0:0:0:
64,192,80449,1,0,0:0:0:0:
320,192,80765,128,0,81081:0:0:0:0:
64,192,80765,128,0,81081:0:0:0:0:
192,192,81081,1,0,0:0:0:0:
448,192,81081,1,0,0:0:0:0:
320,192,81239,128,0,81554:0:0:0:0:
192,192,81239,1,0,0:0:0:0:
64,192,81239,1,0,0:0:0:0:
448,192,81318,128,0,81554:0:0:0:0:
192,192,81397,1,0,0:0:0:0:
64,192,81554,1,0,0:0:0:0:
192,192,81712,1,0,0:0:0:0:
320,192,81712,1,0,0:0:0:0:
64,192,81870,1,0,0:0:0:0:
192,192,81870,1,0,0:0:0:0:
448,192,81870,1,0,0:0:0:0:
448,192,82028,1,0,0:0:0:0:
320,192,82028,1,0,0:0:0:0:
192,192,82186,1,0,0:0:0:0:
64,192,82186,1,0,0:0:0:0:
448,192,82186,1,0,0:0:0:0:
320,192,82344,1,0,0:0:0:0:
448,192,82344,1,0,0:0:0:0:
320,192,82502,128,0,82818:0:0:0:0:
192,192,82502,1,0,0:0:0:0:
64,192,82502,1,0,0:0:0:0:
448,192,82581,128,0,82818:0:0:0:0:
64,192,82660,1,0,0:0:0:0:
192,192,82818,1,0,0:0:0:0:
192,192,82975,1,0,0:0:0:0:
448,192,82975,1,0,0:0:0:0:
192,192,83133,1,0,0:0:0:0:
64,192,83133,1,0,0:0:0:0:
320,192,83133,1,0,0:0:0:0:
320,192,83291,1,0,0:0:0:0:
448,192,83291,1,0,0:0:0:0:
192,192,83449,1,0,0:0:0:0:
64,192,83449,1,0,0:0:0:0:
448,192,83449,1,0,0:0:0:0:
320,192,83607,1,0,0:0:0:0:
448,192,83607,1,0,0:0:0:0:
320,192,83765,128,0,84081:0:0:0:0:
192,192,83765,1,0,0:0:0:0:
64,192,83765,1,0,0:0:0:0:
448,192,83844,128,0,84081:0:0:0:0:
64,192,83923,1,0,0:0:0:0:
192,192,84081,1,0,0:0:0:0:
64,192,84239,1,0,0:0:0:0:
320,192,84239,1,0,0:0:0:0:
192,192,84397,1,0,0:0:0:0:
320,192,84397,1,0,0:0:0:0:
448,192,84397,1,0,0:0:0:0:
192,192,84554,1,0,0:0:0:0:
320,192,84554,1,0,0:0:0:0:
64,192,84712,1,0,0:0:0:0:
192,192,84712,1,0,0:0:0:0:
448,192,84712,1,0,0:0:0:0:
192,192,84870,1,0,0:0:0:0:
448,192,84870,1,0,0:0:0:0:
64,192,85028,1,0,0:0:0:0:
320,192,85028,1,0,0:0:0:0:
192,192,85107,1,0,0:0:0:0:
448,192,85107,1,0,0:0:0:0:
320,192,85186,1,0,0:0:0:0:
64,192,85186,1,0,0:0:0:0:
192,192,85344,1,0,0:0:0:0:
64,192,85344,1,0,0:0:0:0:
320,192,85344,1,0,0:0:0:0:
320,192,85502,128,0,85818:0:0:0:0:
64,192,85502,128,0,85818:0:0:0:0:
448,192,85502,1,0,0:0:0:0:
192,192,85502,1,0,0:0:0:0:
192,192,85818,128,0,86133:0:0:0:0:
448,192,85818,128,0,86133:0:0:0:0:
320,192,86133,1,0,0:0:0:0:
64,192,86133,1,0,0:0:0:0:
192,192,86291,128,0,91344:0:0:0:0:
320,192,86291,1,0,0:0:0:0:
320,192,86607,1,0,0:0:0:0:
448,192,86607,1,0,0:0:0:0:
64,192,86923,1,0,0:0:0:0:
320,192,86923,1,0,0:0:0:0:
448,192,87239,1,0,0:0:0:0:
64,192,87239,1,0,0:0:0:0:
320,192,87554,1,0,0:0:0:0:
448,192,87554,1,0,0:0:0:0:
448,192,87870,1,0,0:0:0:0:
64,192,87870,1,0,0:0:0:0:
320,192,88186,1,0,0:0:0:0:
64,192,88186,1,0,0:0:0:0:
320,192,88502,1,0,0:0:0:0:
448,192,88502,1,0,0:0:0:0:
448,192,88818,1,0,0:0:0:0:
64,192,88818,1,0,0:0:0:0:
320,192,89133,1,0,0:0:0:0:
448,192,89133,1,0,0:0:0:0:
320,192,89449,1,0,0:0:0:0:
64,192,89449,1,0,0:0:0:0:
448,192,89765,1,0,0:0:0:0:
64,192,89765,1,0,0:0:0:0:
448,192,90081,1,0,0:0:0:0:
320,192,90081,1,0,0:0:0:0:
64,192,90397,1,0,0:0:0:0:
320,192,90397,1,0,0:0:0:0:
448,192,90712,1,0,0:0:0:0:
64,192,90712,1,0,0:0:0:0:
320,192,90870,128,0,91344:0:0:0:0:
64,192,91344,128,0,96397:0:0:0:0:
448,192,91344,1,0,0:0:0:0:
192,192,91660,1,0,0:0:0:0:
448,192,91660,1,0,0:0:0:0:
320,192,91975,1,0,0:0:0:0:
448,192,91975,1,0,0:0:0:0:
192,192,92291,1,0,0:0:0:0:
448,192,92291,1,0,0:0:0:0:
192,192,92607,1,0,0:0:0:0:
320,192,92607,1,0,0:0:0:0:
320,192,92923,1,0,0:0:0:0:
448,192,92923,1,0,0:0:0:0:
192,192,93239,1,0,0:0:0:0:
320,192,93239,1,0,0:0:0:0:
192,192,93554,1,0,0:0:0:0:
448,192,93554,1,0,0:0:0:0:
320,192,93870,1,0,0:0:0:0:
448,192,93870,1,0,0:0:0:0:
192,192,94186,1,0,0:0:0:0:
320,192,94186,1,0,0:0:0:0:
192,192,94502,1,0,0:0:0:0:
448,192,94502,1,0,0:0:0:0:
320,192,94818,1,0,0:0:0:0:
448,192,94818,1,0,0:0:0:0:
192,192,95133,1,0,0:0:0:0:
448,192,95133,1,0,0:0:0:0:
320,192,95449,1,0,0:0:0:0:
448,192,95449,1,0,0:0:0:0:
192,192,95765,1,0,0:0:0:0:
320,192,95765,1,0,0:0:0:0:
192,192,96081,1,0,0:0:0:0:
448,192,96081,1,0,0:0:0:0:
192,192,96397,128,0,101449:0:0:0:0:
448,192,96397,1,0,0:0:0:0:
320,192,96712,1,0,0:0:0:0:
448,192,96712,1,0,0:0:0:0:
320,192,97028,1,0,0:0:0:0:
64,192,97028,1,0,0:0:0:0:
320,192,97344,1,0,0:0:0:0:
448,192,97344,1,0,0:0:0:0:
64,192,97660,1,0,0:0:0:0:
448,192,97660,1,0,0:0:0:0:
320,192,97975,1,0,0:0:0:0:
448,192,97975,1,0,0:0:0:0:
448,192,98291,1,0,0:0:0:0:
64,192,98291,1,0,0:0:0:0:
320,192,98607,1,0,0:0:0:0:
448,192,98607,1,0,0:0:0:0:
320,192,98923,1,0,0:0:0:0:
64,192,98923,1,0,0:0:0:0:
320,192,99239,1,0,0:0:0:0:
448,192,99239,1,0,0:0:0:0:
320,192,99554,1,0,0:0:0:0:
64,192,99554,1,0,0:0:0:0:
320,192,99870,1,0,0:0:0:0:
448,192,99870,1,0,0:0:0:0:
448,192,100186,1,0,0:0:0:0:
64,192,100186,1,0,0:0:0:0:
320,192,100502,1,0,0:0:0:0:
448,192,100502,1,0,0:0:0:0:
64,192,100818,1,0,0:0:0:0:
448,192,100818,1,0,0:0:0:0:
320,192,101133,128,0,101449:0:0:0:0:
64,192,101449,128,0,106502:0:0:0:0:
448,192,101449,1,0,0:0:0:0:
192,192,101765,1,0,0:0:0:0:
320,192,101765,1,0,0:0:0:0:
448,192,102081,1,0,0:0:0:0:
320,192,102081,1,0,0:0:0:0:
192,192,102318,1,0,0:0:0:0:
320,192,102397,1,0,0:0:0:0:
448,192,102397,1,0,0:0:0:0:
320,192,102554,1,0,0:0:0:0:
448,192,102554,1,0,0:0:0:0:
192,192,102712,1,0,0:0:0:0:
320,192,102712,1,0,0:0:0:0:
192,192,103028,1,0,0:0:0:0:
448,192,103028,1,0,0:0:0:0:
448,192,103344,1,0,0:0:0:0:
192,192,103344,1,0,0:0:0:0:
192,192,103581,1,0,0:0:0:0:
448,192,103660,1,0,0:0:0:0:
320,192,103660,1,0,0:0:0:0:
192,192,103818,1,0,0:0:0:0:
320,192,103818,1,0,0:0:0:0:
320,192,103975,1,0,0:0:0:0:
448,192,103975,1,0,0:0:0:0:
192,192,104133,1,0,0:0:0:0:
320,192,104133,1,0,0:0:0:0:
192,192,104291,1,0,0:0:0:0:
448,192,104291,1,0,0:0:0:0:
320,192,104449,1,0,0:0:0:0:
448,192,104449,1,0,0:0:0:0:
192,192,104607,1,0,0:0:0:0:
448,192,104607,1,0,0:0:0:0:
320,192,104765,1,0,0:0:0:0:
448,192,104765,1,0,0:0:0:0:
192,192,104923,1,0,0:0:0:0:
320,192,104923,1,0,0:0:0:0:
192,192,105081,1,0,0:0:0:0:
448,192,105081,1,0,0:0:0:0:
448,192,105239,1,0,0:0:0:0:
320,192,105318,1,0,0:0:0:0:
192,192,105397,1,0,0:0:0:0:
448,192,105475,1,0,0:0:0:0:
320,192,105554,1,0,0:0:0:0:
192,192,105633,1,0,0:0:0:0:
448,192,105712,1,0,0:0:0:0:
320,192,105791,1,0,0:0:0:0:
192,192,105870,1,0,0:0:0:0:
320,192,105949,1,0,0:0:0:0:
448,192,106028,1,0,0:0:0:0:
192,192,106107,1,0,0:0:0:0:
320,192,106186,1,0,0:0:0:0:
448,192,106265,1,0,0:0:0:0:
192,192,106344,1,0,0:0:0:0:
320,192,106423,1,0,0:0:0:0:
192,192,106502,1,0,0:0:0:0:
448,192,106502,1,0,0:0:0:0:
64,192,110291,1,0,0:0:0:0:
192,192,110291,1,0,0:0:0:0:
448,192,110291,1,0,0:0:0:0:
