osu file format v14

[General]
AudioFilename: audio.mp3
AudioLeadIn: 0
PreviewTime: 87808
Countdown: 0
SampleSet: Normal
StackLeniency: 0.7
Mode: 0
LetterboxInBreaks: 0
WidescreenStoryboard: 0

[Editor]
DistanceSpacing: 0.8
BeatDivisor: 4
GridSize: 4
TimelineZoom: 1

[Metadata]
Title:Androgynos
TitleUnicode:Androgynos
Artist:WAiKURO
ArtistUnicode:WAiKURO
Creator:Ulygold
Version:Extra
Source:Lanota
Tags:
BeatmapID:1414177
BeatmapSetID:668445

[Difficulty]
HPDrainRate:6
CircleSize:4.3
OverallDifficulty:9
ApproachRate:9.7
SliderMultiplier:1.7
SliderTickRate:1

[Events]
//Background and Video events
0,0,"osu wairu.jpg",0,0
//Break Periods
//Storyboard Layer 0 (Background)
//Storyboard Layer 1 (Fail)
//Storyboard Layer 2 (Pass)
//Storyboard Layer 3 (Foreground)
//Storyboard Sound Samples

[TimingPoints]
2809,312.49947368421,4,1,0,100,1,0
12808,-90.9090909090909,4,1,0,100,0,0
13433,-83.3333333333333,4,1,0,100,0,0
14058,-76.9230769230769,4,1,0,100,0,0
14683,-71.4285714285714,4,1,0,100,0,0
15308,-66.6666666666667,4,1,0,100,0,0
15933,-62.5,4,1,0,100,0,0
16558,-58.8235294117647,4,1,0,100,0,0
17183,-66.6666666666667,4,1,0,100,0,0
20308,-200,4,1,0,100,0,0
21558,-50,4,1,0,100,0,0
22105,-200,4,1,0,100,0,0
22965,-100,4,1,0,100,0,0
27183,-133.333333333333,4,1,0,100,0,0
32965,-100,4,1,0,100,0,0
62808,-181.818181818181,4,1,0,40,0,0
72183,-100,4,1,0,100,0,0
80308,-50,4,1,0,100,0,0
82183,-200,4,1,0,100,0,0
87808,-66.6666666666667,4,1,0,100,0,1
89136,-66.6666666666667,4,1,0,5,0,1
89215,-66.6666666666667,4,1,0,100,0,1
89293,-66.6666666666667,4,1,0,5,0,1
89371,-66.6666666666667,4,1,0,100,0,1
89449,-66.6666666666667,4,1,0,5,0,1
89527,-66.6666666666667,4,1,0,100,0,1
89605,-66.6666666666667,4,1,0,5,0,1
89683,-66.6666666666667,4,1,0,100,0,1
93902,-66.6666666666667,4,1,0,100,0,1
93980,-66.6666666666667,4,1,0,5,0,1
94058,-66.6666666666667,4,1,0,100,0,1
94136,-66.6666666666667,4,1,0,5,0,1
94215,-66.6666666666667,4,1,0,100,0,1
94293,-66.6666666666667,4,1,0,5,0,1
94371,-66.6666666666667,4,1,0,100,0,1
94449,-66.6666666666667,4,1,0,5,0,1
94527,-66.6666666666667,4,1,0,100,0,1
97652,-200,4,1,0,100,0,0
97965,-66.6666666666667,4,1,0,100,0,1
99136,-66.6666666666667,4,1,0,5,0,1
99215,-66.6666666666667,4,1,0,100,0,1
99293,-66.6666666666667,4,1,0,5,0,1
99371,-66.6666666666667,4,1,0,100,0,1
99449,-66.6666666666667,4,1,0,5,0,1
99527,-66.6666666666667,4,1,0,100,0,1
103824,-66.6666666666667,4,1,0,5,0,1
103902,-66.6666666666667,4,1,0,100,0,1
103980,-66.6666666666667,4,1,0,5,0,1
104058,-66.6666666666667,4,1,0,100,0,1
104136,-66.6666666666667,4,1,0,5,0,1
104215,-66.6666666666667,4,1,0,100,0,1
104293,-66.6666666666667,4,1,0,5,0,1
104371,-66.6666666666667,4,1,0,100,0,1
104449,-66.6666666666667,4,1,0,5,0,1
104527,-66.6666666666667,4,1,0,100,0,1
106090,-200,4,1,0,100,0,0
107808,-66.6666666666667,4,1,0,100,0,1
126558,-200,4,1,0,100,0,0
127819,310.880829015544,4,1,0,100,1,0
137611,-50,4,1,0,5,0,0
137844,312.5,4,1,0,100,1,0
137844,-50,4,1,0,100,0,0
147844,-40,4,1,0,100,0,0
148312,-50,4,1,0,100,0,0
152844,-40,4,1,0,100,0,0
153469,-50,4,1,0,100,0,0
157844,-40,4,1,0,100,0,0
159094,-50,4,1,0,100,0,0
162844,-40,4,1,0,100,0,0
163312,-50,4,1,0,100,0,0
165344,-66.6666666666667,4,1,0,100,0,0
167844,-33.3333333333333,4,1,0,100,0,0
168156,-40,4,1,0,100,0,0
172844,-33.3333333333333,4,1,0,100,0,0
173156,-40,4,1,0,100,0,0
177844,-28.5714285714286,4,1,0,100,0,0
182844,-200,4,1,0,100,0,0
185344,-66.6666666666667,4,1,0,100,0,0
187844,-50,4,1,0,100,0,1
207844,-166.666666666667,4,2,0,40,0,0
227844,-100,4,1,0,100,0,0
247844,-66.6666666666667,4,1,0,100,0,1
265344,-50,4,1,0,100,0,1
267844,-100,4,1,0,100,0,0

[HitObjects]
156,108,2809,6,0,P|236:92|320:112,1,170,0|0,3:0|3:0,3:0:0:0:
239,164,3277,1,8,3:0:0:0:
116,72,4058,6,0,P|68:144|52:236,1,170,0|0,3:0|3:0,3:0:0:0:
168,312,4527,2,0,P|212:264|240:164,1,170,0|0,3:0|3:0,3:0:0:0:
412,252,5308,6,0,P|332:256|240:236,1,170,0|0,3:0|3:0,3:0:0:0:
164,144,5777,1,8,3:0:0:0:
416,84,6558,6,0,P|444:168|432:252,1,170,0|0,3:0|3:0,3:0:0:0:
344,316,7027,2,0,P|304:280|276:236,1,85,0|0,3:0|3:0,3:0:0:0:
392,208,7339,2,0,P|392:168|368:132,1,85,0|0,3:0|3:0,3:0:0:0:
316,92,7574,1,0,3:0:0:0:
256,68,7652,1,0,3:0:0:0:
192,68,7730,1,0,3:0:0:0:
136,100,7808,6,0,P|144:172|212:248,1,170,0|0,3:0|3:0,3:0:0:0:
320,268,8277,1,8,3:0:0:0:
100,92,9058,6,0,B|156:112|208:76|272:96,1,170,0|0,3:0|3:0,3:0:0:0:
376,196,9527,2,0,B|328:232|356:304|296:356,1,170,0|0,3:0|3:0,3:0:0:0:
432,152,10308,6,0,P|400:88|312:32,1,170,0|0,3:0|3:0,3:0:0:0:
176,48,10777,1,8,3:0:0:0:
104,232,11558,6,0,P|164:264|268:264,1,170,0|0,3:0|3:0,3:0:0:0:
360,248,12027,2,0,P|376:212|368:156,1,85,0|0,3:0|3:0,3:0:0:0:
288,44,12339,2,0,P|256:64|224:108,1,85,0|0,3:0|3:0,3:0:0:0:
208,164,12574,1,0,3:0:0:0:
220,232,12652,1,0,3:0:0:0:
276,272,12730,1,0,3:0:0:0:
344,268,12808,6,0,P|368:240|360:176,1,93.5000028533936,8|0,3:0|3:0,3:0:0:0:
240,136,13121,2,0,P|204:160|184:208,1,93.5000028533936,8|0,3:0|3:0,3:0:0:0:
316,280,13433,2,0,P|362:254|384:200,1,101.999996887207,8|0,3:0|3:0,3:0:0:0:
264,128,13746,2,0,P|224:140|188:188,1,101.999996887207,8|0,3:0|3:0,3:0:0:0:
288,284,14058,2,0,P|340:276|384:224,1,110.499994941712,8|0,3:0|3:0,3:0:0:0:
296,124,14371,2,0,P|254:127|204:176,1,110.499994941712,8|0,3:0|3:0,3:0:0:0:
260,280,14683,2,0,P|311:289|380:256,1,118.999996368408,8|0,3:0|3:0,3:0:0:0:
320,132,14996,2,0,P|279:121|192:140,1,118.999996368408,8|0,3:0|3:0,3:0:0:0:
248,320,15308,6,0,L|148:236,1,127.500004863739,8|0,3:0|3:0,3:0:0:0:
259,43,15621,2,0,L|364:124,1,127.500004863739,8|0,3:0|3:0,3:0:0:0:
150,237,15933,2,0,L|152:88,1,136,8|0,3:0|3:0,3:0:0:0:
359,120,16245,2,0,L|360:272,1,136,8|0,3:0|3:0,3:0:0:0:
152,104,16558,2,0,L|255:1,1,144.500002756119,8|0,3:0|3:0,3:0:0:0:
353,241,16871,2,0,L|248:360,1,144.500002756119,8|0,3:0|3:0,3:0:0:0:
254,1,17183,2,0,L|360:100,1,127.500004863739,8|0,3:0|3:0,3:0:0:0:
261,341,17496,2,0,L|164:244,1,127.500004863739,8|0,3:0|3:0,3:0:0:0:
168,136,17808,5,8,3:0:0:0:
212,80,17913,1,0,3:0:0:0:
272,52,18017,1,0,3:0:0:0:
340,44,18121,1,8,3:0:0:0:
400,72,18225,1,0,3:0:0:0:
444,124,18329,1,0,3:0:0:0:
460,192,18433,5,8,3:0:0:0:
444,260,18537,1,0,3:0:0:0:
396,308,18641,1,0,3:0:0:0:
332,336,18746,1,8,3:0:0:0:
264,344,18849,1,0,3:0:0:0:
196,336,18953,1,0,3:0:0:0:
136,308,19057,5,8,3:0:0:0:
92,256,19162,1,0,3:0:0:0:
68,192,19266,1,0,3:0:0:0:
80,124,19371,1,8,3:0:0:0:
116,68,19474,1,0,3:0:0:0:
180,52,19578,1,0,3:0:0:0:
248,68,19683,5,8,3:0:0:0:
292,120,19787,1,0,3:0:0:0:
304,188,19891,1,0,3:0:0:0:
268,244,19996,1,8,3:0:0:0:
200,244,20099,1,0,3:0:0:0:
168,184,20203,1,0,3:0:0:0:
204,132,20308,6,0,L|232:140,7,21.25,0|0|0|0|0|0|0|0,3:0|3:0|3:0|3:0|3:0|3:0|3:0|3:0,3:0:0:0:
332,152,20933,2,0,L|368:160,7,21.25,0|0|0|0|0|0|0|0,3:0|3:0|3:0|3:0|3:0|3:0|3:0|3:0,3:0:0:0:
308,192,21558,1,0,3:0:0:0:
314,227,21636,1,0,3:0:0:0:
333,258,21714,1,0,3:0:0:0:
363,278,21792,1,0,3:0:0:0:
399,285,21870,1,0,3:0:0:0:
434,277,21949,1,0,3:0:0:0:
463,256,22027,1,0,3:0:0:0:
482,225,22105,1,0,3:0:0:0:
496,184,22183,2,0,L|512:184,12,14.1666666666667,0|0|0|0|0|0|0|0|0|0|0|0|4,3:0|3:0|3:0|3:0|3:0|3:0|3:0|3:0|3:0|3:0|3:0|3:0|3:0,3:0:0:0:
352,112,22965,5,0,3:0:0:0:
216,104,23121,2,0,P|160:112|128:132,1,85,8|0,3:0|3:0,3:0:0:0:
64,256,23433,1,0,3:0:0:0:
212,320,23589,1,0,3:0:0:0:
184,160,23746,2,0,P|188:112|160:60,1,85,8|0,3:0|3:0,3:0:0:0:
144,284,24058,6,0,P|108:324|96:380,1,85,0|0,3:0|3:0,3:0:0:0:
300,200,24371,2,8,P|344:192|392:160,1,85,8|8,3:0|3:0,3:0:0:0:
128,140,24683,1,0,3:0:0:0:
252,276,24839,1,8,3:0:0:0:
360,168,24995,2,0,P|340:120|292:84,1,85,0|0,3:0|3:0,3:0:0:0:
200,112,25308,5,0,3:0:0:0:
208,256,25464,1,0,3:0:0:0:
328,168,25620,2,0,P|372:176|428:156,1,85,8|0,3:0|3:0,3:0:0:0:
236,64,25933,1,0,3:0:0:0:
252,224,26089,1,0,3:0:0:0:
392,132,26246,2,0,P|376:176|380:220,1,85,8|0,3:0|3:0,3:0:0:0:
432,64,26558,6,0,P|492:56|524:16,1,85,0|0,3:0|3:0,3:0:0:0:
356,64,26871,2,0,P|336:20|284:-4,1,85,8|8,3:0|3:0,3:0:0:0:
224,104,27183,6,0,P|184:128|172:152,1,63.7500024318696,0|8,3:0|3:0,3:0:0:0:
280,252,27652,5,8,3:0:0:0:
248,108,27808,5,0,3:0:0:0:
160,224,27964,1,0,3:0:0:0:
288,196,28121,2,0,P|324:168|344:136,1,63.7500024318696,12|0,3:0|3:0,3:0:0:0:
352,64,28433,5,0,3:0:0:0:
232,160,28589,1,0,3:0:0:0:
380,192,28746,2,0,P|404:228|412:252,1,63.7500024318696,12|0,3:0|3:0,3:0:0:0:
384,360,29058,5,0,3:0:0:0:
220,312,29214,1,0,3:0:0:0:
336,236,29370,2,0,P|312:208|268:188,1,63.7500024318696,12|0,3:0|3:0,3:0:0:0:
184,116,29683,1,0,3:0:0:0:
40,44,29839,1,0,3:0:0:0:
68,192,29995,6,0,P|48:236|52:276,1,63.7500024318696,12|0,3:0|3:0,3:0:0:0:
184,300,30308,5,0,3:0:0:0:
168,132,30464,1,0,3:0:0:0:
272,232,30621,2,0,B|300:248|324:244|348:248,1,63.7500024318696,12|0,3:0|3:0,3:0:0:0:
460,188,30933,5,0,3:0:0:0:
348,76,31089,1,0,3:0:0:0:
352,212,31246,2,0,B|348:248|328:260|324:296,1,63.7500024318696,12|0,3:0|3:0,3:0:0:0:
216,208,31558,6,0,B|184:120|272:24,1,191.250007295609,0|0,3:0|3:0,3:0:0:0:
376,116,32183,1,12,3:0:0:0:
216,280,32417,1,12,3:0:0:0:
136,84,32652,1,12,3:0:0:0:
224,184,32964,5,12,3:0:0:0:
288,208,33042,1,12,3:0:0:0:
348,232,33120,1,12,3:0:0:0:
132,112,33433,5,0,3:0:0:0:
100,232,33589,1,0,3:0:0:0:
208,132,33746,1,8,3:0:0:0:
172,252,33902,1,0,3:0:0:0:
280,156,34058,1,0,3:0:0:0:
248,276,34214,1,0,3:0:0:0:
356,176,34371,1,8,3:0:0:0:
320,296,34527,1,0,3:0:0:0:
440,200,34683,6,0,P|412:236|372:260,1,85,0|0,3:0|3:0,3:0:0:0:
200,256,34995,2,0,P|180:196|204:148,1,85,8|0,3:0|3:0,3:0:0:0:
340,124,35308,2,0,P|372:160|380:220,1,85,0|0,3:0|3:0,3:0:0:0:
212,216,35621,5,8,3:0:0:0:
248,324,35777,1,0,3:0:0:0:
323,244,35933,1,0,3:0:0:0:
204,276,36089,1,0,3:0:0:0:
304,296,36246,1,8,3:0:0:0:
344,184,36402,1,0,3:0:0:0:
228,152,36558,1,0,3:0:0:0:
320,248,36714,1,0,3:0:0:0:
212,216,36870,1,8,3:0:0:0:
288,168,37027,1,0,3:0:0:0:
244,304,37183,6,0,P|199:315|156:312,1,85,0|0,3:0|3:0,3:0:0:0:
124,144,37495,2,0,P|144:107|180:86,1,85,8|0,3:0|3:0,3:0:0:0:
328,84,37808,5,0,3:0:0:0:
440,148,37964,1,0,3:0:0:0:
328,192,38120,1,8,3:0:0:0:
224,236,38277,1,0,3:0:0:0:
236,124,38433,1,0,3:0:0:0:
284,232,38589,1,0,3:0:0:0:
332,344,38745,1,8,3:0:0:0:
212,336,38902,1,0,3:0:0:0:
152,248,39058,1,0,3:0:0:0:
248,220,39214,1,0,3:0:0:0:
352,180,39370,1,0,3:0:0:0:
256,104,39527,1,0,3:0:0:0:
392,60,39683,6,0,P|440:104|440:148,1,85,0|0,3:0|3:0,3:0:0:0:
416,248,39995,2,0,P|376:280|312:284,1,85,0|0,3:0|3:0,3:0:0:0:
124,120,40308,5,0,3:0:0:0:
92,260,40464,1,0,3:0:0:0:
36,176,40620,5,0,3:0:0:0:
192,208,40777,1,0,3:0:0:0:
35,333,40933,5,0,3:0:0:0:
154,253,41089,1,0,3:0:0:0:
138,353,41245,5,0,3:0:0:0:
46,223,41402,1,0,3:0:0:0:
204,288,41558,1,0,3:0:0:0:
232,300,41636,1,0,3:0:0:0:
260,304,41714,1,0,3:0:0:0:
288,296,41792,1,0,3:0:0:0:
312,280,41870,1,0,3:0:0:0:
328,252,41949,1,0,3:0:0:0:
344,228,42027,1,0,3:0:0:0:
356,200,42105,1,0,3:0:0:0:
328,192,42183,5,0,3:0:0:0:
300,188,42261,1,0,3:0:0:0:
272,180,42339,1,0,3:0:0:0:
244,172,42417,1,0,3:0:0:0:
216,164,42495,1,0,3:0:0:0:
200,140,42574,1,0,3:0:0:0:
196,112,42652,1,0,3:0:0:0:
208,84,42730,1,0,3:0:0:0:
220,64,42808,6,0,P|272:64|316:88,1,85
160,144,43120,2,0,P|152:184|170:228,1,85
128,32,43433,2,0,P|80:20|20:32,1,85
256,140,43745,2,0,P|296:152|336:188,1,85
212,280,44058,5,0,0:0:0:0:
84,204,44214,1,0,0:0:0:0:
212,144,44370,1,0,0:0:0:0:
84,204,44527,1,0,0:0:0:0:
216,212,44683,5,0,0:0:0:0:
304,116,44839,1,0,0:0:0:0:
160,88,44995,1,0,0:0:0:0:
304,116,45152,1,0,0:0:0:0:
188,220,45308,6,0,P|156:252|144:304,1,85
336,224,45620,2,0,P|365:254|405:267,1,85
332,108,45933,2,0,P|362:78|375:38,1,85
188,108,46245,2,0,P|158:77|118:64,1,85
336,224,46558,5,0,0:0:0:0:
245,133,46714,1,0,0:0:0:0:
336,43,46870,1,0,0:0:0:0:
426,133,47027,1,0,0:0:0:0:
245,133,47183,5,0,0:0:0:0:
155,223,47339,1,0,0:0:0:0:
244,314,47495,1,0,0:0:0:0:
336,223,47652,1,0,0:0:0:0:
436,100,47808,6,0,P|452:140|436:196,1,85
308,336,48120,2,0,P|324:296|308:240,1,85
188,100,48433,2,0,P|204:140|188:196,1,85
75,335,48745,2,0,P|91:295|75:239,1,85
197,180,49058,5,0,0:0:0:0:
85,255,49214,1,0,0:0:0:0:
188,100,49370,1,0,0:0:0:0:
116,228,49527,1,0,0:0:0:0:
332,200,49683,1,0,0:0:0:0:
436,100,49839,1,0,0:0:0:0:
336,232,49995,1,0,0:0:0:0:
444,180,50152,1,0,0:0:0:0:
316,92,50308,6,0,P|264:76|200:88,1,85
355,252,50620,2,0,P|372:200|359:136,1,85
196,292,50933,2,0,P|248:308|312:296,1,85
156,132,51245,2,0,P|140:184|152:248,1,85
312,288,51558,5,0,0:0:0:0:
216,64,51714,1,0,0:0:0:0:
216,288,51870,5,0,0:0:0:0:
312,64,52027,1,0,0:0:0:0:
116,244,52183,5,0,0:0:0:0:
360,136,52339,1,0,0:0:0:0:
108,108,52495,5,0,0:0:0:0:
380,248,52652,1,0,0:0:0:0:
160,180,52808,6,0,P|152:216|156:272,1,85
160,180,53120,2,0,P|179:211|222:247,1,85
160,180,53433,6,0,P|196:188|252:184,1,85
160,180,53745,2,0,P|191:160|227:117,1,85
328,200,54058,6,0,P|376:228|396:277,1,85
328,344,54370,1,0,0:0:0:0:
104,176,54527,1,0,0:0:0:0:
320,336,54683,1,0,0:0:0:0:
396,76,54839,5,0,0:0:0:0:
368,188,54995,1,0,0:0:0:0:
340,200,55074,1,0,0:0:0:0:
312,212,55152,1,0,0:0:0:0:
284,224,55230,1,0,0:0:0:0:
256,232,55308,6,0,P|216:228|176:200,1,85
360,268,55620,2,0,P|408:280|448:304,1,85
344,156,55933,2,0,P|368:124|432:96,1,85
292,284,56245,2,0,P|268:336|276:380,1,85
392,208,56558,2,0,P|432:196|476:204,1,85
248,200,56870,5,0,0:0:0:0:
224,200,56949,1,0,0:0:0:0:
376,112,57183,5,0,0:0:0:0:
248,212,57417,1,0,0:0:0:0:
240,192,57495,1,0,0:0:0:0:
192,80,57652,1,0,0:0:0:0:
64,256,57808,5,0,0:0:0:0:
104,96,57964,1,0,0:0:0:0:
148,260,58120,5,0,0:0:0:0:
215,109,58277,1,0,0:0:0:0:
228,260,58433,5,0,0:0:0:0:
320,123,58589,1,0,0:0:0:0:
312,260,58745,5,0,0:0:0:0:
426,141,58902,1,0,0:0:0:0:
424,280,59058,1,0,0:0:0:0:
160,348,59214,5,0,0:0:0:0:
384,348,59370,1,0,0:0:0:0:
160,264,59527,5,0,0:0:0:0:
380,225,59683,1,0,0:0:0:0:
160,192,59839,5,0,0:0:0:0:
370,115,59995,1,0,0:0:0:0:
160,112,60152,5,0,0:0:0:0:
296,60,60308,1,0,0:0:0:0:
324,64,60386,1,0,0:0:0:0:
352,76,60464,1,0,0:0:0:0:
376,96,60542,1,0,0:0:0:0:
396,120,60620,5,0,0:0:0:0:
408,148,60699,1,0,0:0:0:0:
416,176,60777,1,0,0:0:0:0:
412,204,60855,1,0,0:0:0:0:
404,232,60933,5,0,0:0:0:0:
392,260,61011,1,0,0:0:0:0:
372,284,61089,1,0,0:0:0:0:
344,296,61167,1,0,0:0:0:0:
316,300,61245,5,0,0:0:0:0:
288,300,61324,1,0,0:0:0:0:
260,292,61402,1,0,0:0:0:0:
232,280,61480,1,0,0:0:0:0:
204,268,61558,6,0,L|180:308,3,42.5
216,248,61870,2,0,L|240:208,3,42.5
204,240,62183,2,0,L|172:224,15,21.25
216,280,62808,6,0,B|244:72|280:28|312:20|312:20|352:8|416:52|420:100|376:164|208:204|104:172,1,701.250021400452
216,100,65308,2,0,B|84:148|96:248|124:300|124:300|160:320|248:248|256:80|256:80|296:216|296:216|304:236|324:240,1,701.250021400452
384,280,67808,2,0,B|404:212|440:168|452:140|424:108|424:108|376:88|328:128|272:252|272:252|252:196|248:116|208:108|208:108|192:132|180:196|156:236,1,701.250021400452
248,284,70308,2,0,P|216:108|292:276,1,514.250015693665
216,308,72183,5,0,0:0:0:0:
172,288,72261,1,0,0:0:0:0:
140,256,72339,1,0,0:0:0:0:
116,216,72417,1,0,0:0:0:0:
104,172,72495,1,0,0:0:0:0:
104,124,72574,1,0,0:0:0:0:
116,80,72652,1,0,0:0:0:0:
140,40,72730,1,0,0:0:0:0:
176,28,72808,6,0,L|344:48,1,170
264,184,73277,1,0,0:0:0:0:
320,312,73745,6,0,P|240:336|152:284,1,170
76,200,74214,1,0,0:0:0:0:
72,180,74292,1,0,0:0:0:0:
68,164,74370,1,0,0:0:0:0:
160,68,74527,1,0,0:0:0:0:
304,72,74683,2,0,P|320:112|304:164,1,85
256,276,74995,1,0,0:0:0:0:
260,280,75074,1,0,0:0:0:0:
436,240,75308,6,0,L|304:120,1,170
260,280,75777,1,0,0:0:0:0:
172,280,75933,2,0,P|248:204|336:216,1,170
432,296,76558,6,0,L|424:188,1,85
444,56,76870,2,0,L|352:128,1,85
308,264,77183,1,0,0:0:0:0:
256,132,77339,6,0,L|232:148,3,21.25
216,156,77495,2,0,L|172:188,2,42.5
136,284,77808,6,0,P|176:304|236:284,1,85
360,308,78120,1,0,0:0:0:0:
472,168,78277,2,0,P|428:144|388:144,1,85
272,156,78589,1,0,0:0:0:0:
104,124,78745,2,0,P|152:100|212:104,1,85
128,300,79058,6,0,P|72:288|28:296,1,85
288,244,79370,1,0,0:0:0:0:
160,176,79527,2,0,P|168:128|196:96,1,85
328,80,79839,2,0,P|356:100|368:168,1,85
368,204,80073,2,0,L|416:220,1,42.5
176,160,80308,2,0,B|136:176|136:176|120:220,3,85
196,172,80621,2,0,B|235:156|235:156|252:112,3,85
184,228,80933,2,0,B|199:267|199:267|238:283,3,85
248,220,81246,2,0,B|285:202|285:202|325:219,3,85
276,256,81558,5,0,0:0:0:0:
284,288,81636,1,0,0:0:0:0:
316,280,81714,1,0,0:0:0:0:
328,312,81792,1,0,0:0:0:0:
360,316,81870,1,0,0:0:0:0:
380,344,81948,1,0,0:0:0:0:
412,348,82027,1,0,0:0:0:0:
432,372,82105,1,0,0:0:0:0:
464,360,82183,6,0,L|464:340,11,14.1666666666667
468,308,82808,5,0,0:0:0:0:
468,252,82913,1,0,0:0:0:0:
468,196,83017,1,0,0:0:0:0:
468,144,83121,1,0,0:0:0:0:
416,164,83225,1,0,0:0:0:0:
376,192,83329,1,0,0:0:0:0:
340,216,83433,1,0,0:0:0:0:
380,216,83538,1,0,0:0:0:0:
420,216,83642,1,0,0:0:0:0:
420,256,83746,1,0,0:0:0:0:
420,288,83850,1,0,0:0:0:0:
420,320,83954,1,0,0:0:0:0:
392,320,84058,5,0,0:0:0:0:
352,328,84136,1,0,0:0:0:0:
308,332,84214,1,0,0:0:0:0:
264,332,84292,1,0,0:0:0:0:
220,332,84370,5,0,0:0:0:0:
180,324,84448,1,0,0:0:0:0:
144,304,84527,1,0,0:0:0:0:
112,276,84605,1,0,0:0:0:0:
88,240,84683,5,0,0:0:0:0:
72,200,84761,1,0,0:0:0:0:
64,156,84839,1,0,0:0:0:0:
72,116,84917,1,0,0:0:0:0:
96,80,84995,5,0,0:0:0:0:
132,56,85073,1,0,0:0:0:0:
172,48,85152,1,0,0:0:0:0:
216,48,85230,1,0,0:0:0:0:
256,60,85308,5,0,0:0:0:0:
288,88,85386,1,0,0:0:0:0:
320,120,85464,1,0,0:0:0:0:
344,156,85542,1,0,0:0:0:0:
364,192,85620,5,0,0:0:0:0:
380,232,85698,1,0,0:0:0:0:
368,272,85777,1,0,0:0:0:0:
340,304,85855,1,0,0:0:0:0:
300,316,85933,6,0,L|288:320,15,10.625
264,320,86558,5,0,0:0:0:0:
212,316,86636,1,0,0:0:0:0:
160,304,86714,1,0,0:0:0:0:
116,280,86792,1,0,0:0:0:0:
84,240,86870,1,0,0:0:0:0:
68,192,86948,1,0,0:0:0:0:
68,140,87027,1,0,0:0:0:0:
92,96,87105,1,0,0:0:0:0:
136,72,87183,1,0,0:0:0:0:
196,44,87261,5,0,0:0:0:0:
236,96,87339,1,0,0:0:0:0:
276,152,87417,1,0,0:0:0:0:
320,200,87495,1,0,0:0:0:0:
364,248,87573,1,0,0:0:0:0:
412,292,87652,1,0,0:0:0:0:
460,336,87730,1,0,0:0:0:0:
420,356,87808,6,0,P|344:376|264:356,1,127.500004863739
140,272,88120,1,0,0:0:0:0:
300,196,88277,1,0,0:0:0:0:
148,104,88433,2,0,P|64:88|16:104,1,127.500004863739
152,312,88745,1,0,0:0:0:0:
264,188,88902,1,0,0:0:0:0:
144,220,89058,6,0,P|136:244|148:280,1,63.7500024318696
184,172,89215,2,0,P|216:140|176:96,1,63.7500024318696
208,228,89371,2,0,P|244:252|288:236,1,63.7500024318696
128,168,89527,2,0,P|100:144|68:152,1,63.7500024318696
188,220,89683,2,0,P|248:272|312:264,1,127.500004863739
368,164,89995,1,0,0:0:0:0:
232,60,90152,1,0,0:0:0:0:
80,152,90308,6,0,P|104:212|168:256,1,127.500004863739
260,40,90620,2,0,P|184:48|124:92,1,127.500004863739
376,236,90933,2,0,P|388:168|368:80,1,127.500004863739
288,180,91167,2,0,B|224:164|224:164|160:180,1,127.500004863739
224,264,91402,2,0,P|240:332|296:368,1,127.500004863739
380,240,91714,1,0,0:0:0:0:
240,132,91870,2,0,P|196:88|128:72,1,127.500004863739
172,256,92183,2,0,P|196:284|236:292,1,63.7500024318696
268,284,92339,1,0,0:0:0:0:
320,276,92417,2,0,P|360:272|424:288,1,63.7500024318696
392,160,92652,5,0,0:0:0:0:
224,96,92808,2,0,P|164:116|100:184,1,127.500004863739
188,280,93120,1,0,0:0:0:0:
328,216,93277,2,0,P|284:160|212:116,1,127.500004863739
208,248,93511,2,0,P|184:284|176:336,1,63.7500024318696
332,244,93745,1,0,0:0:0:0:
248,96,93902,2,0,P|252:64|284:44,1,63.7500024318696
252,168,94058,2,0,P|288:188|280:216,1,63.7500024318696
208,96,94214,2,0,P|180:76|200:52,1,63.7500024318696
276,128,94370,2,0,P|312:132|320:160,1,63.7500024318696
208,172,94527,6,0,P|188:224|116:260,1,127.500004863739
256,256,94761,2,0,P|280:296|360:312,1,127.500004863739
368,240,94995,1,0,0:0:0:0:
236,144,95152,1,0,0:0:0:0:
168,280,95308,5,0,0:0:0:0:
304,176,95464,1,0,0:0:0:0:
328,144,95542,2,0,P|360:144|412:104,1,63.7500024318696
280,132,95777,2,0,P|260:96|216:84,2,63.7500024318696
196,216,96089,1,0,0:0:0:0:
288,224,96167,6,0,P|324:236|376:224,1,63.7500024318696
268,104,96402,1,0,0:0:0:0:
216,88,96480,1,0,0:0:0:0:
164,96,96558,1,0,0:0:0:0:
76,208,96714,1,0,0:0:0:0:
156,280,96792,2,0,P|196:260|200:216,1,63.7500024318696
324,288,97027,1,0,0:0:0:0:
364,144,97183,6,0,P|332:120|296:108,1,63.7500024318696
120,136,97417,2,0,P|96:168|80:216,1,63.7500024318696
228,272,97652,1,0,0:0:0:0:
368,192,97964,5,0,0:0:0:0:
312,168,98042,1,0,0:0:0:0:
256,136,98120,2,0,P|200:140|140:188,1,127.500004863739
184,296,98433,1,0,0:0:0:0:
200,304,98511,1,0,0:0:0:0:
220,316,98589,1,0,0:0:0:0:
376,312,98745,1,0,0:0:0:0:
268,148,98902,1,0,0:0:0:0:
220,272,99058,6,0,P|180:272|144:304,1,63.7500024318696
256,216,99214,2,0,P|256:184|224:152,1,63.7500024318696
284,272,99370,2,0,P|316:304|352:308,1,63.7500024318696
216,240,99527,6,0,P|192:196|112:176,1,127.500004863739
132,252,99761,2,0,P|144:300|216:328,1,127.500004863739
296,304,99995,2,0,P|348:272|376:180,1,127.500004863739
288,96,100308,1,0,0:0:0:0:
484,168,100464,1,0,0:0:0:0:
288,272,100620,2,0,P|344:252|384:188,1,127.500004863739
220,140,100933,2,0,P|272:92|268:8,1,127.500004863739
144,112,101167,2,0,B|80:136|80:136|56:192,1,127.500004863739
160,192,101402,6,0,P|180:248|244:288,1,127.500004863739
376,252,101714,2,0,P|388:184|344:120,1,127.500004863739
316,200,101948,2,0,P|280:200|232:220,1,63.7500024318696
84,88,102183,6,0,P|152:76|232:96,1,127.500004863739
144,168,102417,2,0,L|232:272,1,127.500004863739
288,312,102652,1,0,0:0:0:0:
312,176,102808,5,0,0:0:0:0:
196,228,102964,1,0,0:0:0:0:
348,264,103120,6,0,L|412:188,1,63.7500024318696
408,156,103277,2,0,P|360:108|280:76,1,127.500004863739
300,164,103511,2,0,P|244:204|208:284,1,127.500004863739
372,304,103745,2,0,P|392:328|468:332,1,63.7500024318696
400,248,103902,2,0,P|436:248|472:220,1,63.7500024318696
340,264,104058,2,0,P|308:248|252:248,1,63.7500024318696
396,296,104214,2,0,P|416:336|456:336,1,63.7500024318696
336,284,104370,2,0,P|296:304|284:340,1,63.7500024318696
372,236,104527,6,0,P|388:164|376:100,1,127.500004863739
308,160,104761,2,0,P|240:144|180:164,1,127.500004863739
248,232,104995,2,0,P|244:280|280:336,1,63.7500024318696
320,240,105152,2,0,P|352:248|416:240,1,63.7500024318696
408,148,105308,5,0,0:0:0:0:
340,148,105386,1,0,0:0:0:0:
272,148,105464,1,0,0:0:0:0:
204,148,105542,1,0,0:0:0:0:
140,148,105620,2,0,P|88:148|24:208,1,127.500004863739
48,280,105933,1,0,0:0:0:0:
212,320,106090,6,0,L|220:328,4,10.625
248,144,106402,2,0,L|264:136,4,10.625
304,264,106714,1,0,0:0:0:0:
136,232,106870,1,0,0:0:0:0:
196,108,107027,1,0,0:0:0:0:
260,144,107105,1,0,0:0:0:0:
320,176,107183,2,0,L|332:180,16,10.625
176,252,107964,5,0,0:0:0:0:
352,336,108120,1,0,0:0:0:0:
340,208,108277,1,0,0:0:0:0:
360,136,108355,1,0,0:0:0:0:
420,92,108433,2,0,P|440:148|424:240,1,127.500004863739
320,280,108745,5,0,0:0:0:0:
284,296,108823,1,0,0:0:0:0:
248,304,108902,1,0,0:0:0:0:
208,304,108980,1,0,0:0:0:0:
172,292,109058,5,0,0:0:0:0:
140,272,109136,1,0,0:0:0:0:
112,248,109214,1,0,0:0:0:0:
92,216,109292,1,0,0:0:0:0:
92,176,109370,6,0,P|144:116|208:96,1,127.500004863739
208,216,109683,2,0,P|272:244|352:224,1,127.500004863739
424,108,109995,1,0,0:0:0:0:
232,56,110152,1,0,0:0:0:0:
296,200,110308,6,0,P|256:260|176:304,1,127.500004863739
128,168,110620,1,0,0:0:0:0:
260,68,110777,6,0,P|324:96|384:152,1,127.500004863739
412,260,111089,1,0,0:0:0:0:
248,224,111245,1,0,0:0:0:0:
360,120,111402,1,0,0:0:0:0:
344,180,111480,1,0,0:0:0:0:
324,240,111558,1,0,0:0:0:0:
180,296,111714,5,0,0:0:0:0:
180,296,111792,1,0,0:0:0:0:
180,296,111870,1,0,0:0:0:0:
156,288,111948,1,0,0:0:0:0:
128,276,112027,1,0,0:0:0:0:
144,112,112339,6,0,P|208:92|320:128,1,127.500004863739
336,236,112652,1,0,0:0:0:0:
200,292,112808,1,0,0:0:0:0:
168,264,112886,1,0,0:0:0:0:
128,280,112964,1,0,0:0:0:0:
100,244,113042,1,0,0:0:0:0:
60,256,113120,6,0,P|20:216|28:124,1,127.500004863739
136,120,113433,2,0,P|196:124|288:164,1,127.500004863739
348,304,113745,1,0,0:0:0:0:
168,316,113902,1,0,0:0:0:0:
240,104,114058,6,0,P|324:92|400:124,1,127.500004863739
428,340,114370,1,0,0:0:0:0:
164,244,114527,1,0,0:0:0:0:
360,108,114683,6,0,P|416:184|420:228,1,127.500004863739
252,332,114995,1,0,0:0:0:0:
204,140,115152,1,0,0:0:0:0:
404,208,115308,6,0,P|400:272|360:348,1,127.500004863739
196,332,115620,1,0,0:0:0:0:
280,188,115777,1,0,0:0:0:0:
380,308,115933,1,0,0:0:0:0:
192,240,116089,5,0,0:0:0:0:
136,208,116167,2,0,P|104:176|124:128,1,63.7500024318696
220,88,116402,1,0,0:0:0:0:
352,160,116558,1,0,0:0:0:0:
368,292,116714,5,0,0:0:0:0:
336,344,116792,2,0,P|316:372|248:368,1,63.7500024318696
152,288,117027,2,0,P|140:228|164:124,1,127.500004863739
236,220,117261,2,0,P|312:228|384:188,1,127.500004863739
292,148,117495,2,0,P|300:96|276:48,1,63.7500024318696
216,152,117652,2,0,P|152:176|104:216,1,127.500004863739
188,272,117964,5,0,0:0:0:0:
256,268,118042,1,0,0:0:0:0:
320,264,118120,1,0,0:0:0:0:
424,172,118277,1,0,0:0:0:0:
368,132,118355,1,0,0:0:0:0:
308,112,118433,6,0,P|244:92|168:100,1,127.500004863739
176,272,118745,2,0,P|236:291|299:288,1,127.500004863739
232,88,119058,2,0,P|172:119|124:179,1,127.500004863739
251,295,119370,2,0,P|308:266|351:219,1,127.500004863739
176,140,119683,2,0,P|156:203|163:280,1,127.500004863739
336,272,119995,2,0,P|355:211|352:148,1,127.500004863739
152,215,120308,6,0,P|183:275|243:323,1,127.500004863739
359,196,120620,2,0,P|330:139|283:96,1,127.500004863739
190,286,120933,2,0,P|254:306|330:298,1,127.500004863739
322,126,121245,2,0,P|261:106|198:109,1,127.500004863739
264,304,121558,6,0,P|332:280|404:200,1,127.500004863739
300,104,121870,1,0,0:0:0:0:
120,188,122027,1,0,0:0:0:0:
272,256,122183,1,0,0:0:0:0:
208,104,122339,2,0,P|176:160|164:268,1,127.500004863739
288,192,122652,1,0,0:0:0:0:
124,312,122808,5,0,0:0:0:0:
312,328,122964,1,0,0:0:0:0:
136,224,123120,5,0,0:0:0:0:
320,248,123277,1,0,0:0:0:0:
140,148,123433,5,0,0:0:0:0:
328,164,123589,1,0,0:0:0:0:
152,60,123745,5,0,0:0:0:0:
336,84,123902,1,0,0:0:0:0:
364,88,123980,2,0,P|400:84|444:96,1,63.7500024318696
424,256,124214,1,0,0:0:0:0:
188,264,124370,2,0,L|152:264,8,31.8750012159348
288,152,124839,5,0,0:0:0:0:
336,104,124917,1,0,0:0:0:0:
384,56,124995,1,0,0:0:0:0:
484,128,125152,1,0,0:0:0:0:
284,288,125308,5,0,0:0:0:0:
220,292,125386,1,0,0:0:0:0:
156,280,125464,1,0,0:0:0:0:
104,244,125542,1,0,0:0:0:0:
68,192,125620,1,0,0:0:0:0:
40,136,125698,1,0,0:0:0:0:
32,72,125777,1,0,0:0:0:0:
44,8,125855,5,0,0:0:0:0:
96,44,125933,1,0,0:0:0:0:
152,72,126011,1,0,0:0:0:0:
200,112,126089,1,0,0:0:0:0:
256,144,126167,1,0,0:0:0:0:
308,184,126245,1,0,0:0:0:0:
336,240,126323,1,0,0:0:0:0:
348,304,126402,1,0,0:0:0:0:
324,364,126480,1,0,0:0:0:0:
256,368,126558,6,0,L|244:368,15,10.625
272,320,127183,2,0,L|276:308,16,10.625
256,192,127974,12,0,137611,0:0:0:0:
92,84,137844,6,0,B|168:52|168:52|268:84,1,170
420,300,138156,6,0,L|244:300,1,170
156,84,138469,6,0,B|232:52|232:52|332:84,1,170
328,304,138781,2,0,L|136:304,1,170
224,84,139094,6,0,B|300:52|300:52|400:84,1,170
260,304,139406,2,0,L|84:304,1,170
288,84,139719,6,0,B|364:52|364:52|464:84,1,170
196,304,140031,2,0,L|24:304,1,170
364,24,140344,6,0,B|396:100|396:100|364:200,1,170
132,368,140656,2,0,L|132:184,1,170
364,84,140969,6,0,B|396:160|396:160|364:260,1,170
132,304,141281,2,0,L|132:120,1,170
364,144,141594,6,0,B|396:220|396:220|364:320,1,170
132,240,141906,2,0,L|132:68,1,170
364,204,142219,6,0,B|396:280|396:280|364:380,1,170
132,176,142531,2,0,L|132:4,1,170
308,76,142844,5,0,0:0:0:0:
332,284,143000,1,0,0:0:0:0:
152,176,143156,1,0,0:0:0:0:
296,104,143312,1,0,0:0:0:0:
328,312,143469,1,0,0:0:0:0:
144,216,143625,1,0,0:0:0:0:
296,128,143781,1,0,0:0:0:0:
328,336,143937,1,0,0:0:0:0:
275,308,144015,1,0,0:0:0:0:
214,282,144094,5,0,0:0:0:0:
200,80,144250,1,0,0:0:0:0:
136,257,144406,1,0,0:0:0:0:
280,104,144562,1,0,0:0:0:0:
76,212,144719,1,0,0:0:0:0:
344,128,144875,1,0,0:0:0:0:
136,48,145031,1,0,0:0:0:0:
136,248,145187,1,0,0:0:0:0:
192,132,145344,5,0,0:0:0:0:
220,80,145422,1,0,0:0:0:0:
268,44,145500,1,0,0:0:0:0:
324,28,145578,1,0,0:0:0:0:
384,36,145656,1,0,0:0:0:0:
440,56,145734,1,0,0:0:0:0:
484,96,145812,1,0,0:0:0:0:
500,152,145890,1,0,0:0:0:0:
500,212,145969,5,0,0:0:0:0:
472,264,146047,1,0,0:0:0:0:
436,312,146125,1,0,0:0:0:0:
376,324,146203,1,0,0:0:0:0:
316,316,146281,1,0,0:0:0:0:
260,296,146359,1,0,0:0:0:0:
200,296,146437,1,0,0:0:0:0:
144,308,146515,1,0,0:0:0:0:
88,328,146594,5,0,0:0:0:0:
404,88,146906,1,0,0:0:0:0:
404,88,147219,5,0,0:0:0:0:
320,92,147297,1,0,0:0:0:0:
236,96,147375,1,0,0:0:0:0:
152,116,147453,1,0,0:0:0:0:
124,196,147531,1,0,0:0:0:0:
128,280,147609,1,0,0:0:0:0:
200,328,147687,1,0,0:0:0:0:
284,336,147765,1,0,0:0:0:0:
368,336,147844,6,0,P|440:184|264:36,1,425
264,176,148312,1,0,0:0:0:0:
164,88,148469,2,0,B|128:120|128:120|128:200|128:200|172:236,1,170
224,268,148703,1,0,0:0:0:0:
292,308,148781,1,0,0:0:0:0:
384,184,149094,5,0,0:0:0:0:
192,100,149250,1,0,0:0:0:0:
268,96,149328,1,0,0:0:0:0:
340,92,149406,2,0,B|424:140|424:140|336:184,1,170
228,80,149719,2,0,B|152:108|152:108|252:188,1,170
384,264,150031,2,0,B|356:236|356:236|388:204|388:204|452:268|452:268|376:344|376:344|332:296,1,340
248,200,150500,5,0,0:0:0:0:
388,168,150656,2,0,B|352:184|352:184|381:237|381:237|371:316|371:316|297:285|297:285|264:232|264:232|212:272,1,340
112,128,151125,5,0,0:0:0:0:
108,340,151281,1,0,0:0:0:0:
308,320,151437,1,0,0:0:0:0:
388,192,151594,2,0,B|396:104|396:104|304:128,1,170
84,84,151906,6,0,B|60:128|60:128|108:184|108:184|188:160,1,170
228,144,152140,1,0,0:0:0:0:
304,116,152219,1,0,0:0:0:0:
412,64,152375,1,0,0:0:0:0:
380,296,152531,1,0,0:0:0:0:
144,100,152687,1,0,0:0:0:0:
348,292,152844,6,0,P|256:328|112:96,1,425
256,152,153312,1,0,0:0:0:0:
368,88,153469,2,0,B|416:112|416:112|416:184|416:184|360:220,1,170
300,264,153703,1,0,0:0:0:0:
232,292,153781,1,0,0:0:0:0:
316,84,154094,5,0,0:0:0:0:
176,144,154250,1,0,0:0:0:0:
124,208,154328,1,0,0:0:0:0:
72,264,154406,2,0,B|140:328|140:328|228:320|228:320,1,170
388,312,154719,2,0,B|452:256|452:256|480:168,1,170
304,200,155031,2,0,B|308:236|308:236|312:296|312:296|376:256|376:256|444:288|444:288|440:136,1,340
360,60,155500,5,0,0:0:0:0:
232,64,155656,2,0,B|120:104|120:104|156:180|156:180|212:152|212:152|192:124|192:124|272:100,1,340
360,52,156125,1,0,0:0:0:0:
436,224,156281,1,0,0:0:0:0:
216,288,156437,1,0,0:0:0:0:
208,56,156594,5,0,0:0:0:0:
108,288,156750,1,0,0:0:0:0:
336,52,156906,5,0,0:0:0:0:
404,304,157062,1,0,0:0:0:0:
116,128,157219,5,0,0:0:0:0:
416,88,157375,1,0,0:0:0:0:
112,216,157531,5,0,0:0:0:0:
412,264,157687,1,0,0:0:0:0:
348,140,157844,6,0,B|340:144|340:144|332:140|332:140|324:144|324:144|316:140|316:140|308:144|308:144|300:140|300:140|292:144|292:144|284:140|284:140|276:144|276:144|268:140|268:140|260:144|260:144|252:140|252:140|244:144|244:144|236:140|236:140|228:144|228:144,2,106.25
156,76,158156,2,0,P|64:188|236:152,1,425
352,76,158625,1,0,0:0:0:0:
352,184,158703,1,0,0:0:0:0:
352,288,158781,1,0,0:0:0:0:
140,176,159094,6,0,B|176:160|176:160|216:232|216:232|276:208,1,170
376,172,159328,1,0,0:0:0:0:
456,144,159406,2,0,B|496:216|496:216|380:284,1,170
328,324,159719,2,0,B|236:352|236:352|156:324,1,170
368,84,160031,2,0,B|248:72|248:72|304:200|304:200|392:92,1,340
276,236,160500,5,0,0:0:0:0:
196,280,160656,2,0,B|260:336|260:336|344:300|344:300|384:224|384:224|300:128,1,340
184,124,161125,1,0,0:0:0:0:
88,60,161281,2,0,B|172:24|172:24|308:40,1,170
292,236,161594,6,0,B|340:236|340:236|340:152|340:152|272:152,1,170
184,92,161906,2,0,B|112:144|112:144|180:212,1,170
236,256,162140,1,0,0:0:0:0:
304,312,162219,1,0,0:0:0:0:
432,200,162375,1,0,0:0:0:0:
232,64,162531,1,0,0:0:0:0:
64,244,162687,1,0,0:0:0:0:
76,72,162844,6,0,P|260:20|424:184,1,425
352,264,163312,1,0,0:0:0:0:
356,124,163469,2,0,B|280:160|280:160|268:136|268:136|192:168,1,170
124,204,163703,1,0,0:0:0:0:
40,252,163781,1,0,0:0:0:0:
188,304,164094,6,0,B|208:264|208:264|228:224|228:224|248:264|248:264|272:308,1,170
372,304,164328,1,0,0:0:0:0:
460,296,164406,1,0,0:0:0:0:
444,168,164562,1,0,0:0:0:0:
272,68,164719,2,0,B|220:60|220:60|200:120|200:120|124:104,1,170
232,232,165031,2,0,B|288:300|288:300|384:280,1,170
96,124,165344,6,0,P|144:88|232:92,1,127.500004863739
372,196,165656,2,0,P|300:224|216:196,1,127.500004863739
84,200,165969,2,0,P|120:140|196:108,1,127.500004863739
228,104,166203,1,0,0:0:0:0:
288,104,166281,1,0,0:0:0:0:
344,208,166437,1,0,0:0:0:0:
120,180,166594,5,0,0:0:0:0:
336,188,166750,1,0,0:0:0:0:
228,96,166906,1,0,0:0:0:0:
328,288,167062,1,0,0:0:0:0:
120,180,167219,1,0,0:0:0:0:
336,188,167375,1,0,0:0:0:0:
144,296,167531,1,0,0:0:0:0:
228,96,167687,1,0,0:0:0:0:
312,184,167844,6,0,B|304:188|304:188|312:192|312:192|304:196|304:196|312:200|312:200|304:204|304:204|312:208|312:208|304:212|304:212|312:216|312:216|304:220|304:220|312:224|312:224|304:228|304:228|312:232|312:232|304:236|304:236|312:240|312:240|304:244|304:244|312:248|312:248|304:252|304:252|312:256|312:256|304:260|304:260|312:264|312:264|304:268|304:268|312:272|312:272|308:276|308:276|308:336,1,255.000009727478
412,312,168156,1,0,0:0:0:0:
456,204,168312,1,0,0:0:0:0:
364,112,168469,2,0,B|332:100|332:100|280:160|280:160|204:120|204:120|160:204,1,212.5
144,228,168703,1,0,0:0:0:0:
96,304,168781,1,0,0:0:0:0:
332,172,169094,6,0,B|256:72|256:72|176:156,1,212.5
136,192,169328,1,0,0:0:0:0:
76,252,169406,6,0,B|148:344|148:344|256:276,1,212.5
228,192,169719,2,0,B|132:136|132:136|-28:164,1,212.5
176,268,170031,2,0,B|280:312|280:312|312:152|312:152|124:232,1,425
76,240,170500,5,0,0:0:0:0:
140,140,170578,1,0,0:0:0:0:
196,48,170656,1,0,0:0:0:0:
260,160,170812,1,0,0:0:0:0:
176,264,170969,6,0,B|252:340|252:340|328:340|328:340|380:288|380:288|380:216|380:216|300:136,1,425
280,248,171437,1,0,0:0:0:0:
156,144,171594,6,0,B|240:88|240:88|376:100,1,212.5
468,224,171906,2,0,B|356:208|356:208|248:244,1,212.5
172,268,172140,1,0,0:0:0:0:
84,300,172219,1,0,0:0:0:0:
232,136,172375,1,0,0:0:0:0:
472,340,172531,1,0,0:0:0:0:
136,332,172687,1,0,0:0:0:0:
132,92,172844,6,0,B|136:100|136:100|140:92|140:92|144:100|144:100|148:92|148:92|152:100|152:100|156:92|156:92|160:100|160:100|164:92|164:92|168:100|168:100|172:92|172:92|176:100|176:100|180:92|180:92|184:100|184:100|188:92|188:92|192:100|192:100|196:92|196:92|200:100|200:100|204:92|204:92|208:100|208:100|212:92|212:92|216:100|216:100|220:92|220:92|224:100|224:100|228:91|228:91|232:100|232:100|236:91|236:91|240:99|240:99|244:92|244:92|248:100|248:100|252:92|252:92|256:100|256:100|260:92|260:92|264:100|264:100|268:92|268:92|272:99|272:99|276:92|276:92|280:100|280:100|284:92|284:92|288:100|288:100|292:92|292:92|296:100|296:100|300:92|300:92|304:100|304:100|308:91,1,382.500014591218
368,192,173156,1,0,0:0:0:0:
332,316,173312,1,0,0:0:0:0:
244,224,173469,2,0,B|140:248|140:248|216:116,1,212.5
240,80,173703,1,0,0:0:0:0:
300,4,173781,1,0,0:0:0:0:
336,172,174094,6,0,B|292:190|292:190|381:267|381:267|295:300,1,212.5
224,336,174328,1,0,0:0:0:0:
148,364,174406,2,0,B|96:292|96:292|136:224|136:224|272:252,1,212.5
400,280,174719,2,0,B|452:188|452:188|308:120,1,212.5
128,148,175031,2,0,B|128:124|128:124|172:68|172:68|224:28|224:28|316:28|316:28|360:68|360:68|416:124|416:124|416:224,1,425
272,156,175500,5,0,0:0:0:0:
284,284,175656,2,0,B|236:208|236:208|148:240|148:240|128:208,1,212.5
264,64,175969,2,0,B|356:88|356:88|360:196|360:196|440:248,1,212.5
316,320,176281,2,0,B|188:312|188:312|116:224,1,212.5
160,64,176594,5,0,0:0:0:0:
432,84,176750,1,0,0:0:0:0:
200,232,176906,1,0,0:0:0:0:
432,248,177062,1,0,0:0:0:0:
160,148,177219,1,0,0:0:0:0:
432,164,177375,1,0,0:0:0:0:
200,312,177531,1,0,0:0:0:0:
432,352,177687,1,0,0:0:0:0:
472,164,177844,6,0,B|355:287|355:287|227:287,1,297.500002837181
136,244,178156,2,0,B|136:240|136:240|132:240|132:240|132:236|132:236|128:236|128:236|128:232|128:232|124:232|124:232|124:228|124:228|120:228|120:228|120:224|120:224|116:224|116:224|116:220|116:220|112:220|112:220|112:216|112:216|108:216|108:216|108:212|108:212|104:212|104:212|104:208|104:208|100:208|100:208|100:204|100:204|96:204|96:204|100:200|100:200|104:200|104:200|104:196|104:196|108:196|108:196|108:192|108:192|112:192|112:192|112:188|112:188|116:188|116:188|116:184|116:184|120:184|120:184|120:180|120:180|124:180|124:180|124:176|124:176|128:176|128:176|128:172|128:172|132:172|132:172|132:168|132:168|136:168|136:168|136:164|136:164|140:164|140:164|136:160|136:160|132:160|132:160|132:156|132:156|128:156|128:156|128:152|128:152|124:152|124:152|124:148|124:148|120:148|120:148|120:144|120:144|116:144|116:144|116:140|116:140|112:140|112:140|112:136|112:136|108:136|108:136|108:132|108:132|104:132|104:132|104:128|104:128|100:128|100:128|100:124|100:124|96:124|96:124|100:120|100:120|104:120|104:120|104:116|104:116|108:116|108:116|108:112|108:112|112:112|112:112|112:108|112:108|116:108|116:108|116:104|116:104|120:104|120:104|120:100|120:100|124:100|124:100|124:96|124:96|128:96|128:96|128:92|128:92|128:92|128:92|132:92|132:92|132:88|132:88|136:88|136:88|136:84,1,297.500002837181
200,20,178469,2,0,B|300:60|300:60|224:168|224:168|280:216,1,297.500002837181
348,280,178703,1,0,0:0:0:0:
428,360,178781,2,0,B|472:240|472:240|360:56,1,297.500002837181
380,256,179094,6,0,B|260:304|260:304|388:176,1,297.500002837181
320,52,179328,1,0,0:0:0:0:
203,66,179406,2,0,B|55:118|55:118|199:150,1,297.500002837181
259,244,179719,2,0,B|368:327|368:327|208:311,1,297.500002837181
322,241,180031,2,0,B|378:185|378:185|378:133|378:133|350:85|350:85|302:37|302:37|214:37|214:37|166:85|166:85|138:133|138:133|138:185|138:185|202:253,1,595.000005674362
256,156,180500,5,0,0:0:0:0:
128,276,180656,2,0,B|288:276|288:276|160:208,1,297.500002837181
228,116,180969,2,0,B|168:56|168:56|80:144|80:144|152:216,1,297.500002837181
212,324,181281,2,0,B|120:324|120:324|120:212|120:212|216:212,1,297.500002837181
476,240,181594,6,0,B|416:196|416:196|424:272|424:272|356:228|356:228|336:296,1,297.500002837181
112,296,181906,2,0,B|52:188|52:188|84:128|84:128|200:88,1,297.500002837181
280,60,182140,1,0,0:0:0:0:
384,32,182219,1,0,0:0:0:0:
388,224,182375,1,0,0:0:0:0:
168,312,182531,1,0,0:0:0:0:
88,116,182687,1,0,0:0:0:0:
260,56,182844,6,0,L|216:116,1,63.75
72,152,183156,2,0,L|124:164,1,42.5
208,280,183469,6,0,L|264:220,1,63.75
304,120,183781,2,0,L|248:92,1,42.5
376,296,184094,6,0,L|324:240,1,63.75
236,160,184406,2,0,L|188:180,1,42.5
384,60,184719,2,0,L|360:128,1,63.75
316,244,185031,2,0,L|264:272,1,42.5
184,304,185344,6,0,P|132:184|200:68,1,255.000009727478
248,184,185812,2,0,B|304:228|344:208|416:248,1,127.500004863739
300,320,186125,1,0,0:0:0:0:
352,92,186281,1,0,0:0:0:0:
152,184,186437,1,0,0:0:0:0:
368,216,186594,5,0,0:0:0:0:
232,96,186750,1,0,0:0:0:0:
132,232,186906,1,0,0:0:0:0:
288,328,187062,1,0,0:0:0:0:
304,152,187219,1,0,0:0:0:0:
192,296,187375,1,0,0:0:0:0:
344,280,187531,1,0,0:0:0:0:
168,156,187687,1,0,0:0:0:0:
272,84,187844,5,0,0:0:0:0:
380,92,188000,1,0,0:0:0:0:
440,180,188156,1,0,0:0:0:0:
420,292,188312,1,0,0:0:0:0:
336,336,188469,2,0,P|244:328|172:288,1,170
72,188,188781,1,0,0:0:0:0:
168,92,188937,5,0,0:0:0:0:
304,80,189094,2,0,P|404:76|472:136,1,170
488,224,189406,1,0,0:0:0:0:
372,296,189562,5,0,0:0:0:0:
372,180,189719,2,0,P|368:80|264:-8,1,170
260,144,190031,1,0,0:0:0:0:
252,280,190187,1,0,0:0:0:0:
168,216,190344,2,0,P|244:200|336:224,2,170
88,304,190812,1,0,0:0:0:0:
64,136,190969,6,0,P|140:104|272:100,1,170
316,96,191281,1,0,0:0:0:0:
418,96,191437,1,0,0:0:0:0:
468,180,191594,2,0,P|440:264|352:292,1,170
240,296,191906,5,0,0:0:0:0:
140,152,192062,1,0,0:0:0:0:
312,96,192219,1,0,0:0:0:0:
264,280,192375,1,0,0:0:0:0:
164,136,192531,1,0,0:0:0:0:
412,76,192687,1,0,0:0:0:0:
288,248,192844,6,0,P|184:236|92:172,1,170
84,88,193156,1,0,0:0:0:0:
100,216,193312,1,0,0:0:0:0:
128,88,193469,2,0,P|212:64|316:92,1,170
448,152,193781,1,0,0:0:0:0:
292,108,193937,1,0,0:0:0:0:
424,208,194094,6,0,P|364:272|260:304,1,170
112,268,194406,1,0,0:0:0:0:
280,272,194562,1,0,0:0:0:0:
136,212,194719,2,0,P|180:128|256:96,1,170
452,128,195031,1,0,0:0:0:0:
256,120,195187,1,0,0:0:0:0:
448,176,195344,6,0,P|444:260|384:348,1,170
244,360,195656,1,0,0:0:0:0:
352,260,195812,1,0,0:0:0:0:
228,292,195969,2,0,P|116:268|76:220,1,170
160,72,196281,5,0,0:0:0:0:
192,232,196437,1,0,0:0:0:0:
280,88,196594,1,0,0:0:0:0:
112,160,196750,1,0,0:0:0:0:
284,180,196906,1,0,0:0:0:0:
176,92,197062,1,0,0:0:0:0:
192,208,197219,1,0,0:0:0:0:
380,120,197453,5,0,0:0:0:0:
172,288,197687,1,0,0:0:0:0:
332,288,197844,2,0,B|324:280|324:280|332:276|332:276|324:272|324:272|332:268|332:268|324:264|324:264|332:260|332:260|324:256|324:256|332:252|332:252|324:248|324:248|332:244|332:244|324:240|324:240|332:236|332:236|324:232|324:232|332:228|332:228|324:224|324:224|332:220|332:220|324:216|324:216|332:212|332:212|328:204|328:204|328:184|328:148|328:112|328:76|296:40,1,340
216,40,198312,5,0,0:0:0:0:
108,176,198469,2,0,P|188:168|316:176,1,170
424,184,198781,1,0,0:0:0:0:
424,332,198937,1,0,0:0:0:0:
476,264,199094,6,0,P|376:244|264:264,1,170
152,276,199406,1,0,0:0:0:0:
272,160,199562,1,0,0:0:0:0:
296,280,199719,2,0,P|208:216|152:152,1,170
124,64,200031,1,0,0:0:0:0:
276,12,200187,1,0,0:0:0:0:
168,0,200344,6,0,P|236:68|300:164,1,170
380,264,200656,5,0,0:0:0:0:
196,288,200812,1,0,0:0:0:0:
320,356,200969,2,0,P|300:280|256:192,1,170
168,88,201281,1,0,0:0:0:0:
104,256,201437,1,0,0:0:0:0:
288,208,201594,2,0,P|368:176|408:76,1,170
272,72,201906,5,0,0:0:0:0:
148,176,202062,1,0,0:0:0:0:
292,328,202219,1,0,0:0:0:0:
304,184,202375,1,0,0:0:0:0:
308,152,202453,1,0,0:0:0:0:
312,120,202531,1,0,0:0:0:0:
328,20,202687,1,0,0:0:0:0:
144,112,202844,5,0,0:0:0:0:
256,248,203000,1,0,0:0:0:0:
268,128,203156,1,0,0:0:0:0:
128,240,203312,1,0,0:0:0:0:
287,192,203469,5,0,0:0:0:0:
112,175,203625,1,0,0:0:0:0:
188,268,203781,1,0,0:0:0:0:
208,90,203937,1,0,0:0:0:0:
280,260,204094,5,0,0:0:0:0:
420,148,204250,1,0,0:0:0:0:
408,268,204406,1,0,0:0:0:0:
296,132,204562,1,0,0:0:0:0:
416,208,204719,5,0,0:0:0:0:
344,264,204875,1,0,0:0:0:0:
352,208,204953,1,0,0:0:0:0:
360,148,205031,1,0,0:0:0:0:
288,200,205187,1,0,0:0:0:0:
436,144,205344,5,0,0:0:0:0:
436,144,205500,2,0,B|424:136|424:136|416:148|416:148|408:136|408:136|400:148|400:148|392:136|392:136|384:148|384:148|376:136|376:136|368:148|368:148|360:136|360:136|352:148|352:148|344:136|344:136|336:148|336:148|328:136|328:136|320:148|320:148|224:144|192:144|172:176,1,340
96,248,205969,1,0,0:0:0:0:
256,276,206125,1,0,0:0:0:0:
212,144,206281,2,0,P|272:80|376:60,1,170
408,224,206594,5,0,0:0:0:0:
288,100,206750,1,0,0:0:0:0:
160,224,206906,1,0,0:0:0:0:
280,324,207062,1,0,0:0:0:0:
364,152,207219,1,0,0:0:0:0:
208,152,207375,1,0,0:0:0:0:
352,284,207531,1,0,0:0:0:0:
204,284,207687,1,0,0:0:0:0:
96,76,207844,5,8,3:0:0:0:
308,64,208156,1,8,3:0:0:0:
376,116,208469,5,8,3:0:0:0:
376,204,208625,1,8,3:0:0:0:
272,256,208781,1,8,3:0:0:0:
268,164,208937,1,8,3:0:0:0:
376,164,209250,1,8,3:0:0:0:
168,312,209562,5,8,3:0:0:0:
240,188,209719,1,8,3:0:0:0:
68,140,209875,1,8,3:0:0:0:
88,256,210031,1,8,3:0:0:0:
160,132,210187,1,8,3:0:0:0:
372,84,210344,5,8,3:0:0:0:
304,200,210656,1,8,3:0:0:0:
272,304,210969,5,8,3:0:0:0:
172,264,211125,1,8,3:0:0:0:
204,156,211281,1,8,3:0:0:0:
340,80,211437,1,8,3:0:0:0:
408,264,211750,1,8,3:0:0:0:
176,244,212062,5,8,3:0:0:0:
188,144,212219,1,8,3:0:0:0:
204,40,212375,1,8,3:0:0:0:
320,56,212531,1,8,3:0:0:0:
304,156,212687,1,8,3:0:0:0:
112,188,212844,5,8,3:0:0:0:
376,184,213156,1,8,3:0:0:0:
244,276,213469,5,8,3:0:0:0:
368,296,213625,1,8,3:0:0:0:
288,184,213781,1,8,3:0:0:0:
216,304,213937,1,8,3:0:0:0:
112,152,214250,5,8,3:0:0:0:
232,108,214562,5,8,3:0:0:0:
344,108,214719,1,8,3:0:0:0:
460,104,214875,1,8,3:0:0:0:
468,220,215031,1,8,3:0:0:0:
352,224,215187,1,8,3:0:0:0:
232,160,215344,5,8,3:0:0:0:
344,192,215656,1,8,3:0:0:0:
336,300,215969,5,8,3:0:0:0:
244,308,216125,1,8,3:0:0:0:
184,216,216281,1,8,3:0:0:0:
236,104,216437,1,8,3:0:0:0:
432,208,216750,1,8,3:0:0:0:
96,320,217062,5,8,3:0:0:0:
184,88,217219,1,8,3:0:0:0:
396,100,217375,1,8,3:0:0:0:
280,256,217531,1,8,3:0:0:0:
368,124,217687,1,8,3:0:0:0:
180,124,217844,5,2,3:0:0:0:
340,292,218000,1,2,3:0:0:0:
320,120,218156,1,2,3:0:0:0:
184,288,218312,1,2,3:0:0:0:
104,124,218469,5,2,3:0:0:0:
268,292,218625,1,2,3:0:0:0:
248,120,218781,1,2,3:0:0:0:
112,288,218937,1,2,3:0:0:0:
180,124,219094,5,2,3:0:0:0:
340,292,219250,1,2,3:0:0:0:
320,120,219406,1,2,3:0:0:0:
184,288,219562,1,2,3:0:0:0:
252,124,219719,5,2,3:0:0:0:
412,292,219875,1,2,3:0:0:0:
392,120,220031,1,2,3:0:0:0:
256,288,220187,1,2,3:0:0:0:
320,120,220344,5,2,3:0:0:0:
428,228,220500,1,2,3:0:0:0:
319,336,220656,1,2,3:0:0:0:
211,228,220812,1,2,3:0:0:0:
396,151,220969,5,2,3:0:0:0:
396,304,221125,1,2,3:0:0:0:
242,304,221281,1,2,3:0:0:0:
242,151,221437,1,2,3:0:0:0:
427,228,221594,5,2,3:0:0:0:
319,336,221750,1,2,3:0:0:0:
211,227,221906,1,2,3:0:0:0:
319,119,222062,1,2,3:0:0:0:
395,304,222219,5,2,3:0:0:0:
242,304,222375,1,2,3:0:0:0:
243,151,222531,1,2,3:0:0:0:
396,151,222687,1,2,3:0:0:0:
80,64,222844,5,2,3:0:0:0:
80,216,223000,1,2,3:0:0:0:
176,60,223156,5,2,3:0:0:0:
168,248,223312,1,2,3:0:0:0:
256,64,223469,5,2,3:0:0:0:
244,284,223625,1,2,3:0:0:0:
336,64,223781,5,2,3:0:0:0:
336,336,223937,1,2,3:0:0:0:
416,64,224094,5,2,3:0:0:0:
112,64,224250,1,2,3:0:0:0:
416,140,224406,5,2,3:0:0:0:
72,140,224562,1,2,3:0:0:0:
416,212,224719,5,2,3:0:0:0:
32,212,224875,1,2,3:0:0:0:
416,284,225031,5,2,3:0:0:0:
0,284,225187,1,2,3:0:0:0:
328,260,225344,6,2,L|336:224,3,25.4999992218018,2|2|2|2,3:0|3:0|3:0|3:0,3:0:0:0:
356,140,225656,2,2,L|392:120,3,25.4999992218018,2|2|2|2,3:0|3:0|3:0|3:0,3:0:0:0:
244,192,225969,2,2,L|224:208,3,25.4999992218018,2|2|2|2,3:0|3:0|3:0|3:0,3:0:0:0:
148,292,226281,2,2,L|180:308,3,25.4999992218018,2|2|2|2,3:0|3:0|3:0|3:0,3:0:0:0:
292,308,226594,5,2,3:0:0:0:
348,164,226750,1,2,3:0:0:0:
96,124,226906,1,2,3:0:0:0:
196,232,227062,1,2,3:0:0:0:
232,172,227140,1,2,3:0:0:0:
264,112,227219,2,2,L|272:96,4,12.7499996109009,2|2|2|2|2,3:0|3:0|3:0|3:0|3:0,3:0:0:0:
292,172,227453,1,2,3:0:0:0:
324,232,227531,1,2,3:0:0:0:
96,88,227844,6,0,P|256:40|448:112,1,340
140,228,228625,1,0,0:0:0:0:
360,228,228781,1,0,0:0:0:0:
244,296,229094,1,0,0:0:0:0:
184,132,229406,1,0,0:0:0:0:
320,132,229719,1,0,0:0:0:0:
360,32,230344,6,0,P|408:192|336:384,1,340
220,76,231125,1,0,0:0:0:0:
220,296,231281,1,0,0:0:0:0:
372,192,231594,5,0,0:0:0:0:
72,192,232219,1,0,0:0:0:0:
152,352,232844,6,0,P|104:192|176:0,1,340
292,308,233625,1,0,0:0:0:0:
292,88,233781,1,0,0:0:0:0:
396,188,234094,1,0,0:0:0:0:
180,252,234406,1,0,0:0:0:0:
184,124,234719,1,0,0:0:0:0:
96,296,235344,6,0,P|256:344|448:272,1,340
140,156,236125,1,0,0:0:0:0:
360,156,236281,1,0,0:0:0:0:
256,24,236594,1,0,0:0:0:0:
256,256,237219,1,0,0:0:0:0:
404,156,237844,6,0,P|324:303|138:387,1,340
273,88,238625,1,0,0:0:0:0:
118,243,238781,1,0,0:0:0:0:
112,92,239094,1,0,0:0:0:0:
316,192,239406,5,0,0:0:0:0:
232,276,239719,1,0,0:0:0:0:
403,235,240344,6,0,P|323:87|137:3,1,340
273,303,241125,1,0,0:0:0:0:
118,147,241281,1,0,0:0:0:0:
299,113,241594,5,0,0:0:0:0:
87,325,242219,1,0,0:0:0:0:
108,228,242844,6,0,P|187:80|373:-3,1,340
239,296,243625,1,0,0:0:0:0:
394,141,243781,1,0,0:0:0:0:
392,280,244094,1,0,0:0:0:0:
192,192,244406,1,0,0:0:0:0:
284,96,244719,1,0,0:0:0:0:
109,149,245344,6,0,P|188:296|374:380,1,340
239,81,246125,1,0,0:0:0:0:
394,237,246281,1,0,0:0:0:0:
213,271,246594,5,0,0:0:0:0:
384,56,246906,1,0,0:0:0:0:
208,212,247219,1,0,0:0:0:0:
392,32,247375,1,0,0:0:0:0:
208,184,247531,1,0,0:0:0:0:
384,0,247687,1,0,0:0:0:0:
116,96,247844,6,0,P|176:92|244:116,1,127.500004863739
120,284,248156,1,0,0:0:0:0:
236,128,248312,1,0,0:0:0:0:
188,232,248469,2,0,P|252:268|328:268,1,127.500004863739
416,104,248781,1,0,0:0:0:0:
332,244,248937,1,0,0:0:0:0:
368,64,249094,6,0,P|372:124|348:192,1,127.500004863739
180,68,249406,1,0,0:0:0:0:
336,184,249562,1,0,0:0:0:0:
232,136,249719,2,0,P|196:200|196:276,1,127.500004863739
360,364,250031,1,0,0:0:0:0:
220,280,250187,1,0,0:0:0:0:
380,320,250344,6,0,P|304:300|244:308,1,127.500004863739
288,136,250656,1,0,0:0:0:0:
216,300,250812,2,0,P|196:208|204:144,1,127.500004863739
392,168,251125,1,0,0:0:0:0:
204,136,251281,1,0,0:0:0:0:
136,120,251359,6,0,L|72:108,2,63.7500024318696
92,260,251750,5,0,0:0:0:0:
312,176,251906,1,0,0:0:0:0:
196,352,252062,1,0,0:0:0:0:
208,116,252375,6,0,P|264:84|360:72,1,127.500004863739
348,208,252687,1,0,0:0:0:0:
108,204,252844,6,0,P|120:136|176:80,1,127.500004863739
340,116,253156,1,0,0:0:0:0:
180,96,253312,1,0,0:0:0:0:
344,180,253469,6,0,P|332:248|276:304,1,127.500004863739
112,268,253781,1,0,0:0:0:0:
272,288,253937,1,0,0:0:0:0:
108,312,254094,6,0,P|157:350|219:360,1,127.500004863739
264,152,254406,1,0,0:0:0:0:
244,312,254562,1,0,0:0:0:0:
200,144,254719,6,0,P|249:105|311:95,1,127.500004863739
356,304,255031,1,0,0:0:0:0:
336,144,255187,1,0,0:0:0:0:
144,40,255344,6,0,P|208:32|276:48,1,127.500004863739
460,200,255656,2,0,P|388:180|304:208,1,127.500004863739
72,276,255969,2,0,P|144:252|236:264,1,127.500004863739
228,260,256203,2,0,L|312:268,1,63.7500024318696
420,276,256437,1,0,0:0:0:0:
436,100,256594,6,0,P|372:108|300:168,1,127.500004863739
300,176,256828,2,0,L|248:240,1,63.7500024318696
188,332,257062,1,0,0:0:0:0:
96,200,257219,2,0,L|188:168,2,63.7500024318696
284,128,257531,5,0,0:0:0:0:
408,296,257687,1,0,0:0:0:0:
216,320,257844,6,0,P|184:264|192:164,1,127.500004863739
196,136,258078,1,0,0:0:0:0:
220,64,258156,1,0,0:0:0:0:
336,160,258469,5,0,0:0:0:0:
168,272,258625,1,0,0:0:0:0:
336,160,258781,1,0,0:0:0:0:
168,272,258937,1,0,0:0:0:0:
188,120,259094,5,0,0:0:0:0:
316,312,259250,1,0,0:0:0:0:
188,120,259406,1,0,0:0:0:0:
316,312,259562,1,0,0:0:0:0:
284,96,259719,5,0,0:0:0:0:
228,324,259875,1,0,0:0:0:0:
284,96,260031,1,0,0:0:0:0:
228,324,260187,1,0,0:0:0:0:
416,252,260344,5,0,0:0:0:0:
108,184,260500,1,0,0:0:0:0:
416,252,260656,1,0,0:0:0:0:
108,184,260812,1,0,0:0:0:0:
392,188,260969,5,0,0:0:0:0:
116,176,261125,1,0,0:0:0:0:
320,320,261281,1,0,0:0:0:0:
256,88,261437,1,0,0:0:0:0:
184,320,261594,6,0,P|220:254|172:161,1,127.500004863739
84,92,261906,1,0,0:0:0:0:
400,92,262062,1,0,0:0:0:0:
324,152,262375,5,0,0:0:0:0:
264,136,262453,1,0,0:0:0:0:
208,160,262531,1,0,0:0:0:0:
112,240,262687,1,0,0:0:0:0:
328,280,262844,5,0,0:0:0:0:
328,136,263000,1,0,0:0:0:0:
196,192,263156,1,0,0:0:0:0:
352,308,263312,5,0,0:0:0:0:
356,108,263469,1,0,0:0:0:0:
160,192,263625,1,0,0:0:0:0:
372,332,263781,5,0,0:0:0:0:
372,92,263937,1,0,0:0:0:0:
128,192,264094,1,0,0:0:0:0:
392,352,264250,5,0,0:0:0:0:
432,216,264406,2,0,L|440:184,7,31.8750012159348
456,136,264719,1,0,0:0:0:0:
312,80,264875,5,0,0:0:0:0:
248,72,264953,1,0,0:0:0:0:
184,88,265031,1,0,0:0:0:0:
76,160,265187,1,0,0:0:0:0:
156,256,265344,6,0,B|192:276|192:276|244:272,7,85
264,208,265969,6,0,B|292:176|292:176|264:128,7,85
224,168,266594,2,0,B|201:151|201:151|161:162,11,56.6666666666667
208,212,267219,2,0,B|196:240|196:240|216:264,15,42.5
244,272,267844,6,0,P|284:300|348:272,1,85
124,220,268156,1,0,0:0:0:0:
204,112,268312,1,0,0:0:0:0:
232,88,268390,1,0,0:0:0:0:
264,52,268469,1,0,0:0:0:0:
320,208,268625,1,0,0:0:0:0:
140,172,268781,2,0,L|72:112,1,85
264,296,269094,5,0,0:0:0:0:
208,168,269250,1,0,0:0:0:0:
192,136,269328,1,0,0:0:0:0:
176,92,269406,1,0,0:0:0:0:
328,176,269562,1,0,0:0:0:0:
344,144,269640,1,0,0:0:0:0:
356,112,269719,1,0,0:0:0:0:
104,148,269875,5,0,0:0:0:0:
440,144,270031,1,0,0:0:0:0:
256,292,270187,1,0,0:0:0:0:
249,61,270344,6,0,P|209:33|145:61,1,85
369,113,270656,1,0,0:0:0:0:
289,221,270812,1,0,0:0:0:0:
261,245,270890,1,0,0:0:0:0:
229,281,270969,1,0,0:0:0:0:
173,125,271125,1,0,0:0:0:0:
353,161,271281,2,0,L|421:221,1,85
232,48,271594,5,0,0:0:0:0:
284,164,271750,1,0,0:0:0:0:
301,197,271828,1,0,0:0:0:0:
317,241,271906,1,0,0:0:0:0:
165,157,272062,1,0,0:0:0:0:
149,189,272140,1,0,0:0:0:0:
137,221,272219,1,0,0:0:0:0:
389,185,272375,5,0,0:0:0:0:
53,189,272531,1,0,0:0:0:0:
112,136,272609,1,0,0:0:0:0:
168,80,272687,1,0,0:0:0:0:
228,32,272765,1,0,0:0:0:0:
228,100,272844,6,0,L|328:160,1,85
408,68,273156,5,0,0:0:0:0:
240,72,273312,1,0,0:0:0:0:
204,104,273390,1,0,0:0:0:0:
168,136,273469,1,0,0:0:0:0:
340,228,273625,5,0,0:0:0:0:
156,268,273781,1,0,0:0:0:0:
352,108,273937,1,0,0:0:0:0:
160,128,274094,6,0,P|132:172|128:216,1,85
392,192,274406,5,0,0:0:0:0:
148,148,274562,1,0,0:0:0:0:
176,124,274640,1,0,0:0:0:0:
200,108,274719,1,0,0:0:0:0:
140,276,274875,1,0,0:0:0:0:
168,292,274953,1,0,0:0:0:0:
196,308,275031,1,0,0:0:0:0:
380,324,275187,1,0,0:0:0:0:
284,114,275344,6,0,L|312:227,1,85
434,219,275656,5,0,0:0:0:0:
312,103,275812,1,0,0:0:0:0:
264,100,275890,1,0,0:0:0:0:
216,97,275969,1,0,0:0:0:0:
273,284,276125,5,0,0:0:0:0:
114,182,276281,1,0,0:0:0:0:
366,207,276437,1,0,0:0:0:0:
216,86,276594,6,0,P|165:97|131:125,1,85
335,295,276906,5,0,0:0:0:0:
193,92,277062,1,0,0:0:0:0:
230,94,277140,1,0,0:0:0:0:
259,100,277219,1,0,0:0:0:0:
112,184,277375,5,0,0:0:0:0:
152,168,277453,1,0,0:0:0:0:
192,152,277531,1,0,0:0:0:0:
232,132,277609,1,0,0:0:0:0:
272,112,277687,1,0,0:0:0:0:
312,100,277765,1,0,0:0:0:0:
360,60,277844,5,0,0:0:0:0:
76,64,278000,1,0,0:0:0:0:
360,128,278156,5,0,0:0:0:0:
76,128,278312,1,0,0:0:0:0:
360,192,278469,5,0,0:0:0:0:
76,192,278625,1,0,0:0:0:0:
360,256,278781,5,0,0:0:0:0:
76,252,278937,1,0,0:0:0:0:
360,336,279094,5,0,0:0:0:0:
360,96,279250,1,0,0:0:0:0:
200,312,279406,5,0,0:0:0:0:
200,88,279562,1,0,0:0:0:0:
280,324,279719,5,0,0:0:0:0:
280,92,279875,1,0,0:0:0:0:
128,312,280031,5,0,0:0:0:0:
136,88,280187,1,0,0:0:0:0:
56,312,280344,5,0,0:0:0:0:
396,312,280500,1,0,0:0:0:0:
56,244,280656,5,0,0:0:0:0:
396,244,280812,1,0,0:0:0:0:
56,176,280969,5,0,0:0:0:0:
396,176,281125,1,0,0:0:0:0:
56,112,281281,5,0,0:0:0:0:
396,112,281437,1,0,0:0:0:0:
129,311,281594,5,0,0:0:0:0:
132,52,281750,1,0,0:0:0:0:
296,312,281906,5,0,0:0:0:0:
292,56,282062,1,0,0:0:0:0:
216,312,282219,5,0,0:0:0:0:
212,52,282375,1,0,0:0:0:0:
368,312,282531,5,0,0:0:0:0:
364,60,282687,1,0,0:0:0:0:
255,319,282844,5,0,0:0:0:0:
255,55,283000,1,0,0:0:0:0:
210,312,283156,5,0,0:0:0:0:
301,63,283312,1,0,0:0:0:0:
171,289,283469,5,0,0:0:0:0:
340,86,283625,1,0,0:0:0:0:
141,254,283781,5,0,0:0:0:0:
370,121,283937,1,0,0:0:0:0:
126,210,284094,5,0,0:0:0:0:
385,165,284250,1,0,0:0:0:0:
126,165,284406,5,0,0:0:0:0:
385,210,284562,1,0,0:0:0:0:
141,121,284719,5,0,0:0:0:0:
370,253,284875,1,0,0:0:0:0:
171,86,285031,5,0,0:0:0:0:
340,289,285187,1,0,0:0:0:0:
276,72,285344,5,0,0:0:0:0:
340,88,285422,1,0,0:0:0:0:
388,128,285500,1,0,0:0:0:0:
428,176,285578,1,0,0:0:0:0:
436,240,285656,1,0,0:0:0:0:
420,300,285734,1,0,0:0:0:0:
372,344,285812,1,0,0:0:0:0:
312,360,285890,1,0,0:0:0:0:
248,364,285969,5,0,0:0:0:0:
184,364,286047,1,0,0:0:0:0:
124,344,286125,1,0,0:0:0:0:
80,300,286203,1,0,0:0:0:0:
60,240,286281,1,0,0:0:0:0:
56,176,286359,1,0,0:0:0:0:
68,112,286437,1,0,0:0:0:0:
108,64,286515,1,0,0:0:0:0:
140,64,286594,5,0,0:0:0:0:
168,64,286672,1,0,0:0:0:0:
196,64,286750,1,0,0:0:0:0:
224,64,286828,1,0,0:0:0:0:
252,64,286906,1,0,0:0:0:0:
280,64,286984,1,0,0:0:0:0:
308,64,287062,1,0,0:0:0:0:
336,64,287140,1,0,0:0:0:0:
356,84,287219,6,0,L|372:112,3,21.25
376,116,287375,2,0,L|396:152,3,21.25
396,148,287531,2,0,L|408:168,3,21.25
416,176,287687,2,0,L|432:204,3,21.25
436,208,287844,6,0,L|388:292,1,85
268,292,288156,1,0,0:0:0:0:
196,272,288234,1,0,0:0:0:0:
128,248,288312,2,0,L|176:148,1,85
224,80,288625,1,0,0:0:0:0:
416,352,288781,1,0,0:0:0:0:
256,192,288937,12,0,294719,0:0:0:0:
