osu file format v14

[General]
AudioFilename: audio.mp3
AudioLeadIn: 0
PreviewTime: 13704
Countdown: 0
SampleSet: Soft
StackLeniency: 0.9
Mode: 0
LetterboxInBreaks: 0
WidescreenStoryboard: 0

[Editor]
DistanceSpacing: 0.7
BeatDivisor: 4
GridSize: 4
TimelineZoom: 2.2

[Metadata]
Title:AMAZING MIGHTYYYY!!!!
TitleUnicode:AMAZING MIGHTYYYY!!!!
Artist:WAiKURO
ArtistUnicode:WAiKURO
Creator:_Star
Version:Master
Source:maimai PiNK PLUS
Tags:BlackY Game Games SEGA CHUNITHM STAR Hardcore Techno Trance Electronic Dance Music EDM Anais Amazing Mighty
BeatmapID:2028260
BeatmapSetID:969450

[Difficulty]
HPDrainRate:6
CircleSize:4
OverallDifficulty:7
ApproachRate:9.1
SliderMultiplier:2
SliderTickRate:1

[Events]
//Background and Video events
0,0,"bg.jpg",0,0
//Break Periods
2,56776,61181
//Storyboard Layer 0 (Background)
//Storyboard Layer 1 (Fail)
//Storyboard Layer 2 (Pass)
//Storyboard Layer 3 (Foreground)
//Storyboard Layer 4 (Overlay)
//Storyboard Sound Samples

[TimingPoints]
793,324.324324324324,4,2,0,100,1,0
9874,-166.666666666667,4,2,0,100,0,0
14414,-333.333333333333,4,2,0,100,0,0
14738,-58.8235294117647,4,2,0,100,0,0
15063,-133.333333333333,4,2,0,100,0,0
35495,-76.9230769230769,4,2,0,100,0,0
35820,-133.333333333333,4,2,0,100,0,0
45549,-66.6666666666667,4,2,0,100,0,0
46198,-100,4,2,0,100,0,0
47495,-83.3333333333333,4,2,0,100,0,0
48468,-66.6666666666667,4,2,0,100,0,0
48792,-100,4,2,0,100,0,0
50090,-66.6666666666667,4,2,0,100,0,0
50738,-83.3333333333333,4,2,0,100,0,0
51387,-100,4,2,0,100,0,0
52684,-83.3333333333333,4,2,0,100,0,0
53820,-100,4,2,0,100,0,0
61765,-133.333333333333,4,2,0,100,0,0
66955,-133.333333333333,4,2,0,100,0,0
76684,-285.714285714286,4,2,0,100,0,0
77009,-100,4,2,0,100,0,0
77333,-133.333333333333,4,2,0,100,0,0
92252,-285.714285714286,4,2,0,100,0,0
92576,-58.8235294117647,4,2,0,100,0,0
92901,-133.333333333333,4,2,0,100,0,0
97765,-66.6666666666667,4,2,0,100,0,0
98090,-133.333333333333,4,2,0,100,0,0
113657,-200,4,2,0,100,0,0
115765,-100,4,2,0,100,0,0
117063,-200,4,2,0,100,0,0
119009,-133.333333333333,4,2,0,100,0,0
124036,-285.714285714286,4,2,0,100,0,0
124360,-66.6666666666667,4,2,0,100,0,0
124522,-133.333333333333,4,2,0,100,0,0
129225,-83.3333333333333,4,2,0,100,0,0
131333,-100,4,2,0,100,0,0
133117,-66.6666666666667,4,2,0,100,0,0
134090,-66.6666666666667,4,2,0,100,0,0

[Colours]
Combo1 : 128,64,64
Combo2 : 128,128,192
Combo3 : 238,119,122
Combo4 : 186,183,202

[HitObjects]
103,167,4684,5,0,0:0:0:0:
110,173,5009,1,0,0:0:0:0:
117,179,5333,1,0,0:0:0:0:
124,185,5657,1,0,0:0:0:0:
196,342,5982,5,0,0:0:0:0:
203,336,6307,1,0,0:0:0:0:
210,330,6631,1,0,0:0:0:0:
217,324,6955,1,0,0:0:0:0:
419,240,7279,5,0,0:0:0:0:
412,246,7604,1,0,0:0:0:0:
405,252,7928,1,0,0:0:0:0:
398,258,8252,1,0,0:0:0:0:
297,124,8576,5,0,0:0:0:0:
290,118,8901,1,0,0:0:0:0:
283,112,9225,1,0,0:0:0:0:
276,106,9549,1,0,0:0:0:0:
170,68,9711,1,0,0:0:0:0:
170,68,9874,6,0,L|161:143,1,59.9999981689454
73,141,10198,2,0,L|102:210,1,59.9999981689454
21,245,10522,2,0,L|81:290,1,59.9999981689454
27,364,10846,2,0,L|101:373,1,59.9999981689454
183,328,11171,6,0,L|192:253,1,59.9999981689454
280,255,11495,1,0,0:0:0:0:
280,255,11657,2,0,L|256:199,1,59.9999981689454
351,156,11982,1,0,0:0:0:0:
351,156,12144,2,0,L|291:111,1,59.9999981689454
428,36,12468,6,0,L|423:67,1,29.9999990844727
438,49,12630,2,0,L|433:80,1,29.9999990844727
450,57,12792,2,0,L|445:88,1,29.9999990844727
460,70,12954,2,0,L|455:101,1,29.9999990844727
473,85,13117,5,0,0:0:0:0:
498,121,13198,1,0,0:0:0:0:
492,165,13279,1,0,0:0:0:0:
461,197,13360,1,0,0:0:0:0:
417,207,13441,1,0,0:0:0:0:
372,206,13522,1,0,0:0:0:0:
331,185,13603,1,0,0:0:0:0:
286,185,13684,1,0,0:0:0:0:
245,205,13765,5,0,0:0:0:0:
230,206,13846,1,0,0:0:0:0:
245,205,13928,1,0,0:0:0:0:
230,206,14008,1,0,0:0:0:0:
245,205,14090,1,0,0:0:0:0:
230,206,14171,1,0,0:0:0:0:
245,205,14252,1,0,0:0:0:0:
230,206,14333,1,0,0:0:0:0:
245,205,14414,6,0,L|245:243,1,29.9999990844727
230,206,14738,6,0,B|195:174|229:131|229:131|257:91|221:35,1,170.000003242493
107,242,15063,6,0,L|101:298,2,37.5000014305115
70,106,15387,2,0,P|48:136|39:172,1,75.0000028610231
159,59,15711,1,0,0:0:0:0:
159,59,15792,2,0,P|211:44|239:54,1,75.0000028610231
259,52,16036,2,0,P|294:62|330:98,1,75.0000028610231
367,193,16360,6,0,L|369:239,2,37.5000014305115
418,81,16684,2,0,P|457:112|468:139,1,75.0000028610231
490,234,17009,1,0,0:0:0:0:
490,234,17090,2,0,P|459:255|444:289,1,75.0000028610231
442,324,17333,2,0,P|390:322|361:291,1,75.0000028610231
272,242,17657,6,0,L|182:243,1,75.0000028610231
103,141,17982,2,0,P|97:203|121:231,1,75.0000028610231
226,155,18306,1,0,0:0:0:0:
226,155,18387,2,0,P|232:93|208:65,1,75.0000028610231
219,54,18630,2,0,P|259:67|305:42,1,75.0000028610231
395,19,18955,6,0,L|392:102,1,75.0000028610231
479,156,19279,1,0,0:0:0:0:
393,230,19441,1,0,0:0:0:0:
393,230,19522,1,0,0:0:0:0:
393,230,19603,2,0,P|439:234|478:262,1,75.0000028610231
464,280,19847,2,0,P|453:334|505:352,1,112.500004291535
319,180,20252,6,0,L|302:218,2,37.5000014305115
222,58,20576,2,0,L|224:149,1,75.0000028610231
113,115,20901,1,0,0:0:0:0:
113,115,20982,2,0,L|142:191,1,75.0000028610231
160,193,21225,2,0,L|145:267,1,75.0000028610231
95,345,21549,6,0,L|46:346,2,37.5000014305115
262,380,21874,2,0,P|279:342|274:300,1,75.0000028610231
333,224,22198,1,0,0:0:0:0:
333,224,22279,2,0,P|295:207|253:212,1,75.0000028610231
230,177,22522,2,0,P|192:194|150:189,1,75.0000028610231
92,94,22847,6,0,L|9:112,1,75.0000028610231
236,46,23171,2,0,L|153:28,1,75.0000028610231
368,102,23495,2,0,L|285:120,1,75.0000028610231
512,54,23819,2,0,L|429:36,1,75.0000028610231
482,152,24144,6,0,B|503:165|503:165|488:231,1,75.0000028610231
371,191,24468,1,0,0:0:0:0:
440,339,24630,1,0,0:0:0:0:
440,339,24711,1,0,0:0:0:0:
440,339,24792,2,0,L|352:322,1,75.0000028610231
341,299,25036,2,0,L|253:316,1,75.0000028610231
235,294,25279,1,0,0:0:0:0:
126,321,25441,6,0,L|122:358,2,37.5000014305115
151,189,25765,2,0,P|152:214|145:237,1,37.5000014305115
50,170,25928,2,0,P|49:145|56:122,1,37.5000014305115
132,77,26090,1,0,0:0:0:0:
132,77,26171,2,0,P|169:69|214:79,1,75.0000028610231
212,57,26414,2,0,P|247:67|283:103,1,75.0000028610231
313,181,26738,6,0,L|307:220,2,37.5000014305115
397,26,27063,2,0,P|396:51|403:74,1,37.5000014305115
492,106,27226,2,0,P|493:81|486:58,1,37.5000014305115
424,166,27387,1,0,0:0:0:0:
424,166,27468,2,0,P|413:201|422:237,1,75.0000028610231
434,268,27711,2,0,P|396:273|357:302,1,75.0000028610231
277,223,28035,6,0,L|278:313,1,75.0000028610231
100,162,28360,2,0,L|113:203,1,37.5000014305115
188,259,28522,2,0,L|194:203,1,37.5000014305115
243,151,28684,1,0,0:0:0:0:
243,151,28765,2,0,P|281:145|322:156,1,75.0000028610231
339,166,29009,2,0,P|382:176|420:163,1,75.0000028610231
379,17,29333,6,0,L|376:91,1,75.0000028610231
268,32,29657,1,0,0:0:0:0:
178,103,29819,1,0,0:0:0:0:
178,103,29900,1,0,0:0:0:0:
178,103,29981,2,0,P|132:99|93:71,1,75.0000028610231
81,122,30225,2,0,P|111:156|121:203,1,75.0000028610231
154,190,30468,1,0,0:0:0:0:
196,310,30630,5,0,0:0:0:0:
196,310,30711,1,0,0:0:0:0:
196,310,30792,1,0,0:0:0:0:
303,348,30954,2,0,L|303:258,1,75.0000028610231
400,270,31279,1,0,0:0:0:0:
400,270,31360,2,0,L|371:194,1,75.0000028610231
353,192,31603,2,0,L|368:118,1,75.0000028610231
417,39,31927,6,0,L|466:38,2,37.5000014305115
250,4,32252,2,0,P|233:42|238:84,1,75.0000028610231
179,160,32576,1,0,0:0:0:0:
179,160,32657,2,0,P|217:177|259:172,1,75.0000028610231
282,207,32900,2,0,P|320:190|362:195,1,75.0000028610231
420,290,33225,6,0,L|503:272,1,75.0000028610231
352,191,33549,2,0,L|334:274,1,75.0000028610231
444,202,33873,2,0,L|426:119,1,75.0000028610231
272,81,34197,2,0,L|355:99,1,75.0000028610231
186,224,34522,6,0,P|183:142|208:144,1,112.500004291535
216,146,34847,1,0,0:0:0:0:
108,29,35008,1,0,0:0:0:0:
108,29,35089,1,0,0:0:0:0:
108,29,35170,2,0,L|111:77,1,37.5000014305115
41,134,35333,2,0,L|44:182,1,37.5000014305115
84,256,35495,6,0,P|103:312|161:299,1,129.999994049073
308,182,35820,5,0,0:0:0:0:
302,271,35982,1,0,0:0:0:0:
349,111,36144,2,0,B|313:102|313:102|249:122,1,75.0000028610231
155,209,36468,5,0,0:0:0:0:
161,298,36630,1,0,0:0:0:0:
114,138,36792,2,0,B|150:129|150:129|214:149,1,75.0000028610231
311,234,37117,6,0,L|300:276,1,37.5000014305115
266,143,37279,2,0,L|277:101,1,37.5000014305115
367,161,37441,2,0,L|444:184,1,75.0000028610231
478,271,37765,2,0,L|477:322,2,37.5000014305115
504,120,38090,2,0,P|462:96|422:109,1,75.0000028610231
416,94,38333,1,0,0:0:0:0:
406,77,38414,6,0,P|374:50|336:51,1,75.0000028610231
211,78,38738,2,0,P|243:105|281:104,1,75.0000028610231
261,0,39063,1,0,0:0:0:0:
121,37,39225,1,0,0:0:0:0:
187,167,39387,2,0,L|180:213,2,37.5000014305115
49,196,39711,5,0,0:0:0:0:
90,327,39874,1,0,0:0:0:0:
181,204,40036,2,0,P|141:237|154:265,1,75.0000028610231
249,338,40360,6,0,L|198:337,1,37.5000014305115
295,232,40522,2,0,L|346:233,1,37.5000014305115
242,347,40684,6,0,L|191:346,1,37.5000014305115
288,241,40846,2,0,L|339:242,1,37.5000014305115
377,349,41009,5,0,0:0:0:0:
446,278,41171,1,0,0:0:0:0:
397,112,41333,2,0,L|404:198,1,75.0000028610231
299,65,41657,5,0,0:0:0:0:
228,134,41819,1,0,0:0:0:0:
62,85,41981,2,0,L|148:92,1,75.0000028610231
218,170,42306,6,0,L|232:114,1,37.5000014305115
277,290,42468,2,0,L|262:345,1,37.5000014305115
187,260,42630,2,0,L|131:245,1,37.5000014305115
308,200,42792,2,0,L|363:214,1,37.5000014305115
421,72,42955,2,0,L|327:83,1,75.0000028610231
475,142,43279,2,0,L|480:225,1,75.0000028610231
466,237,43522,1,0,0:0:0:0:
486,266,43603,6,0,P|454:293|416:292,1,75.0000028610231
263,261,43927,2,0,P|295:234|333:235,1,75.0000028610231
292,384,44252,1,0,0:0:0:0:
189,317,44414,1,0,0:0:0:0:
86,384,44576,2,0,L|82:294,1,75.0000028610231
21,235,44901,6,0,B|69:213|69:213|111:219,1,75.0000028610231
175,234,45225,1,0,0:0:0:0:
117,30,45387,1,0,0:0:0:0:
117,30,45468,1,0,0:0:0:0:
117,30,45549,6,0,B|158:90|150:122|170:170|217:184|256:168|285:114|241:68|197:73|161:52,1,300.000011444092
186,63,46198,6,0,L|243:66,1,50
388,146,46360,2,0,L|331:143,1,50
201,54,46522,6,0,L|258:57,1,50
403,137,46684,2,0,L|346:134,1,50
197,151,46847,5,0,0:0:0:0:
197,151,46928,1,0,0:0:0:0:
197,151,47009,1,0,0:0:0:0:
17,202,47171,2,0,L|14:251,1,50
95,99,47333,2,0,L|97:49,1,50
197,151,47495,6,0,B|193:244|193:244|177:219|130:229,1,119.999996337891
117,288,47738,6,0,B|195:238|195:238|165:236|151:190,1,119.999996337891
301,296,47982,5,0,0:0:0:0:
274,282,48063,1,0,0:0:0:0:
247,268,48144,1,0,0:0:0:0:
248,238,48225,1,0,0:0:0:0:
221,279,48306,1,0,0:0:0:0:
371,362,48468,6,0,B|404:354|404:354|423:291|385:212,1,150.000005722046
420,62,48792,6,0,P|442:104|414:155,1,100
257,47,49117,2,0,L|208:49,1,50
275,159,49279,2,0,L|324:157,1,50
101,100,49441,1,0,0:0:0:0:
80,121,49522,1,0,0:0:0:0:
74,150,49603,1,0,0:0:0:0:
87,176,49684,1,0,0:0:0:0:
112,191,49765,1,0,0:0:0:0:
38,295,49928,1,0,0:0:0:0:
189,384,50090,6,0,B|201:349|232:342|232:342|179:296|148:224|224:149|235:293,1,300.000011444092
350,384,50576,1,0,0:0:0:0:
350,384,50657,1,0,0:0:0:0:
350,384,50738,6,0,P|390:331|377:278,1,119.999996337891
417,300,50982,6,0,P|391:238|338:223,1,119.999996337891
379,194,51225,6,0,P|313:185|291:200,1,59.9999981689454
201,219,51387,6,0,L|204:162,1,50
284,17,51549,2,0,L|281:74,1,50
192,204,51711,6,0,L|195:147,1,50
275,2,51873,2,0,L|272:59,1,50
321,183,52036,5,0,0:0:0:0:
321,183,52117,1,0,0:0:0:0:
321,183,52198,1,0,0:0:0:0:
182,187,52360,2,0,L|185:138,1,50
104,290,52522,2,0,L|102:340,1,50
295,277,52684,6,0,B|287:269|339:288|322:344|322:344|265:323,1,119.999996337891
295,277,52928,6,0,B|236:316|196:274|196:274|242:235,1,119.999996337891
295,277,53171,5,0,0:0:0:0:
297,247,53252,1,0,0:0:0:0:
308,219,53333,1,0,0:0:0:0:
331,200,53414,1,0,0:0:0:0:
349,223,53495,1,0,0:0:0:0:
462,184,53657,1,0,0:0:0:0:
462,184,53738,1,0,0:0:0:0:
462,184,53820,6,0,L|459:130,1,50
400,31,53982,6,0,L|330:34,1,50
320,122,54144,2,0,L|250:125,1,50
241,31,54306,6,0,L|171:34,1,50
161,122,54468,2,0,L|91:125,1,50
70,224,54630,6,0,L|66:281,1,50
192,354,54792,2,0,L|135:350,1,50
83,209,54955,6,0,L|79:266,1,50
205,339,55117,2,0,L|148:335,1,50
214,199,55279,5,0,0:0:0:0:
223,222,55360,1,0,0:0:0:0:
242,237,55441,1,0,0:0:0:0:
266,241,55522,1,0,0:0:0:0:
290,236,55603,5,0,0:0:0:0:
310,221,55684,1,0,0:0:0:0:
330,206,55765,1,0,0:0:0:0:
355,202,55847,1,0,0:0:0:0:
379,205,55928,5,0,0:0:0:0:
402,214,56009,1,0,0:0:0:0:
419,231,56090,1,0,0:0:0:0:
426,254,56171,1,0,0:0:0:0:
423,278,56252,1,0,0:0:0:0:
423,278,56576,5,0,0:0:0:0:
256,192,61765,12,0,66630,0:0:0:0:
120,113,66955,5,0,0:0:0:0:
120,113,67117,2,0,P|117:158|131:194,1,75.0000028610231
232,72,67441,2,0,P|206:109|201:147,1,75.0000028610231
346,89,67765,2,0,P|305:108|281:139,1,75.0000028610231
437,164,68090,2,0,P|392:161|356:175,1,75.0000028610231
407,247,68414,6,0,L|331:249,1,75.0000028610231
283,315,68738,2,0,L|216:278,1,75.0000028610231
153,336,69063,2,0,L|113:271,1,75.0000028610231
29,299,69387,2,0,L|27:223,1,75.0000028610231
106,156,69711,6,0,P|67:120|26:125,1,75.0000028610231
195,121,70036,2,0,P|179:70|145:46,1,75.0000028610231
289,120,70360,2,0,P|300:68|297:28,1,75.0000028610231
381,172,70684,2,0,L|436:91,1,75.0000028610231
354,269,71009,6,0,L|457:254,1,75.0000028610231
269,343,71333,2,0,L|372:358,1,75.0000028610231
180,259,71657,2,0,L|283:244,1,75.0000028610231
95,333,71981,2,0,L|198:348,1,75.0000028610231
78,222,72306,6,0,P|42:227|28:260,1,75.0000028610231
219,147,72630,2,0,P|183:152|169:185,1,75.0000028610231
60,92,72955,2,0,P|24:97|10:130,1,75.0000028610231
201,18,73279,2,0,P|165:23|151:56,1,75.0000028610231
313,57,73603,6,0,L|409:54,1,75.0000028610231
219,147,73928,2,0,L|315:144,1,75.0000028610231
320,242,74251,2,0,L|416:239,1,75.0000028610231
226,332,74576,2,0,L|322:329,1,75.0000028610231
159,221,74901,6,0,P|129:238|146:267,1,75.0000028610231
63,144,75225,2,0,P|33:161|50:190,1,75.0000028610231
186,82,75549,2,0,P|156:99|173:128,1,75.0000028610231
90,5,75873,2,0,P|60:22|77:51,1,75.0000028610231
232,5,76198,6,0,P|283:7|331:28,1,75.0000028610231
378,73,76522,1,0,0:0:0:0:
280,132,76684,1,0,0:0:0:0:
386,206,76847,2,0,L|384:234,1,17.4999994659424
386,264,77009,6,0,L|276:262,1,100
163,336,77333,6,0,L|247:338,1,75.0000028610231
137,239,77576,2,0,P|99:276|62:284,1,75.0000028610231
86,159,77820,2,0,L|173:161,1,75.0000028610231
459,52,78306,6,0,L|457:141,1,75.0000028610231
372,26,78549,2,0,L|370:115,1,75.0000028610231
237,167,78792,2,0,L|311:165,1,75.0000028610231
211,80,79036,2,0,L|285:78,1,75.0000028610231
449,342,79441,6,0,L|450:252,1,75.0000028610231
188,355,79847,5,0,0:0:0:0:
188,355,79928,2,0,P|142:362|102:349,1,75.0000028610231
226,270,80171,2,0,P|189:262|152:270,1,75.0000028610231
276,343,80414,2,0,P|305:308|315:259,1,75.0000028610231
31,86,80901,6,0,L|31:165,1,75.0000028610231
53,91,81144,2,0,L|53:170,1,75.0000028610231
139,88,81387,6,0,L|139:9,1,75.0000028610231
161,83,81630,2,0,L|161:4,1,75.0000028610231
148,178,81874,6,0,L|227:178,1,75.0000028610231
153,200,82117,2,0,L|232:200,1,75.0000028610231
153,285,82360,2,0,L|106:286,1,37.5000014305115
32,233,82522,6,0,P|16:284|63:368,1,150.000005722046
275,362,83009,1,0,0:0:0:0:
275,362,83090,1,0,0:0:0:0:
275,362,83171,2,0,L|200:362,1,75.0000028610231
355,303,83414,2,0,L|290:265,1,75.0000028610231
453,301,83657,2,0,L|415:236,1,75.0000028610231
336,70,83982,6,0,P|373:64|416:74,1,75.0000028610231
227,146,84225,2,0,P|264:152|307:142,1,75.0000028610231
146,68,84468,2,0,P|183:62|226:72,1,75.0000028610231
37,144,84711,2,0,P|74:150|117:140,1,75.0000028610231
48,59,84955,1,0,0:0:0:0:
17,230,85117,5,0,0:0:0:0:
37,261,85198,1,0,0:0:0:0:
67,282,85279,1,0,0:0:0:0:
104,287,85360,1,0,0:0:0:0:
140,280,85441,1,0,0:0:0:0:
173,262,85522,1,0,0:0:0:0:
191,229,85603,1,0,0:0:0:0:
194,191,85684,1,0,0:0:0:0:
216,152,85765,5,0,0:0:0:0:
254,155,85846,1,0,0:0:0:0:
287,173,85927,1,0,0:0:0:0:
305,206,86008,1,0,0:0:0:0:
312,242,86089,1,0,0:0:0:0:
307,279,86170,1,0,0:0:0:0:
286,309,86251,1,0,0:0:0:0:
255,329,86332,1,0,0:0:0:0:
261,373,86414,5,0,0:0:0:0:
297,381,86495,1,0,0:0:0:0:
332,372,86576,1,0,0:0:0:0:
362,350,86657,1,0,0:0:0:0:
394,358,86738,5,0,0:0:0:0:
425,338,86819,1,0,0:0:0:0:
443,307,86900,1,0,0:0:0:0:
449,270,86981,1,0,0:0:0:0:
488,251,87063,5,0,0:0:0:0:
485,214,87144,1,0,0:0:0:0:
467,183,87225,1,0,0:0:0:0:
438,159,87306,1,0,0:0:0:0:
451,117,87387,5,0,0:0:0:0:
416,101,87468,1,0,0:0:0:0:
380,101,87549,1,0,0:0:0:0:
346,115,87630,1,0,0:0:0:0:
329,162,87711,5,0,0:0:0:0:
87,86,88036,6,0,L|56:87,6,18.7500007152558
146,155,88360,1,0,0:0:0:0:
79,326,88684,6,0,L|80:357,6,18.7500007152558
133,257,89009,1,0,0:0:0:0:
190,348,89171,6,0,L|172:350,2,18.7500007152558
257,297,89333,1,0,0:0:0:0:
221,215,89495,6,0,L|219:192,2,18.7500007152558
311,228,89657,1,0,0:0:0:0:
366,304,89820,6,0,L|385:303,2,18.7500007152558
414,227,89982,1,0,0:0:0:0:
333,109,90144,5,0,0:0:0:0:
264,79,90225,1,0,0:0:0:0:
192,101,90306,1,0,0:0:0:0:
354,0,90468,1,0,0:0:0:0:
129,41,90630,5,0,0:0:0:0:
110,72,90711,1,0,0:0:0:0:
125,106,90792,1,0,0:0:0:0:
160,122,90874,1,0,0:0:0:0:
192,101,90955,1,0,0:0:0:0:
143,206,91117,6,0,L|143:225,2,18.7500007152558
64,169,91279,1,0,0:0:0:0:
57,256,91441,6,0,L|38:256,2,18.7500007152558
124,316,91603,2,0,B|165:337|193:293|248:297|277:321,1,150.000005722046
365,339,92090,1,0,0:0:0:0:
365,339,92171,1,0,0:0:0:0:
365,339,92252,6,0,L|365:375,1,34.9999989318848
398,321,92576,2,0,B|396:142,1,170.000003242493
278,8,92901,6,0,L|186:14,1,75.0000028610231
101,88,93225,1,0,0:0:0:0:
101,88,93306,2,0,L|182:94,1,75.0000028610231
271,105,93549,2,0,L|252:205,1,75.0000028610231
157,217,93792,2,0,L|103:215,2,37.5000014305115
207,303,94036,1,0,0:0:0:0:
306,266,94198,5,0,0:0:0:0:
306,266,94279,2,0,L|309:354,1,75.0000028610231
394,294,94522,2,0,L|391:206,1,75.0000028610231
483,165,94765,2,0,L|486:253,1,75.0000028610231
407,120,95009,2,0,L|370:119,1,37.5000014305115
307,176,95171,2,0,L|217:170,1,75.0000028610231
103,5,95495,6,0,L|195:11,1,75.0000028610231
280,85,95819,1,0,0:0:0:0:
280,85,95900,2,0,L|199:91,1,75.0000028610231
110,102,96143,2,0,L|129:202,1,75.0000028610231
232,171,96386,2,0,L|286:169,2,37.5000014305115
182,257,96630,1,0,0:0:0:0:
290,271,96792,5,0,0:0:0:0:
290,271,96873,2,0,L|287:359,1,75.0000028610231
381,276,97116,2,0,L|384:188,1,75.0000028610231
473,284,97359,2,0,L|470:372,1,75.0000028610231
471,206,97603,2,0,L|473:166,1,37.5000014305115
447,91,97765,2,0,B|409:83|409:83|393:96|393:96|375:84|375:84|357:96|357:96|342:86|342:86|302:95,1,150.000005722046
224,225,98090,6,0,L|218:133,1,75.0000028610231
144,48,98414,1,0,0:0:0:0:
144,48,98495,2,0,L|138:129,1,75.0000028610231
40,165,98738,2,0,L|59:265,1,75.0000028610231
125,300,98981,2,0,L|114:353,2,37.5000014305115
186,227,99225,2,0,L|242:223,1,37.5000014305115
301,274,99387,5,0,0:0:0:0:
301,274,99468,2,0,L|304:362,1,75.0000028610231
391,219,99711,2,0,L|394:294,1,75.0000028610231
483,165,99954,2,0,L|486:253,1,75.0000028610231
402,81,100198,2,0,L|404:122,1,37.5000014305115
318,150,100360,2,0,L|219:143,1,75.0000028610231
150,67,100684,6,0,L|137:147,1,75.0000028610231
41,180,101009,1,0,0:0:0:0:
72,272,101171,1,0,0:0:0:0:
72,272,101252,1,0,0:0:0:0:
72,272,101333,2,0,P|107:289|163:285,1,75.0000028610231
269,281,101657,2,0,L|269:327,1,37.5000014305115
318,187,101820,2,0,L|318:141,1,37.5000014305115
372,277,101982,6,0,P|371:328|327:362,1,75.0000028610231
430,193,102225,2,0,P|474:168|506:169,1,75.0000028610231
318,187,102468,2,0,P|274:160|266:105,1,75.0000028610231
201,208,102711,2,0,P|149:207|115:163,1,75.0000028610231
31,204,102955,2,0,L|40:155,1,37.5000014305115
103,112,103117,2,0,L|112:63,1,37.5000014305115
31,41,103279,6,0,L|105:45,1,75.0000028610231
265,140,103603,1,0,0:0:0:0:
265,140,103685,2,0,L|191:124,1,75.0000028610231
260,49,103927,2,0,L|360:68,1,75.0000028610231
355,93,104171,1,0,0:0:0:0:
392,90,104252,2,0,L|396:148,2,37.5000014305115
317,250,104576,5,0,0:0:0:0:
317,250,104657,2,0,L|320:338,1,75.0000028610231
214,293,104900,2,0,L|217:368,1,75.0000028610231
162,199,105143,2,0,L|236:196,1,75.0000028610231
84,249,105387,1,0,0:0:0:0:
84,249,105468,1,0,0:0:0:0:
84,249,105549,2,0,P|68:209|90:159,1,75.0000028610231
127,64,105873,6,0,L|219:70,1,75.0000028610231
372,44,106197,1,0,0:0:0:0:
372,44,106278,2,0,L|378:125,1,75.0000028610231
468,112,106521,2,0,L|487:212,1,75.0000028610231
461,217,106765,1,0,0:0:0:0:
475,252,106847,2,0,L|477:306,2,37.5000014305115
354,360,107170,5,0,0:0:0:0:
354,360,107251,2,0,L|342:284,1,75.0000028610231
177,363,107495,1,0,0:0:0:0:
257,236,107657,1,0,0:0:0:0:
257,236,107738,1,0,0:0:0:0:
257,236,107820,2,0,L|254:324,1,75.0000028610231
156,254,108063,2,0,B|152:171|152:171|94:189,1,112.500004291535
215,103,108468,6,0,L|300:89,1,75.0000028610231
383,56,108792,1,0,0:0:0:0:
383,56,108873,2,0,L|377:137,1,75.0000028610231
485,191,109116,2,0,L|471:117,1,75.0000028610231
391,219,109359,2,0,L|380:272,2,37.5000014305115
303,197,109603,2,0,L|247:201,1,37.5000014305115
210,261,109765,5,0,0:0:0:0:
210,261,109846,2,0,L|213:349,1,75.0000028610231
55,358,110090,1,0,0:0:0:0:
116,256,110252,1,0,0:0:0:0:
116,256,110333,1,0,0:0:0:0:
116,256,110414,2,0,L|116:159,1,75.0000028610231
77,165,110657,2,0,L|70:66,1,75.0000028610231
106,55,110901,1,0,0:0:0:0:
272,80,111063,6,0,L|189:107,1,75.0000028610231
259,186,111306,2,0,L|277:100,1,75.0000028610231
360,167,111549,2,0,L|277:194,1,75.0000028610231
347,273,111792,2,0,L|365:187,1,75.0000028610231
263,326,112035,2,0,L|263:372,1,37.5000014305115
191,261,112198,2,0,L|191:215,1,37.5000014305115
56,302,112441,6,0,P|55:353|11:387,1,75.0000028610231
123,249,112684,2,0,P|167:224|199:225,1,75.0000028610231
54,211,112928,2,0,P|10:184|2:129,1,75.0000028610231
101,127,113171,2,0,P|102:75|146:40,1,75.0000028610231
115,57,113657,5,0,0:0:0:0:
192,173,113820,2,0,L|189:241,1,50
279,185,114144,2,0,L|276:253,1,50
128,294,114468,2,0,L|125:362,1,50
215,306,114792,2,0,L|212:374,1,50
303,316,115117,1,0,0:0:0:0:
250,104,115279,5,0,0:0:0:0:
394,317,115441,2,0,L|391:385,1,50
356,142,115765,2,0,P|391:157|461:133,1,100
250,104,116009,2,0,P|285:89|355:113,1,100
158,135,116252,6,0,P|193:150|263:126,1,100
52,97,116496,2,0,P|87:82|157:106,1,100
50,212,116738,2,0,P|21:165|40:103,1,100
128,294,117063,2,0,L|125:362,1,50
223,298,117387,1,0,0:0:0:0:
317,308,117549,6,0,L|316:352,3,25
403,316,117874,2,0,L|402:360,3,25
497,324,118198,5,0,0:0:0:0:
494,299,118279,1,0,0:0:0:0:
491,274,118360,1,0,0:0:0:0:
488,249,118441,1,0,0:0:0:0:
473,219,118522,5,0,0:0:0:0:
449,196,118603,1,0,0:0:0:0:
426,172,118684,1,0,0:0:0:0:
402,149,118765,1,0,0:0:0:0:
367,145,118847,5,0,0:0:0:0:
278,207,119009,6,0,L|187:198,1,75.0000028610231
94,149,119252,2,0,L|182:158,1,75.0000028610231
277,119,119495,2,0,L|186:110,1,75.0000028610231
93,61,119738,2,0,L|181:70,1,75.0000028610231
94,149,119981,2,0,L|94:186,1,37.5000014305115
20,240,120144,6,0,L|20:277,1,37.5000014305115
122,291,120305,2,0,P|121:342|77:376,1,75.0000028610231
207,321,120548,2,0,P|251:296|283:297,1,75.0000028610231
404,345,120792,2,0,P|360:318|352:263,1,75.0000028610231
446,185,121035,2,0,P|429:218|433:255,1,75.0000028610231
457,277,121279,1,0,0:0:0:0:
323,194,121441,5,0,0:0:0:0:
323,194,121603,1,0,0:0:0:0:
375,45,121765,5,0,0:0:0:0:
375,45,121927,1,0,0:0:0:0:
173,56,122090,5,0,0:0:0:0:
173,56,122252,1,0,0:0:0:0:
281,108,122414,5,0,0:0:0:0:
281,108,122576,1,0,0:0:0:0:
144,124,122738,5,0,0:0:0:0:
125,157,122820,1,0,0:0:0:0:
124,194,122901,1,0,0:0:0:0:
136,229,122982,1,0,0:0:0:0:
173,233,123063,5,0,0:0:0:0:
192,200,123145,1,0,0:0:0:0:
193,163,123226,1,0,0:0:0:0:
181,128,123307,1,0,0:0:0:0:
168,93,123387,6,0,L|171:63,6,18.7500007152558
87,59,123711,2,0,L|74:31,6,18.7500007152558
23,124,124036,6,0,L|27:173,1,34.9999989318848
44,266,124360,6,0,P|111:270|78:300,1,150.000005722046
204,313,124685,2,0,L|301:304,1,75.0000028610231
327,233,124928,2,0,L|324:172,2,37.5000014305115
391,310,125172,1,0,0:0:0:0:
387,103,125334,5,0,0:0:0:0:
387,103,125415,2,0,L|299:106,1,75.0000028610231
234,226,125658,2,0,L|231:138,1,75.0000028610231
205,69,125901,2,0,L|117:72,1,75.0000028610231
38,151,126145,2,0,L|39:114,1,37.5000014305115
90,224,126307,2,0,L|85:298,1,75.0000028610231
203,301,126631,6,0,L|295:307,1,75.0000028610231
430,365,126955,1,0,0:0:0:0:
430,365,127036,2,0,L|349:371,1,75.0000028610231
365,214,127279,2,0,L|384:314,1,75.0000028610231
474,279,127522,2,0,L|528:277,2,37.5000014305115
454,188,127766,1,0,0:0:0:0:
371,85,127928,6,0,L|306:78,1,37.5000014305115
261,147,128090,2,0,L|196:154,1,37.5000014305115
210,57,128252,2,0,L|145:50,1,37.5000014305115
100,119,128414,2,0,L|35:126,1,37.5000014305115
34,217,128576,2,0,L|39:315,1,75.0000028610231
138,277,128820,2,0,P|159:299|91:329,1,112.500004291535
342,182,129225,5,0,0:0:0:0:
207,183,129387,1,0,0:0:0:0:
342,182,129549,2,0,L|345:250,1,59.9999981689454
207,183,129711,2,0,L|210:251,1,59.9999981689454
313,64,129874,2,0,L|267:132,1,59.9999981689454
237,70,130036,2,0,L|299:134,1,59.9999981689454
403,127,130198,2,0,P|427:177|411:234,1,59.9999981689454
135,141,130360,2,0,P|122:195|151:247,1,59.9999981689454
130,239,130522,5,0,0:0:0:0:
274,317,130684,1,0,0:0:0:0:
437,329,130847,2,0,L|467:294,1,29.9999990844727
435,304,130928,2,0,L|419:260,1,29.9999990844727
408,288,131009,2,0,L|392:244,1,29.9999990844727
385,277,131090,2,0,L|339:268,1,29.9999990844727
362,291,131171,1,0,0:0:0:0:
274,317,131333,2,0,L|213:314,2,50
279,214,131657,1,0,0:0:0:0:
123,216,131820,6,0,P|51:249|41:308,1,100
199,165,132063,2,0,P|134:119|78:139,1,100
279,214,132306,1,0,0:0:0:0:
294,182,132387,1,0,0:0:0:0:
291,147,132468,1,0,0:0:0:0:
277,121,132549,1,0,0:0:0:0:
256,93,132630,1,0,0:0:0:0:
426,66,132792,2,0,L|430:124,1,50
406,223,132955,2,0,L|410:281,1,50
275,317,133117,6,0,P|255:370|229:306,1,150.000005722046
266,234,133360,6,0,P|229:190|298:199,1,150.000005722046
346,278,133603,6,0,P|402:267|359:323,1,150.000005722046
215,319,133847,2,0,L|63:313,1,150.000005722046
0,214,134090,2,0,L|89:196,1,75.0000028610231
189,148,134252,2,0,L|278:166,1,75.0000028610231
406,223,134414,5,0,0:0:0:0:
