osu file format v14

[General]
AudioFilename: audio.mp3
AudioLeadIn: 0
PreviewTime: 109411
Countdown: 0
SampleSet: Soft
StackLeniency: 0.7
Mode: 3
LetterboxInBreaks: 0
SpecialStyle: 0
WidescreenStoryboard: 1

[Editor]
DistanceSpacing: 1.2
BeatDivisor: 4
GridSize: 4
TimelineZoom: 1.9

[Metadata]
Title:Double Agent
TitleUnicode:双重间谍
Artist:WAV.AV
ArtistUnicode:WAV.AV
Creator:Shima Rin
Version:Another
Source:节奏大师
Tags:Rhythm Master Wave Avenue M2U NICODE Tofu1222 Unpredictable FAMoss Classic Trance Video Game Instrumental
BeatmapID:2341610
BeatmapSetID:1120648

[Difficulty]
HPDrainRate:8
CircleSize:4
OverallDifficulty:7.8
ApproachRate:5
SliderMultiplier:1.4
SliderTickRate:1

[Events]
//Background and Video events
0,0,"BG.jpg",0,0
//Break Periods
//Storyboard Layer 0 (Background)
//Storyboard Layer 1 (Fail)
//Storyboard Layer 2 (Pass)
//Storyboard Layer 3 (Foreground)
//Storyboard Layer 4 (Overlay)
//Storyboard Sound Samples

[TimingPoints]
1505,375,4,2,1,70,1,0
73505,-100,4,2,1,70,0,1
85505,-100,4,2,1,70,0,0
109505,-100,4,2,1,70,0,1
121505,-100,4,2,1,70,0,0

[HitObjects]
64,192,1130,5,0,0:0:0:0:
448,192,1130,1,0,0:0:0:0:
192,192,1317,1,0,0:0:0:0:
320,192,1411,1,0,0:0:0:0:
64,192,1505,1,2,0:0:0:0:
448,192,1505,128,4,1692:0:0:0:0:
192,192,1692,128,0,1880:0:0:0:0:
320,192,1880,128,0,2067:0:0:0:0:
64,192,2067,128,0,2255:0:0:0:0:
192,192,2255,1,8,0:0:0:0:
320,192,2255,128,0,2442:0:0:0:0:
64,192,2442,128,0,2630:0:0:0:0:
448,192,2630,128,0,2817:0:0:0:0:
192,192,2817,128,0,3005:0:0:0:0:
64,192,3005,128,2,3192:0:0:0:0:
448,192,3005,1,0,0:0:0:0:
320,192,3192,128,0,3380:0:0:0:0:
192,192,3380,128,0,3567:0:0:0:0:
64,192,3567,1,2,0:0:0:0:
448,192,3567,128,0,3755:0:0:0:0:
192,192,3755,128,8,3942:0:0:0:0:
320,192,3755,1,0,0:0:0:0:
64,192,3942,1,0,0:0:0:0:
320,192,4005,1,0,0:0:0:0:
192,192,4067,1,0,0:0:0:0:
448,192,4130,128,0,4317:0:0:0:0:
64,192,4317,128,0,4505:0:0:0:0:
192,192,4505,1,2,0:0:0:0:
320,192,4505,128,0,4692:0:0:0:0:
64,192,4692,128,0,5067:0:0:0:0:
448,192,5067,1,0,0:0:0:0:
320,192,5161,1,0,0:0:0:0:
64,192,5255,1,8,0:0:0:0:
192,192,5255,1,0,0:0:0:0:
320,192,5442,1,0,0:0:0:0:
64,192,5630,1,0,0:0:0:0:
448,192,5817,1,0,0:0:0:0:
192,192,6005,1,2,0:0:0:0:
320,192,6005,1,0,0:0:0:0:
64,192,6192,1,0,0:0:0:0:
448,192,6380,1,0,0:0:0:0:
64,192,6567,1,2,0:0:0:0:
192,192,6567,1,0,0:0:0:0:
320,192,6755,1,8,0:0:0:0:
448,192,6755,1,0,0:0:0:0:
64,192,6942,1,0,0:0:0:0:
448,192,7130,1,0,0:0:0:0:
192,192,7317,1,0,0:0:0:0:
64,192,7505,1,2,0:0:0:0:
448,192,7505,1,4,0:0:0:0:
320,192,7598,1,0,0:0:0:0:
192,192,7692,1,0,0:0:0:0:
448,192,7786,1,0,0:0:0:0:
64,192,7880,1,0,0:0:0:0:
192,192,7973,1,0,0:0:0:0:
320,192,8067,1,0,0:0:0:0:
64,192,8161,1,0,0:0:0:0:
320,192,8255,1,8,0:0:0:0:
448,192,8255,1,0,0:0:0:0:
192,192,8348,1,0,0:0:0:0:
64,192,8442,1,0,0:0:0:0:
448,192,8536,1,0,0:0:0:0:
192,192,8630,1,0,0:0:0:0:
320,192,8723,1,0,0:0:0:0:
448,192,8817,1,0,0:0:0:0:
64,192,8911,1,0,0:0:0:0:
192,192,9005,1,2,0:0:0:0:
448,192,9005,1,0,0:0:0:0:
320,192,9098,1,0,0:0:0:0:
64,192,9192,1,0,0:0:0:0:
192,192,9286,1,0,0:0:0:0:
448,192,9380,1,0,0:0:0:0:
320,192,9473,1,0,0:0:0:0:
64,192,9567,1,2,0:0:0:0:
192,192,9567,1,0,0:0:0:0:
320,192,9661,1,0,0:0:0:0:
64,192,9755,1,8,0:0:0:0:
448,192,9755,1,0,0:0:0:0:
192,192,9848,1,0,0:0:0:0:
320,192,9942,1,0,0:0:0:0:
64,192,10036,1,0,0:0:0:0:
448,192,10130,1,0,0:0:0:0:
192,192,10223,1,0,0:0:0:0:
320,192,10317,1,0,0:0:0:0:
448,192,10411,1,0,0:0:0:0:
64,192,10505,1,2,0:0:0:0:
192,192,10505,1,0,0:0:0:0:
320,192,10786,1,0,0:0:0:0:
64,192,10880,1,0,0:0:0:0:
448,192,11161,1,0,0:0:0:0:
64,192,11255,1,8,0:0:0:0:
192,192,11255,1,0,0:0:0:0:
192,192,11536,1,0,0:0:0:0:
448,192,11630,1,0,0:0:0:0:
64,192,11911,1,0,0:0:0:0:
320,192,12005,1,2,0:0:0:0:
448,192,12005,1,0,0:0:0:0:
64,192,12192,1,2,0:0:0:0:
192,192,12192,1,8,0:0:0:0:
320,192,12380,1,0,0:0:0:0:
64,192,12567,1,2,0:0:0:0:
192,192,12630,1,2,0:0:0:0:
320,192,12692,1,2,0:0:0:0:
64,192,12755,1,8,0:0:0:0:
448,192,12755,1,0,0:0:0:0:
192,192,12848,1,2,0:0:0:0:
320,192,12942,1,2,0:0:0:0:
448,192,12942,1,0,0:0:0:0:
192,192,13036,1,2,0:0:0:0:
64,192,13130,1,8,0:0:0:0:
448,192,13130,1,0,0:0:0:0:
192,192,13317,1,2,0:0:0:0:
320,192,13317,1,0,0:0:0:0:
64,192,13505,1,2,0:0:0:0:
448,192,13505,1,4,0:0:0:0:
448,192,13880,1,2,0:0:0:0:
192,192,14067,1,0,0:0:0:0:
448,192,14255,1,2,0:0:0:0:
448,192,14630,1,2,0:0:0:0:
64,192,15005,1,2,0:0:0:0:
448,192,15005,1,0,0:0:0:0:
64,192,15380,1,2,0:0:0:0:
320,192,15567,1,0,0:0:0:0:
64,192,15755,1,2,0:0:0:0:
64,192,16130,1,2,0:0:0:0:
64,192,16505,1,2,0:0:0:0:
448,192,16505,1,0,0:0:0:0:
448,192,16880,1,2,0:0:0:0:
192,192,17067,1,0,0:0:0:0:
448,192,17255,1,2,0:0:0:0:
448,192,17630,1,2,0:0:0:0:
64,192,18005,1,2,0:0:0:0:
448,192,18005,1,4,0:0:0:0:
320,192,18380,1,2,0:0:0:0:
64,192,18567,128,2,19505:0:0:0:0:
448,192,18567,1,4,0:0:0:0:
192,192,19130,1,2,0:0:0:0:
320,192,19505,128,2,20067:0:0:0:0:
448,192,19505,1,4,0:0:0:0:
64,192,19880,1,2,0:0:0:0:
192,192,20067,128,0,21005:0:0:0:0:
448,192,20255,1,2,0:0:0:0:
448,192,20630,1,2,0:0:0:0:
320,192,21005,1,2,0:0:0:0:
448,192,21005,128,0,21567:0:0:0:0:
192,192,21380,1,2,0:0:0:0:
64,192,21567,128,0,22505:0:0:0:0:
320,192,21755,1,2,0:0:0:0:
320,192,22130,1,2,0:0:0:0:
192,192,22505,1,2,0:0:0:0:
448,192,22505,1,4,0:0:0:0:
64,192,22692,1,0,0:0:0:0:
192,192,22786,1,0,0:0:0:0:
448,192,22880,1,0,0:0:0:0:
320,192,22973,1,0,0:0:0:0:
64,192,23067,1,0,0:0:0:0:
192,192,23161,1,0,0:0:0:0:
320,192,23255,1,8,0:0:0:0:
448,192,23255,1,4,0:0:0:0:
64,192,23442,1,0,0:0:0:0:
320,192,23630,1,0,0:0:0:0:
192,192,23817,1,0,0:0:0:0:
64,192,24005,1,2,0:0:0:0:
448,192,24005,1,0,0:0:0:0:
192,192,24192,1,2,0:0:0:0:
320,192,24192,1,4,0:0:0:0:
64,192,24380,1,0,0:0:0:0:
448,192,24567,1,2,0:0:0:0:
320,192,24630,1,2,0:0:0:0:
192,192,24692,1,2,0:0:0:0:
64,192,24755,1,8,0:0:0:0:
448,192,24755,1,4,0:0:0:0:
320,192,24848,1,2,0:0:0:0:
64,192,24942,1,2,0:0:0:0:
192,192,24942,1,0,0:0:0:0:
320,192,25036,1,2,0:0:0:0:
64,192,25130,1,8,0:0:0:0:
448,192,25130,128,4,25317:0:0:0:0:
192,192,25317,1,2,0:0:0:0:
320,192,25317,1,0,0:0:0:0:
64,192,25505,1,2,0:0:0:0:
448,192,25505,1,4,0:0:0:0:
192,192,25786,1,0,0:0:0:0:
320,192,25880,1,0,0:0:0:0:
448,192,25973,1,0,0:0:0:0:
64,192,26067,1,0,0:0:0:0:
192,192,26161,1,0,0:0:0:0:
320,192,26255,1,8,0:0:0:0:
448,192,26255,128,0,26817:0:0:0:0:
320,192,26817,1,0,0:0:0:0:
192,192,26911,1,0,0:0:0:0:
64,192,27005,128,2,27380:0:0:0:0:
448,192,27005,1,0,0:0:0:0:
320,192,27380,128,0,27567:0:0:0:0:
64,192,27567,1,2,0:0:0:0:
448,192,27567,1,0,0:0:0:0:
192,192,27661,1,0,0:0:0:0:
320,192,27755,1,8,0:0:0:0:
448,192,27755,1,0,0:0:0:0:
192,192,28130,128,0,28505:0:0:0:0:
64,192,28505,1,2,0:0:0:0:
320,192,28505,128,0,28880:0:0:0:0:
448,192,28880,128,0,29255:0:0:0:0:
64,192,29255,1,8,0:0:0:0:
320,192,29255,128,0,29442:0:0:0:0:
192,192,29442,128,0,29630:0:0:0:0:
448,192,29630,128,0,29817:0:0:0:0:
64,192,29817,128,0,30005:0:0:0:0:
192,192,30005,1,2,0:0:0:0:
320,192,30005,128,0,31130:0:0:0:0:
64,192,30567,1,2,0:0:0:0:
448,192,30755,1,8,0:0:0:0:
192,192,30942,1,0,0:0:0:0:
448,192,31130,1,0,0:0:0:0:
64,192,31223,1,0,0:0:0:0:
320,192,31317,1,0,0:0:0:0:
64,192,31505,1,2,0:0:0:0:
192,192,31505,1,0,0:0:0:0:
320,192,31786,1,0,0:0:0:0:
64,192,31880,1,0,0:0:0:0:
192,192,31973,1,0,0:0:0:0:
320,192,32067,1,0,0:0:0:0:
448,192,32161,1,0,0:0:0:0:
64,192,32255,1,8,0:0:0:0:
192,192,32255,1,0,0:0:0:0:
320,192,32442,1,0,0:0:0:0:
448,192,32630,1,0,0:0:0:0:
64,192,32817,1,0,0:0:0:0:
320,192,33005,1,2,0:0:0:0:
448,192,33005,1,0,0:0:0:0:
192,192,33098,1,0,0:0:0:0:
64,192,33192,1,0,0:0:0:0:
448,192,33286,1,0,0:0:0:0:
192,192,33380,1,0,0:0:0:0:
320,192,33473,1,0,0:0:0:0:
64,192,33567,1,2,0:0:0:0:
448,192,33567,1,0,0:0:0:0:
192,192,33661,1,0,0:0:0:0:
320,192,33755,1,8,0:0:0:0:
448,192,33755,1,0,0:0:0:0:
192,192,33942,1,0,0:0:0:0:
320,192,34036,1,0,0:0:0:0:
64,192,34130,1,0,0:0:0:0:
448,192,34130,1,0,0:0:0:0:
192,192,34317,1,0,0:0:0:0:
320,192,34317,1,0,0:0:0:0:
64,192,34505,1,2,0:0:0:0:
448,192,34505,1,0,0:0:0:0:
320,192,34692,1,0,0:0:0:0:
192,192,34786,1,0,0:0:0:0:
448,192,34880,128,0,35255:0:0:0:0:
64,192,35255,1,8,0:0:0:0:
192,192,35255,1,0,0:0:0:0:
320,192,35442,1,0,0:0:0:0:
192,192,35630,1,0,0:0:0:0:
64,192,35817,1,0,0:0:0:0:
320,192,36005,1,2,0:0:0:0:
448,192,36005,1,0,0:0:0:0:
64,192,36192,1,2,0:0:0:0:
192,192,36192,1,8,0:0:0:0:
320,192,36380,1,0,0:0:0:0:
192,192,36567,1,2,0:0:0:0:
320,192,36630,1,2,0:0:0:0:
448,192,36692,1,2,0:0:0:0:
64,192,36755,1,8,0:0:0:0:
192,192,36755,1,0,0:0:0:0:
320,192,36848,1,2,0:0:0:0:
64,192,36942,1,2,0:0:0:0:
448,192,36942,1,0,0:0:0:0:
192,192,37036,1,2,0:0:0:0:
320,192,37130,1,8,0:0:0:0:
448,192,37130,1,0,0:0:0:0:
64,192,37317,1,2,0:0:0:0:
192,192,37317,1,0,0:0:0:0:
320,192,37505,1,2,0:0:0:0:
448,192,37505,128,4,37692:0:0:0:0:
64,192,37692,1,0,0:0:0:0:
192,192,37786,1,0,0:0:0:0:
320,192,37880,1,0,0:0:0:0:
448,192,37973,1,0,0:0:0:0:
192,192,38067,1,0,0:0:0:0:
320,192,38161,1,0,0:0:0:0:
64,192,38255,1,8,0:0:0:0:
448,192,38255,128,0,38817:0:0:0:0:
320,192,38817,1,0,0:0:0:0:
192,192,38911,1,0,0:0:0:0:
64,192,39005,128,2,39192:0:0:0:0:
448,192,39005,1,0,0:0:0:0:
192,192,39192,1,0,0:0:0:0:
320,192,39286,1,0,0:0:0:0:
64,192,39380,1,0,0:0:0:0:
192,192,39473,1,0,0:0:0:0:
320,192,39567,1,2,0:0:0:0:
448,192,39567,1,0,0:0:0:0:
192,192,39661,1,0,0:0:0:0:
64,192,39755,1,8,0:0:0:0:
448,192,39755,128,0,40317:0:0:0:0:
192,192,40317,1,0,0:0:0:0:
320,192,40411,1,0,0:0:0:0:
64,192,40505,128,2,40692:0:0:0:0:
192,192,40505,1,0,0:0:0:0:
448,192,40692,1,0,0:0:0:0:
320,192,40786,1,0,0:0:0:0:
192,192,40880,1,0,0:0:0:0:
64,192,40973,1,0,0:0:0:0:
320,192,41067,1,0,0:0:0:0:
448,192,41161,1,0,0:0:0:0:
64,192,41255,128,8,41817:0:0:0:0:
192,192,41255,1,0,0:0:0:0:
448,192,41817,1,0,0:0:0:0:
320,192,41911,1,0,0:0:0:0:
64,192,42005,1,2,0:0:0:0:
192,192,42005,128,0,42473:0:0:0:0:
64,192,42473,1,0,0:0:0:0:
448,192,42567,1,0,0:0:0:0:
320,192,42567,1,2,0:0:0:0:
192,192,42661,1,0,0:0:0:0:
64,192,42755,128,8,43317:0:0:0:0:
448,192,42755,1,0,0:0:0:0:
192,192,43317,1,0,0:0:0:0:
320,192,43411,1,0,0:0:0:0:
64,192,43505,1,2,0:0:0:0:
448,192,43505,128,0,43973:0:0:0:0:
64,192,43973,1,0,0:0:0:0:
192,192,44067,1,0,0:0:0:0:
320,192,44161,1,0,0:0:0:0:
64,192,44255,1,8,0:0:0:0:
448,192,44255,1,0,0:0:0:0:
320,192,44442,1,0,0:0:0:0:
192,192,44630,1,0,0:0:0:0:
64,192,44817,1,0,0:0:0:0:
320,192,44911,1,0,0:0:0:0:
192,192,45005,1,2,0:0:0:0:
448,192,45005,1,0,0:0:0:0:
64,192,45286,1,2,0:0:0:0:
320,192,45286,1,0,0:0:0:0:
64,192,45567,1,2,0:0:0:0:
448,192,45567,1,0,0:0:0:0:
192,192,45755,1,8,0:0:0:0:
320,192,45755,128,0,46130:0:0:0:0:
448,192,46130,1,0,0:0:0:0:
64,192,46223,1,0,0:0:0:0:
320,192,46317,1,0,0:0:0:0:
192,192,46411,1,0,0:0:0:0:
64,192,46505,1,2,0:0:0:0:
448,192,46505,1,0,0:0:0:0:
320,192,46692,1,0,0:0:0:0:
64,192,46880,1,0,0:0:0:0:
192,192,46973,1,0,0:0:0:0:
448,192,47067,1,0,0:0:0:0:
320,192,47161,1,0,0:0:0:0:
64,192,47255,1,8,0:0:0:0:
192,192,47255,1,0,0:0:0:0:
448,192,47348,1,0,0:0:0:0:
64,192,47442,1,0,0:0:0:0:
320,192,47536,1,0,0:0:0:0:
192,192,47630,128,0,47817:0:0:0:0:
320,192,47817,128,0,48005:0:0:0:0:
64,192,48005,1,2,0:0:0:0:
192,192,48005,1,0,0:0:0:0:
320,192,48286,1,8,0:0:0:0:
448,192,48286,1,2,0:0:0:0:
320,192,48567,1,2,0:0:0:0:
192,192,48630,1,2,0:0:0:0:
64,192,48692,1,2,0:0:0:0:
320,192,48755,1,8,0:0:0:0:
448,192,48755,1,0,0:0:0:0:
192,192,48848,1,2,0:0:0:0:
64,192,48942,1,2,0:0:0:0:
448,192,48942,1,0,0:0:0:0:
320,192,49036,1,2,0:0:0:0:
64,192,49130,1,8,0:0:0:0:
192,192,49130,1,0,0:0:0:0:
320,192,49317,1,2,0:0:0:0:
448,192,49317,1,0,0:0:0:0:
64,192,49505,1,2,0:0:0:0:
192,192,49505,1,4,0:0:0:0:
320,192,49692,1,0,0:0:0:0:
192,192,49786,1,0,0:0:0:0:
64,192,49880,1,8,0:0:0:0:
448,192,49880,1,0,0:0:0:0:
192,192,50067,1,0,0:0:0:0:
320,192,50161,1,0,0:0:0:0:
64,192,50255,1,2,0:0:0:0:
448,192,50255,1,0,0:0:0:0:
192,192,50348,1,0,0:0:0:0:
320,192,50442,1,0,0:0:0:0:
192,192,50536,1,0,0:0:0:0:
64,192,50630,1,8,0:0:0:0:
448,192,50630,1,0,0:0:0:0:
320,192,50817,1,0,0:0:0:0:
192,192,50911,1,0,0:0:0:0:
64,192,51005,1,2,0:0:0:0:
448,192,51005,128,0,51192:0:0:0:0:
192,192,51192,1,8,0:0:0:0:
320,192,51192,1,4,0:0:0:0:
64,192,51567,128,2,51755:0:0:0:0:
448,192,51567,1,0,0:0:0:0:
192,192,51755,128,2,51942:0:0:0:0:
320,192,51755,1,0,0:0:0:0:
448,192,51942,1,2,0:0:0:0:
320,192,52036,1,2,0:0:0:0:
64,192,52130,128,8,52505:0:0:0:0:
192,192,52130,1,0,0:0:0:0:
192,192,52505,1,2,0:0:0:0:
448,192,52505,1,0,0:0:0:0:
320,192,52598,1,0,0:0:0:0:
64,192,52692,1,0,0:0:0:0:
192,192,52786,1,0,0:0:0:0:
320,192,52880,1,8,0:0:0:0:
448,192,52880,1,0,0:0:0:0:
192,192,52973,1,0,0:0:0:0:
64,192,53067,1,0,0:0:0:0:
320,192,53161,1,0,0:0:0:0:
192,192,53255,1,2,0:0:0:0:
448,192,53255,1,0,0:0:0:0:
64,192,53348,1,0,0:0:0:0:
320,192,53442,1,0,0:0:0:0:
192,192,53536,1,0,0:0:0:0:
64,192,53630,1,8,0:0:0:0:
448,192,53630,1,0,0:0:0:0:
192,192,53817,1,0,0:0:0:0:
320,192,53911,1,0,0:0:0:0:
64,192,54005,1,2,0:0:0:0:
448,192,54005,1,0,0:0:0:0:
320,192,54192,1,2,0:0:0:0:
192,192,54286,1,2,0:0:0:0:
64,192,54380,1,8,0:0:0:0:
448,192,54380,1,0,0:0:0:0:
192,192,54567,1,2,0:0:0:0:
320,192,54567,1,0,0:0:0:0:
64,192,54755,1,8,0:0:0:0:
448,192,54755,1,0,0:0:0:0:
192,192,54942,1,2,0:0:0:0:
320,192,55036,1,2,0:0:0:0:
64,192,55130,1,8,0:0:0:0:
448,192,55130,1,0,0:0:0:0:
192,192,55317,1,2,0:0:0:0:
320,192,55317,1,0,0:0:0:0:
64,192,55505,1,2,0:0:0:0:
448,192,55505,1,0,0:0:0:0:
320,192,55598,1,0,0:0:0:0:
192,192,55692,1,0,0:0:0:0:
64,192,55786,1,0,0:0:0:0:
320,192,55880,1,8,0:0:0:0:
448,192,55880,1,0,0:0:0:0:
192,192,55973,1,0,0:0:0:0:
448,192,56067,1,0,0:0:0:0:
320,192,56161,1,0,0:0:0:0:
64,192,56255,1,2,0:0:0:0:
192,192,56255,1,0,0:0:0:0:
320,192,56348,1,0,0:0:0:0:
64,192,56442,1,0,0:0:0:0:
192,192,56536,1,0,0:0:0:0:
320,192,56630,1,8,0:0:0:0:
448,192,56630,1,0,0:0:0:0:
192,192,56817,1,0,0:0:0:0:
320,192,56911,1,0,0:0:0:0:
64,192,57005,1,2,0:0:0:0:
448,192,57005,1,0,0:0:0:0:
192,192,57098,1,0,0:0:0:0:
64,192,57192,1,0,0:0:0:0:
192,192,57286,1,0,0:0:0:0:
320,192,57380,1,8,0:0:0:0:
448,192,57380,1,0,0:0:0:0:
192,192,57473,1,0,0:0:0:0:
320,192,57567,1,0,0:0:0:0:
192,192,57661,1,0,0:0:0:0:
64,192,57755,1,2,0:0:0:0:
448,192,57755,1,0,0:0:0:0:
320,192,57848,1,0,0:0:0:0:
448,192,57942,1,0,0:0:0:0:
320,192,58036,1,0,0:0:0:0:
64,192,58130,1,8,0:0:0:0:
192,192,58130,1,0,0:0:0:0:
320,192,58223,1,0,0:0:0:0:
192,192,58317,1,0,0:0:0:0:
320,192,58411,1,0,0:0:0:0:
64,192,58505,1,2,0:0:0:0:
448,192,58505,1,0,0:0:0:0:
192,192,58598,1,0,0:0:0:0:
320,192,58692,1,0,0:0:0:0:
192,192,58786,1,0,0:0:0:0:
64,192,58880,1,8,0:0:0:0:
448,192,58880,1,0,0:0:0:0:
320,192,58973,1,0,0:0:0:0:
192,192,59067,1,0,0:0:0:0:
320,192,59161,1,0,0:0:0:0:
64,192,59255,1,2,0:0:0:0:
448,192,59255,1,0,0:0:0:0:
192,192,59348,1,0,0:0:0:0:
320,192,59442,1,0,0:0:0:0:
64,192,59536,1,2,0:0:0:0:
192,192,59536,1,0,0:0:0:0:
320,192,59630,1,8,0:0:0:0:
448,192,59630,1,0,0:0:0:0:
192,192,59817,1,2,0:0:0:0:
320,192,59911,1,2,0:0:0:0:
64,192,60005,1,2,0:0:0:0:
448,192,60005,1,4,0:0:0:0:
192,192,60286,1,2,0:0:0:0:
320,192,60286,1,0,0:0:0:0:
64,192,60567,1,2,0:0:0:0:
192,192,60630,1,2,0:0:0:0:
320,192,60692,1,2,0:0:0:0:
64,192,60755,1,8,0:0:0:0:
448,192,60755,1,4,0:0:0:0:
192,192,60848,1,2,0:0:0:0:
320,192,60942,1,2,0:0:0:0:
448,192,60942,1,0,0:0:0:0:
192,192,61036,1,2,0:0:0:0:
64,192,61130,1,8,0:0:0:0:
448,192,61130,1,4,0:0:0:0:
192,192,61317,1,2,0:0:0:0:
320,192,61317,1,0,0:0:0:0:
64,192,61505,1,2,0:0:0:0:
448,192,61505,1,4,0:0:0:0:
320,192,61692,1,0,0:0:0:0:
192,192,61786,1,0,0:0:0:0:
64,192,61880,1,8,0:0:0:0:
448,192,61880,1,0,0:0:0:0:
192,192,62067,1,2,0:0:0:0:
320,192,62067,1,0,0:0:0:0:
64,192,62255,1,2,0:0:0:0:
192,192,62255,1,0,0:0:0:0:
320,192,62442,1,0,0:0:0:0:
64,192,62630,1,8,0:0:0:0:
448,192,62630,1,0,0:0:0:0:
192,192,62817,1,0,0:0:0:0:
320,192,62911,1,0,0:0:0:0:
64,192,63005,1,2,0:0:0:0:
448,192,63005,1,0,0:0:0:0:
192,192,63192,1,0,0:0:0:0:
320,192,63286,1,2,0:0:0:0:
448,192,63286,1,0,0:0:0:0:
64,192,63380,1,8,0:0:0:0:
192,192,63380,1,0,0:0:0:0:
320,192,63567,1,2,0:0:0:0:
448,192,63567,1,0,0:0:0:0:
64,192,63755,1,2,0:0:0:0:
320,192,63755,1,0,0:0:0:0:
192,192,63942,1,2,0:0:0:0:
320,192,64036,1,2,0:0:0:0:
64,192,64130,1,8,0:0:0:0:
448,192,64130,1,0,0:0:0:0:
192,192,64223,1,2,0:0:0:0:
320,192,64411,1,2,0:0:0:0:
64,192,64505,1,2,0:0:0:0:
448,192,64505,1,0,0:0:0:0:
192,192,64692,1,0,0:0:0:0:
320,192,64786,1,0,0:0:0:0:
64,192,64880,1,8,0:0:0:0:
448,192,64880,1,0,0:0:0:0:
192,192,65067,1,2,0:0:0:0:
320,192,65067,1,0,0:0:0:0:
320,192,65255,1,2,0:0:0:0:
448,192,65255,1,0,0:0:0:0:
192,192,65442,1,0,0:0:0:0:
64,192,65630,1,8,0:0:0:0:
448,192,65630,1,0,0:0:0:0:
320,192,65817,1,0,0:0:0:0:
192,192,65911,1,0,0:0:0:0:
64,192,66005,1,2,0:0:0:0:
448,192,66005,1,0,0:0:0:0:
320,192,66098,1,0,0:0:0:0:
192,192,66192,1,0,0:0:0:0:
64,192,66286,1,2,0:0:0:0:
320,192,66380,1,8,0:0:0:0:
448,192,66380,128,0,66755:0:0:0:0:
320,192,66661,1,2,0:0:0:0:
64,192,66755,128,2,66942:0:0:0:0:
192,192,66755,1,0,0:0:0:0:
320,192,66942,1,2,0:0:0:0:
448,192,66942,128,0,67130:0:0:0:0:
64,192,67130,1,8,0:0:0:0:
192,192,67130,128,0,67505:0:0:0:0:
64,192,67505,1,2,0:0:0:0:
448,192,67505,1,0,0:0:0:0:
320,192,67692,1,0,0:0:0:0:
192,192,67786,1,0,0:0:0:0:
64,192,67880,1,8,0:0:0:0:
448,192,67880,1,0,0:0:0:0:
64,192,68067,1,2,0:0:0:0:
320,192,68067,1,0,0:0:0:0:
192,192,68255,1,2,0:0:0:0:
448,192,68255,1,0,0:0:0:0:
320,192,68442,1,0,0:0:0:0:
64,192,68630,1,8,0:0:0:0:
192,192,68630,1,0,0:0:0:0:
320,192,68817,1,0,0:0:0:0:
192,192,68911,1,0,0:0:0:0:
64,192,69005,1,2,0:0:0:0:
448,192,69005,1,0,0:0:0:0:
192,192,69192,1,0,0:0:0:0:
320,192,69286,1,2,0:0:0:0:
64,192,69380,1,8,0:0:0:0:
448,192,69380,1,0,0:0:0:0:
192,192,69567,1,2,0:0:0:0:
448,192,69567,1,0,0:0:0:0:
64,192,69755,1,2,0:0:0:0:
320,192,69755,1,0,0:0:0:0:
448,192,69942,1,2,0:0:0:0:
320,192,70036,1,2,0:0:0:0:
64,192,70130,1,8,0:0:0:0:
192,192,70130,1,0,0:0:0:0:
448,192,70223,1,2,0:0:0:0:
64,192,70411,1,2,0:0:0:0:
320,192,70505,1,2,0:0:0:0:
448,192,70505,1,0,0:0:0:0:
192,192,70692,1,0,0:0:0:0:
320,192,70786,1,0,0:0:0:0:
64,192,70880,1,8,0:0:0:0:
448,192,70880,1,0,0:0:0:0:
192,192,71067,1,2,0:0:0:0:
320,192,71067,1,0,0:0:0:0:
64,192,71255,1,2,0:0:0:0:
448,192,71255,1,0,0:0:0:0:
192,192,71442,1,0,0:0:0:0:
320,192,71630,1,8,0:0:0:0:
448,192,71630,1,0,0:0:0:0:
192,192,71817,1,0,0:0:0:0:
64,192,72005,1,2,0:0:0:0:
448,192,72005,1,0,0:0:0:0:
320,192,72098,1,0,0:0:0:0:
192,192,72192,1,0,0:0:0:0:
64,192,72286,1,2,0:0:0:0:
320,192,72380,1,8,0:0:0:0:
448,192,72380,1,0,0:0:0:0:
192,192,72473,1,2,0:0:0:0:
64,192,72567,1,2,0:0:0:0:
448,192,72567,1,0,0:0:0:0:
320,192,72661,1,2,0:0:0:0:
64,192,72755,1,8,0:0:0:0:
192,192,72755,1,0,0:0:0:0:
320,192,72942,1,2,0:0:0:0:
448,192,72942,1,0,0:0:0:0:
64,192,73130,1,8,0:0:0:0:
448,192,73130,1,0,0:0:0:0:
192,192,73223,1,0,0:0:0:0:
320,192,73317,1,0,0:0:0:0:
192,192,73411,1,0,0:0:0:0:
64,192,73505,128,2,73692:0:0:0:0:
448,192,73505,1,4,0:0:0:0:
192,192,73692,1,0,0:0:0:0:
320,192,73786,1,0,0:0:0:0:
64,192,73880,1,8,0:0:0:0:
448,192,73880,1,0,0:0:0:0:
320,192,74067,1,0,0:0:0:0:
192,192,74161,1,0,0:0:0:0:
64,192,74255,1,2,0:0:0:0:
448,192,74255,128,0,74442:0:0:0:0:
64,192,74630,128,8,75005:0:0:0:0:
192,192,74630,1,0,0:0:0:0:
320,192,75005,1,2,0:0:0:0:
448,192,75005,1,0,0:0:0:0:
192,192,75192,1,0,0:0:0:0:
320,192,75286,1,0,0:0:0:0:
64,192,75380,1,8,0:0:0:0:
448,192,75380,1,0,0:0:0:0:
320,192,75567,1,0,0:0:0:0:
64,192,75755,1,2,0:0:0:0:
192,192,75755,1,0,0:0:0:0:
320,192,75942,1,0,0:0:0:0:
64,192,76130,1,8,0:0:0:0:
192,192,76130,1,0,0:0:0:0:
320,192,76223,1,0,0:0:0:0:
64,192,76317,1,0,0:0:0:0:
192,192,76411,1,0,0:0:0:0:
320,192,76505,1,2,0:0:0:0:
448,192,76505,128,0,76692:0:0:0:0:
192,192,76692,1,0,0:0:0:0:
320,192,76786,1,0,0:0:0:0:
64,192,76880,1,8,0:0:0:0:
448,192,76880,1,0,0:0:0:0:
192,192,77067,128,0,77255:0:0:0:0:
320,192,77255,1,2,0:0:0:0:
448,192,77255,128,0,77442:0:0:0:0:
64,192,77630,128,8,78005:0:0:0:0:
320,192,77630,1,0,0:0:0:0:
192,192,78005,1,2,0:0:0:0:
448,192,78005,1,0,0:0:0:0:
320,192,78098,1,0,0:0:0:0:
64,192,78192,1,0,0:0:0:0:
192,192,78286,1,0,0:0:0:0:
320,192,78380,1,8,0:0:0:0:
448,192,78380,1,0,0:0:0:0:
64,192,78473,1,0,0:0:0:0:
192,192,78567,1,0,0:0:0:0:
320,192,78661,1,0,0:0:0:0:
64,192,78755,1,2,0:0:0:0:
448,192,78755,1,0,0:0:0:0:
320,192,78942,1,0,0:0:0:0:
64,192,79130,1,8,0:0:0:0:
192,192,79130,1,0,0:0:0:0:
448,192,79223,1,0,0:0:0:0:
320,192,79317,1,0,0:0:0:0:
192,192,79411,1,0,0:0:0:0:
64,192,79505,1,2,0:0:0:0:
448,192,79505,1,4,0:0:0:0:
192,192,79692,1,0,0:0:0:0:
320,192,79786,1,0,0:0:0:0:
64,192,79880,1,8,0:0:0:0:
448,192,79880,1,0,0:0:0:0:
192,192,80067,1,0,0:0:0:0:
320,192,80255,1,2,0:0:0:0:
448,192,80255,1,0,0:0:0:0:
64,192,80442,1,8,0:0:0:0:
192,192,80442,1,0,0:0:0:0:
64,192,80630,1,8,0:0:0:0:
192,192,80630,1,0,0:0:0:0:
448,192,80817,1,0,0:0:0:0:
320,192,80911,1,0,0:0:0:0:
64,192,81005,1,2,0:0:0:0:
192,192,81005,1,0,0:0:0:0:
320,192,81192,1,0,0:0:0:0:
192,192,81286,1,0,0:0:0:0:
64,192,81380,1,8,0:0:0:0:
448,192,81380,1,0,0:0:0:0:
320,192,81473,1,0,0:0:0:0:
192,192,81567,1,0,0:0:0:0:
448,192,81661,1,0,0:0:0:0:
64,192,81755,1,2,0:0:0:0:
320,192,81755,1,0,0:0:0:0:
192,192,81942,1,2,0:0:0:0:
448,192,81942,1,0,0:0:0:0:
192,192,82130,1,8,0:0:0:0:
448,192,82130,1,0,0:0:0:0:
64,192,82317,1,2,0:0:0:0:
192,192,82411,1,0,0:0:0:0:
320,192,82505,1,2,0:0:0:0:
448,192,82505,1,0,0:0:0:0:
192,192,82692,1,0,0:0:0:0:
320,192,82786,1,0,0:0:0:0:
64,192,82880,1,8,0:0:0:0:
448,192,82880,1,0,0:0:0:0:
320,192,83067,1,0,0:0:0:0:
64,192,83255,1,2,0:0:0:0:
192,192,83255,1,0,0:0:0:0:
320,192,83442,1,8,0:0:0:0:
448,192,83442,1,0,0:0:0:0:
320,192,83630,1,8,0:0:0:0:
448,192,83630,1,0,0:0:0:0:
192,192,83817,1,0,0:0:0:0:
64,192,83911,1,0,0:0:0:0:
320,192,84005,1,2,0:0:0:0:
448,192,84005,1,0,0:0:0:0:
192,192,84098,1,0,0:0:0:0:
64,192,84192,1,8,0:0:0:0:
448,192,84192,1,0,0:0:0:0:
320,192,84286,1,0,0:0:0:0:
64,192,84380,1,2,0:0:0:0:
192,192,84380,1,0,0:0:0:0:
320,192,84473,1,2,0:0:0:0:
448,192,84473,1,0,0:0:0:0:
64,192,84567,1,2,0:0:0:0:
192,192,84567,1,0,0:0:0:0:
320,192,84661,1,2,0:0:0:0:
448,192,84661,1,0,0:0:0:0:
64,192,84755,1,8,0:0:0:0:
192,192,84755,1,4,0:0:0:0:
192,192,85130,1,8,0:0:0:0:
320,192,85130,1,4,0:0:0:0:
64,192,85505,1,2,0:0:0:0:
448,192,85505,1,4,0:0:0:0:
64,192,85880,1,2,0:0:0:0:
320,192,86067,1,0,0:0:0:0:
64,192,86255,1,2,0:0:0:0:
64,192,86630,1,2,0:0:0:0:
64,192,87005,1,2,0:0:0:0:
448,192,87005,1,0,0:0:0:0:
448,192,87380,1,2,0:0:0:0:
192,192,87567,1,0,0:0:0:0:
448,192,87755,1,2,0:0:0:0:
448,192,88130,1,2,0:0:0:0:
64,192,88505,1,2,0:0:0:0:
448,192,88505,1,0,0:0:0:0:
64,192,88880,1,2,0:0:0:0:
320,192,89067,1,0,0:0:0:0:
64,192,89255,1,2,0:0:0:0:
64,192,89630,1,2,0:0:0:0:
64,192,90005,1,2,0:0:0:0:
448,192,90005,1,0,0:0:0:0:
448,192,90380,1,2,0:0:0:0:
192,192,90567,1,0,0:0:0:0:
448,192,90755,1,2,0:0:0:0:
192,192,90942,1,0,0:0:0:0:
320,192,91036,1,0,0:0:0:0:
64,192,91130,1,2,0:0:0:0:
320,192,91317,1,0,0:0:0:0:
192,192,91411,1,0,0:0:0:0:
64,192,91505,1,2,0:0:0:0:
448,192,91505,1,0,0:0:0:0:
64,192,91880,1,2,0:0:0:0:
320,192,92067,1,0,0:0:0:0:
64,192,92255,1,2,0:0:0:0:
64,192,92630,1,2,0:0:0:0:
64,192,93005,1,2,0:0:0:0:
448,192,93005,1,0,0:0:0:0:
448,192,93380,1,2,0:0:0:0:
192,192,93567,1,0,0:0:0:0:
448,192,93755,1,2,0:0:0:0:
448,192,94130,1,2,0:0:0:0:
64,192,94505,1,2,0:0:0:0:
448,192,94505,1,0,0:0:0:0:
64,192,94880,1,2,0:0:0:0:
192,192,94880,1,0,0:0:0:0:
320,192,94973,1,0,0:0:0:0:
64,192,95067,1,8,0:0:0:0:
448,192,95067,1,4,0:0:0:0:
192,192,95161,1,0,0:0:0:0:
320,192,95255,1,0,0:0:0:0:
64,192,95442,1,2,0:0:0:0:
192,192,95442,1,0,0:0:0:0:
320,192,95630,1,2,0:0:0:0:
448,192,95630,1,0,0:0:0:0:
192,192,95817,1,0,0:0:0:0:
64,192,96005,1,2,0:0:0:0:
448,192,96005,1,0,0:0:0:0:
192,192,96192,1,8,0:0:0:0:
320,192,96192,1,0,0:0:0:0:
448,192,96380,1,2,0:0:0:0:
64,192,96567,1,8,0:0:0:0:
192,192,96567,1,4,0:0:0:0:
320,192,96848,1,2,0:0:0:0:
448,192,96848,1,0,0:0:0:0:
64,192,96942,1,2,0:0:0:0:
192,192,96942,1,0,0:0:0:0:
320,192,97036,1,2,0:0:0:0:
64,192,97130,1,8,0:0:0:0:
448,192,97130,128,4,97505:0:0:0:0:
64,192,97505,1,2,0:0:0:0:
192,192,97505,1,4,0:0:0:0:
320,192,97692,1,0,0:0:0:0:
192,192,97786,1,0,0:0:0:0:
64,192,97880,1,2,0:0:0:0:
448,192,97880,1,0,0:0:0:0:
320,192,98067,1,0,0:0:0:0:
64,192,98255,1,2,0:0:0:0:
192,192,98255,1,0,0:0:0:0:
320,192,98442,1,0,0:0:0:0:
64,192,98630,1,2,0:0:0:0:
448,192,98630,1,0,0:0:0:0:
192,192,98817,1,0,0:0:0:0:
320,192,98911,1,0,0:0:0:0:
64,192,99005,1,2,0:0:0:0:
192,192,99005,1,0,0:0:0:0:
320,192,99192,1,0,0:0:0:0:
192,192,99286,1,0,0:0:0:0:
320,192,99380,1,2,0:0:0:0:
448,192,99380,1,0,0:0:0:0:
192,192,99567,1,0,0:0:0:0:
64,192,99755,1,2,0:0:0:0:
448,192,99755,1,0,0:0:0:0:
320,192,99942,1,0,0:0:0:0:
64,192,100130,128,2,100505:0:0:0:0:
192,192,100130,1,0,0:0:0:0:
320,192,100505,1,2,0:0:0:0:
448,192,100505,1,0,0:0:0:0:
192,192,100692,1,0,0:0:0:0:
320,192,100786,1,0,0:0:0:0:
64,192,100880,1,2,0:0:0:0:
448,192,100880,1,0,0:0:0:0:
192,192,101067,1,0,0:0:0:0:
320,192,101255,1,2,0:0:0:0:
448,192,101255,1,0,0:0:0:0:
192,192,101442,1,0,0:0:0:0:
64,192,101630,1,2,0:0:0:0:
448,192,101630,1,0,0:0:0:0:
320,192,101723,1,0,0:0:0:0:
192,192,101817,1,0,0:0:0:0:
448,192,101911,1,0,0:0:0:0:
64,192,102005,1,2,0:0:0:0:
320,192,102005,1,0,0:0:0:0:
192,192,102098,1,0,0:0:0:0:
448,192,102192,1,0,0:0:0:0:
320,192,102286,1,0,0:0:0:0:
64,192,102380,128,2,102755:0:0:0:0:
192,192,102380,1,0,0:0:0:0:
320,192,102755,1,2,0:0:0:0:
448,192,102755,1,0,0:0:0:0:
192,192,102848,1,0,0:0:0:0:
320,192,102942,1,0,0:0:0:0:
192,192,103036,1,0,0:0:0:0:
64,192,103130,1,2,0:0:0:0:
448,192,103130,1,0,0:0:0:0:
320,192,103223,1,0,0:0:0:0:
192,192,103317,1,0,0:0:0:0:
64,192,103505,1,2,0:0:0:0:
448,192,103505,1,4,0:0:0:0:
192,192,103692,1,0,0:0:0:0:
320,192,103786,1,0,0:0:0:0:
64,192,103880,1,2,0:0:0:0:
448,192,103880,1,0,0:0:0:0:
192,192,104067,1,0,0:0:0:0:
320,192,104255,1,0,0:0:0:0:
320,192,104442,1,0,0:0:0:0:
64,192,104630,1,2,0:0:0:0:
448,192,104630,1,4,0:0:0:0:
192,192,104817,1,0,0:0:0:0:
320,192,104911,1,0,0:0:0:0:
64,192,105005,1,2,0:0:0:0:
448,192,105005,1,0,0:0:0:0:
320,192,105192,1,0,0:0:0:0:
192,192,105286,1,0,0:0:0:0:
64,192,105380,1,2,0:0:0:0:
448,192,105380,1,0,0:0:0:0:
320,192,105567,1,0,0:0:0:0:
64,192,105755,1,2,0:0:0:0:
192,192,105755,1,0,0:0:0:0:
320,192,105848,1,0,0:0:0:0:
192,192,105942,1,0,0:0:0:0:
320,192,106036,1,0,0:0:0:0:
64,192,106130,1,2,0:0:0:0:
448,192,106130,1,0,0:0:0:0:
192,192,106223,1,0,0:0:0:0:
320,192,106317,1,0,0:0:0:0:
192,192,106411,1,0,0:0:0:0:
64,192,106505,1,2,0:0:0:0:
448,192,106505,1,0,0:0:0:0:
320,192,106692,1,0,0:0:0:0:
192,192,106786,1,0,0:0:0:0:
64,192,106880,1,2,0:0:0:0:
448,192,106880,1,0,0:0:0:0:
320,192,107067,1,0,0:0:0:0:
64,192,107255,1,2,0:0:0:0:
192,192,107255,1,0,0:0:0:0:
320,192,107442,1,0,0:0:0:0:
64,192,107630,1,2,0:0:0:0:
448,192,107630,1,0,0:0:0:0:
320,192,107817,1,0,0:0:0:0:
64,192,108005,1,2,0:0:0:0:
448,192,108005,1,0,0:0:0:0:
192,192,108098,1,0,0:0:0:0:
320,192,108192,1,0,0:0:0:0:
448,192,108286,1,0,0:0:0:0:
64,192,108380,1,2,0:0:0:0:
192,192,108380,1,0,0:0:0:0:
320,192,108473,1,0,0:0:0:0:
64,192,108567,1,0,0:0:0:0:
192,192,108661,1,0,0:0:0:0:
320,192,108755,1,2,0:0:0:0:
448,192,108755,1,0,0:0:0:0:
64,192,108817,1,0,0:0:0:0:
192,192,108880,1,0,0:0:0:0:
320,192,108942,1,0,0:0:0:0:
448,192,109036,1,0,0:0:0:0:
64,192,109130,1,8,0:0:0:0:
192,192,109130,1,4,0:0:0:0:
320,192,109223,1,0,0:0:0:0:
192,192,109317,1,0,0:0:0:0:
320,192,109411,1,0,0:0:0:0:
64,192,109505,128,2,109692:0:0:0:0:
448,192,109505,1,0,0:0:0:0:
192,192,109880,1,8,0:0:0:0:
320,192,109880,1,4,0:0:0:0:
64,192,110067,1,0,0:0:0:0:
192,192,110161,1,0,0:0:0:0:
320,192,110255,1,2,0:0:0:0:
448,192,110255,128,0,110442:0:0:0:0:
64,192,110630,128,8,110817:0:0:0:0:
192,192,110630,1,0,0:0:0:0:
320,192,111005,1,2,0:0:0:0:
448,192,111005,128,0,111192:0:0:0:0:
192,192,111192,1,0,0:0:0:0:
320,192,111286,1,0,0:0:0:0:
64,192,111380,128,8,111567:0:0:0:0:
448,192,111380,1,0,0:0:0:0:
192,192,111567,1,0,0:0:0:0:
320,192,111755,1,2,0:0:0:0:
448,192,111755,128,0,111942:0:0:0:0:
192,192,111942,1,0,0:0:0:0:
64,192,112130,128,8,112317:0:0:0:0:
448,192,112130,1,0,0:0:0:0:
320,192,112223,1,0,0:0:0:0:
192,192,112317,1,0,0:0:0:0:
320,192,112411,1,0,0:0:0:0:
64,192,112505,1,2,0:0:0:0:
448,192,112505,128,0,112692:0:0:0:0:
192,192,112692,1,0,0:0:0:0:
320,192,112786,1,0,0:0:0:0:
64,192,112880,1,8,0:0:0:0:
448,192,112880,1,0,0:0:0:0:
192,192,113067,128,0,113255:0:0:0:0:
320,192,113255,1,2,0:0:0:0:
448,192,113255,128,0,113442:0:0:0:0:
64,192,113630,128,8,113817:0:0:0:0:
192,192,113630,1,0,0:0:0:0:
64,192,114005,1,2,0:0:0:0:
448,192,114005,1,0,0:0:0:0:
320,192,114098,1,0,0:0:0:0:
192,192,114192,1,0,0:0:0:0:
448,192,114286,1,0,0:0:0:0:
64,192,114380,1,8,0:0:0:0:
320,192,114380,1,0,0:0:0:0:
192,192,114473,1,0,0:0:0:0:
320,192,114567,1,0,0:0:0:0:
64,192,114661,1,0,0:0:0:0:
192,192,114755,1,2,0:0:0:0:
448,192,114755,1,0,0:0:0:0:
64,192,114942,1,0,0:0:0:0:
320,192,114942,1,0,0:0:0:0:
192,192,115130,1,8,0:0:0:0:
448,192,115130,1,0,0:0:0:0:
320,192,115223,1,0,0:0:0:0:
64,192,115317,1,0,0:0:0:0:
192,192,115411,1,0,0:0:0:0:
320,192,115505,1,2,0:0:0:0:
448,192,115505,1,4,0:0:0:0:
64,192,115692,1,0,0:0:0:0:
192,192,115786,1,0,0:0:0:0:
320,192,115880,1,8,0:0:0:0:
448,192,115880,1,0,0:0:0:0:
64,192,116067,1,0,0:0:0:0:
320,192,116255,1,2,0:0:0:0:
448,192,116255,1,0,0:0:0:0:
64,192,116442,1,8,0:0:0:0:
192,192,116442,1,0,0:0:0:0:
64,192,116630,1,8,0:0:0:0:
192,192,116630,1,0,0:0:0:0:
448,192,116817,1,0,0:0:0:0:
320,192,116911,1,0,0:0:0:0:
64,192,117005,1,2,0:0:0:0:
192,192,117005,1,0,0:0:0:0:
320,192,117192,1,0,0:0:0:0:
192,192,117286,1,0,0:0:0:0:
64,192,117380,1,8,0:0:0:0:
448,192,117380,1,0,0:0:0:0:
192,192,117473,1,0,0:0:0:0:
320,192,117567,1,0,0:0:0:0:
64,192,117661,1,0,0:0:0:0:
192,192,117755,1,2,0:0:0:0:
448,192,117755,1,0,0:0:0:0:
64,192,117942,1,2,0:0:0:0:
320,192,117942,1,0,0:0:0:0:
64,192,118130,1,8,0:0:0:0:
320,192,118130,1,0,0:0:0:0:
192,192,118317,1,2,0:0:0:0:
448,192,118317,1,0,0:0:0:0:
64,192,118505,1,2,0:0:0:0:
320,192,118505,1,0,0:0:0:0:
448,192,118692,1,0,0:0:0:0:
320,192,118786,1,0,0:0:0:0:
64,192,118880,1,8,0:0:0:0:
192,192,118880,1,0,0:0:0:0:
448,192,119067,1,0,0:0:0:0:
64,192,119255,1,2,0:0:0:0:
192,192,119255,1,0,0:0:0:0:
320,192,119442,1,8,0:0:0:0:
448,192,119442,1,0,0:0:0:0:
320,192,119630,1,8,0:0:0:0:
448,192,119630,1,0,0:0:0:0:
64,192,119817,1,0,0:0:0:0:
192,192,119911,1,0,0:0:0:0:
320,192,120005,1,2,0:0:0:0:
448,192,120005,1,0,0:0:0:0:
192,192,120098,1,0,0:0:0:0:
64,192,120192,1,8,0:0:0:0:
448,192,120192,1,4,0:0:0:0:
320,192,120286,1,0,0:0:0:0:
64,192,120380,1,2,0:0:0:0:
192,192,120380,1,0,0:0:0:0:
320,192,120473,1,2,0:0:0:0:
448,192,120473,1,0,0:0:0:0:
64,192,120567,1,2,0:0:0:0:
192,192,120567,1,0,0:0:0:0:
320,192,120661,1,2,0:0:0:0:
448,192,120661,1,0,0:0:0:0:
64,192,120755,1,8,0:0:0:0:
192,192,120755,1,4,0:0:0:0:
320,192,120942,1,0,0:0:0:0:
192,192,121036,1,0,0:0:0:0:
64,192,121130,1,8,0:0:0:0:
448,192,121130,1,4,0:0:0:0:
320,192,121223,1,0,0:0:0:0:
192,192,121317,1,0,0:0:0:0:
64,192,121411,1,0,0:0:0:0:
320,192,121505,1,2,0:0:0:0:
448,192,121505,1,4,0:0:0:0:
64,192,121692,1,2,0:0:0:0:
192,192,121692,1,0,0:0:0:0:
320,192,121880,1,8,0:0:0:0:
448,192,121880,1,0,0:0:0:0:
64,192,122255,1,2,0:0:0:0:
192,192,122255,1,0,0:0:0:0:
448,192,122442,1,0,0:0:0:0:
320,192,122536,1,0,0:0:0:0:
64,192,122630,1,8,0:0:0:0:
192,192,122630,1,2,0:0:0:0:
64,192,123005,1,2,0:0:0:0:
192,192,123005,1,0,0:0:0:0:
320,192,123192,1,2,0:0:0:0:
448,192,123192,1,0,0:0:0:0:
64,192,123380,1,8,0:0:0:0:
192,192,123380,1,0,0:0:0:0:
320,192,123755,1,2,0:0:0:0:
448,192,123755,1,0,0:0:0:0:
192,192,123848,1,0,0:0:0:0:
64,192,123942,1,0,0:0:0:0:
320,192,124130,1,8,0:0:0:0:
448,192,124130,1,2,0:0:0:0:
64,192,124505,1,2,0:0:0:0:
192,192,124505,1,0,0:0:0:0:
192,192,124692,1,2,0:0:0:0:
320,192,124692,1,0,0:0:0:0:
320,192,124880,1,8,0:0:0:0:
448,192,124880,1,0,0:0:0:0:
192,192,125067,1,0,0:0:0:0:
64,192,125255,1,2,0:0:0:0:
448,192,125255,1,0,0:0:0:0:
320,192,125442,1,0,0:0:0:0:
64,192,125630,1,2,0:0:0:0:
192,192,125630,1,8,0:0:0:0:
448,192,125723,1,0,0:0:0:0:
320,192,125817,1,0,0:0:0:0:
192,192,125911,1,0,0:0:0:0:
64,192,126005,1,2,0:0:0:0:
448,192,126005,1,0,0:0:0:0:
192,192,126192,1,2,0:0:0:0:
320,192,126192,1,0,0:0:0:0:
64,192,126380,1,8,0:0:0:0:
448,192,126380,1,0,0:0:0:0:
320,192,126473,1,0,0:0:0:0:
192,192,126567,1,0,0:0:0:0:
320,192,126661,1,0,0:0:0:0:
64,192,126755,1,2,0:0:0:0:
448,192,126755,1,0,0:0:0:0:
192,192,126848,1,0,0:0:0:0:
320,192,126942,1,0,0:0:0:0:
192,192,127036,1,0,0:0:0:0:
64,192,127130,1,8,0:0:0:0:
448,192,127130,1,2,0:0:0:0:
320,192,127223,1,0,0:0:0:0:
192,192,127317,1,0,0:0:0:0:
320,192,127411,1,0,0:0:0:0:
64,192,127505,1,2,0:0:0:0:
448,192,127505,1,0,0:0:0:0:
192,192,127692,1,2,0:0:0:0:
320,192,127692,1,0,0:0:0:0:
64,192,127880,1,8,0:0:0:0:
448,192,127880,1,0,0:0:0:0:
192,192,128255,1,2,0:0:0:0:
448,192,128255,1,0,0:0:0:0:
320,192,128348,1,0,0:0:0:0:
64,192,128442,1,0,0:0:0:0:
192,192,128536,1,0,0:0:0:0:
320,192,128630,1,2,0:0:0:0:
448,192,128630,1,8,0:0:0:0:
192,192,128723,1,0,0:0:0:0:
64,192,128817,1,0,0:0:0:0:
320,192,128911,1,0,0:0:0:0:
192,192,129005,1,2,0:0:0:0:
448,192,129005,1,0,0:0:0:0:
64,192,129192,1,2,0:0:0:0:
320,192,129192,1,0,0:0:0:0:
192,192,129380,1,8,0:0:0:0:
448,192,129380,1,0,0:0:0:0:
64,192,129755,1,2,0:0:0:0:
448,192,129755,1,0,0:0:0:0:
192,192,129848,1,0,0:0:0:0:
320,192,129942,1,0,0:0:0:0:
64,192,130036,1,0,0:0:0:0:
192,192,130130,1,2,0:0:0:0:
448,192,130130,1,8,0:0:0:0:
320,192,130223,1,0,0:0:0:0:
192,192,130317,1,0,0:0:0:0:
448,192,130411,1,0,0:0:0:0:
64,192,130505,1,2,0:0:0:0:
320,192,130505,1,0,0:0:0:0:
192,192,130692,1,2,0:0:0:0:
448,192,130692,1,0,0:0:0:0:
64,192,130786,1,2,0:0:0:0:
320,192,130786,1,0,0:0:0:0:
192,192,130880,1,8,0:0:0:0:
448,192,130880,1,0,0:0:0:0:
64,192,131067,1,8,0:0:0:0:
320,192,131067,1,0,0:0:0:0:
448,192,131255,1,0,0:0:0:0:
320,192,131348,1,0,0:0:0:0:
64,192,131442,1,2,0:0:0:0:
192,192,131442,1,0,0:0:0:0:
320,192,131536,1,0,0:0:0:0:
64,192,131630,1,2,0:0:0:0:
448,192,131630,1,0,0:0:0:0:
192,192,131723,1,0,0:0:0:0:
320,192,131817,1,0,0:0:0:0:
192,192,131911,1,0,0:0:0:0:
64,192,132005,1,2,0:0:0:0:
448,192,132005,1,0,0:0:0:0:
192,192,132192,1,8,0:0:0:0:
320,192,132192,1,0,0:0:0:0:
320,192,132380,1,2,0:0:0:0:
448,192,132380,1,0,0:0:0:0:
64,192,132473,1,2,0:0:0:0:
192,192,132473,1,0,0:0:0:0:
320,192,132567,1,2,0:0:0:0:
448,192,132567,1,0,0:0:0:0:
64,192,132661,1,2,0:0:0:0:
192,192,132661,1,0,0:0:0:0:
320,192,132755,1,8,0:0:0:0:
448,192,132755,1,4,0:0:0:0:
64,192,132942,1,2,0:0:0:0:
192,192,132942,1,0,0:0:0:0:
320,192,133036,1,2,0:0:0:0:
64,192,133130,1,8,0:0:0:0:
448,192,133130,1,4,0:0:0:0:
192,192,133317,1,2,0:0:0:0:
320,192,133317,1,0,0:0:0:0:
64,192,133505,1,4,0:0:0:0:
448,192,133505,1,2,0:0:0:0:
320,192,133692,1,0,0:0:0:0:
64,192,133880,1,8,0:0:0:0:
192,192,133880,1,0,0:0:0:0:
320,192,134067,1,0,0:0:0:0:
64,192,134255,1,2,0:0:0:0:
448,192,134255,1,0,0:0:0:0:
192,192,134442,1,0,0:0:0:0:
320,192,134536,1,0,0:0:0:0:
64,192,134630,1,8,0:0:0:0:
448,192,134630,1,0,0:0:0:0:
192,192,134723,1,0,0:0:0:0:
320,192,134817,1,0,0:0:0:0:
192,192,134911,1,0,0:0:0:0:
64,192,135005,1,2,0:0:0:0:
448,192,135005,1,0,0:0:0:0:
320,192,135192,1,0,0:0:0:0:
64,192,135380,1,8,0:0:0:0:
192,192,135380,1,0,0:0:0:0:
320,192,135473,1,0,0:0:0:0:
64,192,135567,1,0,0:0:0:0:
192,192,135661,1,0,0:0:0:0:
320,192,135755,1,2,0:0:0:0:
448,192,135755,1,0,0:0:0:0:
192,192,135848,1,0,0:0:0:0:
448,192,135942,1,0,0:0:0:0:
320,192,136036,1,0,0:0:0:0:
64,192,136130,1,8,0:0:0:0:
192,192,136130,1,0,0:0:0:0:
448,192,136223,1,0,0:0:0:0:
320,192,136317,1,0,0:0:0:0:
192,192,136411,1,0,0:0:0:0:
64,192,136505,1,2,0:0:0:0:
448,192,136505,1,0,0:0:0:0:
320,192,136692,1,0,0:0:0:0:
64,192,136880,1,8,0:0:0:0:
192,192,136880,1,0,0:0:0:0:
320,192,137067,1,0,0:0:0:0:
64,192,137255,1,2,0:0:0:0:
448,192,137255,1,0,0:0:0:0:
192,192,137442,1,0,0:0:0:0:
320,192,137536,1,0,0:0:0:0:
64,192,137630,1,8,0:0:0:0:
448,192,137630,1,0,0:0:0:0:
320,192,137817,1,0,0:0:0:0:
192,192,137911,1,0,0:0:0:0:
64,192,138005,1,2,0:0:0:0:
448,192,138005,1,4,0:0:0:0:
192,192,138755,1,0,0:0:0:0:
320,192,138755,1,0,0:0:0:0:
64,192,139411,1,0,0:0:0:0:
448,192,139411,1,0,0:0:0:0:
64,192,139505,128,0,141661:0:0:0:0:
448,192,139505,128,0,141661:0:0:0:0:
64,192,141755,128,0,142130:0:0:0:0:
448,192,141755,128,0,142130:0:0:0:0:
