osu file format v14

[General]
AudioFilename: audio.mp3
AudioLeadIn: 0
PreviewTime: 80487
Countdown: 0
SampleSet: Normal
StackLeniency: 0.7
Mode: 0
LetterboxInBreaks: 0
WidescreenStoryboard: 0

[Editor]
DistanceSpacing: 0.5
BeatDivisor: 8
GridSize: 16
TimelineZoom: 2.7

[Metadata]
Title:ya boyus ludey
TitleUnicode:я боюсь людей
Artist:WARYKID
ArtistUnicode:WARYKID
Creator:Orins
Version:1
Source:
Tags:
BeatmapID:4584170
BeatmapSetID:2171848

[Difficulty]
HPDrainRate:6
CircleSize:4
OverallDifficulty:8
ApproachRate:9
SliderMultiplier:1.89999990463257
SliderTickRate:3

[Events]
//Background and Video events
0,0,"paint_liquid_stains_201412_3840x2160.jpg",0,0
//Break Periods
2,31296,69643
//Storyboard Layer 0 (Background)
//Storyboard Layer 1 (Fail)
//Storyboard Layer 2 (Pass)
//Storyboard Layer 3 (Foreground)
//Storyboard Layer 4 (Overlay)
//Storyboard Sound Samples

[TimingPoints]
0,731.707317073171,4,1,0,100,1,0
23414,-133.333333333333,4,1,0,100,0,0
27073,-50,4,1,0,100,0,0
27164,-133.333333333333,4,1,0,100,0,0
29359,-50,4,1,0,100,0,0
29634,-133.333333333333,4,1,0,100,0,0
30731,-66.6666666666667,4,1,0,100,0,0
31097,-133.333333333333,4,1,0,100,0,0
70243,-66.6666666666667,4,1,0,100,0,1
77560,-133.333333333333,4,1,0,100,0,1
77743,-66.6666666666667,4,1,0,100,0,1
79024,-400,4,1,0,100,0,1
81951,-100,4,1,0,100,0,0

[Colours]
Combo1 : 201,206,0
Combo2 : 192,192,192
Combo3 : 0,78,155

[HitObjects]
208,48,23414,6,8,P|176:80|160:112,1,71.2499991416931
272,272,24146,1,8,0:0:0:0:
256,160,24512,2,8,P|304:144|336:144,1,71.2499991416931
144,224,25243,2,8,P|112:256|96:288,2,71.2499991416931
256,144,26250,1,8,0:0:0:0:
176,96,26341,2,8,P|176:128|192:176,1,71.2499991416931
416,224,27073,2,8,L|384:272,1,47.4999976158143
144,208,27439,1,8,0:0:0:0:
336,64,27804,2,8,P|288:48|256:48,2,71.2499991416931
256,144,28719,2,8,P|208:144|160:176,1,106.87499871254
160,175,29359,2,8,P|144:223|144:175,1,142.499992847443
384,176,29908,1,0,0:0:0:0:
416,192,30000,2,8,P|414:239|384:256,1,71.2499991416931
96,304,30731,2,0,B|96:288|64:240|128:224|96:160|96:144,1,142.499998283386
200,64,70243,5,8,0:0:0:0:
76,160,70426,1,8,0:0:0:0:
104,304,70609,2,8,P|128:340|176:356,1,71.2499991416931
180,344,70883,1,8,0:0:0:0:
212,332,70975,1,8,0:0:0:0:
248,332,71066,1,8,0:0:0:0:
280,344,71158,1,8,0:0:0:0:
332,152,71340,2,8,P|312:96|276:72,1,71.2499991416931
240,148,71706,1,8,0:0:0:0:
104,144,71889,1,8,0:0:0:0:
216,36,72072,2,8,P|268:32|312:40,1,71.2499991416931
424,96,72438,1,8,0:0:0:0:
416,120,72529,1,8,0:0:0:0:
404,136,72621,1,8,0:0:0:0:
440,304,72804,2,8,P|404:336|356:344,1,71.2499991416931
116,244,73170,1,8,0:0:0:0:
200,92,73353,1,8,0:0:0:0:
288,200,73536,2,8,P|308:160|332:144,1,71.2499991416931
360,128,73810,1,8,0:0:0:0:
384,100,73901,1,8,0:0:0:0:
384,56,73993,1,8,0:0:0:0:
348,32,74084,1,8,0:0:0:0:
72,136,74267,1,8,0:0:0:0:
160,304,74450,2,8,L|188:336,2,35.6249995708466
72,136,74816,1,8,0:0:0:0:
212,72,74999,2,8,P|256:56|292:56,1,71.2499991416931
296,56,75273,1,8,0:0:0:0:
296,56,75365,1,8,0:0:0:0:
420,224,75548,1,8,0:0:0:0:
267,332,75731,1,8,0:0:0:0:
248,312,75822,2,8,L|216:312,5,17.8124997854233
264,304,76097,2,8,P|296:280|296:240,1,71.2499991416931
171,203,76462,1,8,0:0:0:0:
120,76,76645,2,8,P|172:60|200:60,1,71.2499991416931
332,112,77011,1,8,0:0:0:0:
448,204,77194,2,8,P|448:252|416:284,1,71.2499991416931
307,237,77560,2,8,P|279:245|264:253,1,35.6249995708466
152,336,77926,1,8,0:0:0:0:
52,212,78109,1,8,0:0:0:0:
60,180,78200,1,8,0:0:0:0:
56,152,78292,1,8,0:0:0:0:
68,128,78383,1,8,0:0:0:0:
200,84,78475,1,8,0:0:0:0:
352,80,78658,2,8,P|348:124|328:156,1,71.2499991416931
440,236,79023,2,8,L|436:252,1,11.8749994039536
360,256,79389,2,8,L|356:272,1,11.8749994039536
280,276,79755,2,8,L|276:292,1,11.8749994039536
256,192,80487,12,8,81951,0:0:0:0:
