osu file format v14

[General]
AudioFilename: audio.mp3
AudioLeadIn: 0
PreviewTime: 8
Countdown: 1
SampleSet: Normal
StackLeniency: 0.7
Mode: 1
LetterboxInBreaks: 0
WidescreenStoryboard: 1

[Editor]
DistanceSpacing: 0.8
BeatDivisor: 4
GridSize: 32
TimelineZoom: 2.5

[Metadata]
Title:OLE!!
TitleUnicode:OLE!!
Artist:WANIMA
ArtistUnicode:WANIMA
Creator:EdamaMe411
Version:Oni
Source:
Tags:
BeatmapID:1542871
BeatmapSetID:730728

[Difficulty]
HPDrainRate:6
CircleSize:5
OverallDifficulty:5
ApproachRate:5
SliderMultiplier:1.4
SliderTickRate:1

[Events]
//Background and Video events
0,0,"sample-48a64971d143e927c06b5fca3b101fac.jpg",0,110
//Break Periods
//Storyboard Layer 0 (Background)
//Storyboard Layer 1 (Fail)
//Storyboard Layer 2 (Pass)
//Storyboard Layer 3 (Foreground)
//Storyboard Sound Samples

[TimingPoints]
153,263.157894736842,4,1,0,80,1,0
22243,263.157894736842,4,1,0,80,1,0
22243,-90.9090909090909,4,1,0,100,0,1
39085,263.157894736842,4,1,0,80,1,8
39095,263.157894736842,4,1,0,80,1,0
39095,-125,4,1,0,80,0,0
47516,-100,4,1,0,80,0,0
47768,263.157894736842,4,1,0,80,1,8
48557,263.157894736842,4,1,0,80,1,0
55925,263.157894736842,4,1,0,80,1,8
55928,263.157894736842,4,1,0,80,1,0
55928,-90.9090909090909,4,1,0,100,0,1
71718,-90.9090909090909,4,1,0,100,0,0

[HitObjects]
256,192,153,5,8,0:0:0:0:
256,192,416,1,8,0:0:0:0:
256,192,679,1,8,0:0:0:0:
256,192,942,1,8,0:0:0:0:
256,192,1205,1,4,0:0:0:0:
256,192,1731,1,8,0:0:0:0:
256,192,2126,1,0,0:0:0:0:
256,192,2258,1,0,0:0:0:0:
256,192,2521,1,0,0:0:0:0:
256,192,2784,1,8,0:0:0:0:
256,192,3047,1,0,0:0:0:0:
256,192,3179,1,0,0:0:0:0:
256,192,3310,1,8,0:0:0:0:
256,192,3574,1,0,0:0:0:0:
256,192,3837,1,8,0:0:0:0:
256,192,4100,1,8,0:0:0:0:
256,192,4363,1,0,0:0:0:0:
256,192,4626,1,8,0:0:0:0:
256,192,4758,1,0,0:0:0:0:
256,192,5021,1,0,0:0:0:0:
256,192,5152,1,8,0:0:0:0:
256,192,5416,1,0,0:0:0:0:
256,192,5679,1,8,0:0:0:0:
256,192,5810,1,0,0:0:0:0:
256,192,5942,1,0,0:0:0:0:
256,192,6205,1,8,0:0:0:0:
256,192,6468,1,0,0:0:0:0:
256,192,6731,1,8,0:0:0:0:
256,192,6863,1,8,0:0:0:0:
256,192,7126,1,0,0:0:0:0:
256,192,7258,1,8,0:0:0:0:
256,192,7521,1,0,0:0:0:0:
256,192,7784,1,8,0:0:0:0:
256,192,7916,1,8,0:0:0:0:
256,192,8047,1,0,0:0:0:0:
256,192,8310,1,8,0:0:0:0:
256,192,8574,1,0,0:0:0:0:
256,192,8837,1,8,0:0:0:0:
256,192,9231,1,0,0:0:0:0:
256,192,9363,1,8,0:0:0:0:
256,192,9626,1,0,0:0:0:0:
256,192,9889,1,8,0:0:0:0:
256,192,10152,1,0,0:0:0:0:
256,192,10284,1,0,0:0:0:0:
256,192,10416,1,8,0:0:0:0:
256,192,10679,1,0,0:0:0:0:
256,192,10942,1,8,0:0:0:0:
256,192,11074,1,0,0:0:0:0:
256,192,11337,1,0,0:0:0:0:
256,192,11468,1,8,0:0:0:0:
256,192,11731,1,0,0:0:0:0:
256,192,11863,1,0,0:0:0:0:
256,192,11995,1,8,0:0:0:0:
256,192,12126,1,8,0:0:0:0:
256,192,12258,1,0,0:0:0:0:
256,192,12521,1,8,0:0:0:0:
256,192,12784,1,0,0:0:0:0:
256,192,13047,1,8,0:0:0:0:
256,192,13179,1,0,0:0:0:0:
256,192,13442,1,0,0:0:0:0:
256,192,13574,1,8,0:0:0:0:
256,192,13837,1,0,0:0:0:0:
256,192,13968,1,0,0:0:0:0:
256,192,14100,1,8,0:0:0:0:
256,192,14231,1,0,0:0:0:0:
256,192,14363,1,8,0:0:0:0:
256,192,14626,1,8,0:0:0:0:
256,192,14889,1,0,0:0:0:0:
256,192,15152,1,8,0:0:0:0:
256,192,15284,1,8,0:0:0:0:
256,192,15547,1,0,0:0:0:0:
256,192,15679,1,8,0:0:0:0:
256,192,15942,1,0,0:0:0:0:
256,192,16205,1,8,0:0:0:0:
256,192,16337,1,8,0:0:0:0:
256,192,16468,1,0,0:0:0:0:
256,192,16731,1,8,0:0:0:0:
256,192,16995,1,0,0:0:0:0:
256,192,18047,1,4,0:0:0:0:
256,192,18310,1,0,0:0:0:0:
256,192,18442,1,8,0:0:0:0:
256,192,18574,1,0,0:0:0:0:
256,192,18705,1,0,0:0:0:0:
256,192,18837,1,8,0:0:0:0:
256,192,18968,1,0,0:0:0:0:
256,192,19034,1,0,0:0:0:0:
288,192,19100,1,0,0:0:0:0:
288,192,19231,1,8,0:0:0:0:
256,192,19363,1,0,0:0:0:0:
256,192,19495,1,0,0:0:0:0:
256,192,19626,1,8,0:0:0:0:
256,192,19889,1,8,0:0:0:0:
224,192,20152,1,0,0:0:0:0:
256,192,20284,1,0,0:0:0:0:
224,192,20416,1,8,0:0:0:0:
256,192,20679,1,0,0:0:0:0:
224,192,20810,1,0,0:0:0:0:
224,192,20942,1,8,0:0:0:0:
256,192,21205,1,0,0:0:0:0:
256,192,21337,1,0,0:0:0:0:
256,192,21468,1,8,0:0:0:0:
256,192,21600,1,8,0:0:0:0:
256,192,21666,1,8,0:0:0:0:
256,192,21731,1,0,0:0:0:0:
256,192,21863,1,0,0:0:0:0:
256,192,21995,1,8,0:0:0:0:
256,192,22243,1,4,0:0:0:0:
256,160,22506,1,8,0:0:0:0:
256,160,22637,1,8,0:0:0:0:
256,192,22769,1,0,0:0:0:0:
256,192,22900,1,0,0:0:0:0:
256,192,22966,1,0,0:0:0:0:
256,192,23032,1,0,0:0:0:0:
256,160,23164,1,8,0:0:0:0:
256,160,23295,1,0,0:0:0:0:
256,160,23361,1,0,0:0:0:0:
256,128,23427,1,8,0:0:0:0:
256,128,23558,1,0,0:0:0:0:
224,128,23690,1,0,0:0:0:0:
224,128,23821,1,8,0:0:0:0:
224,128,24085,1,0,0:0:0:0:
224,128,24216,1,0,0:0:0:0:
224,128,24348,1,8,0:0:0:0:
224,128,24479,1,8,0:0:0:0:
224,96,24545,1,8,0:0:0:0:
224,96,24611,1,0,0:0:0:0:
224,96,24743,1,0,0:0:0:0:
224,96,24874,1,8,0:0:0:0:
224,96,25137,1,8,0:0:0:0:
224,96,25269,1,0,0:0:0:0:
224,96,25400,1,0,0:0:0:0:
224,96,25664,1,8,0:0:0:0:
224,96,25795,1,0,0:0:0:0:
224,96,25861,1,0,0:0:0:0:
224,96,25927,1,0,0:0:0:0:
256,160,26058,1,8,0:0:0:0:
256,160,26190,1,8,0:0:0:0:
256,160,26453,1,0,0:0:0:0:
256,160,26585,1,8,0:0:0:0:
256,160,26716,1,8,0:0:0:0:
256,160,26848,1,0,0:0:0:0:
256,160,26914,1,0,0:0:0:0:
256,160,26979,1,8,0:0:0:0:
256,160,27111,1,0,0:0:0:0:
256,160,27243,1,8,0:0:0:0:
256,160,27506,1,0,0:0:0:0:
256,160,27769,1,8,0:0:0:0:
256,160,27900,1,0,0:0:0:0:
256,160,28032,1,0,0:0:0:0:
256,160,28164,1,8,0:0:0:0:
256,160,28229,1,8,0:0:0:0:
256,160,28295,1,0,0:0:0:0:
256,160,28427,1,8,0:0:0:0:
256,160,28558,1,0,0:0:0:0:
256,160,28624,1,0,0:0:0:0:
256,160,28690,1,0,0:0:0:0:
256,96,28821,1,8,0:0:0:0:
256,96,28953,1,8,0:0:0:0:
256,96,29085,1,0,0:0:0:0:
256,96,29348,1,8,0:0:0:0:
256,96,29611,1,0,0:0:0:0:
256,96,29742,1,8,0:0:0:0:
256,96,29808,1,8,0:0:0:0:
256,96,29874,1,8,0:0:0:0:
256,96,30006,1,8,0:0:0:0:
256,96,30137,1,0,0:0:0:0:
256,96,30269,1,0,0:0:0:0:
256,64,30335,1,0,0:0:0:0:
256,96,30400,1,8,0:0:0:0:
272,177,30532,1,8,0:0:0:0:
256,64,30664,1,0,0:0:0:0:
256,160,30927,1,8,0:0:0:0:
256,128,31058,1,8,0:0:0:0:
272,192,31190,1,0,0:0:0:0:
272,192,31321,1,0,0:0:0:0:
272,192,31387,1,0,0:0:0:0:
272,192,31453,1,8,0:0:0:0:
256,160,31585,1,8,0:0:0:0:
256,160,31716,1,0,0:0:0:0:
256,160,31782,1,0,0:0:0:0:
256,160,31848,1,0,0:0:0:0:
256,160,31979,1,8,0:0:0:0:
256,128,32111,1,0,0:0:0:0:
256,128,32242,1,8,0:0:0:0:
256,128,32506,1,8,0:0:0:0:
256,128,32637,1,8,0:0:0:0:
320,160,32769,1,0,0:0:0:0:
320,160,32900,1,0,0:0:0:0:
320,160,32966,1,0,0:0:0:0:
320,160,33032,1,8,0:0:0:0:
288,160,33164,1,8,0:0:0:0:
288,160,33295,1,0,0:0:0:0:
288,128,33427,1,0,0:0:0:0:
288,128,33558,1,8,0:0:0:0:
288,128,33821,1,0,0:0:0:0:
288,160,34085,1,8,0:0:0:0:
288,160,34216,1,8,0:0:0:0:
288,160,34282,1,8,0:0:0:0:
256,160,34348,1,0,0:0:0:0:
256,192,34479,1,0,0:0:0:0:
256,192,34611,1,0,0:0:0:0:
288,224,34743,1,8,0:0:0:0:
288,192,34874,1,0,0:0:0:0:
288,160,35006,1,0,0:0:0:0:
288,160,35071,1,0,0:0:0:0:
288,192,35137,1,8,0:0:0:0:
288,192,35269,1,0,0:0:0:0:
288,160,35400,1,8,0:0:0:0:
288,160,35532,1,0,0:0:0:0:
288,160,35664,1,8,0:0:0:0:
288,160,35927,1,0,0:0:0:0:
288,160,36190,1,8,0:0:0:0:
288,160,36321,1,8,0:0:0:0:
288,160,36387,1,0,0:0:0:0:
288,160,36453,1,0,0:0:0:0:
288,128,36585,1,0,0:0:0:0:
256,192,36716,1,8,0:0:0:0:
288,128,36979,1,0,0:0:0:0:
256,192,37242,1,8,0:0:0:0:
256,192,37374,1,0,0:0:0:0:
256,192,37506,1,8,0:0:0:0:
256,192,37637,1,0,0:0:0:0:
256,192,37703,1,8,0:0:0:0:
256,192,37769,1,0,0:0:0:0:
256,192,37900,1,8,0:0:0:0:
256,192,38032,1,0,0:0:0:0:
256,192,38164,1,8,0:0:0:0:
256,192,38229,1,8,0:0:0:0:
256,192,38295,1,8,0:0:0:0:
224,192,38427,1,8,0:0:0:0:
224,192,38558,1,0,0:0:0:0:
224,192,38821,1,8,0:0:0:0:
224,224,39095,1,0,0:0:0:0:
256,224,39358,1,8,0:0:0:0:
256,224,39489,1,0,0:0:0:0:
256,224,39752,1,0,0:0:0:0:
256,224,39884,1,8,0:0:0:0:
256,224,40147,1,0,0:0:0:0:
256,224,40410,1,8,0:0:0:0:
256,224,40542,1,0,0:0:0:0:
256,224,40805,1,8,0:0:0:0:
256,224,40937,1,8,0:0:0:0:
256,224,41200,1,0,0:0:0:0:
256,224,41463,1,8,0:0:0:0:
256,224,41595,1,0,0:0:0:0:
256,224,41858,1,0,0:0:0:0:
256,224,41989,1,8,0:0:0:0:
256,224,42252,1,0,0:0:0:0:
256,224,42516,1,8,0:0:0:0:
256,224,42647,1,8,0:0:0:0:
256,224,42910,1,0,0:0:0:0:
256,224,43042,1,8,0:0:0:0:
256,224,43305,1,0,0:0:0:0:
256,224,43437,1,8,0:0:0:0:
256,224,43700,1,8,0:0:0:0:
256,224,43831,1,0,0:0:0:0:
256,224,43963,1,0,0:0:0:0:
256,224,44095,1,8,0:0:0:0:
256,224,44358,1,0,0:0:0:0:
256,160,44489,1,8,0:0:0:0:
288,224,44752,1,8,0:0:0:0:
288,224,44884,1,0,0:0:0:0:
288,224,45147,1,8,0:0:0:0:
288,224,45410,1,0,0:0:0:0:
256,224,45542,1,0,0:0:0:0:
256,224,45673,1,8,0:0:0:0:
256,224,45805,1,0,0:0:0:0:
256,224,46068,1,0,0:0:0:0:
256,224,46200,1,8,0:0:0:0:
256,192,46331,1,8,0:0:0:0:
256,224,46463,1,4,0:0:0:0:
256,224,47516,1,4,0:0:0:0:
256,224,47768,1,8,0:0:0:0:
256,224,47899,1,0,0:0:0:0:
256,224,48031,1,0,0:0:0:0:
256,224,48162,1,0,0:0:0:0:
256,224,48294,1,8,0:0:0:0:
256,224,48557,1,4,0:0:0:0:
256,224,48820,1,8,0:0:0:0:
256,224,48951,1,0,0:0:0:0:
256,224,49214,1,0,0:0:0:0:
256,224,49346,1,8,0:0:0:0:
256,224,49609,1,0,0:0:0:0:
256,224,49872,1,8,0:0:0:0:
256,192,50004,1,8,0:0:0:0:
256,224,50135,1,0,0:0:0:0:
256,192,50267,1,0,0:0:0:0:
256,192,50399,1,8,0:0:0:0:
256,192,50662,1,4,0:0:0:0:
256,192,50925,1,8,0:0:0:0:
256,192,51057,1,0,0:0:0:0:
256,192,51320,1,0,0:0:0:0:
256,192,51451,1,8,0:0:0:0:
256,192,51714,1,0,0:0:0:0:
256,192,51846,1,8,0:0:0:0:
256,160,51912,1,0,0:0:0:0:
256,160,51978,1,0,0:0:0:0:
256,192,52109,1,0,0:0:0:0:
256,192,52241,1,8,0:0:0:0:
256,160,52504,1,0,0:0:0:0:
256,160,52635,1,8,0:0:0:0:
256,160,52767,1,0,0:0:0:0:
256,160,52833,1,0,0:0:0:0:
256,160,52899,1,8,0:0:0:0:
256,128,53030,1,0,0:0:0:0:
256,128,53162,1,0,0:0:0:0:
256,128,53293,1,8,0:0:0:0:
256,128,53557,1,8,0:0:0:0:
256,128,53688,1,8,0:0:0:0:
256,128,53754,1,8,0:0:0:0:
256,128,53820,1,0,0:0:0:0:
256,128,53951,1,8,0:0:0:0:
256,128,54214,1,0,0:0:0:0:
256,128,54346,1,8,0:0:0:0:
256,128,54478,1,8,0:0:0:0:
256,128,54609,1,0,0:0:0:0:
256,128,54741,1,0,0:0:0:0:
256,128,54872,1,8,0:0:0:0:
256,128,54938,1,8,0:0:0:0:
256,128,55004,1,8,0:0:0:0:
256,128,55070,1,8,0:0:0:0:
256,128,55135,1,0,0:0:0:0:
256,128,55267,1,0,0:0:0:0:
256,128,55399,1,8,0:0:0:0:
256,128,55530,1,0,0:0:0:0:
256,128,55596,1,0,0:0:0:0:
256,128,55662,1,8,0:0:0:0:
256,96,55928,1,4,0:0:0:0:
256,192,56191,1,8,0:0:0:0:
256,192,56322,1,0,0:0:0:0:
256,192,56454,1,0,0:0:0:0:
256,192,56585,1,8,0:0:0:0:
256,192,56717,1,0,0:0:0:0:
256,192,56849,1,0,0:0:0:0:
256,192,56914,1,0,0:0:0:0:
256,192,56980,1,8,0:0:0:0:
256,192,57112,1,8,0:0:0:0:
256,192,57243,1,0,0:0:0:0:
256,192,57309,1,0,0:0:0:0:
256,192,57375,1,0,0:0:0:0:
256,192,57506,1,8,0:0:0:0:
256,192,57770,1,0,0:0:0:0:
256,192,57901,1,0,0:0:0:0:
256,192,58033,1,8,0:0:0:0:
256,192,58164,1,8,0:0:0:0:
256,192,58230,1,8,0:0:0:0:
256,192,58296,1,0,0:0:0:0:
256,192,58428,1,0,0:0:0:0:
256,192,58559,1,8,0:0:0:0:
256,192,58822,1,8,0:0:0:0:
256,192,58954,1,8,0:0:0:0:
256,192,59085,1,0,0:0:0:0:
256,160,59349,1,8,0:0:0:0:
224,224,59480,1,0,0:0:0:0:
224,224,59612,1,0,0:0:0:0:
224,224,59743,1,0,0:0:0:0:
224,224,59809,1,0,0:0:0:0:
224,224,59875,1,8,0:0:0:0:
192,224,60006,1,0,0:0:0:0:
192,224,60138,1,8,0:0:0:0:
224,224,60401,1,8,0:0:0:0:
224,224,60533,1,0,0:0:0:0:
224,224,60664,1,8,0:0:0:0:
224,224,60796,1,0,0:0:0:0:
224,224,60862,1,0,0:0:0:0:
224,224,60928,1,8,0:0:0:0:
224,224,61059,1,8,0:0:0:0:
224,224,61191,1,0,0:0:0:0:
256,224,61454,1,8,0:0:0:0:
256,256,61585,1,0,0:0:0:0:
256,256,61651,1,0,0:0:0:0:
256,224,61717,1,0,0:0:0:0:
256,224,61849,1,0,0:0:0:0:
256,224,61914,1,0,0:0:0:0:
256,224,61980,1,8,0:0:0:0:
256,224,62112,1,8,0:0:0:0:
256,224,62243,1,0,0:0:0:0:
256,256,62506,1,8,0:0:0:0:
256,256,62638,1,0,0:0:0:0:
256,256,62770,1,8,0:0:0:0:
256,224,62901,1,0,0:0:0:0:
256,224,62967,1,8,0:0:0:0:
256,224,63033,1,8,0:0:0:0:
256,224,63164,1,8,0:0:0:0:
256,224,63296,1,0,0:0:0:0:
256,224,63362,1,0,0:0:0:0:
256,224,63428,1,0,0:0:0:0:
256,224,63493,1,0,0:0:0:0:
256,224,63559,1,8,0:0:0:0:
256,224,63691,1,8,0:0:0:0:
256,224,63822,1,0,0:0:0:0:
256,192,63954,1,8,0:0:0:0:
256,192,64085,1,8,0:0:0:0:
256,192,64349,1,4,0:0:0:0:
256,192,64612,1,8,0:0:0:0:
256,192,64743,1,0,0:0:0:0:
256,192,64875,1,0,0:0:0:0:
256,192,64941,1,0,0:0:0:0:
256,192,65006,1,0,0:0:0:0:
256,192,65138,1,8,0:0:0:0:
256,192,65270,1,0,0:0:0:0:
256,192,65335,1,0,0:0:0:0:
256,192,65401,1,8,0:0:0:0:
256,192,65533,1,8,0:0:0:0:
256,192,65664,1,8,0:0:0:0:
256,192,65796,1,0,0:0:0:0:
256,192,65928,1,8,0:0:0:0:
256,192,66191,1,0,0:0:0:0:
256,192,66322,1,0,0:0:0:0:
256,192,66454,1,8,0:0:0:0:
256,192,66585,1,8,0:0:0:0:
256,192,66717,1,0,0:0:0:0:
256,192,66849,1,0,0:0:0:0:
256,192,66914,1,0,0:0:0:0:
256,192,66980,1,8,0:0:0:0:
256,192,67112,1,8,0:0:0:0:
256,192,67178,1,8,0:0:0:0:
256,192,67243,1,8,0:0:0:0:
256,192,67375,1,0,0:0:0:0:
256,192,67506,1,8,0:0:0:0:
256,192,67770,1,0,0:0:0:0:
256,192,67901,1,8,0:0:0:0:
256,192,68033,1,0,0:0:0:0:
288,192,68164,1,0,0:0:0:0:
256,192,68230,1,8,0:0:0:0:
288,192,68296,1,8,0:0:0:0:
256,192,68428,1,8,0:0:0:0:
256,192,68559,1,0,0:0:0:0:
256,160,68691,1,0,0:0:0:0:
256,160,68756,1,0,0:0:0:0:
256,160,68822,1,8,0:0:0:0:
256,160,68954,1,8,0:0:0:0:
256,192,69085,1,0,0:0:0:0:
256,192,69151,1,0,0:0:0:0:
256,160,69217,1,0,0:0:0:0:
256,160,69349,1,8,0:0:0:0:
224,192,69612,1,0,0:0:0:0:
224,192,69743,1,8,0:0:0:0:
224,192,69875,1,8,0:0:0:0:
224,192,70006,1,8,0:0:0:0:
224,192,70072,1,0,0:0:0:0:
224,192,70138,1,0,0:0:0:0:
224,192,70270,1,0,0:0:0:0:
224,192,70401,1,8,0:0:0:0:
224,160,70533,1,0,0:0:0:0:
224,160,70664,1,8,0:0:0:0:
224,160,70730,1,8,0:0:0:0:
224,160,70796,1,8,0:0:0:0:
224,160,70928,1,8,0:0:0:0:
224,160,71059,1,8,0:0:0:0:
224,160,71125,1,8,0:0:0:0:
224,160,71191,1,0,0:0:0:0:
224,160,71322,1,0,0:0:0:0:
224,160,71454,1,0,0:0:0:0:
224,160,71585,1,0,0:0:0:0:
224,160,71717,1,12,0:0:0:0:
