osu file format v14

[General]
AudioFilename: audio.mp3
AudioLeadIn: 0
PreviewTime: 178515
Countdown: 0
SampleSet: Soft
StackLeniency: 0.4
Mode: 0
LetterboxInBreaks: 0
WidescreenStoryboard: 0

[Editor]
Bookmarks: 113905
DistanceSpacing: 1
BeatDivisor: 4
GridSize: 8
TimelineZoom: 1.8

[Metadata]
Title:GONG
TitleUnicode:GONG
Artist:WANIMA
ArtistUnicode:WANIMA
Creator:Smoke
Version:STAMPEDE
Source:ONE PIECE STAMPEDE
Tags:full ver version japanese anime j-rock jrock rock film movie 14 2019 luffy zoro sanji nami usopp chopper robin franky brook Summer Trap!! trap kenta ワンピーススタンピード
BeatmapID:2297302
BeatmapSetID:1099681

[Difficulty]
HPDrainRate:6
CircleSize:4
OverallDifficulty:9.3
ApproachRate:9.4
SliderMultiplier:1.8
SliderTickRate:1

[Events]
//Background and Video events
0,0,"bg.jpg",0,0
//Break Periods
2,1638,10585
//Storyboard Layer 0 (Background)
//Storyboard Layer 1 (Fail)
//Storyboard Layer 2 (Pass)
//Storyboard Layer 3 (Foreground)
//Storyboard Layer 4 (Overlay)
//Storyboard Sound Samples

[TimingPoints]
208,307.692307692308,4,2,1,70,1,0
208,-125,4,2,1,70,0,0
1438,-142.857142857143,4,2,1,70,0,0
11284,-100,4,2,1,70,0,0
18668,-100,4,2,1,70,0,0
18900,-100,4,2,1,5,0,0
18976,-100,4,2,1,60,0,0
19899,-100,4,2,1,80,0,0
21131,-166.666666666667,4,2,1,55,0,0
23592,-100,4,2,1,80,0,1
25976,-100,4,2,1,5,0,1
26053,-100,4,2,1,80,0,1
30899,-100,4,2,1,5,0,1
30976,-100,4,2,1,80,0,1
33361,-100,4,2,1,5,0,1
33438,-100,4,2,1,80,0,1
35822,-100,4,2,1,5,0,1
35899,-100,4,2,1,80,0,1
37053,-100,4,2,1,5,0,1
37130,-100,4,2,1,80,0,1
38284,-100,4,2,1,5,0,1
38361,-100,4,2,1,80,0,1
45668,-100,4,2,1,5,0,1
45745,-100,4,2,1,80,0,1
50591,-100,4,2,1,5,0,1
50668,-100,4,2,1,80,0,1
53053,-100,4,2,1,5,0,1
53130,-100,4,2,1,80,0,1
56745,-100,4,2,1,5,0,1
56822,-100,4,2,1,80,0,1
57976,-100,4,2,1,5,0,1
58053,-100,4,2,1,80,0,1
60745,-100,4,2,1,5,0,1
60822,-100,4,2,1,80,0,1
61361,-100,4,2,1,5,0,1
61438,-100,4,2,1,80,0,1
62208,-166.666666666667,4,2,1,80,0,0
62976,-111.111111111111,4,2,1,70,0,0
64745,-111.111111111111,4,2,1,5,0,0
64822,-111.111111111111,4,2,1,70,0,0
70361,-117.647058823529,4,2,1,70,0,0
72822,-111.111111111111,4,2,1,70,0,0
80130,-111.111111111111,4,2,1,5,0,0
80207,-111.111111111111,4,2,1,75,0,0
81438,-125,4,2,1,75,0,0
82668,-100,4,2,1,75,0,0
82900,-100,4,2,1,5,0,0
82977,-100,4,2,1,75,0,0
85130,-166.666666666667,4,2,1,70,0,0
86822,-166.666666666667,4,2,1,60,0,0
87592,-90.9090909090909,4,2,1,80,0,1
88745,-90.9090909090909,4,2,1,5,0,1
88822,-90.9090909090909,4,2,1,80,0,1
96130,-90.9090909090909,4,2,1,5,0,1
96207,-90.9090909090909,4,2,1,80,0,1
96438,-90.9090909090909,4,2,1,5,0,1
96515,-90.9090909090909,4,2,1,80,0,1
97361,-90.9090909090909,4,2,1,5,0,1
97438,-90.9090909090909,4,2,1,80,0,1
102284,-90.9090909090909,4,2,1,5,0,1
102361,-90.9090909090909,4,2,1,80,0,1
108438,-90.9090909090909,4,2,1,5,0,1
108515,-90.9090909090909,4,2,1,80,0,1
117053,-90.9090909090909,4,2,1,5,0,1
117130,-90.9090909090909,4,2,1,80,0,1
122284,-90.9090909090909,4,2,1,5,0,1
122361,-90.9090909090909,4,2,1,80,0,1
125746,-166.666666666667,4,2,1,80,0,0
126976,-100,4,2,1,75,0,0
127207,-100,4,2,1,5,0,0
127284,-100,4,2,1,75,0,0
128822,-250.000000000001,4,2,1,70,0,0
129438,-100,4,2,1,70,0,0
139284,-111.111111111111,4,2,1,65,0,0
142899,-111.111111111111,4,2,1,5,0,0
142976,-111.111111111111,4,2,1,65,0,0
145361,-111.111111111111,4,2,1,5,0,0
145438,-111.111111111111,4,2,1,65,0,0
146591,-111.111111111111,4,2,1,5,0,0
146668,-111.111111111111,4,2,1,65,0,0
150284,-111.111111111111,4,2,1,5,0,0
150361,-111.111111111111,4,2,1,65,0,0
151514,-111.111111111111,4,2,1,5,0,0
151591,-111.111111111111,4,2,1,65,0,0
152745,-111.111111111111,4,2,1,5,0,0
152822,-111.111111111111,4,2,1,65,0,0
155207,-111.111111111111,4,2,1,5,0,0
155284,-111.111111111111,4,2,1,65,0,0
158976,-117.647058823529,4,2,1,70,0,0
163899,-105.263157894737,4,2,1,75,0,0
166284,-105.263157894737,4,2,1,5,0,0
166361,-100,4,2,1,80,0,0
167591,-166.666666666667,4,2,1,80,0,0
168822,-100,4,2,1,70,0,0
169054,-100,4,2,1,5,0,0
169131,-100,4,2,1,70,0,0
173745,-111.111111111111,4,2,1,60,0,0
174361,-105.263157894737,4,2,1,65,0,0
174976,-100,4,2,1,70,0,0
175591,-90.9090909090909,4,2,1,75,0,0
176207,-83.3333333333333,4,2,1,80,0,0
178668,-142.857142857143,4,2,1,60,0,0
178899,-142.857142857143,4,2,1,5,0,0
178976,-142.857142857143,4,2,1,60,0,0
182361,-100,4,2,1,75,0,0
183591,-142.857142857143,4,2,1,60,0,0
183822,-142.857142857143,4,2,1,5,0,0
183899,-142.857142857143,4,2,1,60,0,0
185438,-100,4,2,1,75,0,0
187207,-100,4,2,1,5,0,0
187284,-100,4,2,1,75,0,0
188514,-142.857142857143,4,2,1,60,0,0
188745,-142.857142857143,4,2,1,5,0,0
188822,-142.857142857143,4,2,1,60,0,0
193438,-125,4,2,1,60,0,0
193668,-125,4,2,1,5,0,0
193745,-125,4,2,1,60,0,0
194668,-105.263157894737,4,2,1,70,0,0
195899,-90.9090909090909,4,2,1,80,0,0
198361,-83.3333333333333,4,2,1,80,0,1
199514,-83.3333333333333,4,2,1,5,0,1
199591,-83.3333333333333,4,2,1,80,0,1
206976,-74.0740740740741,4,2,1,85,0,1
207899,-64.5161290322581,4,2,1,80,0,1
208130,-68.9655172413793,4,2,1,5,0,1
208207,-83.3333333333333,4,2,1,80,0,1
208438,-83.3333333333333,4,2,1,5,0,1
208514,-83.3333333333333,4,2,1,80,0,1
213361,-83.3333333333333,4,2,1,5,0,1
213437,-83.3333333333333,4,2,1,80,0,1
216822,-80,4,2,1,85,0,1
217053,-80,4,2,1,5,0,1
217129,-80,4,2,1,85,0,1
220515,-125,4,2,1,70,0,0
221745,-1000,4,2,1,70,0,0
221822,-1000,4,2,1,5,0,0
223899,-166.666666666667,4,2,1,65,0,0
224207,-100,4,2,1,70,0,0
224668,-90.9090909090909,4,2,1,75,0,0
225130,-83.3333333333333,4,2,1,80,0,0
225438,-166.666666666667,4,2,1,55,0,0
226669,-125,4,2,1,85,0,1
226976,-55.5555555555556,4,2,1,85,0,1
227284,-83.3333333333333,4,2,1,85,0,1
229130,-166.666666666667,4,2,1,85,0,1
229437,-55.5555555555556,4,2,1,85,0,1
229745,-83.3333333333333,4,2,1,85,0,1
231591,-166.666666666667,4,2,1,85,0,1
231898,-55.5555555555556,4,2,1,85,0,1
232206,-83.3333333333333,4,2,1,85,0,1
232822,-166.666666666667,4,2,1,85,0,1
233129,-55.5555555555556,4,2,1,85,0,1
233437,-83.3333333333333,4,2,1,85,0,1
235207,-83.3333333333333,4,2,1,85,0,1
235284,-83.3333333333333,4,2,1,85,0,1
236514,-166.666666666667,4,2,1,85,0,1
236821,-55.5555555555556,4,2,1,85,0,1
237129,-83.3333333333333,4,2,1,85,0,1
238976,-166.666666666667,4,2,1,85,0,1
239283,-55.5555555555556,4,2,1,85,0,1
239591,-83.3333333333333,4,2,1,85,0,1
241437,-166.666666666667,4,2,1,85,0,1
241744,-55.5555555555556,4,2,1,85,0,1
242052,-83.3333333333333,4,2,1,85,0,1
242668,-166.666666666667,4,2,1,85,0,1
242975,-55.5555555555556,4,2,1,85,0,1
243283,-83.3333333333333,4,2,1,85,0,1
244130,-83.3333333333333,4,2,1,5,0,1
244207,-83.3333333333333,4,2,1,85,0,1
246361,-90.9090909090909,4,2,1,70,0,0
253745,-90.9090909090909,4,2,1,70,0,0
253976,-90.9090909090909,4,2,1,5,0,0
254053,-90.9090909090909,4,2,1,65,0,0
254976,-100,4,2,1,80,0,0
256207,-166.666666666667,4,2,1,55,0,0
257921,307.692307692308,4,2,1,70,1,0
257921,-166.666666666667,4,2,1,70,0,0
258074,-357.142857142857,4,2,1,70,0,0
258536,-357.142857142857,4,2,1,70,0,0
259151,-357.142857142857,4,2,1,65,0,0
259767,-357.142857142857,4,2,1,60,0,0
260382,-357.142857142857,4,2,1,55,0,0
260997,-357.142857142857,4,2,1,50,0,0
262228,-357.142857142857,4,2,1,40,0,0
262844,-357.142857142857,4,2,1,35,0,0
263459,-357.142857142857,4,2,1,30,0,0
264074,-357.142857142857,4,2,1,25,0,0
264690,-357.142857142857,4,2,1,20,0,0
265305,-357.142857142857,4,2,1,15,0,0
265921,-357.142857142857,4,2,1,10,0,0
266536,-357.142857142857,4,2,1,5,0,0

[Colours]
Combo1 : 255,205,53
Combo2 : 12,190,16
Combo3 : 87,160,242
Combo4 : 243,82,86

[HitObjects]
168,371,208,5,4,0:0:0:0:
144,282,515,1,4,0:0:0:0:
120,193,823,1,4,0:0:0:0:
97,104,1131,1,4,0:0:0:0:
337,290,1438,5,8,3:2:0:0:
53,81,11284,6,0,B|111:75|144:128|123:122|146:165|200:169,1,180,6|10,3:2|3:2,0:0:0:0:
369,18,11746,2,0,P|324:13|280:50,1,90,2|0,0:0|3:2,0:0:0:0:
464,163,12054,1,2,3:2:0:0:
335,248,12208,1,10,3:2:0:0:
488,352,12361,6,0,B|452:163,1,180,6|0,3:2|3:2,0:0:0:0:
321,347,12823,2,0,L|333:254,1,90,8|2,3:2|0:0,0:0:0:0:
147,209,13131,1,10,3:2:0:0:
144,253,13208,1,8,3:2:0:0:
177,281,13284,1,10,3:2:0:0:
221,270,13361,1,8,3:2:0:0:
234,227,13438,1,8,3:2:0:0:
234,227,13746,6,0,P|244:177|261:122,1,90,6|0,3:2|0:0,0:0:0:0:
24,259,14054,1,10,3:2:0:0:
47,71,14208,2,0,P|59:114|67:158,1,90,2|8,0:0|3:2,0:0:0:0:
175,311,14515,1,2,3:2:0:0:
339,224,14669,1,2,0:0:0:0:
485,312,14823,6,0,B|431:308|408:265|429:271|396:218|338:224,1,180,6|2,3:2|3:2,0:0:0:0:
246,254,15284,1,14,3:2:0:0:
343,16,15438,1,2,3:2:0:0:
254,55,15592,1,12,3:2:0:0:
395,287,15746,1,2,3:2:0:0:
353,373,15900,1,12,3:2:0:0:
353,373,16054,1,12,3:2:0:0:
512,212,16208,6,0,P|501:174|478:114,1,90,6|0,3:2|0:0,0:0:0:0:
463,91,16438,1,0,3:2:0:0:
463,91,16515,1,10,3:2:0:0:
286,176,16669,2,0,P|265:218|247:265,1,90,2|0,3:2|3:2,0:0:0:0:
181,88,16977,1,2,3:2:0:0:
385,166,17131,1,10,3:2:0:0:
242,344,17284,6,0,B|188:338|161:296|182:298|156:252|96:251,1,180,2|2,3:2|3:2,0:0:0:0:
42,333,17746,1,10,3:2:0:0:
216,210,17900,1,2,3:2:0:0:
365,296,18054,1,2,0:0:0:0:
319,202,18208,1,2,3:2:0:0:
483,84,18361,2,0,P|465:128|450:171,1,90,8|0,3:2|3:2,0:0:0:0:
231,0,18669,6,0,P|258:103|271:162,1,135,14|0,3:2|0:0,0:0:0:0:
216,210,18977,5,2,3:2:0:0:
353,165,19131,1,0,3:2:0:0:
203,215,19284,5,2,3:2:0:0:
377,276,19438,1,0,3:2:0:0:
189,219,19592,5,2,3:2:0:0:
315,367,19746,1,0,3:2:0:0:
38,384,19900,5,8,3:2:0:0:
111,264,20054,1,8,3:2:0:0:
0,57,20208,1,8,3:2:0:0:
116,169,20361,1,8,3:2:0:0:
353,22,20515,5,8,3:2:0:0:
141,71,20669,1,8,3:2:0:0:
300,222,20823,1,8,3:2:0:0:
512,180,20977,1,8,3:2:0:0:
448,96,21131,6,0,L|460:35,2,53.9999983520508,2|0|0,0:0|0:0|0:0,0:0:0:0:
367,151,21592,1,2,0:0:0:0:
362,160,21900,1,0,0:0:0:0:
379,245,22054,1,0,0:0:0:0:
396,330,22207,1,2,0:0:0:0:
137,19,23592,6,0,P|162:121|181:210,1,180,4|8,3:3|3:2,0:0:0:0:
126,279,24054,1,2,0:0:0:0:
291,373,24208,1,2,3:2:0:0:
353,242,24361,1,2,3:2:0:0:
186,364,24515,1,10,3:2:0:0:
269,178,24669,1,2,0:0:0:0:
456,335,24823,6,0,B|401:315|356:343|384:359|342:385|289:372,1,180,2|8,3:2|3:2,0:0:0:0:
236,287,25284,1,2,0:0:0:0:
361,101,25438,1,2,3:2:0:0:
260,41,25592,1,2,3:2:0:0:
353,242,25746,2,0,P|394:205|492:225,1,135,10|0,3:2|0:0,0:0:0:0:
433,298,26054,5,2,3:2:0:0:
433,298,26208,1,2,3:2:0:0:
273,203,26361,5,8,3:2:0:0:
273,203,26515,1,2,0:0:0:0:
72,375,26669,5,2,3:2:0:0:
146,261,26823,1,2,3:2:0:0:
0,113,26977,5,8,3:2:0:0:
49,232,27131,1,2,0:0:0:0:
208,87,27284,6,0,P|256:99|311:108,1,90,2|2,3:2|3:2,0:0:0:0:
256,327,27592,2,0,P|212:315|168:307,1,90,8|2,3:2|0:0,0:0:0:0:
341,233,27900,1,2,3:2:0:0:
124,186,28054,1,2,3:2:0:0:
256,327,28208,1,10,3:2:0:0:
430,196,28361,1,2,0:0:0:0:
504,275,28515,6,0,B|450:281|423:323|444:321|418:367|359:367,1,180,6|8,3:2|3:2,0:0:0:0:
323,233,28977,1,2,0:0:0:0:
512,362,29131,1,2,3:2:0:0:
411,194,29284,1,2,3:2:0:0:
262,297,29438,1,10,3:2:0:0:
165,234,29592,1,2,0:0:0:0:
0,264,29746,6,0,P|24:181|48:79,1,180,2|8,3:2|3:2,0:0:0:0:
263,57,30208,1,2,0:0:0:0:
95,5,30361,1,2,3:2:0:0:
251,150,30515,1,0,3:2:0:0:
377,92,30669,2,0,P|446:82|512:152,1,135,10|0,3:2|0:0,0:0:0:0:
499,196,30977,5,2,3:2:0:0:
453,295,31131,1,2,3:2:0:0:
202,213,31284,5,10,3:2:0:0:
262,307,31438,1,2,0:0:0:0:
394,237,31592,5,2,3:2:0:0:
348,336,31746,1,2,3:2:0:0:
97,254,31900,5,10,3:2:0:0:
157,348,32054,1,2,0:0:0:0:
298,210,32208,6,0,P|289:168|272:111,1,90,2|2,3:2|3:2,0:0:0:0:
106,49,32515,1,8,3:2:0:0:
216,0,32669,1,8,3:2:0:0:
216,0,32746,1,8,3:2:0:0:
216,0,32823,1,2,3:2:0:0:
385,89,32977,1,0,3:2:0:0:
502,50,33131,2,0,P|445:44|378:109,1,135,12|0,3:2|0:0,0:0:0:0:
308,123,33438,6,0,P|225:97|125:74,1,180,6|10,3:2|3:2,0:0:0:0:
9,232,33900,1,0,0:0:0:0:
195,186,34054,1,2,3:2:0:0:
123,275,34208,1,0,3:2:0:0:
221,384,34361,6,0,P|260:373|316:360,1,90,10|0,3:2|0:0,0:0:0:0:
456,371,34669,1,0,3:2:0:0:
390,254,34823,1,0,3:2:0:0:
512,102,34977,2,0,P|467:93|413:81,1,90,10|0,3:2|0:0,0:0:0:0:
286,152,35284,1,2,3:2:0:0:
182,89,35438,1,0,3:2:0:0:
0,205,35592,6,0,B|33:207|60:171|41:170|67:132|107:134,1,135,10|0,3:2|0:0,0:0:0:0:
182,89,35900,1,2,3:2:0:0:
286,152,36054,1,0,3:2:0:0:
424,83,36208,2,0,P|406:131|392:182,1,90,10|0,3:2|0:0,0:0:0:0:
334,376,36515,1,2,3:2:0:0:
489,291,36669,1,0,3:2:0:0:
286,152,36823,2,0,B|240:165|240:165|214:199|214:199|170:211,1,135,10|0,3:2|0:0,0:0:0:0:
94,175,37131,5,0,3:2:0:0:
94,175,37284,1,0,3:2:0:0:
266,55,37438,2,0,L|360:79,1,90,8|0,3:2|0:0,0:0:0:0:
512,44,37746,1,0,3:2:0:0:
388,159,37900,1,0,3:2:0:0:
183,0,38054,2,0,L|41:29,1,135,8|0,3:2|0:0,0:0:0:0:
0,115,38361,6,0,B|68:133|68:133|93:170|93:170|161:191,1,180,4|10,3:2|3:2,0:0:0:0:
386,104,38823,1,2,0:0:0:0:
248,210,38977,1,2,3:2:0:0:
158,85,39131,1,0,3:2:0:0:
380,222,39284,1,8,3:2:0:0:
194,374,39438,2,0,P|150:363|106:353,1,90,2|0,0:0|3:2,0:0:0:0:
390,231,39746,2,0,P|433:220|477:210,1,90,2|8,3:2|3:2,0:0:0:0:
224,16,40054,2,0,B|170:22|143:64|164:62|138:108|79:108,1,180,2|0,0:0|3:2,0:0:0:0:
9,38,40515,1,10,3:2:0:0:
177,168,40669,1,2,0:0:0:0:
416,48,40823,6,0,P|467:60|523:79,1,90,2|0,3:2|3:2,0:0:0:0:
224,16,41131,1,10,3:2:0:0:
376,158,41284,1,2,0:0:0:0:
180,339,41438,2,0,B|120:322|120:322|91:280|91:280|20:261,1,180,6|12,3:2|3:2,0:0:0:0:
269,227,41900,2,0,L|169:242,1,90,12|0,3:2|3:2,0:0:0:0:
343,384,42208,1,8,3:2:0:0:
343,384,42284,1,8,3:2:0:0:
343,384,42361,1,8,3:2:0:0:
487,157,42515,5,10,3:2:0:0:
487,157,42592,1,8,3:2:0:0:
487,157,42669,1,10,3:2:0:0:
269,227,42823,1,10,3:2:0:0:
99,68,42977,1,10,3:2:0:0:
313,7,43131,1,10,3:2:0:0:
121,224,43284,6,0,B|175:230|202:272|181:270|211:318|265:318,1,180,4|8,3:3|3:2,0:0:0:0:
72,327,43746,1,2,0:0:0:0:
162,138,43900,1,2,3:2:0:0:
55,6,44054,1,2,3:2:0:0:
257,93,44208,1,10,3:2:0:0:
353,48,44361,1,2,0:0:0:0:
511,118,44515,6,0,B|452:102|452:102|424:65|424:65|335:44,1,180,2|8,3:2|3:2,0:0:0:0:
360,273,44977,1,2,0:0:0:0:
507,244,45131,1,2,3:2:0:0:
408,384,45284,1,0,3:2:0:0:
197,285,45438,2,0,L|231:129,1,135,10|0,3:2|0:0,0:0:0:0:
255,18,45746,5,2,3:2:0:0:
301,117,45900,1,2,3:2:0:0:
474,79,46054,5,10,3:2:0:0:
428,178,46208,1,2,0:0:0:0:
225,153,46361,5,2,3:2:0:0:
271,252,46515,1,2,3:2:0:0:
76,323,46669,5,10,3:2:0:0:
122,224,46823,1,2,0:0:0:0:
0,48,46977,6,0,B|54:54|81:96|60:94|90:142|144:142,1,180,2|10,3:2|3:2,0:0:0:0:
311,29,47438,1,2,0:0:0:0:
311,29,47515,1,2,0:0:0:0:
311,29,47592,1,2,3:2:0:0:
149,60,47746,1,2,3:2:0:0:
218,263,47900,1,10,3:2:0:0:
334,234,48054,1,2,0:0:0:0:
488,310,48208,6,0,B|426:293|426:293|396:250|396:250|330:233,1,180,6|8,3:2|3:2,0:0:0:0:
175,380,48669,1,2,0:0:0:0:
347,328,48823,1,2,3:2:0:0:
347,328,48977,1,2,3:2:0:0:
162,186,49131,1,10,3:2:0:0:
239,313,49284,1,2,0:0:0:0:
0,371,49438,6,0,P|22:291|47:191,1,180,2|8,3:2|3:2,0:0:0:0:
130,45,49900,1,2,0:0:0:0:
4,88,50054,1,2,3:2:0:0:
226,205,50208,1,0,3:2:0:0:
346,180,50361,2,0,P|286:168|216:225,1,135,10|0,3:2|0:0,0:0:0:0:
178,276,50669,5,2,3:2:0:0:
224,375,50823,1,2,3:2:0:0:
463,262,50977,5,10,3:2:0:0:
403,356,51131,1,2,0:0:0:0:
306,294,51284,5,2,3:2:0:0:
366,200,51438,1,2,3:2:0:0:
166,111,51592,5,10,3:2:0:0:
226,205,51746,1,2,0:0:0:0:
429,103,51900,6,0,P|417:62|395:11,1,90,2|2,3:2|3:2,0:0:0:0:
166,111,52208,1,10,3:2:0:0:
234,212,52361,1,8,3:2:0:0:
234,212,52438,1,8,3:2:0:0:
234,212,52515,1,2,3:2:0:0:
161,360,52669,1,0,3:2:0:0:
268,300,52823,2,0,P|205:307|160:367,1,135,12|0,3:2|0:0,0:0:0:0:
243,384,53131,6,0,P|233:296|216:192,1,180,6|10,3:2|3:2,0:0:0:0:
59,93,53592,1,0,0:0:0:0:
174,8,53746,2,0,P|158:55|147:95,1,90,2|0,3:2|3:2,0:0:0:0:
103,265,54054,1,10,3:2:0:0:
314,145,54208,6,0,B|373:145|399:191|378:189|405:231|459:237,1,180,2|0,0:0|3:2,0:0:0:0:
334,48,54669,2,0,P|287:50|232:89,1,90,10|0,3:2|0:0,0:0:0:0:
125,123,54977,1,2,3:2:0:0:
2,61,55131,1,0,3:2:0:0:
71,299,55284,2,0,P|83:255|97:213,1,90,10|2,3:2|0:0,0:0:0:0:
2,61,55592,5,2,3:2:0:0:
125,123,55746,1,0,3:2:0:0:
334,48,55900,2,0,L|443:73,1,90,10|0,3:2|0:0,0:0:0:0:
196,19,56208,1,2,3:2:0:0:
308,160,56361,1,0,3:2:0:0:
185,357,56515,2,0,B|139:344|139:344|113:310|113:310|69:298,1,135,10|0,3:2|0:0,0:0:0:0:
31,221,56823,5,0,3:2:0:0:
31,221,56977,1,0,3:2:0:0:
264,304,57131,2,0,L|372:286,1,90,8|0,3:2|0:0,0:0:0:0:
461,232,57438,1,0,3:2:0:0:
324,384,57592,1,0,3:2:0:0:
144,198,57746,2,0,L|178:55,1,135,8|0,3:2|0:0,0:0:0:0:
299,118,58054,6,0,B|353:112|380:70|359:72|385:26|444:26,1,180,4|10,3:2|3:2,0:0:0:0:
258,39,58515,1,2,0:0:0:0:
406,246,58669,1,2,3:2:0:0:
248,309,58823,1,0,3:2:0:0:
428,160,58977,1,10,3:2:0:0:
175,66,59131,2,0,L|66:50,1,90,2|0,0:0|3:2,0:0:0:0:
316,259,59438,2,0,L|405:245,1,90,2|8,3:2|3:2,0:0:0:0:
146,370,59746,2,0,P|99:302|-7:321,1,180,2|0,0:0|3:2,0:0:0:0:
58,384,60208,1,10,3:2:0:0:
197,274,60361,1,2,0:0:0:0:
453,384,60515,6,0,P|467:323|491:235,1,135,6|0,3:2|0:0,0:0:0:0:
507,173,60823,1,10,3:2:0:0:
362,235,60977,1,0,3:2:0:0:
196,105,61131,6,0,B|156:110|132:145|153:145|125:180|64:177,1,135,6|0,3:2|0:0,0:0:0:0:
6,137,61438,2,0,P|35:102|92:86,1,90,10|0,3:2|0:0,0:0:0:0:
280,181,61746,5,10,3:2:0:0:
163,9,61900,1,0,3:2:0:0:
306,96,62054,1,0,3:2:0:0:
502,10,62208,1,8,3:2:0:0:
502,10,62977,6,0,P|473:92|448:183,1,161.999995056153,6|14,3:2|3:2,0:0:0:0:
283,231,63438,2,0,P|317:213|379:223,1,80.9999975280763,2|0,0:0|3:2,0:0:0:0:
512,364,63746,1,0,3:2:0:0:
413,324,63900,2,0,P|375:311|336:301,1,80.9999975280763,8|0,3:2|0:0,0:0:0:0:
193,357,64208,1,0,3:2:0:0:
193,357,64361,1,0,3:2:0:0:
26,239,64515,2,0,P|74:208|150:230,1,121.499996292114,8|0,3:2|0:0,0:0:0:0:
209,258,64823,1,2,3:2:0:0:
51,112,64977,1,2,3:2:0:0:
287,68,65131,1,10,3:2:0:0:
217,148,65284,1,2,0:0:0:0:
30,13,65438,6,0,B|89:22|89:22|130:60|130:60|189:68,1,161.999995056153,2|10,3:2|3:2,0:0:0:0:
344,1,65900,2,0,L|319:80,1,80.9999975280763,2|0,0:0|3:2,0:0:0:0:
486,243,66208,1,0,3:2:0:0:
391,199,66361,2,0,L|302:217,1,80.9999975280763,8|0,3:2|0:0,0:0:0:0:
139,248,66669,1,0,3:2:0:0:
139,248,66823,1,0,3:2:0:0:
100,77,66977,2,0,L|116:156,1,80.9999975280763,8|0,3:2|0:0,0:0:0:0:
166,363,67284,1,0,3:2:0:0:
406,278,67438,1,0,3:2:0:0:
321,190,67592,2,0,L|304:269,1,80.9999975280763,8|0,3:2|0:0,0:0:0:0:
512,380,67900,6,0,L|490:281,1,80.9999975280763,6|0,3:2|0:0,0:0:0:0:
425,182,68208,2,0,L|447:83,1,80.9999975280763,10|0,3:2|0:0,0:0:0:0:
512,9,68515,1,2,3:2:0:0:
292,100,68669,1,0,3:2:0:0:
181,54,68823,2,0,P|146:41|92:27,1,80.9999975280763,10|0,3:2|0:0,0:0:0:0:
3,250,69131,1,2,3:2:0:0:
196,194,69284,1,0,3:2:0:0:
117,123,69438,2,0,P|104:161|93:200,1,80.9999975280763,10|0,3:2|0:0,0:0:0:0:
238,338,69746,1,2,3:2:0:0:
5,384,69900,1,0,3:2:0:0:
79,290,70054,2,0,P|118:300|156:313,1,80.9999975280763,10|0,3:2|0:0,0:0:0:0:
341,380,70361,5,2,3:2:0:0:
341,380,70515,1,0,3:2:0:0:
512,258,70669,2,0,L|490:167,1,76.5000014591217,14|0,3:2|3:2,0:0:0:0:
341,59,70977,1,2,3:2:0:0:
341,59,71131,1,0,3:2:0:0:
446,9,71284,2,0,L|424:100,1,76.5000014591217,10|0,3:2|3:2,0:0:0:0:
392,254,71592,1,2,3:2:0:0:
392,254,71746,1,0,3:2:0:0:
217,133,71900,2,0,L|142:150,1,76.5000014591217,14|12,3:2|3:2,0:0:0:0:
16,177,72208,1,2,3:2:0:0:
189,270,72361,2,0,L|199:219,1,38.2500007295609,10|8,3:2|3:2,0:0:0:0:
303,102,72515,1,10,3:2:0:0:
283,69,72592,1,8,3:2:0:0:
252,47,72669,1,10,3:2:0:0:
215,39,72746,1,8,3:2:0:0:
178,47,72823,6,0,B|125:30|125:30|81:50|81:50|14:32,1,161.999995056153,14|14,3:2|3:2,0:0:0:0:
133,138,73284,1,2,0:0:0:0:
22,299,73438,1,0,3:2:0:0:
147,260,73592,1,0,3:2:0:0:
255,350,73746,2,0,P|299:341|350:332,1,80.9999975280763,8|0,3:2|0:0,0:0:0:0:
505,241,74054,1,0,3:2:0:0:
505,241,74208,1,0,3:2:0:0:
396,151,74361,2,0,P|406:198|413:233,1,80.9999975280763,8|2,3:2|0:0,0:0:0:0:
481,44,74669,1,2,3:2:0:0:
322,102,74823,1,2,3:2:0:0:
129,23,74977,1,10,3:2:0:0:
200,126,75131,1,2,0:0:0:0:
34,261,75284,6,0,P|21:219|-1:162,1,80.9999975280763,2|0,3:2|3:2,0:0:0:0:
241,20,75592,1,10,3:2:0:0:
200,126,75746,2,0,P|186:164|174:202,1,80.9999975280763,2|0,0:0|3:2,0:0:0:0:
127,367,76054,1,0,3:2:0:0:
302,326,76208,2,0,L|209:302,1,80.9999975280763,8|0,3:2|0:0,0:0:0:0:
34,261,76515,1,0,3:2:0:0:
127,367,76669,1,0,3:2:0:0:
353,254,76823,2,0,L|431:274,1,80.9999975280763,12|0,3:2|0:0,0:0:0:0:
417,169,77131,1,0,3:2:0:0:
223,305,77284,2,0,L|212:263,1,40.4999987640381,8|8,3:2|3:2,0:0:0:0:
170,87,77438,1,10,3:2:0:0:
194,57,77515,1,8,3:2:0:0:
229,39,77592,1,10,3:2:0:0:
267,39,77669,1,8,3:2:0:0:
303,54,77746,6,0,P|341:46|392:38,1,80.9999975280763,6|0,3:2|0:0,0:0:0:0:
136,193,78054,2,0,P|98:185|47:177,1,80.9999975280763,10|0,3:2|0:0,0:0:0:0:
251,131,78361,1,2,3:2:0:0:
251,131,78515,1,0,3:2:0:0:
132,276,78669,1,10,3:2:0:0:
43,93,78823,1,2,0:0:0:0:
233,225,78977,5,2,3:2:0:0:
393,167,79131,1,0,3:2:0:0:
504,232,79284,2,0,L|484:324,1,80.9999975280763,10|0,3:2|0:0,0:0:0:0:
313,384,79592,2,0,L|333:292,1,80.9999975280763,2|0,3:2|3:2,0:0:0:0:
291,86,79900,2,0,L|315:217,1,121.499996292114,10|0,3:2|0:0,0:0:0:0:
330,304,80208,5,14,3:2:0:0:
421,227,80361,1,0,3:2:0:0:
183,163,80515,5,10,3:2:0:0:
235,283,80669,1,0,3:2:0:0:
406,124,80823,5,14,3:2:0:0:
330,304,80977,1,0,3:2:0:0:
213,48,81131,5,10,3:2:0:0:
159,316,81284,1,0,3:2:0:0:
0,27,81438,5,14,3:2:0:0:
38,306,82669,6,0,B|82:300|112:320|89:331|127:362|171:339,1,135,10|0,3:2|0:0,0:0:0:0:
23,310,82977,2,0,P|15:271|57:207,1,90,12|0,3:2|0:0,0:0:0:0:
150,70,83284,1,0,3:2:0:0:
257,130,83438,1,0,3:2:0:0:
441,81,83592,1,8,3:2:0:0:
326,268,83746,6,0,P|336:220|356:161,1,90,0|0,3:2|0:0,0:0:0:0:
150,70,84054,1,0,3:2:0:0:
197,218,84208,2,0,P|210:260|219:305,1,90,8|0,3:2|0:0,0:0:0:0:
20,380,84515,1,0,3:2:0:0:
20,380,84669,1,0,3:2:0:0:
112,287,84823,1,8,3:2:0:0:
284,382,84977,1,2,0:0:0:0:
493,318,85131,5,6,3:2:0:0:
31,106,86874,6,0,L|23:74,2,17.9999994506836,0|0|14,3:2|3:2|3:2,0:0:0:0:
99,349,87131,1,14,3:2:0:0:
99,349,87592,5,6,3:2:0:0:
13,253,87746,1,2,3:2:0:0:
219,171,87900,2,0,P|203:224|191:269,1,99.0000030212403,6|2,3:2|0:0,0:0:0:0:
128,75,88208,1,2,3:2:0:0:
343,144,88361,1,2,3:2:0:0:
458,91,88515,2,0,P|397:83|342:157,1,148.50000453186,10|0,3:2|0:0,0:0:0:0:
332,229,88823,5,2,3:2:0:0:
402,332,88977,1,2,3:2:0:0:
189,383,89131,1,10,3:2:0:0:
246,262,89284,1,2,0:0:0:0:
68,109,89438,5,2,3:2:0:0:
139,240,89592,1,2,3:2:0:0:
369,58,89746,1,10,3:2:0:0:
311,208,89900,1,2,0:0:0:0:
169,14,90054,6,0,B|99:31|99:31|66:77|66:77|-12:95,1,198.000006042481,2|8,3:2|3:2,0:0:0:0:
231,268,90515,1,2,0:0:0:0:
153,113,90669,1,2,3:2:0:0:
282,1,90823,2,0,L|383:27,1,99.0000030212403,2|8,3:2|3:2,0:0:0:0:
497,0,91131,1,2,0:0:0:0:
255,171,91284,6,0,B|313:176|343:233|316:228|349:282|407:281,1,198.000006042481,6|8,3:2|3:2,0:0:0:0:
471,194,91746,1,2,0:0:0:0:
250,312,91900,2,0,P|205:297|146:281,1,99.0000030212403,2|0,3:2|3:2,0:0:0:0:
205,90,92208,2,0,P|247:135|249:201,1,99.0000030212403,8|2,3:2|0:0,0:0:0:0:
14,62,92515,5,6,3:2:0:0:
117,21,92669,1,2,0:0:0:0:
0,177,92823,2,0,P|12:230|23:284,1,99.0000030212403,10|0,3:2|0:0,0:0:0:0:
165,172,93131,1,2,3:2:0:0:
283,262,93284,1,2,3:2:0:0:
512,167,93438,1,10,3:2:0:0:
418,292,93592,1,2,0:0:0:0:
303,2,93746,5,2,3:2:0:0:
467,66,93900,1,2,3:2:0:0:
315,160,94054,1,10,3:2:0:0:
147,94,94208,1,2,0:0:0:0:
320,150,94361,5,6,3:2:0:0:
283,262,94515,1,2,3:2:0:0:
51,211,94669,5,6,3:2:0:0:
86,302,94823,1,2,0:0:0:0:
325,139,94977,6,0,B|399:158|399:158|428:198|428:198|518:224,1,198.000006042481,6|8,3:2|3:2,0:0:0:0:
384,17,95438,1,0,0:0:0:0:
272,43,95592,2,0,L|171:67,1,99.0000030212403,2|0,3:2|3:2,0:0:0:0:
27,4,95900,2,0,B|73:44|73:44|53:135,1,148.50000453186,8|0,3:2|0:0,0:0:0:0:
0,199,96208,6,0,P|62:159|150:181,1,148.50000453186,2|0,3:2|0:0,0:0:0:0:
218,210,96515,1,12,3:2:0:0:
119,369,96669,1,2,0:0:0:0:
242,322,96823,2,0,P|291:306|362:287,1,99.0000030212403,2|0,3:2|3:2,0:0:0:0:
488,359,97131,2,0,P|452:319|465:225,1,148.50000453186,12|0,3:2|0:0,0:0:0:0:
512,142,97438,6,0,B|454:143|421:89|448:94|418:37|360:32,1,198.000006042481,6|10,3:2|3:2,0:0:0:0:
270,91,97900,1,0,0:0:0:0:
349,263,98054,1,2,3:2:0:0:
277,342,98208,2,0,L|176:321,1,99.0000030212403,2|8,3:2|3:2,0:0:0:0:
345,163,98515,1,2,0:0:0:0:
178,124,98669,5,0,3:2:0:0:
178,124,98823,1,0,3:2:0:0:
341,279,98977,2,0,L|458:258,1,99.0000030212403,10|0,3:2|0:0,0:0:0:0:
487,152,99284,1,2,3:2:0:0:
487,152,99438,1,0,3:2:0:0:
277,342,99592,2,0,L|180:324,1,99.0000030212403,10|0,3:2|0:0,0:0:0:0:
29,260,99900,5,2,3:2:0:0:
100,357,100054,1,2,3:2:0:0:
334,241,100208,1,10,3:2:0:0:
277,342,100361,1,2,0:0:0:0:
141,160,100515,1,2,3:2:0:0:
141,160,100669,2,0,L|35:176,1,99.0000030212403,2|8,3:2|3:2,0:0:0:0:
250,51,100977,6,0,P|296:84|314:143,1,99.0000030212403,2|0,0:0|3:2,0:0:0:0:
335,266,101284,1,0,3:2:0:0:
455,91,101438,1,12,3:2:0:0:
455,91,101592,1,10,3:2:0:0:
217,147,101746,2,0,P|167:132|108:119,1,99.0000030212403,2|0,3:2|3:2,0:0:0:0:
0,0,102054,2,0,B|38:40|38:40|3:155,1,148.50000453186,14|0,3:2|0:0,0:0:0:0:
4,226,102361,6,0,B|65:228|96:294|67:287|102:340|154:340,1,198.000006042481,6|10,3:2|3:2,0:0:0:0:
484,259,102977,1,2,3:2:0:0:
382,195,103131,1,0,3:2:0:0:
164,253,103284,1,10,3:2:0:0:
261,321,103438,6,0,P|270:277|288:216,1,99.0000030212403,2|0,0:0|3:2,0:0:0:0:
442,75,103746,2,0,P|455:122|465:170,1,99.0000030212403,2|8,3:2|3:2,0:0:0:0:
239,26,104054,2,0,B|170:43|170:43|138:91|138:91|54:110,1,198.000006042481,2|0,0:0|3:2,0:0:0:0:
261,321,104515,1,8,3:2:0:0:
261,321,104823,5,2,3:2:0:0:
399,224,104977,2,0,L|502:245,1,99.0000030212403,2|12,3:2|3:2,0:0:0:0:
260,334,105284,5,2,0:0:0:0:
124,183,105438,2,0,L|21:204,1,99.0000030212403,2|0,3:2|3:2,0:0:0:0:
259,346,105746,5,14,3:2:0:0:
402,134,105900,2,0,L|505:155,1,99.0000030212403,2|6,0:0|3:2,0:0:0:0:
259,359,106208,5,10,3:2:0:0:
111,88,106361,2,0,L|8:109,1,99.0000030212403,10|8,3:2|3:2,0:0:0:0:
0,134,106592,1,8,3:2:0:0:
0,134,106669,5,2,3:2:0:0:
174,227,106823,1,10,3:2:0:0:
193,220,106900,1,8,3:2:0:0:
212,214,106977,1,8,3:2:0:0:
402,134,107131,1,8,3:2:0:0:
428,143,107208,1,8,3:2:0:0:
455,152,107284,5,6,3:2:0:0:
331,219,107438,1,2,3:2:0:0:
134,95,107592,2,0,L|164:-8,1,99.0000030212403,6|2,3:2|0:0,0:0:0:0:
319,119,107900,1,2,3:2:0:0:
261,286,108054,1,2,3:2:0:0:
365,383,108208,2,0,B|322:373|307:334|328:340|308:294|254:285,1,148.50000453186,10|0,3:2|0:0,0:0:0:0:
167,312,108515,6,0,P|124:296|70:282,1,99.0000030212403,2|0,3:2|3:2,0:0:0:0:
200,98,108823,2,0,P|220:153|204:200,1,99.0000030212403,10|0,3:2|0:0,0:0:0:0:
11,138,109131,1,2,3:2:0:0:
117,35,109284,1,2,3:2:0:0:
321,118,109438,1,10,3:2:0:0:
428,60,109592,1,2,0:0:0:0:
293,231,109746,6,0,P|279:280|268:328,1,99.0000030212403,2|0,3:2|3:2,0:0:0:0:
467,383,110054,2,0,P|454:333|439:281,1,99.0000030212403,8|0,3:2|0:0,0:0:0:0:
512,99,110361,1,2,3:2:0:0:
374,174,110515,1,0,3:2:0:0:
142,36,110669,1,8,3:2:0:0:
142,36,110977,6,0,B|198:48|221:108|195:100|221:157|279:163,1,198.000006042481,6|8,3:2|3:2,0:0:0:0:
333,25,111438,1,2,0:0:0:0:
118,125,111592,2,0,P|133:172|144:221,1,99.0000030212403,2|0,3:2|3:2,0:0:0:0:
0,340,111900,2,0,P|36:312|101:320,1,99.0000030212403,8|0,3:2|0:0,0:0:0:0:
303,372,112208,6,0,P|384:345|502:314,1,198.000006042481,6|10,3:2|3:2,0:0:0:0:
216,262,112669,1,2,0:0:0:0:
289,378,112823,1,2,3:2:0:0:
350,229,112977,1,2,3:2:0:0:
219,45,113131,1,10,3:2:0:0:
381,137,113284,1,2,0:0:0:0:
512,55,113438,5,2,3:2:0:0:
382,124,113592,1,2,3:2:0:0:
221,32,113746,1,10,3:2:0:0:
91,101,113900,1,2,0:0:0:0:
42,0,114054,5,6,3:2:0:0:
79,112,114208,1,2,3:2:0:0:
282,90,114361,5,6,3:2:0:0:
247,181,114515,1,2,0:0:0:0:
374,344,114669,6,0,P|327:296|191:308,1,198.000006042481,6|8,3:2|3:2,0:0:0:0:
8,384,115131,1,2,0:0:0:0:
47,274,115284,2,0,P|63:225|79:160,1,99.0000030212403,2|0,3:2|3:2,0:0:0:0:
0,23,115592,1,10,3:2:0:0:
193,127,115746,1,2,0:0:0:0:
333,70,115900,6,0,B|390:61|432:110|405:111|449:157|505:142,1,198.000006042481,2|12,3:2|3:2,0:0:0:0:
501,6,116361,1,2,0:0:0:0:
344,162,116515,2,0,P|360:208|372:256,1,99.0000030212403,2|0,3:2|3:2,0:0:0:0:
492,384,116823,2,0,P|434:342|340:365,1,148.50000453186,12|0,3:2|0:0,0:0:0:0:
262,384,117131,6,0,P|167:355|72:331,1,198.000006042481,6|10,3:2|3:2,0:0:0:0:
1,235,117592,1,0,0:0:0:0:
122,73,117746,1,2,3:2:0:0:
19,0,117900,2,0,P|35:58|45:120,1,99.0000030212403,2|8,3:2|3:2,0:0:0:0:
206,212,118208,1,2,0:0:0:0:
409,115,118361,5,0,3:2:0:0:
333,221,118515,1,0,3:2:0:0:
418,382,118669,2,0,P|427:333|445:264,1,99.0000030212403,10|2,3:2|0:0,0:0:0:0:
479,62,118977,2,0,P|442:30|364:36,1,99.0000030212403,2|0,3:2|3:2,0:0:0:0:
317,58,119208,1,2,0:0:0:0:
317,58,119284,2,0,P|269:44|215:33,1,99.0000030212403,10|2,3:2|0:0,0:0:0:0:
45,9,119592,5,2,3:2:0:0:
135,99,119746,1,2,3:2:0:0:
107,262,119900,1,10,3:2:0:0:
0,318,120054,1,2,0:0:0:0:
120,257,120208,2,0,L|222:280,1,99.0000030212403,2|2,3:2|3:2,0:0:0:0:
297,319,120438,1,2,0:0:0:0:
297,319,120515,2,0,P|336:291|399:294,1,99.0000030212403,8|2,3:2|0:0,0:0:0:0:
512,379,120823,5,2,3:2:0:0:
425,207,120977,1,0,3:2:0:0:
215,384,121131,2,0,L|201:285,1,99.0000030212403,12|0,3:2|3:2,0:0:0:0:
85,156,121438,1,2,3:2:0:0:
339,32,121592,1,8,3:2:0:0:
319,21,121669,1,8,3:2:0:0:
290,52,121746,1,8,3:2:0:0:
279,99,121823,1,8,3:2:0:0:
304,159,121900,1,8,3:2:0:0:
324,234,121977,1,8,3:2:0:0:
293,318,122054,6,0,B|250:280|208:291|208:291|179:325|133:313,1,148.50000453186,6|0,3:2|0:0,0:0:0:0:
117,291,122361,2,0,P|63:280|16:308,1,99.0000030212403,8|0,3:2|0:0,0:0:0:0:
92,91,122669,2,0,B|140:57|198:85|172:95|228:126|278:98,1,198.000006042481,2|8,3:2|3:2,0:0:0:0:
376,170,123131,1,2,0:0:0:0:
175,371,123284,6,0,P|160:289|136:166,2,198.000006042481,2|8|0,3:2|3:2|3:2,0:0:0:0:
449,243,124054,1,0,3:2:0:0:
363,161,124208,2,0,P|348:210|335:261,1,99.0000030212403,10|2,3:2|0:0,0:0:0:0:
57,70,124515,5,14,3:2:0:0:
183,167,124669,1,0,3:2:0:0:
23,362,124823,5,8,3:2:0:0:
209,262,124977,1,2,3:2:0:0:
0,222,125131,5,10,3:2:0:0:
167,341,125284,1,0,3:2:0:0:
399,241,125438,5,8,3:2:0:0:
512,296,125592,1,2,3:2:0:0:
363,32,125746,5,14,3:2:0:0:
113,255,126977,6,0,B|66:243|66:243|44:209|44:209|-34:191,1,135,10|0,3:2|0:0,0:0:0:0:
123,267,127284,2,0,P|169:257|225:248,1,90,12|0,3:2|0:0,0:0:0:0:
422,345,127592,1,0,3:2:0:0:
286,188,127746,1,0,3:2:0:0:
208,368,127900,1,8,3:2:0:0:
378,215,128054,6,0,P|395:141|416:37,1,180,4|8,3:2|3:2,0:0:0:0:
402,14,128438,1,8,3:2:0:0:
373,2,128515,1,10,3:2:0:0:
332,6,128592,1,8,3:2:0:0:
288,30,128669,1,8,3:2:0:0:
232,49,128746,1,8,3:2:0:0:
163,37,128823,1,10,3:2:0:0:
170,44,129284,5,2,0:0:0:0:
170,44,129361,1,2,0:0:0:0:
170,44,129438,2,0,P|148:141|130:232,1,180,6|14,3:2|3:2,0:0:0:0:
1,105,129900,2,0,P|35:72|102:82,1,90,2|0,0:0|3:2,0:0:0:0:
236,160,130208,1,2,3:2:0:0:
48,255,130361,1,10,3:2:0:0:
266,363,130515,6,0,B|328:347|328:347|363:307|363:307|431:291,1,180,6|0,3:2|3:2,0:0:0:0:
236,160,130977,2,0,P|211:198|218:254,1,90,8|2,3:2|0:0,0:0:0:0:
449,203,131284,1,10,3:2:0:0:
431,161,131361,1,8,3:2:0:0:
399,130,131438,1,10,3:2:0:0:
358,113,131515,1,8,3:2:0:0:
313,111,131592,1,8,3:2:0:0:
313,111,131900,6,0,P|358:93|418:77,1,90,6|0,3:2|0:0,0:0:0:0:
210,242,132208,1,10,3:2:0:0:
88,187,132361,2,0,P|43:169|-17:153,1,90,2|8,0:0|3:2,0:0:0:0:
172,74,132669,1,2,3:2:0:0:
357,201,132823,1,2,0:0:0:0:
511,129,132977,6,0,B|466:118|421:164|449:165|410:207|357:201,1,180,6|2,3:2|3:2,0:0:0:0:
261,152,133438,1,14,3:2:0:0:
471,362,133592,1,2,3:2:0:0:
512,271,133746,1,12,3:2:0:0:
256,369,133900,1,2,3:2:0:0:
172,315,134054,1,12,3:2:0:0:
172,315,134208,1,12,3:2:0:0:
3,384,134361,6,0,P|18:341|31:298,1,90,6|0,3:2|0:0,0:0:0:0:
43,256,134592,1,0,3:2:0:0:
43,256,134669,1,10,3:2:0:0:
253,351,134823,2,0,P|295:335|338:322,1,90,2|0,3:2|3:2,0:0:0:0:
161,220,135131,1,2,3:2:0:0:
330,127,135284,1,10,3:2:0:0:
99,10,135438,6,0,P|50:83|89:172,1,180,2|2,3:2|3:2,0:0:0:0:
161,220,135900,1,10,3:2:0:0:
21,384,136054,1,2,3:2:0:0:
172,312,136208,1,2,0:0:0:0:
272,367,136361,1,2,3:2:0:0:
426,282,136515,2,0,P|474:294|519:310,1,90,8|0,3:2|0:0,0:0:0:0:
327,86,136823,6,0,P|279:98|148:139,1,180,6|2,3:2|3:2,0:0:0:0:
403,166,137284,1,2,0:0:0:0:
255,15,137438,2,0,P|215:26|163:43,1,90,8|2,3:2|3:2,0:0:0:0:
419,162,137746,1,10,3:2:0:0:
137,225,137900,6,0,B|84:217|57:166|84:172|53:116|6:115,1,180,6|2,3:2|0:0,0:0:0:0:
155,230,138361,1,10,3:2:0:0:
198,219,138438,1,8,3:2:0:0:
242,209,138515,1,10,3:2:0:0:
286,200,138592,1,8,3:2:0:0:
330,192,138669,1,10,3:2:0:0:
330,192,139284,6,0,P|312:243|300:294,1,80.9999975280763,4|0,3:2|0:0,0:0:0:0:
334,313,139515,1,0,3:2:0:0:
334,313,139592,2,0,P|372:316|414:286,1,80.9999975280763,14|0,3:2|3:2,0:0:0:0:
471,207,139900,2,0,P|462:171|446:111,1,80.9999975280763,2|0,0:0|3:2,0:0:0:0:
481,0,140208,2,0,P|444:16|403:15,1,80.9999975280763,10|2,3:2|0:0,0:0:0:0:
249,0,140515,6,0,L|273:91,1,80.9999975280763,2|2,3:2|0:0,0:0:0:0:
311,105,140746,1,0,3:2:0:0:
311,105,140823,1,8,3:2:0:0:
186,217,140977,2,0,B|141:215|109:176|135:182|103:136|48:137,1,161.999995056153,2|0,3:2|3:2,0:0:0:0:
0,328,141438,2,0,P|37:315|102:302,1,80.9999975280763,8|0,3:2|0:0,0:0:0:0:
198,210,141746,6,0,P|235:223|300:236,1,80.9999975280763,0|0,3:2|0:0,0:0:0:0:
311,267,141977,1,0,3:2:0:0:
311,267,142054,1,8,3:2:0:0:
184,350,142208,1,0,3:2:0:0:
131,118,142361,2,0,P|172:111|210:103,1,80.9999975280763,2|0,0:0|3:2,0:0:0:0:
434,0,142669,2,0,P|409:61|389:120,1,121.499996292114,10|0,3:2|0:0,0:0:0:0:
373,159,142977,5,2,3:2:0:0:
489,269,143131,1,2,0:0:0:0:
489,269,143208,1,0,3:2:0:0:
489,269,143284,1,8,3:2:0:0:
375,384,143438,2,0,P|320:336|230:343,1,161.999995056153,2|2,3:2|3:2,0:0:0:0:
269,158,143900,2,0,P|289:199|306:246,1,80.9999975280763,10|0,3:2|0:0,0:0:0:0:
129,371,144208,6,0,P|140:332|152:276,1,80.9999975280763,4|0,3:2|0:0,0:0:0:0:
185,259,144438,1,0,3:2:0:0:
185,259,144515,1,10,3:2:0:0:
146,134,144669,1,2,3:2:0:0:
248,6,144823,2,0,P|289:4|333:32,1,80.9999975280763,2|0,0:0|3:2,0:0:0:0:
262,171,145131,2,0,P|206:151|116:128,1,121.499996292114,8|0,3:2|0:0,0:0:0:0:
101,154,145438,5,2,3:2:0:0:
209,250,145592,1,2,0:0:0:0:
209,250,145669,1,0,3:2:0:0:
209,250,145746,1,10,3:2:0:0:
379,132,145900,2,0,B|424:134|456:173|430:167|462:213|517:212,1,161.999995056153,2|0,3:2|3:2,0:0:0:0:
397,34,146361,2,0,P|334:48|266:60,1,121.499996292114,10|0,3:2|0:0,0:0:0:0:
234,80,146669,6,0,P|197:66|148:57,1,80.9999975280763,2|0,3:2|0:0,0:0:0:0:
111,52,146900,1,0,3:2:0:0:
111,52,146977,1,10,3:2:0:0:
160,175,147131,2,0,P|187:257|207:330,1,161.999995056153,2|2,3:2|3:2,0:0:0:0:
8,250,147592,2,0,P|40:223|96:221,1,80.9999975280763,8|2,3:2|0:0,0:0:0:0:
300,341,147900,6,0,P|341:330|385:323,1,80.9999975280763,4|8,3:2|3:2,0:0:0:0:
410,335,148131,1,8,3:2:0:0:
445,332,148208,1,10,3:2:0:0:
483,294,148284,1,8,3:2:0:0:
481,244,148361,1,8,3:2:0:0:
451,205,148438,1,8,3:2:0:0:
472,164,148515,1,8,3:3:0:0:
486,168,148592,1,8,3:3:0:0:
500,172,148669,1,8,3:2:0:0:
403,78,148823,1,8,3:2:0:0:
257,144,148977,1,8,3:2:0:0:
232,137,149054,1,8,3:2:0:0:
208,130,149131,6,0,L|112:101,1,80.9999975280763,6|0,3:2|0:0,0:0:0:0:
99,75,149361,1,0,3:2:0:0:
99,75,149438,2,0,P|112:36|134:-15,1,80.9999975280763,14|2,3:2|3:2,0:0:0:0:
297,23,149746,2,0,P|312:60|325:98,1,80.9999975280763,2|0,0:0|3:2,0:0:0:0:
418,211,150054,2,0,P|361:206|309:252,1,121.499996292114,10|0,3:2|0:0,0:0:0:0:
272,338,150361,2,0,P|312:346|366:323,1,80.9999975280763,2|2,3:2|0:0,0:0:0:0:
392,309,150592,1,0,3:2:0:0:
392,309,150669,1,8,3:2:0:0:
243,157,150823,2,0,B|198:159|166:198|192:192|160:238|105:237,1,161.999995056153,2|0,3:2|3:2,0:0:0:0:
20,118,151284,2,0,B|48:151|48:151|25:229,1,121.499996292114,8|0,3:2|0:0,0:0:0:0:
0,325,151592,6,0,P|40:313|82:319,1,80.9999975280763,2|0,3:2|0:0,0:0:0:0:
129,332,151823,1,0,3:2:0:0:
129,332,151900,2,0,L|223:318,1,80.9999975280763,8|0,3:2|3:2,0:0:0:0:
327,220,152208,2,0,L|233:206,1,80.9999975280763,2|0,0:0|3:2,0:0:0:0:
94,74,152515,2,0,L|228:53,1,121.499996292114,10|0,3:2|0:0,0:0:0:0:
281,10,152823,2,0,P|321:34|360:32,1,80.9999975280763,2|0,3:2|0:0,0:0:0:0:
402,25,153054,1,0,3:2:0:0:
402,25,153131,1,8,3:2:0:0:
498,113,153284,2,0,P|473:199|456:273,1,161.999995056153,2|2,3:2|3:2,0:0:0:0:
259,191,153746,2,0,P|294:172|350:186,1,80.9999975280763,10|0,3:2|0:0,0:0:0:0:
477,372,154054,6,0,L|381:349,1,80.9999975280763,4|0,3:2|0:0,0:0:0:0:
353,347,154284,1,0,3:2:0:0:
353,347,154361,1,10,3:2:0:0:
456,269,154515,1,2,3:2:0:0:
333,176,154669,2,0,P|294:172|259:191,1,80.9999975280763,2|0,0:0|3:2,0:0:0:0:
329,38,154977,2,0,P|271:70|202:50,1,121.499996292114,10|0,3:2|0:0,0:0:0:0:
179,31,155284,2,0,L|100:46,1,80.9999975280763,2|2,3:2|0:0,0:0:0:0:
52,58,155515,1,0,3:2:0:0:
52,58,155592,1,8,3:2:0:0:
99,176,155746,2,0,L|78:262,1,80.9999975280763,2|0,3:2|0:0,0:0:0:0:
54,375,156054,1,0,3:2:0:0:
287,308,156208,1,10,3:2:0:0:
197,242,156361,1,2,0:0:0:0:
376,132,156515,6,0,B|428:145|428:145|464:189|464:189|535:212,1,161.999995056153,6|8,3:2|3:2,0:0:0:0:
287,308,156977,1,2,3:2:0:0:
170,93,157131,6,0,B|117:106|117:106|81:150|81:150|10:173,1,161.999995056153,4|8,3:2|3:2,0:0:0:0:
202,354,157592,1,2,0:0:0:0:
349,125,157746,5,8,3:2:0:0:
168,185,157900,1,0,3:2:0:0:
335,130,158054,1,0,3:2:0:0:
52,32,158208,5,8,3:2:0:0:
52,32,158977,6,0,L|222:9,1,153.000002918243,6|14,3:2|3:2,0:0:0:0:
307,58,159438,1,2,0:0:0:0:
225,210,159592,1,0,3:2:0:0:
358,160,159746,1,0,3:2:0:0:
476,247,159900,2,0,P|462:291|450:344,1,76.5000014591217,8|0,3:2|0:0,0:0:0:0:
225,210,160208,5,0,3:2:0:0:
225,210,160361,1,0,3:2:0:0:
272,369,160515,2,0,P|262:331|251:295,1,76.5000014591217,8|0,3:2|0:0,0:0:0:0:
85,134,160823,1,2,3:2:0:0:
225,210,160977,1,2,3:2:0:0:
101,364,161131,1,10,3:2:0:0:
9,307,161284,1,2,0:0:0:0:
82,118,161438,6,0,L|65:31,1,76.5000014591217,2|0,3:2|3:2,0:0:0:0:
238,209,161746,1,10,3:2:0:0:
347,138,161900,2,0,L|434:121,1,76.5000014591217,2|0,0:0|3:2,0:0:0:0:
512,313,162208,1,0,3:2:0:0:
389,287,162361,2,0,L|302:270,1,76.5000014591217,12|0,3:2|0:0,0:0:0:0:
498,311,162669,5,0,3:2:0:0:
376,384,162823,1,0,3:2:0:0:
215,241,162977,2,0,L|128:258,1,76.5000014591217,12|0,3:2|0:0,0:0:0:0:
26,279,163284,1,0,3:2:0:0:
232,383,163438,2,0,L|243:339,1,38.2500007295609,8|8,3:2|3:2,0:0:0:0:
285,165,163592,1,10,3:2:0:0:
261,135,163669,1,8,3:2:0:0:
226,117,163746,1,10,3:2:0:0:
188,117,163823,1,8,3:2:0:0:
152,132,163900,6,0,P|114:124|61:117,1,85.4999977169037,6|0,3:2|0:0,0:0:0:0:
329,45,164208,2,0,P|367:37|421:28,1,85.4999977169037,10|0,3:2|0:0,0:0:0:0:
211,211,164515,1,2,3:2:0:0:
211,211,164669,1,0,3:2:0:0:
129,34,164823,1,10,3:2:0:0:
277,114,164977,1,2,0:0:0:0:
496,10,165131,5,2,3:2:0:0:
380,151,165284,1,0,3:2:0:0:
487,248,165438,2,0,P|496:204|510:145,1,85.4999977169037,10|0,3:2|0:0,0:0:0:0:
306,272,165746,2,0,P|315:313|324:355,1,85.4999977169037,2|0,3:2|3:2,0:0:0:0:
94,235,166054,2,0,P|143:201|223:225,1,128.249996575356,10|0,3:2|0:0,0:0:0:0:
306,272,166361,5,14,3:2:0:0:
197,344,166515,1,0,3:2:0:0:
423,372,166669,5,10,3:2:0:0:
349,189,166823,1,0,3:2:0:0:
512,38,166977,5,14,3:2:0:0:
436,234,167131,1,0,3:2:0:0:
220,15,167284,5,10,3:2:0:0:
307,306,167438,1,0,3:2:0:0:
3,125,167592,5,14,3:2:0:0:
192,332,168823,6,0,B|152:329|127:302|151:295|121:263|72:264,1,135,10|0,3:2|0:0,0:0:0:0:
201,342,169131,2,0,L|303:323,1,90,12|0,3:2|0:0,0:0:0:0:
258,136,169438,1,0,3:2:0:0:
215,243,169592,1,0,3:2:0:0:
36,75,169746,1,8,3:2:0:0:
215,27,169900,6,0,P|259:41|310:50,1,90,0|0,3:2|0:0,0:0:0:0:
512,5,170208,1,0,3:2:0:0:
439,98,170361,2,0,P|425:142|416:193,1,90,8|0,3:2|0:0,0:0:0:0:
469,357,170669,1,0,3:2:0:0:
469,357,170823,1,0,3:2:0:0:
241,157,170977,1,8,3:2:0:0:
416,185,171131,1,2,0:0:0:0:
182,373,171284,5,10,3:2:0:0:
182,373,173008,6,0,L|127:381,2,36,2|0|14,3:2|3:2|3:2,0:0:0:0:
470,334,173284,1,10,3:2:0:0:
470,334,173746,6,0,L|383:314,1,80.9999975280763,6|2,3:2|0:0,0:0:0:0:
272,254,174054,1,2,3:2:0:0:
319,358,174208,1,2,3:2:0:0:
271,234,174361,5,10,3:2:0:0:
204,337,174515,1,2,3:2:0:0:
277,217,174669,5,10,3:2:0:0:
109,263,174823,1,2,3:2:0:0:
319,358,174977,5,6,3:2:0:0:
192,168,175131,1,10,3:2:0:0:
442,80,175284,1,10,3:2:0:0:
448,312,175438,1,10,3:2:0:0:
193,269,175592,5,10,3:2:0:0:
300,54,175746,1,10,3:2:0:0:
38,35,175900,1,10,3:2:0:0:
333,147,176054,1,10,3:2:0:0:
50,324,176208,5,12,3:2:0:0:
275,266,176361,1,0,3:2:0:0:
363,241,176515,1,0,3:2:0:0:
54,204,176669,5,12,3:2:0:0:
287,269,176823,1,0,3:2:0:0:
381,292,176977,1,0,3:2:0:0:
116,88,177131,5,12,3:2:0:0:
298,273,177284,1,0,3:2:0:0:
374,346,177438,1,0,3:2:0:0:
245,12,177592,5,12,3:2:0:0:
307,277,177746,1,0,3:2:0:0:
343,381,177900,1,0,3:2:0:0:
476,0,178054,5,12,3:2:0:0:
55,366,178669,6,0,L|38:243,1,94.499997116089,14|0,3:2|0:0,0:0:0:0:
42,272,178977,2,0,L|111:283,1,62.9999980773926,8|2,3:2|0:0,0:0:0:0:
154,200,179284,2,0,L|87:190,1,62.9999980773926,10|2,3:2|3:2,0:0:0:0:
67,99,179592,2,0,L|136:107,1,62.9999980773926,10|0,3:2|3:2,0:0:0:0:
308,55,179900,5,10,3:2:0:0:
308,55,180054,1,2,0:0:0:0:
208,4,180208,2,0,L|217:74,1,62.9999980773926,10|2,3:2|3:2,0:0:0:0:
227,117,180438,1,0,3:2:0:0:
227,117,180515,2,0,P|262:144|296:154,1,62.9999980773926,10|2,3:2|3:2,0:0:0:0:
439,129,180823,1,10,3:2:0:0:
439,129,180977,1,2,3:2:0:0:
368,204,181131,6,0,P|364:264|421:324,1,125.999996154785,10|8,3:2|3:2,0:0:0:0:
455,236,181592,1,2,0:0:0:0:
303,345,181746,1,10,3:2:0:0:
303,345,181900,2,0,L|219:326,1,62.9999980773926,2|8,3:2|3:2,0:0:0:0:
124,301,182208,1,2,3:2:0:0:
236,178,182361,6,0,L|334:202,1,90,14|0,3:2|3:2,0:0:0:0:
370,213,182592,1,0,3:2:0:0:
370,213,182669,1,12,3:2:0:0:
446,122,182823,1,2,3:2:0:0:
332,30,182977,2,0,L|232:43,1,90,14|0,3:2|3:2,0:0:0:0:
112,9,183284,2,0,B|133:51|133:51|122:103,1,90,14|2,3:2|3:2,0:0:0:0:
16,170,183592,6,0,P|27:218|37:268,1,94.499997116089,14|0,3:2|0:0,0:0:0:0:
35,262,183900,2,0,P|71:253|118:245,1,62.9999980773926,10|0,3:2|0:0,0:0:0:0:
232,211,184208,2,0,P|196:201|149:193,1,62.9999980773926,10|2,3:2|3:2,0:0:0:0:
220,323,184515,2,0,P|255:313|302:305,1,62.9999980773926,10|2,3:2|3:2,0:0:0:0:
459,287,184823,1,8,3:2:0:0:
459,287,184977,1,2,0:0:0:0:
353,362,185131,2,0,P|365:338|370:291,1,62.9999980773926,10|2,3:2|3:2,0:0:0:0:
366,258,185361,1,0,3:2:0:0:
366,258,185438,6,0,L|349:166,1,90,14|2,3:2|3:2,0:0:0:0:
512,80,185746,2,0,L|495:168,1,90,14|2,3:2|3:2,0:0:0:0:
280,34,186054,6,0,B|218:48|218:48|182:86|182:86|110:105,1,180,14|8,3:2|3:2,0:0:0:0:
267,132,186515,1,0,3:2:0:0:
131,9,186669,2,0,L|41:33,1,90,8|0,3:2|3:2,0:0:0:0:
172,199,186977,2,0,P|157:243|134:335,1,135,10|0,3:2|0:0,0:0:0:0:
135,328,187284,6,0,P|171:297|300:320,1,180,14|8,3:2|3:2,0:0:0:0:
384,384,187746,1,2,3:2:0:0:
484,292,187900,2,0,L|470:193,1,90,10|0,3:2|3:2,0:0:0:0:
512,70,188208,1,8,3:2:0:0:
512,70,188361,1,0,3:2:0:0:
323,152,188515,6,0,L|215:132,1,94.499997116089,14|0,3:2|0:0,0:0:0:0:
230,134,188823,2,0,L|246:51,1,62.9999980773926,10|0,3:2|0:0,0:0:0:0:
165,15,189131,2,0,L|151:81,1,62.9999980773926,10|2,3:2|3:2,0:0:0:0:
57,91,189438,2,0,L|73:22,1,62.9999980773926,8|2,3:2|3:2,0:0:0:0:
130,168,189746,6,0,L|97:317,1,125.999996154785,8|10,3:2|3:2,0:0:0:0:
52,368,190208,1,0,3:2:0:0:
52,368,190284,1,0,3:2:0:0:
52,368,190361,2,0,P|82:382|129:378,1,62.9999980773926,10|0,3:2|3:2,0:0:0:0:
244,317,190669,2,0,P|212:318|184:331,1,62.9999980773926,10|0,3:2|3:2,0:0:0:0:
352,384,190977,5,10,3:2:0:0:
352,384,191131,1,0,0:0:0:0:
442,314,191284,1,10,3:2:0:0:
442,314,191438,1,0,0:0:0:0:
411,209,191592,1,10,3:2:0:0:
411,209,191746,2,0,L|388:130,1,62.9999980773926,2|8,3:2|3:2,0:0:0:0:
462,38,192054,1,2,3:2:0:0:
310,90,192208,6,0,P|253:75|188:61,1,125.999996154785,10|8,3:2|3:2,0:0:0:0:
89,49,192669,1,0,3:2:0:0:
89,49,192746,1,0,3:2:0:0:
89,49,192823,2,0,P|100:87|105:120,1,62.9999980773926,10|0,3:2|3:2,0:0:0:0:
39,257,193131,2,0,P|45:226|53:196,1,62.9999980773926,10|0,3:2|3:2,0:0:0:0:
168,381,193438,6,0,P|125:340|54:343,1,108,6|0,3:2|0:0,0:0:0:0:
47,343,193746,5,10,3:2:0:0:
47,343,193900,1,0,3:2:0:0:
158,250,194054,5,10,3:2:0:0:
194,258,194208,1,0,3:2:0:0:
320,344,194361,5,10,3:2:0:0:
395,327,194515,1,2,3:2:0:0:
237,182,194669,5,12,3:2:0:0:
453,250,194823,1,2,3:2:0:0:
194,258,194977,5,12,3:2:0:0:
412,84,195131,1,2,3:2:0:0:
475,384,195284,5,12,3:2:0:0:
159,356,195438,1,0,3:2:0:0:
261,73,195592,5,12,3:2:0:0:
261,73,195900,5,10,3:2:0:0:
399,185,196054,2,0,L|496:165,1,99.0000030212403,10|0,3:2|3:2,0:0:0:0:
260,60,196361,5,10,3:2:0:0:
124,226,196515,2,0,L|26:206,1,99.0000030212403,10|0,3:2|3:2,0:0:0:0:
259,48,196823,5,10,3:2:0:0:
402,275,196977,2,0,L|499:255,1,99.0000030212403,10|0,3:2|3:2,0:0:0:0:
258,39,197284,5,10,3:2:0:0:
111,321,197438,2,0,L|13:301,1,99.0000030212403,10|0,3:2|3:2,0:0:0:0:
258,39,197746,5,10,3:2:0:0:
404,371,197900,1,10,3:2:0:0:
404,371,198361,5,6,3:2:0:0:
285,263,198515,1,2,3:2:0:0:
446,136,198669,2,0,P|474:184|458:250,1,107.999996704102,6|2,3:2|0:0,0:0:0:0:
304,365,198977,1,2,3:2:0:0:
186,288,199131,1,2,3:2:0:0:
2,332,199284,2,0,B|17:275|17:275|59:251|59:251|75:190,1,161.999995056153,10|0,3:2|0:0,0:0:0:0:
12,113,199592,6,0,P|64:103|133:92,1,107.999996704102,2|0,3:2|3:2,0:0:0:0:
303,5,199900,2,0,P|281:51|296:107,1,107.999996704102,10|0,3:2|0:0,0:0:0:0:
414,251,200208,1,2,3:2:0:0:
209,180,200361,1,2,3:2:0:0:
416,115,200515,1,10,3:2:0:0:
416,115,200669,1,2,0:0:0:0:
236,276,200823,6,0,P|186:279|130:236,1,107.999996704102,2|0,3:2|3:2,0:0:0:0:
23,12,201131,2,0,P|49:73|66:112,1,107.999996704102,8|0,3:2|0:0,0:0:0:0:
138,248,201438,1,2,3:2:0:0:
243,91,201592,1,0,3:2:0:0:
486,150,201746,1,8,3:2:0:0:
486,150,202054,6,0,B|432:158|397:226|429:216|395:283|329:286,1,215.999993408203,6|8,3:2|3:2,0:0:0:0:
277,123,202515,1,2,0:0:0:0:
505,241,202669,2,0,P|490:301|478:357,1,107.999996704102,2|0,3:2|3:2,0:0:0:0:
277,213,202977,2,0,P|222:210|169:245,1,107.999996704102,8|2,3:2|0:0,0:0:0:0:
35,360,203284,5,6,3:2:0:0:
88,249,203438,1,0,0:0:0:0:
9,53,203592,1,10,3:2:0:0:
117,112,203746,1,2,0:0:0:0:
290,20,203900,5,2,3:2:0:0:
240,147,204054,1,2,3:2:0:0:
435,101,204208,1,10,3:2:0:0:
481,188,204361,1,2,0:0:0:0:
207,59,204515,5,2,3:2:0:0:
380,28,204669,1,2,3:2:0:0:
289,239,204823,1,10,3:2:0:0:
340,354,204977,1,2,0:0:0:0:
481,188,205131,5,6,3:2:0:0:
431,309,205284,1,2,3:2:0:0:
200,241,205438,5,6,3:2:0:0:
240,338,205592,1,2,0:0:0:0:
35,380,205746,5,6,3:2:0:0:
35,380,205900,1,2,0:0:0:0:
92,213,206054,2,0,P|84:164|66:93,1,107.999996704102,8|0,3:2|0:0,0:0:0:0:
28,6,206361,1,2,3:2:0:0:
188,84,206515,1,0,3:2:0:0:
307,31,206669,1,10,3:2:0:0:
394,72,206823,1,2,0:0:0:0:
167,180,206977,6,0,P|145:234|127:298,1,121.500000463486,14|0,3:2|3:2,0:0:0:0:
122,340,207208,1,0,3:2:0:0:
122,340,207284,2,0,P|106:303|91:269,1,60.7500002317429,0|0,3:2|3:2,0:0:0:0:
283,138,207438,6,0,P|305:192|321:256,1,121.500000463486,14|2,0:0|3:2,0:0:0:0:
334,298,207669,1,0,3:2:0:0:
334,298,207746,2,0,P|350:261|365:227,1,60.7500002317429,0|0,3:2|3:2,0:0:0:0:
512,83,207900,6,0,B|463:117|399:81|434:66|381:26|316:57,1,209.250001596451,12|0,3:2|0:0,0:0:0:0:
238,17,208208,6,0,P|161:27|67:43,1,161.999995056153,6|0,3:2|0:0,0:0:0:0:
77,40,208515,2,0,P|107:93|97:145,1,107.999996704102,10|0,3:2|0:0,0:0:0:0:
33,275,208823,1,2,3:2:0:0:
33,275,208977,1,2,3:2:0:0:
176,188,209131,1,8,3:2:0:0:
134,375,209284,6,0,L|118:257,1,107.999996704102,2|0,0:0|3:2,0:0:0:0:
23,179,209592,1,0,3:2:0:0:
211,268,209746,1,10,3:2:0:0:
317,228,209900,1,2,0:0:0:0:
400,268,210054,2,0,P|454:271|504:214,1,107.999996704102,2|0,3:2|3:2,0:0:0:0:
512,193,210284,1,2,0:0:0:0:
512,193,210361,2,0,P|504:146|486:84,1,107.999996704102,10|2,3:2|0:0,0:0:0:0:
385,20,210669,6,0,B|314:39|314:39|269:95|269:95|196:113,1,215.999993408203,2|10,3:2|3:2,0:0:0:0:
371,122,211131,1,2,0:0:0:0:
211,18,211284,2,0,L|102:42,1,107.999996704102,2|2,3:2|3:2,0:0:0:0:
65,58,211515,1,2,0:0:0:0:
65,58,211592,2,0,P|91:111|89:168,1,107.999996704102,8|2,3:2|0:0,0:0:0:0:
39,357,211900,5,2,3:2:0:0:
0,212,212054,1,0,3:2:0:0:
221,319,212208,2,0,P|237:259|257:199,1,107.999996704102,12|0,3:2|0:0,0:0:0:0:
196,60,212515,1,0,3:2:0:0:
451,248,212669,1,8,3:2:0:0:
465,228,212746,1,8,3:2:0:0:
435,197,212823,1,8,3:2:0:0:
387,184,212900,1,8,3:2:0:0:
327,202,212977,1,8,3:2:0:0:
251,215,213054,1,8,3:2:0:0:
175,171,213131,6,0,B|154:146|115:150|115:150|69:200|18:175,1,161.999995056153,6|0,3:2|0:0,0:0:0:0:
0,142,213438,2,0,P|0:87|48:39,1,107.999996704102,8|0,3:2|0:0,0:0:0:0:
251,215,213746,2,0,B|304:241|373:210|336:184|404:155|456:185,1,215.999993408203,2|8,3:2|3:2,0:0:0:0:
512,276,214208,1,2,0:0:0:0:
244,355,214361,6,0,P|216:249|182:131,2,215.999993408203,2|8|0,3:2|3:2|3:2,0:0:0:0:
326,255,215131,1,0,3:2:0:0:
133,370,215284,1,10,3:2:0:0:
34,323,215438,1,2,0:0:0:0:
11,121,215592,6,0,P|69:44|190:71,1,215.999993408203,14|8,3:2|3:2,0:0:0:0:
330,159,216054,1,2,0:0:0:0:
460,50,216208,2,0,P|438:106|423:155,1,107.999996704102,2|0,3:2|3:2,0:0:0:0:
345,360,216515,1,8,3:2:0:0:
499,290,216669,1,2,3:2:0:0:
231,156,216823,6,0,B|179:167|179:167|140:210|140:210|70:222,1,168.75,14|0,3:2|0:0,0:0:0:0:
83,219,217131,2,0,P|106:280|120:331,1,112.5,8|0,3:2|0:0,0:0:0:0:
455,360,217438,5,8,3:2:0:0:
227,244,217592,1,0,3:2:0:0:
473,206,217746,5,8,3:2:0:0:
235,368,217900,1,0,3:2:0:0:
10,153,218054,6,0,P|57:123|135:135,1,112.5,8|0,3:2|0:0,0:0:0:0:
364,241,218361,1,8,3:2:0:0:
188,24,218515,1,0,3:2:0:0:
188,24,218592,1,0,3:2:0:0:
188,24,218669,1,12,3:2:0:0:
84,212,218823,1,0,3:2:0:0:
313,103,218977,2,0,L|443:140,1,112.5,10|2,3:2|0:0,0:0:0:0:
503,384,219284,5,14,3:2:0:0:
256,318,219438,1,0,3:2:0:0:
161,292,219592,1,0,3:2:0:0:
504,247,219746,5,12,3:2:0:0:
243,323,219900,1,0,3:2:0:0:
142,348,220054,1,0,3:2:0:0:
438,120,220208,5,12,3:2:0:0:
232,326,220361,1,0,3:2:0:0:
11,36,220515,1,12,3:2:0:0:
496,9,221746,6,0,L|513:131,1,121.5,10|0,3:2|0:0,0:0:0:0:
512,129,223900,6,0,B|483:133|483:133|470:147|470:147|428:154,1,80.9999975280763,8|0,3:2|0:0,0:0:0:0:
393,140,224208,6,0,L|288:112,1,90,14|0,3:2|0:0,0:0:0:0:
97,124,224515,1,0,3:2:0:0:
222,1,224669,6,0,L|197:97,1,99.0000030212403,14|0,3:2|0:0,0:0:0:0:
254,297,224977,1,0,3:2:0:0:
0,243,225131,6,0,L|106:216,1,107.999996704102,14|0,3:2|0:0,0:0:0:0:
384,362,225438,5,2,0:0:0:0:
384,362,226054,1,2,0:0:0:0:
384,362,226669,6,0,P|347:358|385:356,1,108,2|0,3:2|3:2,0:0:0:0:
512,118,226977,6,0,B|468:103|419:142|450:143|413:177|362:169,1,161.999995056153,14|2,3:2|0:0,0:0:0:0:
148,197,227284,6,0,P|95:184|42:173,1,107.999996704102,2|0,0:0|3:2,0:0:0:0:
279,110,227592,1,10,3:2:0:0:
164,305,227746,1,2,0:0:0:0:
0,74,227900,6,0,P|52:61|105:50,1,107.999996704102,2|0,3:2|0:0,0:0:0:0:
192,35,228131,1,0,3:2:0:0:
192,35,228208,2,0,P|235:65|308:56,1,107.999996704102,10|0,3:2|3:2,0:0:0:0:
465,10,228515,1,2,0:0:0:0:
363,145,228669,1,2,3:2:0:0:
489,345,228823,2,0,P|493:294|451:240,1,107.999996704102,10|0,3:2|3:2,0:0:0:0:
380,320,229054,1,0,3:2:0:0:
380,320,229131,6,0,P|409:329|382:329,1,80.9999975280763,2|0,3:2|3:2,0:0:0:0:
248,180,229438,6,0,B|230:139|263:86|265:120|298:77|285:22,1,161.999995056153,14|2,3:2|0:0,0:0:0:0:
105,9,229746,5,2,0:0:0:0:
156,142,229900,1,0,3:2:0:0:
51,321,230054,1,10,3:2:0:0:
0,188,230208,1,2,0:0:0:0:
241,331,230361,6,0,P|294:314|370:298,1,107.999996704102,2|0,3:2|0:0,0:0:0:0:
434,328,230592,1,0,3:2:0:0:
434,328,230669,2,0,P|432:268|382:220,1,107.999996704102,10|0,3:2|3:2,0:0:0:0:
495,57,230977,1,2,0:0:0:0:
329,150,231131,1,2,3:2:0:0:
210,102,231284,2,0,P|158:110|90:126,1,107.999996704102,10|0,3:2|3:2,0:0:0:0:
33,56,231515,1,0,3:2:0:0:
33,56,231592,6,0,P|31:25|40:51,1,80.9999975280763,2|0,3:2|3:2,0:0:0:0:
219,193,231900,6,0,B|262:199|302:151|271:158|304:118|361:117,1,161.999995056153,14|0,3:2|3:2,0:0:0:0:
475,365,232208,5,2,0:0:0:0:
267,295,232361,1,2,3:2:0:0:
462,178,232515,2,0,P|474:245|450:283,1,107.999996704102,10|0,3:2|3:2,0:0:0:0:
371,241,232746,1,0,3:2:0:0:
371,241,232823,6,0,P|369:210|378:236,1,80.9999975280763,2|0,3:2|3:2,0:0:0:0:
187,363,233131,6,0,B|141:370|99:332|129:323|94:287|34:294,1,161.999995056153,14|0,3:2|3:2,0:0:0:0:
191,174,233438,5,2,0:0:0:0:
39,55,233592,1,2,3:2:0:0:
155,0,233746,2,0,P|139:45|120:113,1,107.999996704102,10|0,3:2|3:2,0:0:0:0:
46,155,233977,1,0,3:2:0:0:
46,155,234054,5,6,3:2:0:0:
285,234,234208,2,0,L|405:212,1,107.999996704102,2|8,0:0|3:2,0:0:0:0:
120,351,234515,1,2,3:2:0:0:
176,149,234669,2,0,P|188:206|196:265,1,107.999996704102,2|0,0:0|3:2,0:0:0:0:
360,373,234977,2,0,P|372:297|393:204,1,161.999995056153,14|0,3:2|0:0,0:0:0:0:
390,213,235284,6,0,P|447:218|497:188,1,107.999996704102,6|8,3:2|3:2,0:0:0:0:
512,159,235515,1,8,3:2:0:0:
512,159,235592,1,8,3:2:0:0:
416,72,235746,1,8,3:2:0:0:
400,75,235823,1,8,3:2:0:0:
384,78,235900,1,2,3:2:0:0:
261,135,236054,1,8,3:2:0:0:
237,129,236131,1,8,3:2:0:0:
214,125,236208,1,10,3:2:0:0:
62,8,236361,1,2,3:2:0:0:
108,7,236438,1,2,3:2:0:0:
140,34,236515,6,0,P|124:60|129:29,1,80.9999975280763,2|0,3:2|3:2,0:0:0:0:
7,227,236823,6,0,B|51:224|87:276|56:266|86:309|142:315,1,161.999995056153,14|2,3:2|0:0,0:0:0:0:
347,160,237131,6,0,P|293:156|246:220,1,107.999996704102,2|0,0:0|3:2,0:0:0:0:
412,381,237438,1,10,3:2:0:0:
489,256,237592,1,2,0:0:0:0:
271,369,237746,6,0,P|227:355|163:339,1,107.999996704102,2|0,3:2|0:0,0:0:0:0:
89,370,237977,1,0,3:2:0:0:
89,370,238054,2,0,P|125:326|118:259,1,107.999996704102,10|0,3:2|3:2,0:0:0:0:
61,77,238361,2,0,P|41:135|22:211,1,107.999996704102,2|0,0:0|3:2,0:0:0:0:
335,118,238669,1,10,3:2:0:0:
181,26,238823,1,2,3:2:0:0:
181,26,238900,1,2,3:2:0:0:
181,26,238977,6,0,P|197:52|192:21,1,80.9999975280763,2|0,3:2|3:2,0:0:0:0:
346,212,239284,6,0,B|388:217|431:176|398:168|431:133|488:136,1,161.999995056153,14|2,3:2|0:0,0:0:0:0:
290,372,239592,6,0,P|279:324|258:265,1,107.999996704102,2|0,0:0|3:2,0:0:0:0:
335,118,239900,1,10,3:2:0:0:
131,220,240054,1,2,0:0:0:0:
0,150,240208,6,0,P|-9:95|24:40,1,107.999996704102,2|0,3:2|0:0,0:0:0:0:
93,10,240438,1,0,3:2:0:0:
93,10,240515,2,0,P|148:21|208:30,1,107.999996704102,10|0,3:2|3:2,0:0:0:0:
2,255,240823,2,0,P|55:245|109:237,1,107.999996704102,2|0,0:0|3:2,0:0:0:0:
248,109,241131,1,10,3:2:0:0:
464,204,241284,1,2,3:2:0:0:
464,204,241361,1,0,3:2:0:0:
464,204,241438,6,0,P|448:178|453:209,1,80.9999975280763,2|0,3:2|3:2,0:0:0:0:
338,351,241746,6,0,B|295:353|258:299|289:312|259:269|203:263,1,161.999995056153,14|0,3:2|3:2,0:0:0:0:
10,280,242054,6,0,P|26:331|38:384,1,107.999996704102,2|2,0:0|3:2,0:0:0:0:
295,276,242361,1,10,3:2:0:0:
96,232,242515,1,2,3:2:0:0:
96,232,242592,1,0,3:2:0:0:
96,232,242669,6,0,P|112:258|107:227,1,80.9999975280763,2|0,3:2|3:2,0:0:0:0:
0,39,242977,6,0,B|44:56|92:28|58:27|108:1|153:14,1,161.999995056153,14|0,3:2|3:2,0:0:0:0:
319,101,243284,5,2,0:0:0:0:
466,19,243438,1,0,3:2:0:0:
466,19,243515,1,0,3:2:0:0:
466,19,243592,2,0,P|446:75|424:148,1,107.999996704102,8|0,3:2|0:0,0:0:0:0:
506,304,243900,6,0,P|426:283|356:340,1,161.999995056153,6|0,3:2|0:0,0:0:0:0:
340,362,244208,5,10,3:2:0:0:
383,183,244361,1,0,3:2:0:0:
117,135,244515,5,10,3:2:0:0:
195,383,244669,1,0,3:2:0:0:
455,127,244823,6,0,P|413:95|348:96,1,107.999996704102,10|0,3:2|0:0,0:0:0:0:
165,202,245131,5,6,3:2:0:0:
237,50,245284,1,8,3:2:0:0:
237,50,245361,1,8,3:2:0:0:
237,50,245438,1,8,3:2:0:0:
406,226,245592,1,8,3:2:0:0:
406,226,245669,1,8,3:2:0:0:
406,226,245746,1,2,3:2:0:0:
166,316,245900,1,8,3:2:0:0:
122,308,245977,1,8,3:2:0:0:
81,279,246054,1,10,3:2:0:0:
53,227,246131,1,8,3:2:0:0:
61,149,246208,1,2,3:2:0:0:
120,91,246284,1,2,3:2:0:0:
207,85,246361,6,0,L|309:108,1,99.0000030212403,6|0,3:2|0:0,0:0:0:0:
505,54,246669,1,10,3:2:0:0:
392,0,246823,2,0,P|402:48|411:97,1,99.0000030212403,2|8,0:0|3:2,0:0:0:0:
494,268,247131,1,2,3:2:0:0:
365,207,247284,1,10,3:2:0:0:
166,331,247438,6,0,P|147:251|111:116,1,198.000006042481,6|0,3:2|3:2,0:0:0:0:
294,33,247900,2,0,P|277:87|265:138,1,99.0000030212403,8|2,3:2|0:0,0:0:0:0:
18,97,248208,1,10,3:2:0:0:
45,59,248284,1,8,3:2:0:0:
86,36,248361,1,10,3:2:0:0:
133,32,248438,1,8,3:2:0:0:
178,48,248515,1,8,3:2:0:0:
178,48,248823,6,0,P|160:104|142:168,1,99.0000030212403,6|0,3:2|0:0,0:0:0:0:
293,305,249131,1,8,3:2:0:0:
201,384,249284,2,0,P|192:334|181:285,1,99.0000030212403,2|8,0:0|3:2,0:0:0:0:
148,142,249592,1,2,3:2:0:0:
274,56,249746,1,2,0:0:0:0:
507,148,249900,6,0,B|448:143|405:198|440:193|401:251|332:237,1,198.000006042481,6|2,3:2|3:2,0:0:0:0:
231,184,250361,1,14,3:2:0:0:
507,242,250515,1,2,3:2:0:0:
433,331,250669,1,12,3:2:0:0:
342,63,250823,1,2,3:2:0:0:
485,120,250977,1,12,3:2:0:0:
485,120,251131,1,12,3:2:0:0:
231,184,251284,6,0,P|177:167|102:149,1,99.0000030212403,6|0,3:2|0:0,0:0:0:0:
92,145,251515,1,0,3:2:0:0:
92,145,251592,1,10,3:2:0:0:
155,355,251746,2,0,P|183:323|195:267,1,99.0000030212403,2|0,3:2|3:2,0:0:0:0:
65,33,252054,1,2,3:2:0:0:
283,114,252208,1,10,3:2:0:0:
441,52,252361,6,0,P|367:37|283:118,1,198.000006042481,2|2,3:2|3:2,0:0:0:0:
430,287,252823,1,10,3:2:0:0:
488,179,252977,1,2,3:2:0:0:
265,319,253131,1,2,0:0:0:0:
175,260,253284,1,2,3:2:0:0:
15,338,253438,1,8,3:2:0:0:
15,338,253746,6,0,B|32:285|32:285|17:239|17:239|38:177,1,148.50000453186,14|0,3:2|0:0,0:0:0:0:
45,154,254054,5,2,3:2:0:0:
136,213,254208,1,0,3:2:0:0:
157,76,254361,5,2,3:2:0:0:
215,191,254515,1,0,3:2:0:0:
307,30,254669,5,2,3:2:0:0:
295,209,254823,1,0,3:2:0:0:
438,13,254977,5,8,3:2:0:0:
157,76,255131,1,8,3:2:0:0:
344,322,255284,1,8,3:2:0:0:
496,89,255438,1,8,3:2:0:0:
233,29,255592,5,8,3:2:0:0:
469,174,255746,1,8,3:2:0:0:
205,349,255900,1,8,3:2:0:0:
157,76,256054,1,8,3:2:0:0:
238,133,256208,6,0,L|299:121,2,53.9999983520508,2|0|0,0:0|0:0|0:0,0:0:0:0:
183,214,256669,1,2,0:0:0:0:
174,219,256977,1,0,0:0:0:0:
89,202,257131,1,0,0:0:0:0:
4,185,257284,1,2,0:0:0:0:
322,337,257921,5,8,3:3:0:0:
322,337,257997,1,8,3:3:0:0:
322,337,258074,2,0,B|276:346|252:300|252:300|280:241|356:241|447:314|447:314|451:177|390:151|281:151|241:173|175:205|183:249|130:339|130:339|54:296|38:192|143:169|165:71|156:42|126:-2|74:-5|74:-5|39:28|28:65|49:113|97:138,1,1386.00001691895,4|0,3:0|0:0,0:0:0:0:
