osu file format v14

[General]
AudioFilename: audio.mp3
AudioLeadIn: 0
PreviewTime: 178515
Countdown: 0
SampleSet: Soft
StackLeniency: 0.4
Mode: 0
LetterboxInBreaks: 0
WidescreenStoryboard: 1

[Editor]
Bookmarks: 113905
DistanceSpacing: 1
BeatDivisor: 4
GridSize: 8
TimelineZoom: 1.8

[Metadata]
Title:GONG
TitleUnicode:GONG
Artist:WANIMA
ArtistUnicode:WANIMA
Creator:Smoke
Version:INSANE
Source:ONE PIECE STAMPEDE
Tags:full ver version japanese anime j-rock jrock rock film movie 14 2019 luffy zoro sanji nami usopp chopper robin franky brook Summer Trap!! trap kenta ワンピーススタンピード
BeatmapID:2297301
BeatmapSetID:1099681

[Difficulty]
HPDrainRate:5.2
CircleSize:3.5
OverallDifficulty:8.3
ApproachRate:9
SliderMultiplier:1.5
SliderTickRate:1

[Events]
//Background and Video events
0,0,"bg.jpg",0,0
//Break Periods
2,1638,10684
//Storyboard Layer 0 (Background)
//Storyboard Layer 1 (Fail)
//Storyboard Layer 2 (Pass)
//Storyboard Layer 3 (Foreground)
//Storyboard Layer 4 (Overlay)
//Storyboard Sound Samples

[TimingPoints]
208,307.692307692308,4,2,1,70,1,0
208,-125,4,2,1,70,0,0
1438,-142.857142857143,4,2,1,70,0,0
11284,-100,4,2,1,70,0,0
18668,-100,4,2,1,70,0,0
18976,-100,4,2,1,60,0,0
19899,-100,4,2,1,80,0,0
21131,-100,4,2,1,55,0,0
23592,-100,4,2,1,80,0,1
25976,-100,4,2,1,5,0,1
26053,-100,4,2,1,80,0,1
30899,-100,4,2,1,5,0,1
30976,-100,4,2,1,80,0,1
33361,-100,4,2,1,5,0,1
33438,-100,4,2,1,80,0,1
35822,-100,4,2,1,5,0,1
35899,-100,4,2,1,80,0,1
36438,-100,4,2,1,5,0,1
36515,-100,4,2,1,80,0,1
37053,-100,4,2,1,5,0,1
37130,-100,4,2,1,80,0,1
38284,-100,4,2,1,5,0,1
38361,-100,4,2,1,80,0,1
45668,-100,4,2,1,5,0,1
45745,-100,4,2,1,80,0,1
50591,-100,4,2,1,5,0,1
50668,-100,4,2,1,80,0,1
53053,-100,4,2,1,5,0,1
53130,-100,4,2,1,80,0,1
56745,-100,4,2,1,5,0,1
56822,-100,4,2,1,80,0,1
57976,-100,4,2,1,5,0,1
58053,-100,4,2,1,80,0,1
60745,-100,4,2,1,5,0,1
60822,-100,4,2,1,80,0,1
61361,-100,4,2,1,5,0,1
61438,-100,4,2,1,80,0,1
62208,-166.666666666667,4,2,1,80,0,0
62976,-111.111111111111,4,2,1,70,0,0
64745,-111.111111111111,4,2,1,5,0,0
64822,-111.111111111111,4,2,1,70,0,0
70361,-117.647058823529,4,2,1,70,0,0
72822,-111.111111111111,4,2,1,70,0,0
80130,-111.111111111111,4,2,1,5,0,0
80207,-99.9999999999999,4,2,1,75,0,0
81438,-125,4,2,1,75,0,0
82668,-100,4,2,1,75,0,0
85130,-166.666666666667,4,2,1,70,0,0
86822,-166.666666666667,4,2,1,60,0,0
87592,-90.9090909090909,4,2,1,80,0,1
88745,-90.9090909090909,4,2,1,5,0,1
88822,-90.9090909090909,4,2,1,80,0,1
96130,-90.9090909090909,4,2,1,5,0,1
96207,-90.9090909090909,4,2,1,80,0,1
96438,-90.9090909090909,4,2,1,5,0,1
96515,-90.9090909090909,4,2,1,80,0,1
97053,-90.9090909090909,4,2,1,5,0,1
97130,-90.9090909090909,4,2,1,80,0,1
97361,-90.9090909090909,4,2,1,5,0,1
97438,-90.9090909090909,4,2,1,80,0,1
102284,-90.9090909090909,4,2,1,5,0,1
102361,-90.9090909090909,4,2,1,80,0,1
108438,-90.9090909090909,4,2,1,5,0,1
108515,-90.9090909090909,4,2,1,80,0,1
109053,-90.9090909090909,4,2,1,5,0,1
109130,-90.9090909090909,4,2,1,80,0,1
110284,-90.9090909090909,4,2,1,5,0,1
110361,-90.9090909090909,4,2,1,80,0,1
117053,-90.9090909090909,4,2,1,5,0,1
117130,-90.9090909090909,4,2,1,80,0,1
125746,-166.666666666667,4,2,1,80,0,0
126976,-100,4,2,1,75,0,0
128822,-100,4,2,1,70,0,0
129438,-100,4,2,1,70,0,0
139284,-111.111111111111,4,2,1,65,0,0
142899,-111.111111111111,4,2,1,5,0,0
142976,-111.111111111111,4,2,1,65,0,0
145361,-111.111111111111,4,2,1,5,0,0
145438,-111.111111111111,4,2,1,65,0,0
146591,-111.111111111111,4,2,1,5,0,0
146668,-111.111111111111,4,2,1,65,0,0
150284,-111.111111111111,4,2,1,5,0,0
150361,-111.111111111111,4,2,1,65,0,0
151514,-111.111111111111,4,2,1,5,0,0
151591,-111.111111111111,4,2,1,65,0,0
152745,-111.111111111111,4,2,1,5,0,0
152822,-111.111111111111,4,2,1,65,0,0
155207,-111.111111111111,4,2,1,5,0,0
155284,-111.111111111111,4,2,1,65,0,0
158976,-111.111111111111,4,2,1,70,0,0
163899,-105.263157894737,4,2,1,75,0,0
166284,-105.263157894737,4,2,1,5,0,0
166361,-100,4,2,1,80,0,0
167591,-166.666666666667,4,2,1,80,0,0
168822,-100,4,2,1,70,0,0
173745,-111.111111111111,4,2,1,60,0,0
174361,-105.263157894737,4,2,1,65,0,0
174976,-100,4,2,1,70,0,0
175591,-90.9090909090909,4,2,1,75,0,0
176207,-83.3333333333333,4,2,1,80,0,0
178668,-142.857142857143,4,2,1,60,0,0
182361,-111.111111111111,4,2,1,75,0,0
183591,-142.857142857143,4,2,1,60,0,0
185438,-111.111111111111,4,2,1,75,0,0
188514,-142.857142857143,4,2,1,60,0,0
193438,-125,4,2,1,60,0,0
193668,-125,4,2,1,5,0,0
193745,-125,4,2,1,60,0,0
194668,-105.263157894737,4,2,1,70,0,0
195899,-90.9090909090909,4,2,1,80,0,0
198361,-90.9090909090909,4,2,1,80,0,1
199514,-90.9090909090909,4,2,1,5,0,1
199591,-90.9090909090909,4,2,1,80,0,1
206976,-83.3333333333333,4,2,1,85,0,1
207899,-80,4,2,1,80,0,1
208130,-80,4,2,1,5,0,1
208207,-90.9090909090909,4,2,1,80,0,1
208438,-90.9090909090909,4,2,1,5,0,1
208514,-90.9090909090909,4,2,1,80,0,1
216822,-90.9090909090909,4,2,1,85,0,1
217053,-90.9090909090909,4,2,1,5,0,1
217129,-90.9090909090909,4,2,1,85,0,1
220515,-125,4,2,1,70,0,0
221745,-1000,4,2,1,70,0,0
221822,-1000,4,2,1,5,0,0
223899,-166.666666666667,4,2,1,65,0,0
224130,-166.666666666667,4,2,1,5,0,0
224207,-100,4,2,1,70,0,0
224668,-100,4,2,1,75,0,0
225130,-100,4,2,1,80,0,0
225438,-166.666666666667,4,2,1,55,0,0
226669,-133.333333333333,4,2,1,85,0,1
226976,-71.4285714285714,4,2,1,85,0,1
227284,-86.9565217391304,4,2,1,85,0,1
229130,-133.333333333333,4,2,1,85,0,1
229437,-71.4285714285714,4,2,1,85,0,1
229745,-86.9565217391304,4,2,1,85,0,1
231591,-133.333333333333,4,2,1,85,0,1
231898,-71.4285714285714,4,2,1,85,0,1
232206,-86.9565217391304,4,2,1,85,0,1
232822,-133.333333333333,4,2,1,85,0,1
233129,-71.4285714285714,4,2,1,85,0,1
233437,-86.9565217391304,4,2,1,85,0,1
235207,-86.9565217391304,4,2,1,85,0,1
235284,-86.9565217391304,4,2,1,85,0,1
236514,-133.333333333333,4,2,1,85,0,1
236821,-71.4285714285714,4,2,1,85,0,1
237129,-86.9565217391304,4,2,1,85,0,1
238976,-133.333333333333,4,2,1,85,0,1
239283,-71.4285714285714,4,2,1,85,0,1
239591,-86.9565217391304,4,2,1,85,0,1
241437,-133.333333333333,4,2,1,85,0,1
241744,-71.4285714285714,4,2,1,85,0,1
242052,-86.9565217391304,4,2,1,85,0,1
242668,-133.333333333333,4,2,1,85,0,1
242975,-71.4285714285714,4,2,1,85,0,1
243283,-86.9565217391304,4,2,1,85,0,1
244130,-86.9565217391304,4,2,1,85,0,1
244207,-86.9565217391304,4,2,1,85,0,1
245053,-86.9565217391304,4,2,1,85,0,1
245130,-86.9565217391304,4,2,1,85,0,1
246361,-100,4,2,1,70,0,0
253745,-100,4,2,1,70,0,0
253976,-90.9090909090909,4,2,1,5,0,0
254053,-100,4,2,1,65,0,0
254976,-100,4,2,1,80,0,0
256207,-166.666666666667,4,2,1,55,0,0
257921,307.692307692308,4,2,1,70,1,0
257921,-166.666666666667,4,2,1,70,0,0
258074,-250.000000000001,4,2,1,70,0,0
258536,-250.000000000001,4,2,1,70,0,0
259151,-250.000000000001,4,2,1,65,0,0
259767,-250.000000000001,4,2,1,60,0,0
260382,-250.000000000001,4,2,1,55,0,0
260997,-250.000000000001,4,2,1,50,0,0
261613,-250.000000000001,4,2,1,45,0,0
262228,-250.000000000001,4,2,1,40,0,0
262844,-250.000000000001,4,2,1,35,0,0
263459,-250.000000000001,4,2,1,30,0,0
264074,-250.000000000001,4,2,1,25,0,0
264690,-250.000000000001,4,2,1,20,0,0
265305,-250.000000000001,4,2,1,15,0,0
265921,-250.000000000001,4,2,1,10,0,0
266536,-250.000000000001,4,2,1,5,0,0

[Colours]
Combo1 : 255,205,53
Combo2 : 12,190,16
Combo3 : 87,160,242
Combo4 : 243,82,86

[HitObjects]
394,327,208,5,4,0:0:0:0:
397,313,515,1,4,0:0:0:0:
400,299,823,1,4,0:0:0:0:
403,285,1131,1,4,0:0:0:0:
136,348,1438,5,8,3:2:0:0:
491,75,11284,6,0,B|438:87|438:87|408:121|408:121|335:140,1,150,6|10,3:2|3:2,0:0:0:0:
467,245,11746,2,0,L|494:154,1,75,2|0,0:0|3:2,0:0:0:0:
354,43,12054,1,2,3:2:0:0:
232,130,12208,1,10,3:2:0:0:
146,57,12361,2,0,P|63:38|-12:23,1,150,6|0,3:2|3:2,0:0:0:0:
0,177,12823,2,0,P|37:166|82:155,1,75,8|2,3:2|0:0,0:0:0:0:
228,171,13131,1,10,3:2:0:0:
265,198,13208,1,8,3:2:0:0:
285,239,13284,1,10,3:2:0:0:
284,286,13361,1,8,3:2:0:0:
261,326,13438,1,8,3:2:0:0:
261,326,13746,6,0,P|196:309|115:294,1,150,6|10,3:2|3:2,0:0:0:0:
272,341,14208,2,0,P|309:333|352:327,1,75,2|8,0:0|3:2,0:0:0:0:
494,378,14515,1,2,3:2:0:0:
424,268,14669,1,2,0:0:0:0:
496,113,14823,2,0,B|454:116|418:156|445:150|413:183|362:182,1,150,6|2,3:2|3:2,0:0:0:0:
244,55,15284,5,14,3:2:0:0:
365,95,15438,1,2,3:2:0:0:
213,211,15592,1,12,3:2:0:0:
89,164,15746,1,2,3:2:0:0:
0,205,15900,1,12,3:2:0:0:
0,205,16054,1,12,3:2:0:0:
91,281,16208,6,0,L|106:194,1,75,6|0,3:2|0:0,0:0:0:0:
89,164,16438,1,0,3:2:0:0:
89,164,16515,1,10,3:2:0:0:
192,51,16669,2,0,P|232:39|270:33,1,75,2|0,3:2|3:2,0:0:0:0:
96,28,16977,1,2,3:2:0:0:
221,141,17131,1,10,3:2:0:0:
342,94,17284,2,0,P|420:106|517:126,1,150,2|2,3:2|3:2,0:0:0:0:
322,257,17746,2,0,P|305:218|315:168,1,75,10|2,3:2|3:2,0:0:0:0:
478,248,18054,1,2,0:0:0:0:
478,248,18208,1,2,3:2:0:0:
342,353,18361,2,0,L|254:339,1,75,8|0,3:2|3:2,0:0:0:0:
76,376,18669,6,0,B|61:326|61:326|30:302|30:302|8:220,1,150,14|2,3:2|3:2,0:0:0:0:
130,171,19131,2,0,L|108:262,1,75,0|2,3:2|3:2,0:0:0:0:
73,85,19438,1,0,3:2:0:0:
224,137,19592,2,0,L|304:121,1,75,2|0,3:2|3:2,3:2:0:0:
430,3,19900,5,8,3:2:0:0:
406,95,20054,1,8,3:2:0:0:
476,211,20208,1,8,3:2:0:0:
452,303,20361,1,8,3:2:0:0:
284,248,20515,1,8,3:2:0:0:
325,346,20669,1,8,3:2:0:0:
146,291,20823,1,8,3:2:0:0:
146,291,20977,1,8,3:2:0:0:
479,312,23592,6,0,P|412:267|337:288,1,150,4|8,3:3|3:2,0:0:0:0:
192,380,24054,1,2,0:0:0:0:
225,267,24208,2,0,P|233:236|242:192,1,75,2|2,3:2|3:2,0:0:0:0:
151,57,24515,1,10,3:2:0:0:
320,137,24669,1,2,0:0:0:0:
452,83,24823,6,0,B|402:93|402:93|374:127|374:127|317:137,1,150,2|8,3:2|3:2,0:0:0:0:
151,57,25284,1,2,0:0:0:0:
264,7,25438,2,0,P|253:50|239:95,1,75,2|2,3:2|3:2,0:0:0:0:
131,158,25746,2,0,P|90:134|4:153,1,112.5,10|0,3:2|0:0,0:0:0:0:
4,182,26054,5,2,3:2:0:0:
4,182,26208,1,2,3:2:0:0:
111,268,26361,2,0,P|148:258|205:251,1,75,8|2,3:2|0:0,0:0:0:0:
331,285,26669,1,2,3:2:0:0:
331,285,26823,1,2,3:2:0:0:
271,146,26977,1,10,3:2:0:0:
271,146,27131,1,2,0:0:0:0:
352,75,27284,6,0,L|430:94,1,75,2|2,3:2|3:2,0:0:0:0:
512,253,27592,2,0,L|439:270,1,75,8|2,3:2|0:0,0:0:0:0:
271,146,27900,1,2,3:2:0:0:
340,342,28054,1,2,3:2:0:0:
427,182,28208,2,0,L|340:197,1,75,10|2,3:2|0:0,0:0:0:0:
173,287,28515,6,0,B|126:288|97:253|121:259|91:219|35:217,1,150,6|8,3:2|3:2,0:0:0:0:
34,313,28977,1,2,0:0:0:0:
129,148,29131,1,2,3:2:0:0:
87,54,29284,1,2,3:2:0:0:
243,141,29438,2,0,P|281:131|323:123,1,75,10|2,3:2|0:0,0:0:0:0:
474,68,29746,6,0,P|407:47|317:26,1,150,2|8,3:2|3:2,0:0:0:0:
248,238,30208,1,2,0:0:0:0:
358,210,30361,2,0,P|397:200|445:190,1,75,2|0,3:2|3:2,0:0:0:0:
512,337,30669,2,0,P|465:324|385:307,1,112.5,10|0,3:2|0:0,0:0:0:0:
356,302,30977,5,2,3:2:0:0:
356,302,31131,1,2,3:2:0:0:
225,359,31284,2,0,P|195:348|150:337,1,75,10|2,3:2|0:0,0:0:0:0:
280,252,31592,5,2,3:2:0:0:
232,151,31746,1,2,3:2:0:0:
336,33,31900,2,0,P|307:53|253:57,1,75,10|2,3:2|0:0,0:0:0:0:
134,23,32208,6,0,B|87:34|87:34|52:70|52:70|-2:81,1,150,2|8,3:2|3:2,0:0:0:0:
131,211,32669,1,8,3:2:0:0:
131,211,32746,1,8,3:2:0:0:
131,211,32823,1,2,3:2:0:0:
242,141,32977,1,0,3:2:0:0:
394,196,33131,2,0,P|410:261|420:311,1,112.5,12|0,3:2|0:0,0:0:0:0:
389,344,33438,6,0,B|338:328|338:328|298:341|298:341|238:324,1,150,6|10,3:2|3:2,0:0:0:0:
129,373,33900,1,0,0:0:0:0:
129,373,34054,2,0,L|113:284,1,75,2|0,3:2|3:2,0:0:0:0:
13,170,34361,6,0,P|54:205|156:183,1,150,10|0,3:2|3:2,0:0:0:0:
233,113,34823,1,0,3:2:0:0:
66,50,34977,2,0,P|80:85|89:122,1,75,10|0,3:2|0:0,0:0:0:0:
245,214,35284,1,2,3:2:0:0:
245,214,35438,1,0,3:2:0:0:
371,150,35592,2,0,P|407:158|450:177,1,75,10|0,3:2|0:0,0:0:0:0:
322,18,35900,6,0,P|303:50|300:99,1,75,2|0,3:2|3:2,0:0:0:0:
329,234,36208,2,0,P|349:296|359:347,1,112.5,10|0,3:2|0:0,0:0:0:0:
337,383,36515,1,2,3:2:0:0:
337,383,36669,1,0,3:2:0:0:
204,308,36823,2,0,P|166:299|94:336,1,112.5,10|0,3:2|0:0,0:0:0:0:
68,359,37131,5,0,3:2:0:0:
68,359,37284,1,0,3:2:0:0:
11,228,37438,2,0,L|33:127,1,75,8|0,3:2|0:0,0:0:0:0:
204,308,37746,1,0,3:2:0:0:
204,308,37900,1,0,3:2:0:0:
261,177,38054,2,0,L|239:76,1,75,8|0,3:2|0:0,0:0:0:0:
481,266,38361,6,0,B|430:251|430:251|407:216|407:216|341:198,1,150,4|10,3:2|3:2,0:0:0:0:
491,175,38823,1,2,0:0:0:0:
345,295,38977,2,0,L|264:274,1,75,2|0,3:2|3:2,0:0:0:0:
402,111,39284,1,8,3:2:0:0:
312,45,39438,2,0,L|231:66,1,75,2|0,0:0|3:2,0:0:0:0:
104,23,39746,2,0,P|120:64|129:96,1,75,2|8,3:2|3:2,0:0:0:0:
191,216,40054,2,0,P|164:289|139:378,1,150,2|0,0:0|3:2,0:0:0:0:
69,276,40515,1,10,3:2:0:0:
245,364,40669,1,2,0:0:0:0:
367,321,40823,6,0,P|407:331|441:346,1,75,2|0,3:2|3:2,0:0:0:0:
232,370,41131,1,10,3:2:0:0:
295,248,41284,1,2,0:0:0:0:
183,109,41438,2,0,B|140:97|102:138|128:134|90:176|30:159,1,150,6|12,3:2|3:2,0:0:0:0:
200,98,41900,2,0,P|238:105|290:119,1,75,12|0,3:2|3:2,0:0:0:0:
371,34,42208,2,0,P|365:18|352:-4,2,37.5,8|8|8,3:2|3:2|3:2,0:0:0:0:
480,121,42515,1,10,3:2:0:0:
480,121,42592,1,8,3:2:0:0:
480,121,42669,5,10,3:2:0:0:
357,223,42823,1,10,3:2:0:0:
396,376,42977,1,10,3:2:0:0:
512,274,43131,1,10,3:2:0:0:
361,132,43284,6,0,B|309:143|309:143|276:180|276:180|217:194,1,150,4|8,3:3|3:2,0:0:0:0:
357,223,43746,1,2,0:0:0:0:
225,97,43900,2,0,L|152:112,1,75,2|2,3:2|3:2,0:0:0:0:
7,80,44208,1,10,3:2:0:0:
84,179,44361,1,2,0:0:0:0:
2,297,44515,6,0,B|45:300|76:344|50:339|79:379|129:379,1,150,2|8,3:2|3:2,0:0:0:0:
296,267,44977,1,2,0:0:0:0:
210,199,45131,2,0,P|197:237|186:284,1,75,2|0,3:2|3:2,0:0:0:0:
353,384,45438,2,0,P|400:361|460:343,1,112.5,10|0,3:2|0:0,0:0:0:0:
501,335,45746,5,2,3:2:0:0:
501,335,45900,1,2,3:2:0:0:
442,229,46054,2,0,L|460:144,1,75,10|2,3:2|0:0,0:0:0:0:
235,271,46361,1,2,3:2:0:0:
235,271,46515,1,2,3:2:0:0:
294,165,46669,2,0,L|276:80,1,75,10|2,3:2|0:0,0:0:0:0:
60,118,46977,6,0,P|114:164|199:152,1,150,2|10,3:2|3:2,0:0:0:0:
377,75,47438,1,2,0:0:0:0:
377,75,47515,1,2,0:0:0:0:
377,75,47592,1,2,3:2:0:0:
288,13,47746,1,2,3:2:0:0:
145,71,47900,1,10,3:2:0:0:
42,19,48054,1,2,0:0:0:0:
112,184,48208,6,0,P|84:260|65:329,1,150,6|8,3:2|3:2,0:0:0:0:
249,384,48669,1,2,0:0:0:0:
199,224,48823,2,0,P|213:266|226:314,1,75,2|2,3:2|3:2,0:0:0:0:
377,368,49131,1,10,3:2:0:0:
490,311,49284,1,2,0:0:0:0:
362,374,49438,6,0,P|378:299|400:216,1,150,2|8,3:2|3:2,0:0:0:0:
426,133,49900,1,2,0:0:0:0:
270,87,50054,2,0,P|281:131|290:177,1,75,2|0,3:2|3:2,0:0:0:0:
496,65,50361,2,0,P|451:34|371:50,1,112.5,10|0,3:2|0:0,0:0:0:0:
354,56,50669,5,2,3:2:0:0:
354,56,50823,1,2,3:2:0:0:
226,10,50977,2,0,L|243:95,1,75,10|2,3:2|0:0,0:0:0:0:
167,215,51284,1,2,3:2:0:0:
167,215,51438,1,2,3:2:0:0:
294,169,51592,2,0,L|277:254,1,75,10|2,3:2|0:0,0:0:0:0:
399,377,51900,5,2,3:2:0:0:
399,377,52054,1,2,3:2:0:0:
463,272,52208,1,10,3:2:0:0:
287,347,52361,1,8,3:2:0:0:
287,347,52438,1,8,3:2:0:0:
287,347,52515,2,0,P|248:334|205:322,1,75,2|0,3:2|3:2,0:0:0:0:
39,340,52823,2,0,P|69:295|51:215,1,112.5,12|0,3:2|0:0,0:0:0:0:
45,197,53131,6,0,B|93:182|93:182|117:146|117:146|179:129,2,150,6|10|2,3:2|3:2|3:2,0:0:0:0:
36,103,53900,1,0,3:2:0:0:
172,225,54054,1,10,3:2:0:0:
278,167,54208,6,0,P|334:148|422:178,1,150,2|0,0:0|3:2,0:0:0:0:
259,24,54669,2,0,P|239:57|218:104,1,75,10|0,3:2|0:0,0:0:0:0:
172,225,54977,1,2,3:2:0:0:
172,225,55131,1,0,3:2:0:0:
36,103,55284,2,0,P|55:135|71:168,1,75,10|2,3:2|0:0,0:0:0:0:
0,317,55592,6,0,P|34:303|86:301,1,75,2|0,3:2|3:2,0:0:0:0:
226,378,55900,1,10,3:2:0:0:
226,378,56208,2,0,P|240:338|261:292,1,75,2|0,3:2|3:2,0:0:0:0:
256,152,56515,2,0,P|288:198|360:209,1,112.5,10|0,3:2|0:0,0:0:0:0:
384,199,56823,5,0,3:2:0:0:
384,199,56977,1,0,3:2:0:0:
473,287,57131,2,0,L|488:213,1,75,8|0,3:2|0:0,0:0:0:0:
345,64,57438,1,0,3:2:0:0:
345,64,57592,1,0,3:2:0:0:
256,152,57746,2,0,L|241:78,1,75,8|0,3:2|0:0,0:0:0:0:
10,168,58054,6,0,B|56:183|56:183|87:226|87:226|136:243,1,150,4|10,3:2|3:2,0:0:0:0:
143,147,58515,1,2,0:0:0:0:
1,261,58669,2,0,P|13:302|24:347,1,75,2|0,3:2|3:2,0:0:0:0:
228,229,58977,1,10,3:2:0:0:
143,147,59131,2,0,P|131:188|120:233,1,75,2|0,0:0|3:2,0:0:0:0:
271,317,59438,2,0,P|301:292|318:253,1,75,2|8,3:2|3:2,0:0:0:0:
254,97,59746,2,0,P|301:148|397:140,1,150,2|0,0:0|3:2,0:0:0:0:
497,88,60208,1,10,3:2:0:0:
497,88,60361,1,2,0:0:0:0:
428,239,60515,6,0,P|446:300|469:399,1,150,6|10,3:2|3:2,0:0:0:0:
512,184,60977,1,0,3:2:0:0:
316,260,61131,6,0,B|266:243|266:243|241:210|241:210|182:190,1,150,6|10,3:2|3:2,0:0:0:0:
31,33,61746,5,10,3:2:0:0:
57,157,61900,1,0,3:2:0:0:
19,238,62054,1,0,3:2:0:0:
47,362,62208,1,8,3:2:0:0:
47,362,62977,6,0,B|94:354|94:354|121:324|121:324|188:310,1,134.999995880127,6|14,3:2|3:2,0:0:0:0:
307,377,63438,2,0,P|277:318|298:255,1,134.999995880127,2|0,0:0|3:2,0:0:0:0:
436,298,63900,2,0,P|402:303|369:311,1,67.4999979400635,8|0,3:2|0:0,0:0:0:0:
499,210,64208,1,0,3:2:0:0:
499,210,64361,1,0,3:2:0:0:
388,133,64515,2,0,P|355:124|321:119,1,67.4999979400635,8|0,3:2|0:0,0:0:0:0:
512,66,64823,1,2,3:2:0:0:
407,136,64977,1,2,3:2:0:0:
274,41,65131,2,0,P|241:46|207:54,1,67.4999979400635,10|2,3:2|0:0,0:0:0:0:
72,0,65438,6,0,L|91:69,1,67.4999979400635,2|0,3:2|3:2,0:0:0:0:
0,243,65746,1,10,3:2:0:0:
126,183,65900,2,0,B|163:184|194:228|168:223|193:260|237:262,1,134.999995880127,2|0,0:0|3:2,0:0:0:0:
74,333,66361,2,0,P|86:299|103:265,1,67.4999979400635,8|0,3:2|0:0,0:0:0:0:
257,184,66669,1,0,3:2:0:0:
257,184,66823,1,0,3:2:0:0:
135,86,66977,2,0,P|103:92|55:108,1,67.4999979400635,8|0,3:2|0:0,0:0:0:0:
258,195,67284,1,0,3:2:0:0:
366,136,67438,1,0,3:2:0:0:
509,216,67592,1,8,3:2:0:0:
509,216,67900,6,0,P|499:253|487:300,1,67.4999979400635,6|0,3:2|0:0,0:0:0:0:
305,356,68208,2,0,P|296:323|287:290,1,67.4999979400635,10|0,3:2|0:0,0:0:0:0:
366,136,68515,1,2,3:2:0:0:
258,195,68669,1,0,3:2:0:0:
129,111,68823,2,0,P|138:76|155:23,1,67.4999979400635,10|0,3:2|0:0,0:0:0:0:
270,190,69131,5,2,3:2:0:0:
378,132,69284,1,0,3:2:0:0:
504,203,69438,2,0,P|493:238|484:279,1,67.4999979400635,10|0,3:2|0:0,0:0:0:0:
338,356,69746,1,2,3:2:0:0:
232,290,69900,1,0,3:2:0:0:
85,338,70054,2,0,P|77:303|65:258,1,67.4999979400635,10|0,3:2|0:0,0:0:0:0:
16,179,70361,5,2,3:2:0:0:
16,179,70515,1,0,3:2:0:0:
185,93,70669,2,0,P|172:129|162:169,1,63.7500012159348,14|0,3:2|3:2,0:0:0:0:
128,15,70977,1,2,3:2:0:0:
128,15,71131,1,0,3:2:0:0:
273,64,71284,2,0,L|342:52,1,63.7500012159348,10|0,3:2|3:2,0:0:0:0:
457,36,71592,1,2,3:2:0:0:
457,36,71746,1,0,3:2:0:0:
324,167,71900,2,0,P|337:203|347:243,1,63.7500012159348,14|12,3:2|3:2,0:0:0:0:
380,350,72208,1,2,3:2:0:0:
479,273,72361,1,10,3:2:0:0:
324,167,72515,1,10,3:2:0:0:
285,158,72592,1,8,3:2:0:0:
246,165,72669,1,10,3:2:0:0:
213,187,72746,1,8,3:2:0:0:
192,220,72823,6,0,P|124:203|46:189,1,134.999995880127,14|14,3:2|3:2,0:0:0:0:
243,349,73284,2,0,P|299:313|389:318,1,134.999995880127,2|0,0:0|3:2,0:0:0:0:
500,259,73746,2,0,P|463:252|425:227,1,67.4999979400635,8|0,3:2|0:0,0:0:0:0:
305,149,74054,1,0,3:2:0:0:
305,149,74208,1,0,3:2:0:0:
419,84,74361,2,0,P|407:122|395:152,1,67.4999979400635,8|2,3:2|0:0,0:0:0:0:
253,231,74669,1,2,3:2:0:0:
170,157,74823,1,2,3:2:0:0:
14,217,74977,1,10,3:2:0:0:
87,114,75131,1,2,0:0:0:0:
0,0,75284,6,0,P|40:10|90:21,1,67.4999979400635,2|0,3:2|3:2,0:0:0:0:
251,95,75592,1,10,3:2:0:0:
354,49,75746,2,0,P|402:33|493:83,1,134.999995880127,2|0,0:0|3:2,0:0:0:0:
359,220,76208,2,0,P|351:187|336:145,1,67.4999979400635,8|0,3:2|0:0,0:0:0:0:
512,187,76515,1,0,3:2:0:0:
512,187,76669,1,0,3:2:0:0:
378,314,76823,2,0,P|345:314|299:292,1,67.4999979400635,12|0,3:2|0:0,0:0:0:0:
210,205,77131,1,0,3:2:0:0:
279,105,77284,1,8,3:2:0:0:
279,105,77361,1,8,3:2:0:0:
279,105,77438,2,0,L|263:51,1,33.7499989700318,10|8,3:2|3:2,0:0:0:0:
206,219,77592,2,0,L|190:273,1,33.7499989700318,10|8,3:2|3:2,0:0:0:0:
67,164,77746,6,0,L|-12:175,1,67.4999979400635,6|0,3:2|0:0,0:0:0:0:
123,24,78054,2,0,L|189:33,1,67.4999979400635,10|0,3:2|0:0,0:0:0:0:
382,7,78361,2,0,P|367:41|355:93,1,67.4999979400635,2|0,3:2|3:2,0:0:0:0:
439,219,78669,1,10,3:2:0:0:
499,110,78823,1,2,0:0:0:0:
431,232,78977,6,0,P|441:270|454:308,1,67.4999979400635,2|0,3:2|3:2,0:0:0:0:
307,284,79284,2,0,P|279:311|252:341,1,67.4999979400635,10|0,3:2|0:0,0:0:0:0:
204,202,79592,2,0,P|166:191|126:183,1,67.4999979400635,2|0,3:2|3:2,0:0:0:0:
11,330,79900,2,0,P|79:314|137:305,1,101.249996910095,10|0,3:2|0:0,0:0:0:0:
149,281,80208,5,14,3:2:0:0:
259,327,80361,1,0,3:2:0:0:
403,264,80515,2,0,L|487:281,1,75,10|0,3:2|3:2,0:0:0:0:
252,342,80823,5,14,3:2:0:0:
306,215,80977,1,0,3:2:0:0:
225,62,81131,2,0,L|142:78,1,75,10|0,3:2|3:2,0:0:0:0:
315,225,81438,5,14,3:2:0:0:
315,225,82669,6,0,B|354:226|391:185|361:192|397:151|444:150,2,150,10|12|0,3:2|3:2|3:2,0:0:0:0:
221,164,83438,1,0,3:2:0:0:
68,241,83592,1,8,3:2:0:0:
135,111,83746,6,0,P|124:73|109:31,1,75,0|0,3:2|0:0,0:0:0:0:
11,165,84054,1,0,3:2:0:0:
157,280,84208,2,0,P|144:315|134:351,1,75,8|0,3:2|0:0,0:0:0:0:
68,241,84515,1,0,3:2:0:0:
241,330,84669,1,0,3:2:0:0:
362,283,84823,1,8,3:2:0:0:
456,329,84977,1,2,0:0:0:0:
363,162,85131,5,6,3:2:0:0:
49,291,86874,6,0,L|52:311,2,14.9999995422363,0|0|14,3:2|3:2|3:2,0:0:0:0:
28,119,87131,1,14,3:2:0:0:
28,119,87592,6,0,P|66:142|113:155,1,82.5000025177003,6|2,3:2|3:2,0:0:0:0:
250,0,87900,2,0,P|210:12|175:34,1,82.5000025177003,6|2,3:2|0:0,0:0:0:0:
309,163,88208,1,2,3:2:0:0:
430,108,88361,1,2,3:2:0:0:
297,169,88515,2,0,P|279:232|263:298,1,123.75000377655,10|0,3:2|0:0,0:0:0:0:
306,325,88823,5,2,3:2:0:0:
306,325,88977,1,2,3:2:0:0:
427,253,89131,2,0,P|466:254|513:281,1,82.5000025177003,10|2,3:2|0:0,0:0:0:0:
232,384,89438,1,2,3:2:0:0:
232,384,89592,1,2,3:2:0:0:
111,312,89746,2,0,P|72:313|25:340,1,82.5000025177003,10|2,3:2|0:0,0:0:0:0:
196,189,90054,6,0,B|256:202|256:202|284:233|284:233|345:246,1,165.000005035401,2|8,3:2|3:2,0:0:0:0:
477,239,90515,1,2,0:0:0:0:
338,102,90669,1,2,3:2:0:0:
444,69,90823,2,0,L|428:150,1,82.5000025177003,2|8,3:2|3:2,0:0:0:0:
344,245,91131,1,2,0:0:0:0:
185,99,91284,6,0,B|137:101|99:149|131:140|98:182|48:185,1,165.000005035401,6|8,3:2|3:2,0:0:0:0:
0,24,91746,1,2,0:0:0:0:
202,106,91900,2,0,P|280:87|377:70,1,165.000005035401,2|8,3:2|3:2,0:0:0:0:
512,150,92361,1,2,0:0:0:0:
393,238,92515,6,0,P|402:194|418:153,1,82.5000025177003,6|2,3:2|0:0,0:0:0:0:
202,106,92823,2,0,P|216:144|224:185,1,82.5000025177003,10|0,3:2|0:0,0:0:0:0:
153,359,93131,1,2,3:2:0:0:
268,286,93284,1,2,3:2:0:0:
112,179,93438,2,0,P|70:178|30:199,1,82.5000025177003,10|2,3:2|0:0,0:0:0:0:
147,345,93746,5,2,3:2:0:0:
262,272,93900,1,2,3:2:0:0:
432,329,94054,2,0,P|471:318|523:309,1,82.5000025177003,10|2,3:2|0:0,0:0:0:0:
327,188,94361,5,6,3:2:0:0:
338,225,94515,1,2,3:2:0:0:
478,164,94669,5,6,3:2:0:0:
471,194,94823,1,2,0:0:0:0:
315,78,94977,6,0,B|262:89|262:89|231:131|231:131|168:145,2,165.000005035401,6|8|2,3:2|3:2|3:2,0:0:0:0:
425,147,95746,1,0,3:2:0:0:
296,253,95900,2,0,L|205:232,1,82.5000025177003,8|0,3:2|0:0,0:0:0:0:
25,157,96208,6,0,P|64:208|56:294,1,123.75000377655,2|0,3:2|0:0,0:0:0:0:
67,265,96515,2,0,P|87:221|113:179,1,82.5000025177003,12|2,3:2|0:0,0:0:0:0:
12,18,96823,2,0,P|51:33|104:41,1,82.5000025177003,2|0,3:2|3:2,0:0:0:0:
252,26,97131,2,0,P|299:13|381:-1,1,123.75000377655,12|0,3:2|0:0,0:0:0:0:
415,26,97438,6,0,B|398:87|398:87|413:131|413:131|398:184,2,165.000005035401,6|10|2,3:2|3:2|3:2,0:0:0:0:
497,80,98208,1,2,3:2:0:0:
318,138,98361,2,0,P|277:129|219:121,1,82.5000025177003,8|2,3:2|0:0,0:0:0:0:
82,30,98669,5,0,3:2:0:0:
82,30,98823,1,0,3:2:0:0:
125,120,98977,2,0,P|144:165|158:206,1,82.5000025177003,10|0,3:2|0:0,0:0:0:0:
63,353,99284,1,2,3:2:0:0:
63,353,99438,1,0,3:2:0:0:
153,310,99592,2,0,P|198:291|239:277,1,82.5000025177003,10|0,3:2|0:0,0:0:0:0:
429,332,99900,5,2,3:2:0:0:
429,332,100054,1,2,3:2:0:0:
326,368,100208,1,10,3:2:0:0:
326,368,100361,1,2,0:0:0:0:
229,279,100515,1,2,3:2:0:0:
229,279,100669,2,0,L|243:180,1,82.5000025177003,2|8,3:2|3:2,0:0:0:0:
374,95,100977,6,0,B|422:97|460:145|428:136|461:178|507:180,1,165.000005035401,2|0,0:0|3:2,0:0:0:0:
501,30,101438,1,12,3:2:0:0:
501,30,101592,1,10,3:2:0:0:
362,101,101746,2,0,P|318:86|277:78,1,82.5000025177003,2|0,3:2|3:2,0:0:0:0:
140,9,102054,2,0,P|176:68|154:134,1,123.75000377655,14|0,3:2|0:0,0:0:0:0:
138,160,102361,6,0,B|81:170|81:170|52:214|52:214|-13:230,2,165.000005035401,6|10|2,3:2|3:2|3:2,0:0:0:0:
0,139,103131,1,0,3:2:0:0:
137,250,103284,1,10,3:2:0:0:
259,201,103438,2,0,L|353:219,1,82.5000025177003,2|0,0:0|3:2,0:0:0:0:
189,338,103746,2,0,L|95:356,1,82.5000025177003,2|8,3:2|3:2,0:0:0:0:
252,189,104054,2,0,L|429:222,1,165.000005035401,2|0,0:0|3:2,0:0:0:0:
461,384,104515,1,8,3:2:0:0:
461,384,104823,5,2,3:2:0:0:
354,319,104977,2,0,L|271:338,1,82.5000025177003,2|12,3:2|3:2,0:0:0:0:
70,284,105284,5,2,0:0:0:0:
197,214,105438,2,0,L|280:233,1,82.5000025177003,2|0,3:2|3:2,0:0:0:0:
477,184,105746,5,14,3:2:0:0:
343,108,105900,2,0,L|260:127,1,82.5000025177003,2|6,0:0|3:2,0:0:0:0:
48,84,106208,5,10,3:2:0:0:
198,4,106361,2,0,L|281:23,1,82.5000025177003,10|8,3:2|3:2,0:0:0:0:
326,35,106592,1,8,3:2:0:0:
326,35,106669,5,2,3:2:0:0:
436,125,106823,2,0,L|490:114,2,41.2500012588501,10|8|8,3:2|3:2|3:2,0:0:0:0:
292,223,107131,1,8,3:2:0:0:
271,219,107208,1,8,3:2:0:0:
250,214,107284,5,6,3:2:0:0:
346,126,107438,1,2,3:2:0:0:
387,297,107592,2,0,L|409:405,1,82.5000025177003,6|2,3:2|0:0,0:0:0:0:
458,222,107900,1,2,3:2:0:0:
290,319,108054,1,2,3:2:0:0:
141,267,108208,2,0,P|80:277|8:293,1,123.75000377655,10|0,3:2|0:0,0:0:0:0:
19,290,108515,6,0,P|64:303|101:318,1,82.5000025177003,2|0,3:2|3:2,0:0:0:0:
238,220,108823,2,0,P|248:169|204:102,1,123.75000377655,10|0,3:2|0:0,0:0:0:0:
178,81,109131,1,2,3:2:0:0:
178,81,109284,1,2,3:2:0:0:
353,23,109438,2,0,P|340:62|328:104,1,82.5000025177003,10|2,3:2|0:0,0:0:0:0:
154,180,109746,1,2,3:2:0:0:
154,180,109900,1,0,3:2:0:0:
26,51,110054,2,0,P|102:31|154:63,1,123.75000377655,8|0,3:2|0:0,0:0:0:0:
178,81,110361,1,2,3:2:0:0:
178,81,110515,1,0,3:2:0:0:
353,23,110669,1,8,3:2:0:0:
353,23,110977,6,0,B|399:33|429:87|399:72|424:119|469:129,1,165.000005035401,6|8,3:2|3:2,0:0:0:0:
504,43,111438,1,2,0:0:0:0:
329,115,111592,2,0,P|316:158|304:218,1,82.5000025177003,2|0,3:2|3:2,0:0:0:0:
410,338,111900,2,0,P|381:315|318:307,1,82.5000025177003,8|0,3:2|0:0,0:0:0:0:
136,372,112208,6,0,P|121:296|94:203,1,165.000005035401,6|10,3:2|3:2,0:0:0:0:
21,67,112669,1,2,0:0:0:0:
149,122,112823,2,0,P|189:105|236:92,1,82.5000025177003,2|2,3:2|3:2,0:0:0:0:
367,0,113131,2,0,P|338:24|323:75,1,82.5000025177003,10|2,3:2|0:0,0:0:0:0:
443,214,113438,5,2,3:2:0:0:
512,117,113592,1,2,3:2:0:0:
337,191,113746,2,0,P|297:182|250:172,1,82.5000025177003,10|2,3:2|0:0,0:0:0:0:
451,296,114054,5,6,3:2:0:0:
442,256,114208,1,2,3:2:0:0:
302,324,114361,5,6,3:2:0:0:
310,300,114515,1,2,0:0:0:0:
215,175,114669,6,0,B|159:190|159:190|125:230|125:230|71:242,1,165.000005035401,6|8,3:2|3:2,0:0:0:0:
209,269,115131,1,2,0:0:0:0:
74,146,115284,2,0,P|66:108|54:61,1,82.5000025177003,2|0,3:2|3:2,0:0:0:0:
215,283,115592,1,10,3:2:0:0:
324,210,115746,1,2,0:0:0:0:
475,278,115900,6,0,P|492:199|514:110,1,165.000005035401,2|12,3:2|3:2,0:0:0:0:
318,195,116361,1,2,0:0:0:0:
275,91,116515,2,0,P|258:44|237:-15,1,82.5000025177003,2|0,3:2|3:2,0:0:0:0:
66,140,116823,2,0,P|125:124|196:165,1,123.75000377655,12|0,3:2|0:0,0:0:0:0:
198,199,117131,6,0,B|179:259|179:259|200:302|200:302|182:367,2,165.000005035401,6|10|2,3:2|3:2|3:2,0:0:0:0:
99,312,117900,1,2,3:2:0:0:
277,250,118054,2,0,L|368:273,1,82.5000025177003,8|2,3:2|0:0,0:0:0:0:
494,359,118361,6,0,P|484:320|472:268,1,82.5000025177003,0|0,3:2|3:2,0:0:0:0:
386,173,118669,1,10,3:2:0:0:
277,250,118823,1,2,0:0:0:0:
148,159,118977,2,0,L|170:72,1,82.5000025177003,2|0,3:2|3:2,0:0:0:0:
240,26,119208,1,2,0:0:0:0:
240,26,119284,2,0,P|274:12|321:23,1,82.5000025177003,10|2,3:2|0:0,0:0:0:0:
459,178,119592,5,2,3:2:0:0:
495,78,119746,1,2,3:2:0:0:
315,130,119900,1,10,3:2:0:0:
352,223,120054,1,2,0:0:0:0:
189,255,120208,1,2,3:2:0:0:
189,255,120361,2,0,P|196:212|209:160,1,82.5000025177003,2|8,3:2|3:2,0:0:0:0:
39,35,120669,1,2,0:0:0:0:
111,129,120823,5,2,3:2:0:0:
111,129,120977,1,0,3:2:0:0:
13,255,121131,2,0,P|49:238|108:240,1,82.5000025177003,12|0,3:2|3:2,0:0:0:0:
248,306,121438,1,2,3:2:0:0:
354,248,121592,1,8,3:2:0:0:
370,244,121669,1,8,3:2:0:0:
386,241,121746,2,0,L|437:232,1,41.2500012588501,8|8,3:2|3:2,0:0:0:0:
260,162,121900,2,0,L|209:153,1,41.2500012588501,8|8,3:2|3:2,0:0:0:0:
368,53,122054,6,0,B|429:64|429:64|456:101|456:101|524:113,1,165.000005035401,6|8,3:2|3:2,0:0:0:0:
393,351,122669,2,0,B|354:311|305:327|305:327|284:364|236:362,1,165.000005035401,2|8,3:2|3:2,0:0:0:0:
185,274,123131,1,2,0:0:0:0:
269,179,123284,2,0,P|274:84|199:26,2,165.000005035401,2|8|0,3:2|3:2|3:2,0:0:0:0:
185,274,124054,1,0,3:2:0:0:
88,169,124208,2,0,P|81:209|72:250,1,82.5000025177003,10|2,3:2|0:0,0:0:0:0:
252,353,124515,6,0,P|292:349|327:328,1,82.5000025177003,14|0,3:2|3:2,0:0:0:0:
399,248,124823,1,8,3:2:0:0:
330,104,124977,1,2,3:2:0:0:
453,58,125131,6,0,P|435:105|425:145,1,82.5000025177003,10|0,3:2|3:2,0:0:0:0:
464,330,125438,1,8,3:2:0:0:
509,214,125592,1,2,3:2:0:0:
247,274,125746,5,14,3:2:0:0:
247,274,126977,6,0,P|172:253|76:230,2,150,10|12|0,3:2|3:2|3:2,0:0:0:0:
342,221,127746,1,0,3:2:0:0:
270,46,127900,1,8,3:2:0:0:
381,91,128054,6,0,L|477:70,1,75,4|0,3:2|0:0,0:0:0:0:
250,168,128361,1,8,3:2:0:0:
235,164,128438,1,8,3:2:0:0:
220,160,128515,2,0,L|163:146,1,37.5,10|8,3:2|3:2,0:0:0:0:
342,221,128669,2,0,L|399:207,1,37.5,8|8,3:2|3:2,0:0:0:0:
256,360,128823,1,10,3:2:0:0:
264,368,129284,5,2,0:0:0:0:
264,368,129361,1,2,0:0:0:0:
264,368,129438,2,0,P|246:287|228:218,1,150,6|14,3:2|3:2,0:0:0:0:
60,294,129900,2,0,P|93:313|153:309,1,75,2|0,0:0|3:2,0:0:0:0:
229,222,130208,1,2,3:2:0:0:
112,148,130361,1,10,3:2:0:0:
278,69,130515,6,0,B|331:80|331:80|361:123|361:123|421:138,1,150,6|0,3:2|3:2,0:0:0:0:
224,0,130977,2,0,L|137:14,1,75,8|2,3:2|0:0,0:0:0:0:
11,112,131284,1,10,3:2:0:0:
41,146,131361,1,8,3:2:0:0:
83,162,131438,1,10,3:2:0:0:
130,157,131515,1,8,3:2:0:0:
168,131,131592,1,8,3:2:0:0:
168,131,131900,6,0,P|147:206|133:279,1,150,6|10,3:2|3:2,0:0:0:0:
301,262,132361,2,0,P|273:239|213:229,1,75,2|8,0:0|3:2,0:0:0:0:
326,364,132669,1,2,3:2:0:0:
488,290,132823,1,2,0:0:0:0:
422,384,132977,6,0,P|405:315|376:212,1,150,6|2,3:2|3:2,0:0:0:0:
306,93,133438,5,14,3:2:0:0:
427,124,133592,1,2,3:2:0:0:
278,224,133746,1,12,3:2:0:0:
157,193,133900,1,2,3:2:0:0:
69,237,134054,1,12,3:2:0:0:
69,237,134208,1,12,3:2:0:0:
3,123,134361,6,0,P|13:75|20:33,1,75,6|0,3:2|0:0,0:0:0:0:
29,0,134592,1,0,3:2:0:0:
29,0,134669,1,10,3:2:0:0:
148,75,134823,2,0,P|187:65|230:56,1,75,2|0,3:2|3:2,0:0:0:0:
408,34,135131,1,2,3:2:0:0:
305,7,135284,1,10,3:2:0:0:
428,138,135438,6,0,P|404:222|386:294,1,150,2|2,3:2|3:2,0:0:0:0:
512,380,135900,2,0,P|490:362|438:354,1,75,10|2,3:2|3:2,0:0:0:0:
279,384,136208,1,2,0:0:0:0:
279,384,136361,1,2,3:2:0:0:
211,243,136515,2,0,L|235:148,1,75,8|0,3:2|0:0,0:0:0:0:
142,53,136823,6,0,B|92:68|92:68|68:99|68:99|-14:121,1,150,6|2,3:2|3:2,0:0:0:0:
151,149,137284,1,2,0:0:0:0:
256,44,137438,2,0,L|337:63,1,75,8|2,3:2|3:2,0:0:0:0:
137,155,137746,1,10,3:2:0:0:
282,282,137900,6,0,L|455:249,1,150,6|2,3:2|0:0,0:0:0:0:
372,374,138361,2,0,L|320:385,1,37.5,10|8,3:2|3:2,0:0:0:0:
273,272,138515,2,0,L|309:264,1,37.5,10|8,3:2|3:2,0:0:0:0:
443,242,138669,1,10,3:2:0:0:
443,242,139284,6,0,P|452:196|465:156,1,67.4999979400635,4|0,3:2|0:0,0:0:0:0:
443,136,139515,1,0,3:2:0:0:
443,136,139592,2,0,P|383:120|302:167,1,134.999995880127,14|2,3:2|0:0,0:0:0:0:
171,256,140054,1,0,3:2:0:0:
208,147,140208,2,0,P|218:113|231:75,1,67.4999979400635,10|2,3:2|0:0,0:0:0:0:
66,40,140515,6,0,P|76:71|86:104,1,67.4999979400635,2|2,3:2|0:0,0:0:0:0:
99,150,140746,1,0,3:2:0:0:
99,150,140823,1,8,3:2:0:0:
43,278,140977,2,0,B|77:278|117:322|87:313|124:352|171:348,1,134.999995880127,2|0,3:2|3:2,0:0:0:0:
255,243,141438,2,0,P|245:212|228:172,1,67.4999979400635,8|0,3:2|0:0,0:0:0:0:
385,93,141746,6,0,P|372:124|361:156,1,67.4999979400635,0|0,3:2|0:0,0:0:0:0:
353,206,141977,1,0,3:2:0:0:
353,206,142054,1,8,3:2:0:0:
276,94,142208,1,0,3:2:0:0:
382,0,142361,2,0,P|414:3|454:34,1,67.4999979400635,2|0,0:0|3:2,0:0:0:0:
499,152,142669,2,0,P|478:215|468:260,1,101.249996910095,10|0,3:2|0:0,0:0:0:0:
482,295,142977,6,0,P|445:299|411:309,1,67.4999979400635,2|2,3:2|0:0,0:0:0:0:
375,329,143208,1,0,3:2:0:0:
375,329,143284,1,8,3:2:0:0:
257,255,143438,2,0,P|264:221|274:183,1,67.4999979400635,2|0,3:2|0:0,0:0:0:0:
112,104,143746,1,2,3:2:0:0:
145,217,143900,2,0,P|153:250|160:282,1,67.4999979400635,10|0,3:2|0:0,0:0:0:0:
331,116,144208,6,0,P|303:99|265:95,1,67.4999979400635,4|0,3:2|0:0,0:0:0:0:
224,113,144438,1,0,3:2:0:0:
224,113,144515,1,10,3:2:0:0:
118,61,144669,1,2,3:2:0:0:
0,124,144823,2,0,P|10:162|19:204,1,67.4999979400635,2|0,0:0|3:2,0:0:0:0:
0,351,145131,2,0,P|35:326|108:334,1,101.249996910095,8|0,3:2|0:0,0:0:0:0:
136,342,145438,6,0,P|148:309|170:260,1,67.4999979400635,2|2,3:2|0:0,0:0:0:0:
182,239,145669,1,0,3:2:0:0:
182,239,145746,1,10,3:2:0:0:
317,294,145900,2,0,P|384:276|461:261,1,134.999995880127,2|0,3:2|3:2,0:0:0:0:
445,95,146361,2,0,P|400:125|382:181,1,101.249996910095,10|0,3:2|0:0,0:0:0:0:
335,178,146669,6,0,P|306:163|266:158,1,67.4999979400635,2|0,3:2|0:0,0:0:0:0:
230,179,146900,1,0,3:2:0:0:
230,179,146977,1,10,3:2:0:0:
134,92,147131,2,0,P|141:60|154:23,1,67.4999979400635,2|0,3:2|0:0,0:0:0:0:
308,0,147438,2,0,P|318:31|326:64,1,67.4999979400635,2|8,3:2|3:2,0:0:0:0:
280,260,147746,1,2,0:0:0:0:
342,360,147900,6,0,P|376:350|413:341,1,67.4999979400635,4|8,3:2|3:2,0:0:0:0:
457,334,148131,1,8,3:2:0:0:
457,334,148208,2,0,P|464:313|474:287,1,33.7499989700318,10|8,3:2|3:2,0:0:0:0:
496,194,148361,1,8,3:2:0:0:
462,178,148438,1,8,3:2:0:0:
428,195,148515,1,8,3:3:0:0:
411,192,148592,1,8,3:3:0:0:
394,189,148669,1,8,3:2:0:0:
269,234,148823,1,8,3:2:0:0:
149,130,148977,1,8,3:2:0:0:
182,114,149054,1,8,3:2:0:0:
218,118,149131,6,0,P|253:132|285:140,1,67.4999979400635,6|0,3:2|0:0,0:0:0:0:
320,110,149361,1,0,3:2:0:0:
320,110,149438,1,14,3:2:0:0:
234,21,149592,1,2,3:2:0:0:
88,57,149746,2,0,P|57:48|16:42,1,67.4999979400635,2|0,0:0|3:2,0:0:0:0:
122,217,150054,2,0,P|108:260|91:325,1,101.249996910095,10|0,3:2|0:0,0:0:0:0:
123,351,150361,6,0,P|160:351|202:334,1,67.4999979400635,2|2,3:2|0:0,0:0:0:0:
230,319,150592,1,0,3:2:0:0:
230,319,150669,1,8,3:2:0:0:
334,242,150823,2,0,B|373:242|404:284|376:274|403:315|445:320,1,134.999995880127,2|0,3:2|3:2,0:0:0:0:
512,157,151284,2,0,P|462:164|403:178,1,101.249996910095,8|0,3:2|0:0,0:0:0:0:
370,152,151592,6,0,L|393:69,1,67.4999979400635,2|0,3:2|0:0,0:0:0:0:
362,48,151823,1,0,3:2:0:0:
362,48,151900,2,0,L|285:60,1,67.4999979400635,8|0,3:2|3:2,0:0:0:0:
153,131,152208,2,0,L|230:143,1,67.4999979400635,2|0,0:0|3:2,0:0:0:0:
355,244,152515,2,0,L|278:256,1,67.4999979400635,10|0,3:2|0:0,0:0:0:0:
116,351,152823,6,0,P|130:321|132:269,1,67.4999979400635,2|0,3:2|0:0,0:0:0:0:
117,243,153054,1,0,3:2:0:0:
117,243,153131,1,8,3:2:0:0:
44,138,153284,2,0,P|48:102|62:57,1,67.4999979400635,2|0,3:2|0:0,0:0:0:0:
139,0,153592,1,2,3:2:0:0:
270,66,153746,2,0,P|307:59|346:55,1,67.4999979400635,10|0,3:2|0:0,0:0:0:0:
467,11,154054,6,0,P|447:37|440:91,1,67.4999979400635,4|0,3:2|0:0,0:0:0:0:
435,124,154284,1,0,3:2:0:0:
435,124,154361,1,10,3:2:0:0:
491,216,154515,1,2,3:2:0:0:
438,322,154669,2,0,P|405:322|368:301,1,67.4999979400635,2|0,0:0|3:2,0:0:0:0:
259,188,154977,2,0,P|271:242|247:294,1,101.249996910095,10|0,3:2|0:0,0:0:0:0:
209,306,155284,6,0,L|132:295,1,67.4999979400635,2|2,3:2|0:0,0:0:0:0:
107,259,155515,1,0,3:2:0:0:
107,259,155592,1,8,3:2:0:0:
168,152,155746,2,0,P|157:89|140:14,1,134.999995880127,2|0,3:2|3:2,0:0:0:0:
41,114,156208,1,10,3:2:0:0:
171,168,156361,1,2,0:0:0:0:
322,96,156515,6,0,B|371:107|371:107|401:140|401:140|466:156,1,134.999995880127,6|8,3:2|3:2,0:0:0:0:
322,193,156977,1,2,3:2:0:0:
191,49,157131,6,0,B|142:60|142:60|112:93|112:93|47:109,1,134.999995880127,4|8,3:2|3:2,0:0:0:0:
192,147,157592,1,2,0:0:0:0:
354,40,157746,5,8,3:2:0:0:
311,141,157900,1,0,3:2:0:0:
357,232,158054,1,0,3:2:0:0:
315,358,158208,1,8,3:2:0:0:
315,358,158977,6,0,B|275:351|254:313|278:325|252:278|198:275,1,134.999995880127,6|14,3:2|3:2,0:0:0:0:
89,211,159438,2,0,P|106:247|118:284,1,67.4999979400635,2|0,0:0|3:2,0:0:0:0:
249,152,159746,1,0,3:2:0:0:
144,118,159900,2,0,P|111:109|71:100,1,67.4999979400635,8|0,3:2|0:0,0:0:0:0:
212,277,160208,5,0,3:2:0:0:
212,277,160361,1,0,3:2:0:0:
340,233,160515,2,0,P|373:224|413:215,1,67.4999979400635,8|0,3:2|0:0,0:0:0:0:
491,72,160823,1,2,3:2:0:0:
399,113,160977,1,2,3:2:0:0:
251,67,161131,1,10,3:2:0:0:
144,118,161284,1,2,0:0:0:0:
21,24,161438,6,0,P|35:60|42:95,1,67.4999979400635,2|0,3:2|3:2,0:0:0:0:
10,277,161746,1,10,3:2:0:0:
145,216,161900,2,0,B|189:220|216:258|190:251|218:290|261:293,1,134.999995880127,2|0,0:0|3:2,0:0:0:0:
101,365,162361,2,0,P|114:334|130:304,1,67.4999979400635,12|0,3:2|0:0,0:0:0:0:
285,207,162669,5,0,3:2:0:0:
285,207,162823,1,0,3:2:0:0:
228,80,162977,2,0,P|214:49|198:19,1,67.4999979400635,12|0,3:2|0:0,0:0:0:0:
355,112,163284,1,0,3:2:0:0:
439,33,163438,1,8,3:2:0:0:
458,37,163515,1,8,3:2:0:0:
479,40,163592,2,0,L|523:48,1,33.7499989700318,10|8,3:2|3:2,0:0:0:0:
339,116,163746,2,0,L|295:124,1,33.7499989700318,10|8,3:2|3:2,0:0:0:0:
432,238,163900,6,0,B|450:293|450:293|437:328|437:328|453:376,2,142.49999619484,6|10|2,3:2|3:2|3:2,0:0:0:0:
503,174,164669,1,0,3:2:0:0:
351,284,164823,1,10,3:2:0:0:
351,284,164977,1,2,0:0:0:0:
239,249,165131,6,0,P|201:241|162:234,1,71.2499980974198,2|0,3:2|3:2,0:0:0:0:
52,163,165438,2,0,P|64:199|77:237,1,71.2499980974198,10|0,3:2|0:0,0:0:0:0:
69,365,165746,2,0,P|94:336|120:305,1,71.2499980974198,2|0,3:2|3:2,0:0:0:0:
280,167,166054,2,0,P|242:159|170:146,1,106.87499714613,10|0,3:2|0:0,0:0:0:0:
126,137,166361,5,14,3:2:0:0:
235,54,166515,1,0,3:2:0:0:
391,110,166669,2,0,L|473:94,1,75,10|0,3:2|3:2,0:0:0:0:
243,39,166977,5,14,3:2:0:0:
313,164,167131,1,0,3:2:0:0:
243,320,167284,2,0,L|161:304,1,75,10|0,3:2|3:2,0:0:0:0:
386,349,167592,5,14,3:2:0:0:
386,349,168823,6,0,B|403:297|403:297|387:261|387:261|406:202,2,150,10|12|0,3:2|3:2|3:2,0:0:0:0:
485,253,169592,1,0,3:2:0:0:
306,305,169746,1,8,3:2:0:0:
191,237,169900,6,0,P|133:223|63:285,1,150,0|0,3:2|3:2,0:0:0:0:
208,234,170361,2,0,P|245:223|287:214,1,75,8|0,3:2|0:0,0:0:0:0:
430,188,170669,1,0,3:2:0:0:
430,188,170823,1,0,3:2:0:0:
306,101,170977,2,0,P|269:90|227:81,1,75,8|2,3:2|0:0,0:0:0:0:
453,10,171284,5,10,3:2:0:0:
50,302,173008,6,0,L|56:345,2,30,2|0|14,3:2|3:2|3:2,0:0:0:0:
27,118,173284,1,10,3:2:0:0:
27,118,173746,6,0,P|56:132|102:134,1,67.4999979400635,6|2,3:2|0:0,0:0:0:0:
197,28,174054,2,0,P|163:31|133:45,1,67.4999979400635,2|2,3:2|3:2,0:0:0:0:
295,103,174361,6,0,P|306:71|324:23,1,71.2499980974198,10|2,3:2|3:2,0:0:0:0:
191,132,174669,2,0,P|203:165|214:199,1,71.2499980974198,10|2,3:2|3:2,0:0:0:0:
303,301,174977,5,6,3:2:0:0:
310,279,175131,1,10,3:2:0:0:
436,328,175284,1,10,3:2:0:0:
427,292,175438,1,10,3:2:0:0:
408,167,175592,5,10,3:2:0:0:
463,65,175746,1,10,3:2:0:0:
290,35,175900,1,10,3:2:0:0:
321,174,176054,1,10,3:2:0:0:
171,285,176208,6,0,L|78:264,1,89.9999972534181,12|0,3:2|3:2,0:0:0:0:
276,309,176515,1,0,3:2:0:0:
210,200,176669,6,0,L|159:119,1,89.9999972534181,12|0,3:2|3:2,0:0:0:0:
284,322,176977,1,0,3:2:0:0:
321,174,177131,6,0,L|341:80,1,89.9999972534181,12|0,3:2|3:2,0:0:0:0:
293,333,177438,1,0,3:2:0:0:
431,237,177592,6,0,L|511:186,1,89.9999972534181,12|0,3:2|3:2,0:0:0:0:
301,344,177900,1,0,3:2:0:0:
512,371,178054,5,12,3:2:0:0:
512,371,178669,6,0,L|438:362,1,52.4999983978272,14|2,3:2|0:0,0:0:0:0:
380,303,178977,2,0,L|306:312,1,52.4999983978272,8|2,3:2|0:0,0:0:0:0:
236,344,179284,1,10,3:2:0:0:
236,344,179438,1,2,3:2:0:0:
172,267,179592,2,0,P|179:239|192:197,1,52.4999983978272,10|0,3:2|3:2,0:0:0:0:
242,133,179900,6,0,P|224:122|184:116,1,52.4999983978272,10|2,3:2|0:0,0:0:0:0:
135,33,180208,2,0,P|153:22|193:16,1,52.4999983978272,10|2,3:2|3:2,0:0:0:0:
231,29,180438,1,0,3:2:0:0:
231,29,180515,2,0,L|293:41,1,52.4999983978272,10|2,3:2|3:2,0:0:0:0:
378,69,180823,2,0,L|436:57,1,52.4999983978272,10|2,3:2|3:2,0:0:0:0:
512,137,181131,6,0,L|392:159,1,104.999996795654,10|8,3:2|3:2,0:0:0:0:
309,170,181592,1,2,0:0:0:0:
239,106,181746,1,10,3:2:0:0:
239,106,181900,2,0,P|195:77|126:81,1,104.999996795654,2|2,3:2|3:2,0:0:0:0:
29,14,182361,6,0,L|47:97,1,67.4999979400635,14|0,3:2|3:2,0:0:0:0:
92,204,182669,1,12,3:2:0:0:
20,308,182823,1,2,3:2:0:0:
194,249,182977,2,0,B|240:261|240:261|261:294|261:294|307:307,1,134.999995880127,14|14,3:2|3:2,0:0:0:0:
472,338,183438,1,2,3:2:0:0:
391,196,183592,6,0,L|405:257,1,52.4999983978272,14|2,3:2|0:0,0:0:0:0:
497,131,183900,2,0,L|508:79,1,52.4999983978272,10|0,3:2|0:0,0:0:0:0:
397,89,184208,2,0,P|373:88|332:65,1,52.4999983978272,10|2,3:2|3:2,0:0:0:0:
259,145,184515,2,0,P|235:146|194:169,1,52.4999983978272,10|2,3:2|3:2,0:0:0:0:
132,71,184823,1,8,3:2:0:0:
132,71,184977,1,2,0:0:0:0:
34,129,185131,2,0,L|47:194,1,52.4999983978272,10|2,3:2|3:2,0:0:0:0:
59,232,185361,1,0,3:2:0:0:
59,232,185438,6,0,P|89:216|148:222,1,67.4999979400635,14|2,3:2|3:2,0:0:0:0:
231,323,185746,2,0,P|197:320|168:304,1,67.4999979400635,14|2,3:2|3:2,0:0:0:0:
321,174,186054,6,0,B|366:178|393:216|368:210|400:248|435:246,1,134.999995880127,14|8,3:2|3:2,0:0:0:0:
512,142,186515,1,0,3:2:0:0:
429,73,186669,2,0,P|396:78|357:89,1,67.4999979400635,8|0,3:2|3:2,0:0:0:0:
238,0,186977,2,0,P|271:5|310:16,1,67.4999979400635,10|0,3:2|3:2,0:0:0:0:
165,154,187284,6,0,P|114:119|38:120,1,134.999995880127,14|8,3:2|3:2,0:0:0:0:
147,269,187746,1,2,3:2:0:0:
260,214,187900,2,0,P|293:199|339:182,1,67.4999979400635,10|0,3:2|3:2,0:0:0:0:
448,300,188208,2,0,P|415:285|369:268,1,67.4999979400635,8|0,3:2|3:2,0:0:0:0:
219,384,188515,6,0,L|233:311,1,52.4999983978272,14|0,3:2|0:0,0:0:0:0:
147,269,188823,2,0,L|133:196,1,52.4999983978272,10|0,3:2|0:0,0:0:0:0:
240,153,189131,1,10,3:2:0:0:
240,153,189284,2,0,L|230:204,1,52.4999983978272,2|8,3:2|3:2,0:0:0:0:
91,120,189592,1,2,3:2:0:0:
184,54,189746,6,0,P|232:37|303:65,1,104.999996795654,8|10,3:2|3:2,0:0:0:0:
373,109,190208,1,0,3:2:0:0:
373,109,190284,1,0,3:2:0:0:
373,109,190361,2,0,L|425:99,1,52.4999983978272,10|0,3:2|3:2,0:0:0:0:
494,166,190669,2,0,L|481:226,1,52.4999983978272,10|0,3:2|3:2,0:0:0:0:
398,318,190977,5,10,3:2:0:0:
398,318,191131,1,0,0:0:0:0:
326,256,191284,1,10,3:2:0:0:
326,256,191438,1,0,0:0:0:0:
233,283,191592,1,10,3:2:0:0:
233,283,191746,2,0,L|167:266,1,52.4999983978272,2|8,3:2|3:2,0:0:0:0:
24,331,192054,1,2,3:2:0:0:
72,237,192208,6,0,P|91:190|114:123,1,104.999996795654,10|8,3:2|3:2,0:0:0:0:
63,51,192669,1,0,3:2:0:0:
63,51,192746,1,0,3:2:0:0:
63,51,192823,2,0,P|88:40|125:42,1,52.4999983978272,10|0,3:2|3:2,0:0:0:0:
197,93,193131,2,0,P|222:104|259:101,1,52.4999983978272,10|0,3:2|3:2,0:0:0:0:
372,28,193438,6,0,P|357:67|337:128,1,90,6|0,3:2|0:0,0:0:0:0:
328,162,193746,2,0,P|336:194|342:231,1,60,10|0,3:2|3:2,0:0:0:0:
431,269,194054,2,0,P|423:301|417:338,1,60,10|0,3:2|3:2,0:0:0:0:
327,375,194361,1,10,3:2:0:0:
327,375,194515,1,2,3:2:0:0:
226,307,194669,5,12,3:2:0:0:
181,316,194823,1,2,3:2:0:0:
87,195,194977,5,12,3:2:0:0:
182,219,195131,1,2,3:2:0:0:
288,76,195284,5,12,3:2:0:0:
170,113,195438,1,0,3:2:0:0:
64,2,195592,5,12,3:2:0:0:
64,2,195900,5,10,3:2:0:0:
171,67,196054,2,0,L|254:48,1,82.5000025177003,10|0,3:2|3:2,0:0:0:0:
455,102,196361,5,10,3:2:0:0:
328,172,196515,2,0,L|245:153,1,82.5000025177003,10|0,3:2|3:2,0:0:0:0:
48,202,196823,5,10,3:2:0:0:
182,278,196977,2,0,L|265:259,1,82.5000025177003,10|0,3:2|3:2,0:0:0:0:
477,302,197284,5,10,3:2:0:0:
327,382,197438,2,0,L|244:363,1,82.5000025177003,10|0,3:2|3:2,0:0:0:0:
75,384,197746,5,10,3:2:0:0:
139,181,197900,1,10,3:2:0:0:
139,181,198361,6,0,P|103:159|55:162,1,82.5000025177003,6|2,3:2|3:2,0:0:0:0:
190,328,198669,2,0,P|206:282|227:232,1,82.5000025177003,6|2,3:2|0:0,0:0:0:0:
187,97,198977,1,2,3:2:0:0:
347,165,199131,1,2,3:2:0:0:
456,128,199284,2,0,P|388:131|333:194,1,123.75000377655,10|0,3:2|0:0,0:0:0:0:
327,210,199592,6,0,P|341:256|355:314,1,82.5000025177003,2|0,3:2|3:2,0:0:0:0:
166,384,199900,2,0,P|181:340|189:297,1,82.5000025177003,10|0,3:2|0:0,0:0:0:0:
67,143,200208,1,2,3:2:0:0:
213,209,200361,1,2,3:2:0:0:
50,247,200515,1,10,3:2:0:0:
164,121,200669,1,2,0:0:0:0:
114,22,200823,5,2,3:2:0:0:
114,22,200977,1,0,3:2:0:0:
267,106,201131,2,0,P|314:88|370:75,1,82.5000025177003,8|0,3:2|0:0,0:0:0:0:
486,19,201438,1,2,3:2:0:0:
434,125,201592,1,0,3:2:0:0:
496,276,201746,1,8,3:2:0:0:
496,276,202054,6,0,B|450:278|417:320|449:311|411:359|363:361,1,165.000005035401,6|8,3:2|3:2,0:0:0:0:
512,366,202515,1,2,0:0:0:0:
351,266,202669,2,0,P|306:272|258:284,1,82.5000025177003,2|0,3:2|3:2,0:0:0:0:
129,204,202977,2,0,P|157:238|164:294,1,82.5000025177003,8|2,3:2|0:0,0:0:0:0:
14,384,203284,6,0,P|25:350|37:289,1,82.5000025177003,6|0,3:2|0:0,0:0:0:0:
117,199,203592,2,0,P|106:165|94:104,1,82.5000025177003,10|2,3:2|0:0,0:0:0:0:
21,14,203900,1,2,3:2:0:0:
178,60,204054,1,2,3:2:0:0:
287,13,204208,2,0,P|331:0|372:7,1,82.5000025177003,10|2,3:2|0:0,0:0:0:0:
185,72,204515,5,2,3:2:0:0:
260,169,204669,1,2,3:2:0:0:
185,284,204823,2,0,P|172:325|163:366,1,82.5000025177003,10|2,3:2|0:0,0:0:0:0:
29,207,205131,5,6,3:2:0:0:
46,250,205284,1,2,3:2:0:0:
169,167,205438,5,6,3:2:0:0:
163,197,205592,1,2,0:0:0:0:
282,306,205746,6,0,P|323:296|380:285,1,82.5000025177003,6|2,3:2|0:0,0:0:0:0:
495,341,206054,2,0,P|409:344|360:249,1,165.000005035401,8|2,3:2|3:2,0:0:0:0:
350,163,206515,1,0,3:2:0:0:
460,93,206669,1,10,3:2:0:0:
335,172,206823,1,2,0:0:0:0:
175,70,206977,6,0,B|124:83|124:83|97:121|97:121|38:138,1,134.999995880127,14|0,3:2|3:2,0:0:0:0:
62,131,207284,2,0,L|129:146,1,44.999998626709,0|0,3:2|3:2,0:0:0:0:
276,48,207438,6,0,B|326:61|326:61|353:99|353:99|412:117,1,134.999995880127,14|0,0:0|3:2,0:0:0:0:
388,109,207746,2,0,L|320:119,1,44.999998626709,0|0,3:2|3:2,0:0:0:0:
211,231,207900,6,0,B|160:217|160:217|118:236|118:236|57:222,1,140.625,12|0,3:2|0:0,0:0:0:0:
29,212,208208,6,0,P|31:130|92:81,2,165.000005035401,6|10|2,3:2|3:2|3:2,0:0:0:0:
109,359,208977,1,2,3:2:0:0:
9,325,209131,1,8,3:2:0:0:
156,200,209284,6,0,P|194:183|256:191,1,82.5000025177003,2|0,0:0|0:0,0:0:0:0:
415,274,209592,1,0,3:2:0:0:
388,144,209746,1,10,3:2:0:0:
388,144,209900,1,2,0:0:0:0:
214,280,210054,2,0,L|236:371,1,82.5000025177003,2|0,3:2|3:2,0:0:0:0:
326,345,210284,1,2,0:0:0:0:
326,345,210361,2,0,L|304:259,1,82.5000025177003,10|2,3:2|0:0,0:0:0:0:
104,376,210669,6,0,B|120:315|120:315|104:278|104:278|127:191,1,165.000005035401,2|10,3:2|3:2,0:0:0:0:
38,92,211131,1,2,0:0:0:0:
210,160,211284,1,2,3:2:0:0:
171,41,211438,2,0,P|143:68|133:124,1,82.5000025177003,2|8,3:2|3:2,0:0:0:0:
262,250,211746,1,2,0:0:0:0:
373,200,211900,6,0,L|470:220,1,82.5000025177003,2|0,3:2|3:2,0:0:0:0:
285,329,212208,2,0,P|276:292|253:229,1,82.5000025177003,12|0,3:2|0:0,0:0:0:0:
301,122,212515,1,0,3:2:0:0:
155,183,212669,1,8,3:2:0:0:
138,179,212746,1,8,3:2:0:0:
122,174,212823,2,0,L|72:162,1,41.2500012588501,8|8,3:2|3:2,0:0:0:0:
30,64,212977,2,0,L|80:52,1,41.2500012588501,8|8,3:2|3:2,0:0:0:0:
205,0,213131,6,0,L|382:32,1,165.000005035401,6|8,3:2|3:2,0:0:0:0:
453,257,213746,2,0,B|405:254|365:290|396:300|359:332|309:330,1,165.000005035401,2|8,3:2|3:2,0:0:0:0:
460,352,214208,1,2,0:0:0:0:
306,231,214361,6,0,P|236:187|155:212,2,165.000005035401,2|8|0,3:2|3:2|3:2,0:0:0:0:
223,294,215131,1,0,3:2:0:0:
48,183,215284,2,0,P|62:224|71:263,1,82.5000025177003,10|2,3:2|0:0,0:0:0:0:
238,100,215592,6,0,B|287:98|325:139|293:150|325:183|375:186,1,165.000005035401,14|8,3:2|3:2,0:0:0:0:
415,40,216054,1,2,0:0:0:0:
224,110,216208,2,0,P|149:92|58:76,1,165.000005035401,2|8,3:2|3:2,0:0:0:0:
206,2,216669,1,2,3:2:0:0:
92,181,216823,6,0,P|109:250|123:314,1,123.75000377655,14|0,3:2|0:0,0:0:0:0:
90,341,217131,2,0,P|46:346|5:316,1,82.5000025177003,8|0,3:2|0:0,0:0:0:0:
108,172,217438,5,8,3:2:0:0:
210,233,217592,1,0,3:2:0:0:
378,114,217746,5,8,3:2:0:0:
314,210,217900,1,0,3:2:0:0:
461,348,218054,6,0,P|451:305|428:237,1,82.5000025177003,8|0,3:2|0:0,0:0:0:0:
378,114,218361,1,8,3:2:0:0:
512,193,218515,1,0,3:2:0:0:
512,193,218592,1,0,3:2:0:0:
512,193,218669,1,12,3:2:0:0:
481,88,218823,1,0,3:2:0:0:
305,198,218977,2,0,P|265:186|194:168,1,82.5000025177003,10|2,3:2|0:0,0:0:0:0:
31,220,219284,6,0,L|-4:119,1,82.5000025177003,14|0,3:2|3:2,0:0:0:0:
65,321,219592,1,0,3:2:0:0:
160,216,219746,6,0,L|226:132,1,82.5000025177003,12|0,3:2|3:2,0:0:0:0:
57,333,220054,1,0,3:2:0:0:
232,350,220208,6,0,L|337:361,1,82.5000025177003,12|0,3:2|3:2,0:0:0:0:
50,346,220515,1,12,3:2:0:0:
28,44,221746,6,0,L|40:144,1,101.25,10|0,3:2|0:0,0:0:0:0:
40,144,223900,6,0,B|71:133|71:133|103:144,1,67.4999979400635,8|0,3:2|0:0,0:0:0:0:
146,159,224208,6,0,L|240:137,1,75,14|0,3:2|0:0,0:0:0:0:
419,97,224515,1,0,3:2:0:0:
337,27,224669,6,0,P|320:66|308:108,1,75,14|0,3:2|0:0,0:0:0:0:
354,302,224977,1,0,3:2:0:0:
425,222,225131,6,0,P|394:199|348:191,1,75,14|0,3:2|0:0,0:0:0:0:
145,289,225438,5,2,0:0:0:0:
145,289,226054,1,2,0:0:0:0:
145,289,226669,6,0,P|116:258|73:248,1,84.3750032186509,2|0,3:2|3:2,0:0:0:0:
163,299,226977,6,0,B|197:290|197:290|229:299|229:299|275:288,1,104.999996795654,14|2,3:2|0:0,0:0:0:0:
422,363,227284,6,0,P|385:365|335:325,1,86.2500016450882,2|0,0:0|3:2,0:0:0:0:
227,199,227592,1,10,3:2:0:0:
227,199,227746,1,2,0:0:0:0:
347,113,227900,6,0,P|397:125|440:133,1,86.2500016450882,2|0,3:2|0:0,0:0:0:0:
481,148,228131,1,0,3:2:0:0:
481,148,228208,2,0,P|501:184|487:242,1,86.2500016450882,10|0,3:2|3:2,0:0:0:0:
344,339,228515,1,2,0:0:0:0:
238,289,228669,1,2,3:2:0:0:
63,340,228823,2,0,L|86:248,1,86.2500016450882,10|0,3:2|0:0,0:0:0:0:
115,120,229131,6,0,P|87:83|33:68,1,84.3750032186509,2|0,3:2|3:2,0:0:0:0:
128,132,229438,6,0,B|161:123|161:123|185:99|185:99|230:86,1,104.999996795654,14|2,3:2|0:0,0:0:0:0:
358,16,229746,5,2,0:0:0:0:
312,135,229900,1,0,3:2:0:0:
384,287,230054,1,10,3:2:0:0:
384,287,230208,1,2,0:0:0:0:
311,379,230361,6,0,P|276:357|209:345,1,86.2500016450882,2|0,3:2|0:0,0:0:0:0:
210,310,230592,1,0,3:2:0:0:
210,310,230669,2,0,P|239:273|242:215,1,86.2500016450882,10|0,3:2|3:2,0:0:0:0:
187,98,230977,1,2,0:0:0:0:
310,164,231131,1,2,3:2:0:0:
464,102,231284,2,0,P|427:85|373:80,1,86.2500016450882,10|0,3:2|0:0,0:0:0:0:
199,87,231592,6,0,P|226:53|267:38,1,84.3750032186509,2|0,3:2|3:2,0:0:0:0:
187,98,231900,6,0,B|154:89|154:89|130:65|130:65|85:52,1,104.999996795654,14|0,3:2|3:2,0:0:0:0:
1,257,232208,5,2,0:0:0:0:
194,211,232361,1,2,3:2:0:0:
83,152,232515,2,0,L|102:252,1,86.2500016450882,10|0,3:2|0:0,0:0:0:0:
236,349,232823,6,0,P|209:315|168:300,1,84.3750032186509,2|0,3:2|3:2,0:0:0:0:
248,360,233131,6,0,B|281:351|281:351|305:327|305:327|350:314,1,104.999996795654,14|0,3:2|3:2,0:0:0:0:
506,375,233438,5,2,0:0:0:0:
438,272,233592,1,2,3:2:0:0:
510,131,233746,2,0,P|501:88|487:39,1,86.2500016450882,10|0,3:2|0:0,0:0:0:0:
300,165,234054,5,6,3:2:0:0:
202,90,234208,2,0,P|165:69|116:66,1,86.2500016450882,2|8,0:0|3:2,0:0:0:0:
214,248,234515,1,2,3:2:0:0:
312,173,234669,2,0,P|349:152|398:149,1,86.2500016450882,2|0,0:0|3:2,0:0:0:0:
234,346,234977,2,0,P|173:338|120:267,1,129.375002467632,14|0,3:2|0:0,0:0:0:0:
115,244,235284,6,0,P|128:200|139:154,1,86.2500016450882,6|8,3:2|3:2,0:0:0:0:
148,114,235515,1,8,3:2:0:0:
148,114,235592,1,8,3:2:0:0:
216,14,235746,2,0,L|264:2,2,43.1250008225441,8|8|2,3:2|3:2|3:2,0:0:0:0:
48,56,236054,2,0,L|0:68,2,43.1250008225441,8|8|10,3:2|3:2|3:2,0:0:0:0:
231,177,236361,1,2,3:2:0:0:
252,172,236438,1,2,3:2:0:0:
272,168,236515,6,0,P|297:131|300:68,1,84.3750032186509,2|0,3:2|3:2,0:0:0:0:
258,184,236823,6,0,B|267:217|267:217|291:241|291:241|304:286,1,104.999996795654,14|2,3:2|0:0,0:0:0:0:
142,347,237131,6,0,P|166:312|220:297,1,86.2500016450882,2|0,0:0|3:2,0:0:0:0:
429,352,237438,1,10,3:2:0:0:
429,352,237592,1,2,0:0:0:0:
405,239,237746,2,0,P|413:195|431:142,1,86.2500016450882,2|0,3:2|0:0,0:0:0:0:
450,115,237977,1,0,3:2:0:0:
450,115,238054,2,0,P|415:80|366:78,1,86.2500016450882,10|0,3:2|3:2,0:0:0:0:
254,15,238361,2,0,P|272:62|285:114,1,86.2500016450882,2|0,0:0|3:2,0:0:0:0:
204,238,238669,1,10,3:2:0:0:
204,238,238823,1,2,0:0:0:0:
63,133,238977,6,0,P|22:150|-4:202,1,84.3750032186509,2|0,3:2|3:2,0:0:0:0:
77,125,239284,6,0,B|85:91|85:91|76:59|76:59|88:13,1,104.999996795654,14|2,3:2|0:0,0:0:0:0:
237,78,239592,6,0,P|282:66|330:56,1,86.2500016450882,2|0,0:0|3:2,0:0:0:0:
484,9,239900,1,10,3:2:0:0:
484,9,240054,1,2,0:0:0:0:
447,118,240208,6,0,P|431:169|418:226,1,86.2500016450882,2|0,3:2|0:0,0:0:0:0:
394,239,240438,1,0,3:2:0:0:
394,239,240515,2,0,P|408:286|419:329,1,86.2500016450882,10|0,3:2|3:2,0:0:0:0:
232,369,240823,6,0,P|243:324|256:270,1,86.2500016450882,2|0,0:0|3:2,0:0:0:0:
357,149,241131,1,10,3:2:0:0:
225,189,241284,1,2,0:0:0:0:
105,96,241438,6,0,P|132:62|173:47,1,84.3750032186509,2|0,3:2|3:2,0:0:0:0:
93,107,241746,6,0,B|60:98|60:98|36:74|36:74|-9:61,1,104.999996795654,14|0,3:2|3:2,0:0:0:0:
57,258,242054,6,0,L|167:237,1,86.2500016450882,2|2,0:0|3:2,0:0:0:0:
286,131,242361,1,10,3:2:0:0:
244,254,242515,1,2,0:0:0:0:
392,347,242669,6,0,P|365:313|324:298,1,84.3750032186509,2|0,3:2|3:2,0:0:0:0:
404,358,242977,6,0,B|437:349|437:349|461:325|461:325|506:312,1,104.999996795654,14|0,3:2|3:2,0:0:0:0:
363,203,243284,6,0,P|373:165|388:120,1,86.2500016450882,2|0,0:0|3:2,0:0:0:0:
406,79,243515,1,0,3:2:0:0:
406,79,243592,2,0,P|368:100|302:92,1,86.2500016450882,8|0,3:2|0:0,0:0:0:0:
176,9,243900,6,0,L|39:26,1,129.375002467632,6|0,3:2|0:0,0:0:0:0:
16,61,244208,5,10,3:2:0:0:
70,163,244361,1,0,3:2:0:0:
235,90,244515,5,10,3:2:0:0:
159,216,244669,1,0,3:2:0:0:
260,380,244823,6,0,B|298:385|331:349|306:352|337:318|382:325,1,129.375002467632,10|0,3:2|0:0,0:0:0:0:
418,326,245131,6,0,P|407:281|399:228,1,86.2500016450882,6|8,3:2|3:2,0:0:0:0:
398,197,245361,1,8,3:2:0:0:
398,197,245438,1,8,3:2:0:0:
472,92,245592,2,0,L|524:111,2,43.1250008225441,8|8|2,3:2|3:2|3:2,0:0:0:0:
336,27,245900,1,8,3:2:0:0:
319,30,245977,1,8,3:2:0:0:
302,34,246054,2,0,L|235:45,1,43.1250008225441,10|8,3:2|3:2,0:0:0:0:
178,95,246208,2,0,L|111:84,1,43.1250008225441,2|2,3:2|3:2,0:0:0:0:
29,2,246361,6,0,B|47:48|47:48|34:86|34:86|58:152,1,150,6|10,3:2|3:2,0:0:0:0:
0,309,246823,1,2,3:2:0:0:
105,258,246977,2,0,P|148:265|187:272,1,75,8|2,3:2|3:2,0:0:0:0:
345,363,247284,1,10,3:2:0:0:
311,241,247438,6,0,P|323:156|391:115,1,150,6|0,3:2|3:2,0:0:0:0:
475,231,247900,2,0,P|433:220|384:209,1,75,8|2,3:2|0:0,0:0:0:0:
222,165,248208,1,10,3:2:0:0:
203,127,248284,1,8,3:2:0:0:
199,86,248361,1,10,3:2:0:0:
210,47,248438,1,8,3:2:0:0:
235,14,248515,1,8,3:2:0:0:
235,14,248823,6,0,B|293:33|293:33|320:74|320:74|385:96,1,150,6|10,3:2|3:2,0:0:0:0:
221,0,249284,2,0,L|139:20,1,75,2|8,0:0|3:2,0:0:0:0:
0,11,249592,1,2,3:2:0:0:
92,113,249746,1,2,0:0:0:0:
11,255,249900,6,0,B|56:259|86:311|57:301|85:348|131:349,1,150,6|2,3:2|3:2,0:0:0:0:
268,211,250361,1,14,3:2:0:0:
155,261,250515,1,2,3:2:0:0:
285,362,250669,1,12,3:2:0:0:
398,312,250823,1,2,3:2:0:0:
498,353,250977,1,12,3:2:0:0:
498,353,251131,1,12,3:2:0:0:
440,224,251284,6,0,P|450:182|467:136,1,75,6|0,3:2|0:0,0:0:0:0:
480,109,251515,1,0,3:2:0:0:
480,109,251592,1,10,3:2:0:0:
394,19,251746,2,0,P|356:16|305:44,1,75,2|0,3:2|3:2,0:0:0:0:
237,94,252054,1,2,3:2:0:0:
281,243,252208,1,10,3:2:0:0:
212,329,252361,2,0,P|136:308|51:288,1,150,2|2,3:2|3:2,0:0:0:0:
226,343,252823,2,0,P|266:332|307:323,1,75,10|2,3:2|3:2,0:0:0:0:
491,360,253131,1,2,0:0:0:0:
491,360,253284,1,2,3:2:0:0:
431,241,253438,2,0,P|443:208|462:168,1,75,8|0,3:2|3:2,0:0:0:0:
362,32,253746,6,0,B|309:48|309:48|286:86|286:86|220:109,1,150,14|2,3:2|3:2,0:0:0:0:
97,17,254208,2,0,P|125:45|130:105,1,75,0|2,3:2|3:2,0:0:0:0:
83,182,254515,1,0,3:2:0:0:
145,322,254669,2,0,P|156:282|172:235,1,75,2|0,3:2|3:2,0:0:0:0:
310,161,254977,5,8,3:2:0:0:
273,250,255131,1,8,3:2:0:0:
440,312,255284,1,8,3:2:0:0:
414,220,255438,1,8,3:2:0:0:
302,351,255592,1,8,3:2:0:0:
192,308,255746,1,8,3:2:0:0:
56,367,255900,1,8,3:2:0:0:
56,367,256054,1,8,3:2:0:0:
261,96,257921,5,8,3:3:0:0:
261,96,257997,1,8,3:3:0:0:
261,96,258074,1,4,3:0:0:0:
256,192,258151,12,0,266536,0:0:0:0:
