osu file format v14

[General]
AudioFilename: audio.mp3
AudioLeadIn: 0
PreviewTime: 178515
Countdown: 0
SampleSet: Soft
StackLeniency: 0.4
Mode: 0
LetterboxInBreaks: 0
WidescreenStoryboard: 1

[Editor]
Bookmarks: 95139
DistanceSpacing: 0.9
BeatDivisor: 4
GridSize: 8
TimelineZoom: 1.8

[Metadata]
Title:GONG
TitleUnicode:GONG
Artist:WANIMA
ArtistUnicode:WANIMA
Creator:Smoke
Version:EXTRA
Source:ONE PIECE STAMPEDE
Tags:full ver version japanese anime j-rock jrock rock film movie 14 2019 luffy zoro sanji nami usopp chopper robin franky brook Summer Trap!! trap kenta ワンピーススタンピード
BeatmapID:2302319
BeatmapSetID:1099681

[Difficulty]
HPDrainRate:5.6
CircleSize:3.8
OverallDifficulty:9
ApproachRate:9.2
SliderMultiplier:1.7
SliderTickRate:1

[Events]
//Background and Video events
0,0,"bg.jpg",0,0
//Break Periods
2,1638,10714
//Storyboard Layer 0 (Background)
//Storyboard Layer 1 (Fail)
//Storyboard Layer 2 (Pass)
//Storyboard Layer 3 (Foreground)
//Storyboard Layer 4 (Overlay)
//Storyboard Sound Samples

[TimingPoints]
208,307.692307692308,4,2,1,70,1,0
208,-125,4,2,1,70,0,0
1438,-142.857142857143,4,2,1,70,0,0
11284,-100,4,2,1,70,0,0
18668,-100,4,2,1,70,0,0
18976,-100,4,2,1,60,0,0
19899,-100,4,2,1,80,0,0
21131,-166.666666666667,4,2,1,55,0,0
23592,-100,4,2,1,80,0,1
25976,-100,4,2,1,5,0,1
26053,-100,4,2,1,80,0,1
30899,-100,4,2,1,5,0,1
30976,-100,4,2,1,80,0,1
33361,-100,4,2,1,5,0,1
33438,-100,4,2,1,80,0,1
35822,-100,4,2,1,5,0,1
35899,-100,4,2,1,80,0,1
37053,-100,4,2,1,5,0,1
37130,-100,4,2,1,80,0,1
38284,-100,4,2,1,5,0,1
38361,-100,4,2,1,80,0,1
45668,-100,4,2,1,5,0,1
45745,-100,4,2,1,80,0,1
50591,-100,4,2,1,5,0,1
50668,-100,4,2,1,80,0,1
53053,-100,4,2,1,5,0,1
53130,-100,4,2,1,80,0,1
56745,-100,4,2,1,5,0,1
56822,-100,4,2,1,80,0,1
57976,-100,4,2,1,5,0,1
58053,-100,4,2,1,80,0,1
60745,-100,4,2,1,5,0,1
60822,-100,4,2,1,80,0,1
61361,-100,4,2,1,5,0,1
61438,-100,4,2,1,80,0,1
62208,-166.666666666667,4,2,1,80,0,0
62976,-111.111111111111,4,2,1,70,0,0
64745,-111.111111111111,4,2,1,5,0,0
64822,-111.111111111111,4,2,1,70,0,0
70361,-117.647058823529,4,2,1,70,0,0
72822,-111.111111111111,4,2,1,70,0,0
80130,-111.111111111111,4,2,1,5,0,0
80207,-111.111111111111,4,2,1,75,0,0
81438,-125,4,2,1,75,0,0
82668,-100,4,2,1,75,0,0
85130,-166.666666666667,4,2,1,70,0,0
86822,-166.666666666667,4,2,1,60,0,0
87592,-90.9090909090909,4,2,1,80,0,1
88745,-90.9090909090909,4,2,1,5,0,1
88822,-90.9090909090909,4,2,1,80,0,1
96130,-90.9090909090909,4,2,1,5,0,1
96207,-90.9090909090909,4,2,1,80,0,1
96438,-90.9090909090909,4,2,1,5,0,1
96515,-90.9090909090909,4,2,1,80,0,1
97361,-90.9090909090909,4,2,1,5,0,1
97438,-90.9090909090909,4,2,1,80,0,1
99207,-90.9090909090909,4,2,1,5,0,1
99284,-90.9090909090909,4,2,1,80,0,1
99822,-90.9090909090909,4,2,1,5,0,1
99899,-90.9090909090909,4,2,1,80,0,1
102284,-90.9090909090909,4,2,1,5,0,1
102361,-90.9090909090909,4,2,1,80,0,1
108438,-90.9090909090909,4,2,1,5,0,1
108515,-90.9090909090909,4,2,1,80,0,1
109053,-90.9090909090909,4,2,1,5,0,1
109130,-90.9090909090909,4,2,1,80,0,1
117053,-90.9090909090909,4,2,1,5,0,1
117130,-90.9090909090909,4,2,1,80,0,1
122284,-90.9090909090909,4,2,1,5,0,1
122361,-90.9090909090909,4,2,1,80,0,1
125746,-166.666666666667,4,2,1,80,0,0
126976,-100,4,2,1,75,0,0
127207,-100,4,2,1,75,0,0
127284,-100,4,2,1,75,0,0
128822,-250.000000000001,4,2,1,70,0,0
129438,-100,4,2,1,70,0,0
139284,-111.111111111111,4,2,1,65,0,0
142899,-111.111111111111,4,2,1,5,0,0
142976,-111.111111111111,4,2,1,65,0,0
145361,-111.111111111111,4,2,1,5,0,0
145438,-111.111111111111,4,2,1,65,0,0
146591,-111.111111111111,4,2,1,5,0,0
146668,-111.111111111111,4,2,1,65,0,0
150284,-111.111111111111,4,2,1,5,0,0
150361,-111.111111111111,4,2,1,65,0,0
151514,-111.111111111111,4,2,1,5,0,0
151591,-111.111111111111,4,2,1,65,0,0
152745,-111.111111111111,4,2,1,5,0,0
152822,-111.111111111111,4,2,1,65,0,0
155207,-111.111111111111,4,2,1,5,0,0
155284,-111.111111111111,4,2,1,65,0,0
158976,-117.647058823529,4,2,1,70,0,0
163899,-105.263157894737,4,2,1,75,0,0
166284,-105.263157894737,4,2,1,5,0,0
166361,-100,4,2,1,80,0,0
167591,-166.666666666667,4,2,1,80,0,0
168822,-100,4,2,1,70,0,0
169053,-100,4,2,1,70,0,0
169130,-100,4,2,1,70,0,0
173745,-111.111111111111,4,2,1,60,0,0
174361,-105.263157894737,4,2,1,65,0,0
174976,-100,4,2,1,70,0,0
175591,-90.9090909090909,4,2,1,75,0,0
176207,-83.3333333333333,4,2,1,80,0,0
178668,-142.857142857143,4,2,1,60,0,0
178899,-142.857142857143,4,2,1,5,0,0
178976,-142.857142857143,4,2,1,60,0,0
182361,-100,4,2,1,75,0,0
183591,-142.857142857143,4,2,1,60,0,0
183822,-142.857142857143,4,2,1,60,0,0
183899,-142.857142857143,4,2,1,60,0,0
185438,-100,4,2,1,75,0,0
187207,-100,4,2,1,75,0,0
187284,-100,4,2,1,75,0,0
188514,-142.857142857143,4,2,1,60,0,0
188745,-142.857142857143,4,2,1,60,0,0
188822,-142.857142857143,4,2,1,60,0,0
193438,-125,4,2,1,60,0,0
193668,-125,4,2,1,5,0,0
193745,-125,4,2,1,60,0,0
194668,-105.263157894737,4,2,1,70,0,0
195899,-90.9090909090909,4,2,1,80,0,0
198361,-83.3333333333333,4,2,1,80,0,1
199514,-83.3333333333333,4,2,1,80,0,1
199591,-83.3333333333333,4,2,1,80,0,1
206976,-80,4,2,1,80,0,1
207899,-68.9655172413793,4,2,1,80,0,1
208130,-68.9655172413793,4,2,1,80,0,1
208207,-83.3333333333333,4,2,1,80,0,1
208438,-83.3333333333333,4,2,1,80,0,1
208514,-83.3333333333333,4,2,1,80,0,1
216822,-80,4,2,1,85,0,1
217053,-80,4,2,1,85,0,1
217129,-80,4,2,1,85,0,1
220515,-125,4,2,1,70,0,0
221745,-1000,4,2,1,70,0,0
221822,-1000,4,2,1,5,0,0
223899,-166.666666666667,4,2,1,65,0,0
224207,-100,4,2,1,70,0,0
224668,-90.9090909090909,4,2,1,75,0,0
225130,-83.3333333333333,4,2,1,80,0,0
225438,-166.666666666667,4,2,1,55,0,0
226669,-166.666666666667,4,2,1,85,0,1
226976,-55.5555555555556,4,2,1,85,0,1
227284,-83.3333333333333,4,2,1,85,0,1
229130,-166.666666666667,4,2,1,85,0,1
229437,-55.5555555555556,4,2,1,85,0,1
229745,-83.3333333333333,4,2,1,85,0,1
231591,-166.666666666667,4,2,1,85,0,1
231898,-55.5555555555556,4,2,1,85,0,1
232206,-83.3333333333333,4,2,1,85,0,1
232822,-166.666666666667,4,2,1,85,0,1
233129,-55.5555555555556,4,2,1,85,0,1
233437,-83.3333333333333,4,2,1,85,0,1
235207,-83.3333333333333,4,2,1,85,0,1
235284,-83.3333333333333,4,2,1,85,0,1
236514,-166.666666666667,4,2,1,85,0,1
236821,-55.5555555555556,4,2,1,85,0,1
237129,-83.3333333333333,4,2,1,85,0,1
238976,-166.666666666667,4,2,1,85,0,1
239283,-55.5555555555556,4,2,1,85,0,1
239591,-83.3333333333333,4,2,1,85,0,1
241437,-166.666666666667,4,2,1,85,0,1
241744,-55.5555555555556,4,2,1,85,0,1
242052,-83.3333333333333,4,2,1,85,0,1
242668,-166.666666666667,4,2,1,85,0,1
242975,-55.5555555555556,4,2,1,85,0,1
243283,-83.3333333333333,4,2,1,85,0,1
244130,-83.3333333333333,4,2,1,85,0,1
244207,-83.3333333333333,4,2,1,85,0,1
246361,-90.9090909090909,4,2,1,70,0,0
253745,-90.9090909090909,4,2,1,70,0,0
253976,-90.9090909090909,4,2,1,5,0,0
254053,-90.9090909090909,4,2,1,65,0,0
254976,-100,4,2,1,80,0,0
256207,-166.666666666667,4,2,1,55,0,0
257921,307.692307692308,4,2,1,70,1,0
257921,-166.666666666667,4,2,1,70,0,0
258075,-250.000000000001,4,2,1,70,0,0
258536,-250.000000000001,4,2,1,70,0,0
259151,-250.000000000001,4,2,1,65,0,0
259767,-250.000000000001,4,2,1,60,0,0
260382,-250.000000000001,4,2,1,55,0,0
260997,-250.000000000001,4,2,1,50,0,0
261613,-250.000000000001,4,2,1,45,0,0
262228,-250.000000000001,4,2,1,40,0,0
262844,-250.000000000001,4,2,1,35,0,0
263459,-250.000000000001,4,2,1,30,0,0
264074,-250.000000000001,4,2,1,25,0,0
264690,-250.000000000001,4,2,1,20,0,0
265305,-250.000000000001,4,2,1,15,0,0
265921,-250.000000000001,4,2,1,10,0,0
266536,-250.000000000001,4,2,1,5,0,0

[Colours]
Combo1 : 255,205,53
Combo2 : 12,190,16
Combo3 : 87,160,242
Combo4 : 243,82,86

[HitObjects]
128,305,208,5,4,0:0:0:0:
209,266,515,1,4,0:0:0:0:
303,293,823,1,4,0:0:0:0:
384,254,1131,1,4,0:0:0:0:
128,305,1438,5,8,3:2:0:0:
433,15,11284,6,0,B|381:29|381:29|350:78|350:78|285:97,1,170,6|10,3:2|3:2,0:0:0:0:
157,143,11746,2,0,L|73:125,1,85,2|0,0:0|3:2,0:0:0:0:
294,94,12054,1,2,3:2:0:0:
235,263,12208,1,10,3:2:0:0:
293,368,12361,6,0,B|349:373|384:323|355:330|388:287|441:284,1,170,6|0,3:2|3:2,0:0:0:0:
277,376,12823,2,0,P|236:364|185:351,1,85,8|2,3:2|0:0,0:0:0:0:
69,220,13131,1,10,3:2:0:0:
81,260,13208,1,8,3:2:0:0:
93,301,13284,1,10,3:2:0:0:
103,342,13361,1,8,3:2:0:0:
111,384,13438,1,8,3:2:0:0:
111,384,13746,6,0,P|126:294|146:206,1,170,6|10,3:2|3:2,0:0:0:0:
1,115,14208,2,0,P|39:139|95:137,1,85,2|8,0:0|3:2,0:0:0:0:
218,72,14515,1,2,3:2:0:0:
218,72,14669,1,2,0:0:0:0:
371,163,14823,6,0,P|438:170|506:94,1,170,6|2,3:2|3:2,0:0:0:0:
300,24,15284,1,14,3:2:0:0:
363,151,15438,1,2,3:2:0:0:
152,200,15592,1,12,3:2:0:0:
203,80,15746,1,2,3:2:0:0:
341,252,15900,1,12,3:2:0:0:
341,252,16054,1,12,3:2:0:0:
290,372,16208,6,0,P|278:333|258:283,1,85,6|0,3:2|0:0,0:0:0:0:
246,247,16438,1,0,3:2:0:0:
246,247,16515,1,10,3:2:0:0:
112,298,16669,2,0,P|72:287|14:276,1,85,2|0,3:2|3:2,0:0:0:0:
197,375,16977,1,2,3:2:0:0:
123,188,17131,1,10,3:2:0:0:
197,88,17284,6,0,P|274:68|366:48,1,170,2|2,3:2|3:2,0:0:0:0:
78,7,17746,1,10,3:2:0:0:
181,94,17900,1,2,3:2:0:0:
51,274,18054,1,2,0:0:0:0:
210,195,18208,1,2,3:2:0:0:
413,328,18361,2,0,P|425:287|446:223,1,85,8|0,3:2|3:2,0:0:0:0:
507,67,18669,6,0,B|460:62|417:109|447:104|409:149|350:142,1,170,14|2,3:2|3:2,0:0:0:0:
187,74,19131,1,0,3:2:0:0:
277,27,19284,2,0,P|317:25|362:49,1,85,2|0,3:2|3:2,0:0:0:0:
207,172,19592,2,0,P|164:173|127:154,1,85,2|0,3:2|3:2,0:0:0:0:
19,6,19900,5,8,3:2:0:0:
187,74,20054,1,8,3:2:0:0:
31,283,20208,1,8,3:2:0:0:
207,172,20361,1,8,3:2:0:0:
17,291,20515,5,8,3:2:0:0:
219,382,20669,1,8,3:2:0:0:
405,268,20823,1,8,3:2:0:0:
207,172,20977,1,8,3:2:0:0:
288,93,21131,6,0,L|342:105,2,50.9999984436036,2|0|0,0:0|0:0|0:0,0:0:0:0:
194,74,21592,1,2,0:0:0:0:
183,66,21900,2,0,L|129:78,1,50.9999984436036
72,6,22207,1,2,0:0:0:0:
420,142,23592,6,0,B|403:210|403:210|419:246|419:246|398:328,1,170,4|8,3:3|3:2,0:0:0:0:
504,188,24054,1,2,0:0:0:0:
321,261,24208,1,2,3:2:0:0:
220,199,24361,1,2,3:2:0:0:
66,273,24515,1,10,3:2:0:0:
170,337,24669,1,2,0:0:0:0:
312,158,24823,6,0,P|280:112|167:102,1,170,2|8,3:2|3:2,0:0:0:0:
317,173,25284,1,2,0:0:0:0:
478,62,25438,1,2,3:2:0:0:
417,180,25592,1,2,3:2:0:0:
509,341,25746,2,0,P|450:328|365:312,1,127.5,10|0,3:2|0:0,0:0:0:0:
342,344,26054,5,2,3:2:0:0:
342,344,26208,1,2,3:2:0:0:
167,252,26361,2,0,P|122:260|74:274,1,85,8|2,3:2|0:0,0:0:0:0:
251,369,26669,5,2,3:2:0:0:
301,255,26823,1,2,3:2:0:0:
210,115,26977,5,10,3:2:0:0:
260,1,27131,1,2,0:0:0:0:
94,106,27284,6,0,P|57:93|0:78,1,85,2|2,3:2|3:2,0:0:0:0:
311,242,27592,2,0,P|348:229|405:214,1,85,8|2,3:2|0:0,0:0:0:0:
39,340,27900,5,2,3:2:0:0:
213,206,28054,1,2,3:2:0:0:
0,169,28208,1,10,3:2:0:0:
144,293,28361,1,2,0:0:0:0:
311,242,28515,6,0,B|362:238|403:288|376:279|410:322|474:317,1,170,6|8,3:2|3:2,0:0:0:0:
311,340,28977,1,2,0:0:0:0:
466,221,29131,1,2,3:2:0:0:
381,140,29284,1,2,3:2:0:0:
512,39,29438,1,10,3:2:0:0:
371,151,29592,1,2,0:0:0:0:
236,82,29746,6,0,B|175:98|175:98|141:143|141:143|93:157,1,170,2|8,3:2|3:2,0:0:0:0:
235,181,30208,1,2,0:0:0:0:
81,63,30361,2,0,L|-11:89,1,85,2|0,3:2|3:2,0:0:0:0:
248,188,30669,2,0,L|216:325,1,127.5,10|0,3:2|0:0,0:0:0:0:
211,363,30977,5,2,3:2:0:0:
446,208,31131,1,2,3:2:0:0:
333,126,31284,2,0,L|352:214,1,85,10|2,3:2|0:0,0:0:0:0:
416,48,31592,1,2,3:2:0:0:
226,128,31746,1,2,3:2:0:0:
102,85,31900,2,0,P|61:72|13:61,1,85,10|2,3:2|0:0,0:0:0:0:
202,205,32208,6,0,P|222:175|217:105,1,85,2|2,3:2|3:2,0:0:0:0:
20,222,32515,1,8,3:2:0:0:
141,308,32669,1,8,3:2:0:0:
141,308,32746,1,8,3:2:0:0:
141,308,32823,1,2,3:2:0:0:
348,215,32977,1,0,3:2:0:0:
245,378,33131,2,0,P|235:312|223:242,1,127.5,12|0,3:2|0:0,0:0:0:0:
253,220,33438,6,0,B|309:207|348:247|319:252|355:289|411:278,2,170,6|10|2,3:2|3:2|3:2,0:0:0:0:
79,144,34208,1,0,3:2:0:0:
203,67,34361,2,0,L|169:172,1,85,10|0,3:2|0:0,0:0:0:0:
121,332,34669,5,0,3:2:0:0:
121,332,34823,1,0,3:2:0:0:
46,262,34977,2,0,P|83:235|127:229,1,85,10|0,3:2|0:0,0:0:0:0:
316,352,35284,1,2,3:2:0:0:
316,352,35438,1,0,3:2:0:0:
390,284,35592,2,0,P|353:257|309:251,1,85,10|0,3:2|0:0,0:0:0:0:
456,384,35900,6,0,P|467:340|484:295,1,85,2|0,3:2|3:2,0:0:0:0:
434,124,36208,2,0,P|349:145|262:161,1,170,10|2,3:2|3:2,0:0:0:0:
81,86,36669,1,0,3:2:0:0:
133,0,36823,2,0,P|168:36|174:125,1,127.5,10|0,3:2|0:0,0:0:0:0:
166,160,37131,5,0,3:2:0:0:
166,160,37284,1,0,3:2:0:0:
86,252,37438,2,0,P|46:241|-2:233,1,85,8|0,3:2|0:0,0:0:0:0:
273,138,37746,5,0,3:2:0:0:
273,138,37900,1,0,3:2:0:0:
353,230,38054,2,0,P|393:219|441:211,1,85,8|0,3:2|0:0,0:0:0:0:
256,377,38361,6,0,B|246:324|246:324|207:293|207:293|189:207,1,170,4|10,3:2|3:2,0:0:0:0:
78,69,38823,1,2,0:0:0:0:
209,132,38977,1,2,3:2:0:0:
306,89,39131,1,2,3:2:0:0:
493,155,39284,1,8,3:2:0:0:
429,42,39438,2,0,P|413:82|397:132,1,85,2|0,0:0|3:2,0:0:0:0:
489,281,39746,2,0,P|459:260|384:259,1,85,2|8,3:2|3:2,0:0:0:0:
189,321,40054,2,0,B|140:317|111:275|136:282|100:229|47:230,1,170,2|0,0:0|3:2,0:0:0:0:
198,333,40515,1,10,3:2:0:0:
304,273,40669,1,2,0:0:0:0:
460,360,40823,6,0,P|474:316|489:280,1,85,2|0,3:2|3:2,0:0:0:0:
328,115,41131,1,10,3:2:0:0:
483,69,41284,1,2,0:0:0:0:
315,120,41438,2,0,L|209:93,1,85,6|0,3:2|3:2,0:0:0:0:
41,188,41746,1,12,3:2:0:0:
104,43,41900,2,0,P|118:90|128:140,1,85,12|0,3:2|3:2,0:0:0:0:
165,319,42208,2,0,P|157:342|151:362,2,42.5,8|8|8,3:2|3:2|3:2,0:0:0:0:
377,206,42515,5,10,3:2:0:0:
397,210,42592,1,8,3:2:0:0:
417,214,42669,1,10,3:2:0:0:
234,246,42823,1,10,3:2:0:0:
202,63,42977,1,10,3:2:0:0:
385,31,43131,1,10,3:2:0:0:
224,258,43284,6,0,B|169:242|169:242|134:198|134:198|63:178,1,170,4|8,3:3|3:2,0:0:0:0:
224,158,43746,1,2,0:0:0:0:
81,278,43900,1,2,3:2:0:0:
13,60,44054,1,2,3:2:0:0:
232,147,44208,1,10,3:2:0:0:
338,105,44361,1,2,0:0:0:0:
477,166,44515,6,0,P|456:251|437:335,1,170,2|8,3:2|3:2,0:0:0:0:
193,253,44977,1,2,0:0:0:0:
275,169,45131,2,0,P|295:211|314:270,1,85,2|0,3:2|3:2,0:0:0:0:
160,376,45438,2,0,P|178:311|194:246,1,127.5,10|0,3:2|0:0,0:0:0:0:
178,208,45746,5,2,3:2:0:0:
178,208,45900,1,2,3:2:0:0:
221,89,46054,2,0,P|259:72|301:76,1,85,10|2,3:2|0:0,0:0:0:0:
480,131,46361,5,2,3:2:0:0:
363,175,46515,1,2,3:2:0:0:
511,349,46669,5,10,3:2:0:0:
331,264,46823,1,2,0:0:0:0:
187,302,46977,6,0,B|136:305|100:278|122:276|82:240|29:244,1,170,2|10,3:2|3:2,0:0:0:0:
301,187,47438,1,2,0:0:0:0:
301,187,47515,1,2,0:0:0:0:
301,187,47592,1,2,3:2:0:0:
246,384,47746,1,2,3:2:0:0:
72,157,47900,1,10,3:2:0:0:
179,207,48054,1,2,0:0:0:0:
365,90,48208,6,0,B|424:102|424:102|455:144|455:144|512:158,1,170,6|8,3:2|3:2,0:0:0:0:
331,3,48669,1,2,0:0:0:0:
179,107,48823,1,2,3:2:0:0:
179,107,48977,1,2,3:2:0:0:
284,204,49131,1,10,3:2:0:0:
378,139,49284,1,2,0:0:0:0:
217,3,49438,6,0,P|125:7|70:91,1,170,2|8,3:2|3:2,0:0:0:0:
204,270,49900,1,2,0:0:0:0:
284,204,50054,2,0,P|251:175|200:166,1,85,2|0,3:2|3:2,0:0:0:0:
49,301,50361,2,0,P|99:257|175:267,1,127.5,10|0,3:2|0:0,0:0:0:0:
204,270,50669,5,2,3:2:0:0:
204,270,50823,1,2,3:2:0:0:
314,342,50977,2,0,P|360:331|404:324,1,85,10|2,3:2|0:0,0:0:0:0:
164,384,51284,5,2,3:2:0:0:
303,240,51438,1,2,3:2:0:0:
137,121,51592,1,10,3:2:0:0:
49,301,51746,1,2,0:0:0:0:
203,267,51900,5,2,3:2:0:0:
203,267,52054,1,2,3:2:0:0:
50,97,52208,2,0,P|72:53|126:31,1,85,10|8,3:2|3:2,0:0:0:0:
150,25,52438,1,8,3:2:0:0:
150,25,52515,1,2,3:2:0:0:
263,80,52669,1,0,3:2:0:0:
433,5,52823,2,0,P|407:67|387:133,1,127.5,12|0,3:2|0:0,0:0:0:0:
350,151,53131,6,0,B|297:163|297:163|256:211|256:211|186:226,2,170,6|10|2,3:2|3:2|3:2,0:0:0:0:
199,128,53900,1,0,3:2:0:0:
351,245,54054,2,0,L|463:217,1,85,10|2,3:2|0:0,0:0:0:0:
303,355,54361,5,0,3:2:0:0:
303,355,54515,1,0,3:2:0:0:
179,321,54669,2,0,L|67:293,1,85,10|0,3:2|0:0,0:0:0:0:
239,138,54977,1,2,3:2:0:0:
239,138,55131,1,0,3:2:0:0:
115,172,55284,2,0,L|3:200,1,85,10|2,3:2|0:0,0:0:0:0:
190,328,55592,6,0,P|201:285|218:235,1,85,2|0,3:2|3:2,0:0:0:0:
182,55,55900,2,0,P|247:111|339:105,1,170,10|2,3:2|3:2,0:0:0:0:
512,193,56361,1,0,3:2:0:0:
448,64,56515,2,0,P|427:132|407:210,1,127.5,10|0,3:2|0:0,0:0:0:0:
401,232,56823,5,0,3:2:0:0:
401,232,56977,1,0,3:2:0:0:
285,282,57131,2,0,P|243:267|193:252,1,85,8|0,3:2|0:0,0:0:0:0:
19,334,57438,5,0,3:2:0:0:
19,334,57592,1,0,3:2:0:0:
135,384,57746,2,0,P|177:369|227:354,1,85,8|0,3:2|0:0,0:0:0:0:
401,232,58054,6,0,B|348:219|348:219|310:175|310:175|249:158,1,170,4|10,3:2|3:2,0:0:0:0:
402,138,58515,1,2,0:0:0:0:
255,253,58669,2,0,L|159:229,1,85,2|0,3:2|3:2,0:0:0:0:
17,116,58977,1,10,3:2:0:0:
96,44,59131,2,0,P|119:89|121:130,1,85,2|0,0:0|3:2,0:0:0:0:
254,159,59438,2,0,P|281:116|315:94,1,85,2|8,3:2|3:2,0:0:0:0:
447,18,59746,2,0,P|466:113|488:203,1,170,2|0,0:0|3:2,0:0:0:0:
508,300,60208,1,10,3:2:0:0:
388,237,60361,1,2,0:0:0:0:
219,302,60515,6,0,B|178:299|156:271|175:275|145:238|104:236,1,127.5,6|0,3:2|0:0,0:0:0:0:
38,285,60823,2,0,P|23:331|12:377,1,85,10|0,3:2|3:2,0:0:0:0:
235,215,61131,6,0,P|296:199|363:190,1,127.5,6|0,3:2|0:0,0:0:0:0:
429,243,61438,2,0,P|444:289|455:335,1,85,10|0,3:2|0:0,0:0:0:0:
512,69,61746,5,10,3:2:0:0:
356,97,61900,1,0,3:2:0:0:
269,50,62054,1,0,3:2:0:0:
113,78,62208,1,8,3:2:0:0:
113,78,62977,6,0,B|98:142|98:142|70:163|70:163|53:226,1,152.999995330811,6|14,3:2|3:2,0:0:0:0:
172,300,63438,2,0,L|147:221,1,76.4999976654053,2|0,0:0|3:2,0:0:0:0:
97,376,63746,1,0,3:2:0:0:
274,294,63900,2,0,P|313:303|360:318,1,76.4999976654053,8|0,3:2|0:0,0:0:0:0:
512,377,64208,5,0,3:2:0:0:
512,377,64361,1,0,3:2:0:0:
458,274,64515,2,0,P|445:222|475:157,1,114.749996498108,8|0,3:2|0:0,0:0:0:0:
512,96,64823,1,2,3:2:0:0:
348,185,64977,1,2,3:2:0:0:
218,143,65131,2,0,P|182:131|117:115,1,76.4999976654053,10|2,3:2|0:0,0:0:0:0:
316,34,65438,6,0,P|317:80|294:118,1,76.4999976654053,2|0,3:2|3:2,0:0:0:0:
87,214,65746,1,10,3:2:0:0:
7,140,65900,2,0,P|65:104|156:130,1,152.999995330811,2|0,0:0|3:2,0:0:0:0:
261,229,66361,2,0,P|245:272|233:310,1,76.4999976654053,8|0,3:2|0:0,0:0:0:0:
346,177,66669,5,0,3:2:0:0:
346,177,66823,1,0,3:2:0:0:
164,236,66977,2,0,P|126:224|83:212,1,76.4999976654053,8|0,3:2|0:0,0:0:0:0:
311,368,67284,1,0,3:2:0:0:
261,229,67438,1,0,3:2:0:0:
354,60,67592,1,8,3:2:0:0:
354,60,67900,6,0,P|369:100|379:133,1,76.4999976654053,6|0,3:2|0:0,0:0:0:0:
512,23,68208,2,0,P|479:3|441:0,1,76.4999976654053,10|0,3:2|0:0,0:0:0:0:
259,99,68515,1,2,3:2:0:0:
157,52,68669,1,0,3:2:0:0:
18,116,68823,2,0,P|30:155|39:192,1,76.4999976654053,10|0,3:2|0:0,0:0:0:0:
227,366,69131,5,2,3:2:0:0:
62,296,69284,1,0,3:2:0:0:
183,196,69438,2,0,P|171:235|162:272,1,76.4999976654053,10|0,3:2|0:0,0:0:0:0:
116,117,69746,1,2,3:2:0:0:
281,187,69900,1,0,3:2:0:0:
408,144,70054,2,0,P|447:132|484:123,1,76.4999976654053,10|0,3:2|0:0,0:0:0:0:
315,384,70361,5,2,3:2:0:0:
315,384,70515,1,0,3:2:0:0:
281,187,70669,2,0,L|266:112,1,72.2500013780594,14|0,3:2|3:2,0:0:0:0:
309,10,70977,1,2,3:2:0:0:
309,10,71131,1,0,3:2:0:0:
171,66,71284,2,0,P|137:54|99:43,1,72.2500013780594,10|0,3:2|3:2,0:0:0:0:
13,280,71592,1,2,3:2:0:0:
13,280,71746,1,0,3:2:0:0:
212,209,71900,2,0,P|246:196|280:186,1,72.2500013780594,14|12,3:2|3:2,0:0:0:0:
137,351,72208,1,2,3:2:0:0:
75,177,72361,2,0,P|92:189|120:204,1,36.1250006890297,10|8,3:2|3:2,0:0:0:0:
282,287,72515,1,10,3:2:0:0:
322,291,72592,1,8,3:2:0:0:
362,280,72669,1,10,3:2:0:0:
396,257,72746,1,8,3:2:0:0:
419,224,72823,6,0,P|386:309|364:379,1,152.999995330811,14|14,3:2|3:2,0:0:0:0:
512,230,73284,2,0,P|507:191|474:149,1,76.4999976654053,2|0,0:0|3:2,0:0:0:0:
512,30,73592,1,0,3:2:0:0:
340,93,73746,2,0,P|303:83|244:72,1,76.4999976654053,8|0,3:2|0:0,0:0:0:0:
76,116,74054,1,0,3:2:0:0:
76,116,74208,1,0,3:2:0:0:
192,4,74361,2,0,P|177:39|165:75,1,76.4999976654053,8|2,3:2|0:0,0:0:0:0:
175,264,74669,1,2,3:2:0:0:
76,116,74823,1,2,3:2:0:0:
291,64,74977,1,10,3:2:0:0:
271,242,75131,1,2,0:0:0:0:
46,197,75284,6,0,B|99:212|99:212|124:249|124:249|193:269,1,152.999995330811,2|10,3:2|3:2,0:0:0:0:
30,368,75746,2,0,P|29:333|50:284,1,76.4999976654053,2|0,0:0|3:2,0:0:0:0:
231,377,76054,1,0,3:2:0:0:
347,315,76208,2,0,L|436:337,1,76.4999976654053,8|0,3:2|0:0,0:0:0:0:
231,377,76515,1,0,3:2:0:0:
231,377,76669,1,0,3:2:0:0:
440,240,76823,2,0,L|365:221,1,76.4999976654053,8|0,3:2|0:0,0:0:0:0:
221,185,77131,1,0,3:2:0:0:
317,114,77284,1,8,3:2:0:0:
317,114,77361,1,8,3:2:0:0:
317,114,77438,2,0,L|302:165,1,38.2499988327027,10|8,3:2|3:2,0:0:0:0:
166,282,77592,2,0,L|151:230,1,38.2499988327027,10|8,3:2|3:2,0:0:0:0:
5,84,77746,6,0,P|39:69|103:70,1,76.4999976654053,6|0,3:2|0:0,0:0:0:0:
248,0,78054,2,0,P|234:39|222:83,1,76.4999976654053,10|0,3:2|0:0,0:0:0:0:
68,174,78361,1,2,3:2:0:0:
68,174,78515,1,0,3:2:0:0:
256,256,78669,1,10,3:2:0:0:
358,214,78823,1,2,0:0:0:0:
512,285,78977,6,0,P|503:246|494:195,1,76.4999976654053,2|0,3:2|3:2,0:0:0:0:
383,51,79284,2,0,P|374:89|365:141,1,76.4999976654053,10|0,3:2|0:0,0:0:0:0:
271,330,79592,2,0,P|262:291|253:240,1,76.4999976654053,2|0,3:2|3:2,0:0:0:0:
68,174,79900,2,0,P|123:139|190:150,1,114.749996498108,10|0,3:2|0:0,0:0:0:0:
215,153,80208,5,14,3:2:0:0:
161,285,80361,1,0,3:2:0:0:
366,342,80515,5,10,3:2:0:0:
323,193,80669,1,0,3:2:0:0:
498,106,80823,5,14,3:2:0:0:
462,267,80977,1,0,3:2:0:0:
299,47,81131,5,14,3:2:0:0:
270,283,81284,1,0,3:2:0:0:
1,32,81438,5,14,3:2:0:0:
1,32,82669,6,0,B|57:32|92:82|68:76|96:119|161:117,2,170,10|12|0,3:2|3:2|3:2,0:0:0:0:
157,121,83438,1,0,3:2:0:0:
336,52,83592,1,8,3:2:0:0:
447,108,83746,6,0,P|432:149|420:195,1,85,0|0,3:2|0:0,0:0:0:0:
218,21,84054,1,0,3:2:0:0:
271,149,84208,2,0,P|285:188|296:229,1,85,8|0,3:2|0:0,0:0:0:0:
336,52,84515,1,0,3:2:0:0:
153,125,84669,1,0,3:2:0:0:
381,275,84823,1,8,3:2:0:0:
264,325,84977,1,2,0:0:0:0:
34,217,85131,5,6,3:2:0:0:
119,345,86874,6,0,L|114:366,2,16.9999994812012,0|0|14,3:2|3:2|3:2,0:0:0:0:
164,109,87131,1,14,3:2:0:0:
164,109,87592,5,6,3:2:0:0:
42,170,87746,1,2,3:2:0:0:
210,278,87900,2,0,L|312:259,1,93.5000028533936,6|2,3:2|0:0,0:0:0:0:
64,356,88208,1,2,3:2:0:0:
132,228,88361,1,2,3:2:0:0:
10,82,88515,2,0,P|30:131|45:184,1,93.5000028533936,10|0,3:2|0:0,0:0:0:0:
288,89,88823,5,2,3:2:0:0:
288,89,88977,1,2,3:2:0:0:
86,10,89131,1,10,3:2:0:0:
186,123,89284,1,2,0:0:0:0:
59,293,89438,5,2,3:2:0:0:
226,206,89592,1,2,3:2:0:0:
429,297,89746,1,10,3:2:0:0:
262,384,89900,1,2,0:0:0:0:
126,199,90054,6,0,P|161:125|265:109,1,187.000005706787,2|8,3:2|3:2,0:0:0:0:
53,91,90515,1,2,0:0:0:0:
226,206,90669,1,2,3:2:0:0:
363,145,90823,2,0,P|413:125|461:111,1,93.5000028533936,2|8,3:2|3:2,0:0:0:0:
488,336,91131,1,2,0:0:0:0:
226,206,91284,6,0,B|176:202|141:259|167:251|132:308|78:301,1,187.000005706787,6|8,3:2|3:2,0:0:0:0:
16,194,91746,1,2,0:0:0:0:
232,295,91900,2,0,P|215:344|201:394,1,93.5000028533936,2|0,3:2|3:2,0:0:0:0:
127,150,92208,2,0,P|168:126|226:119,1,93.5000028533936,8|2,3:2|0:0,0:0:0:0:
404,265,92515,5,6,3:2:0:0:
339,141,92669,1,2,0:0:0:0:
464,0,92823,2,0,P|483:48|494:92,1,93.5000028533936,10|0,3:2|0:0,0:0:0:0:
308,236,93131,5,2,3:2:0:0:
432,171,93284,1,2,3:2:0:0:
502,375,93438,1,10,3:2:0:0:
344,323,93592,1,2,0:0:0:0:
495,253,93746,5,2,3:2:0:0:
410,383,93900,1,2,3:2:0:0:
190,222,94054,1,10,3:2:0:0:
260,373,94208,1,2,0:0:0:0:
343,243,94361,5,6,3:2:0:0:
302,264,94515,1,2,3:2:0:0:
100,360,94669,5,6,3:2:0:0:
141,339,94823,1,2,0:0:0:0:
190,222,94977,6,0,B|166:168|166:168|178:108|178:108|146:30,2,187.000005706787,6|8|2,3:2|3:2|3:2,0:0:0:0:
75,117,95746,1,0,3:2:0:0:
269,159,95900,2,0,P|313:144|366:129,1,93.5000028533936,8|0,3:2|0:0,0:0:0:0:
96,299,96208,6,0,P|76:265|81:203,1,93.5000028533936,2|0,3:2|3:2,0:0:0:0:
345,344,96515,1,12,3:2:0:0:
212,369,96669,1,2,0:0:0:0:
345,239,96823,2,0,P|389:254|442:269,1,93.5000028533936,2|0,3:2|3:2,0:0:0:0:
508,67,97131,2,0,P|439:58|439:117,1,140.25000428009,12|0,3:2|0:0,0:0:0:0:
339,127,97438,6,0,P|253:102|142:73,1,187.000005706787,6|10,3:2|3:2,0:0:0:0:
44,128,97900,1,0,0:0:0:0:
209,245,98054,1,2,3:2:0:0:
209,245,98208,2,0,P|254:232|309:222,1,93.5000028533936,2|8,3:2|3:2,0:0:0:0:
76,383,98515,1,2,0:0:0:0:
101,273,98669,6,0,P|109:232|119:181,1,93.5000028533936,0|0,3:2|3:2,0:0:0:0:
61,18,98977,2,0,P|110:63|189:52,1,140.25000428009,10|0,3:2|0:0,0:0:0:0:
226,35,99284,2,0,P|273:40|328:50,1,93.5000028533936,2|0,3:2|3:2,0:0:0:0:
469,0,99592,2,0,B|450:46|450:46|462:88|462:88|438:147,1,140.25000428009,10|0,3:2|0:0,0:0:0:0:
431,184,99900,5,2,3:2:0:0:
431,184,100054,1,2,3:2:0:0:
244,216,100208,1,10,3:2:0:0:
244,216,100361,1,2,0:0:0:0:
138,159,100515,1,2,3:2:0:0:
23,233,100669,1,2,3:2:0:0:
175,359,100823,1,8,3:2:0:0:
357,271,100977,6,0,B|407:265|450:316|421:312|460:362|514:355,1,187.000005706787,2|0,0:0|3:2,0:0:0:0:
512,204,101438,1,12,3:2:0:0:
512,204,101592,1,10,3:2:0:0:
343,280,101746,2,0,P|295:265|227:253,1,93.5000028533936,2|0,3:2|3:2,0:0:0:0:
154,107,102054,2,0,P|191:76|308:97,1,140.25000428009,14|0,3:2|0:0,0:0:0:0:
326,99,102361,6,0,B|390:81|390:81|423:35|423:35|492:13,2,187.000005706787,6|10|2,3:2|3:2|3:2,0:0:0:0:
485,117,103131,1,0,3:2:0:0:
328,7,103284,1,10,3:2:0:0:
191,62,103438,2,0,L|82:33,1,93.5000028533936,2|0,0:0|3:2,0:0:0:0:
332,207,103746,2,0,L|440:178,1,93.5000028533936,2|8,3:2|3:2,0:0:0:0:
159,360,104054,2,0,B|104:359|77:303|99:309|69:252|6:248,1,187.000005706787,2|0,0:0|3:2,0:0:0:0:
255,335,104515,1,8,3:2:0:0:
255,335,104823,5,2,3:2:0:0:
332,207,104977,2,0,L|356:297,1,93.5000028533936,2|12,3:2|3:2,0:0:0:0:
255,349,105284,5,2,0:0:0:0:
168,171,105438,2,0,L|143:261,1,93.5000028533936,2|0,3:2|3:2,0:0:0:0:
256,364,105746,5,14,3:2:0:0:
414,134,105900,2,0,L|438:224,1,93.5000028533936,2|6,0:0|3:2,0:0:0:0:
257,376,106208,5,10,3:2:0:0:
92,97,106361,2,0,L|67:187,1,93.5000028533936,10|8,3:2|3:2,0:0:0:0:
89,239,106592,1,8,3:2:0:0:
89,239,106669,5,2,3:2:0:0:
230,159,106823,1,10,3:2:0:0:
252,163,106900,1,8,3:2:0:0:
275,168,106977,1,8,3:2:0:0:
447,239,107131,1,8,3:2:0:0:
474,234,107208,1,8,3:2:0:0:
503,227,107284,5,6,3:2:0:0:
384,149,107438,1,2,3:2:0:0:
177,267,107592,2,0,P|137:251|82:238,1,93.5000028533936,6|2,3:2|0:0,0:0:0:0:
295,377,107900,1,2,3:2:0:0:
227,185,108054,1,2,3:2:0:0:
316,74,108208,2,0,P|377:48|450:76,1,140.25000428009,10|0,3:2|0:0,0:0:0:0:
474,111,108515,6,0,P|453:156|436:204,1,93.5000028533936,2|0,3:2|3:2,0:0:0:0:
494,369,108823,2,0,P|441:331|351:346,1,140.25000428009,10|0,3:2|0:0,0:0:0:0:
322,360,109131,1,2,3:2:0:0:
322,360,109284,1,2,3:2:0:0:
237,223,109438,1,10,3:2:0:0:
283,121,109592,1,2,0:0:0:0:
196,11,109746,6,0,P|151:-2|98:-9,1,93.5000028533936,2|0,3:2|3:2,0:0:0:0:
27,220,110054,2,0,P|73:227|125:205,1,93.5000028533936,8|0,3:2|0:0,0:0:0:0:
278,106,110361,1,2,3:2:0:0:
220,226,110515,1,0,3:2:0:0:
296,384,110669,1,8,3:2:0:0:
296,384,110977,6,0,P|319:298|358:179,1,187.000005706787,6|8,3:2|3:2,0:0:0:0:
422,343,111438,1,2,0:0:0:0:
220,226,111592,2,0,P|171:229|129:255,1,93.5000028533936,2|0,3:2|3:2,0:0:0:0:
44,358,111900,2,0,P|33:313|11:261,1,93.5000028533936,8|0,3:2|0:0,0:0:0:0:
107,67,112208,6,0,B|160:53|200:100|178:100|221:148|283:135,1,187.000005706787,6|10,3:2|3:2,0:0:0:0:
472,99,112669,1,2,0:0:0:0:
266,44,112823,1,2,3:2:0:0:
367,162,112977,1,2,3:2:0:0:
291,344,113131,1,10,3:2:0:0:
378,271,113284,1,2,0:0:0:0:
140,210,113438,5,2,3:2:0:0:
140,210,113592,1,2,3:2:0:0:
191,357,113746,2,0,P|206:309|228:257,1,93.5000028533936,10|2,3:2|0:0,0:0:0:0:
408,157,114054,5,6,3:2:0:0:
366,139,114208,1,2,3:2:0:0:
156,60,114361,5,6,3:2:0:0:
200,77,114515,1,2,0:0:0:0:
287,198,114669,6,0,B|272:132|272:132|295:75|295:75|280:18,1,187.000005706787,6|8,3:2|3:2,0:0:0:0:
366,139,115131,1,2,0:0:0:0:
200,77,115284,2,0,P|152:72|105:96,1,93.5000028533936,2|0,3:2|3:2,0:0:0:0:
0,275,115592,1,10,3:2:0:0:
168,172,115746,1,2,0:0:0:0:
0,80,115900,6,0,P|21:128|36:177,1,93.5000028533936,2|0,3:2|3:2,0:0:0:0:
99,384,116208,1,12,3:2:0:0:
0,275,116361,1,2,0:0:0:0:
168,172,116515,2,0,P|154:226|144:272,1,93.5000028533936,2|0,3:2|3:2,0:0:0:0:
273,380,116823,2,0,B|311:385|346:348|321:351|356:315|403:319,1,140.25000428009,12|0,3:2|0:0,0:0:0:0:
442,336,117131,6,0,P|454:272|474:185,1,140.25000428009,6|0,3:2|0:0,0:0:0:0:
446,152,117438,2,0,P|401:147|348:181,1,93.5000028533936,10|0,3:2|0:0,0:0:0:0:
185,73,117746,1,2,3:2:0:0:
309,23,117900,2,0,P|289:69|273:121,1,93.5000028533936,2|8,3:2|3:2,0:0:0:0:
216,322,118208,1,2,0:0:0:0:
330,260,118361,5,0,3:2:0:0:
330,260,118515,1,0,3:2:0:0:
144,161,118669,2,0,P|96:160|51:186,1,93.5000028533936,10|2,3:2|0:0,0:0:0:0:
216,322,118977,2,0,L|236:223,1,93.5000028533936,2|0,3:2|3:2,0:0:0:0:
257,185,119208,1,2,0:0:0:0:
257,185,119284,2,0,P|246:142|236:84,1,93.5000028533936,10|2,3:2|0:0,0:0:0:0:
106,19,119592,5,2,3:2:0:0:
232,79,119746,1,2,3:2:0:0:
376,16,119900,1,10,3:2:0:0:
470,72,120054,1,2,0:0:0:0:
448,228,120208,2,0,P|467:282|484:338,1,93.5000028533936,2|2,3:2|3:2,0:0:0:0:
443,356,120438,1,2,0:0:0:0:
443,356,120515,2,0,P|393:363|345:331,1,93.5000028533936,8|2,3:2|0:0,0:0:0:0:
242,244,120823,5,2,3:2:0:0:
242,244,120977,1,0,3:2:0:0:
64,355,121131,2,0,P|80:309|93:263,1,93.5000028533936,12|8,3:2|3:2,0:0:0:0:
0,67,121438,1,2,3:2:0:0:
128,145,121592,2,0,P|152:140|178:131,1,46.7500014266968,8|8,3:2|3:2,0:0:0:0:
295,73,121746,1,8,3:2:0:0:
340,84,121823,1,8,3:2:0:0:
385,95,121900,1,8,3:2:0:0:
431,105,121977,1,8,3:2:0:0:
477,114,122054,6,0,B|510:169|510:169|487:307,1,187.000005706787,6|8,3:2|3:2,0:0:0:0:
241,236,122669,2,0,P|310:178|403:206,1,187.000005706787,2|8,3:2|3:2,0:0:0:0:
489,290,123131,1,2,0:0:0:0:
229,342,123284,6,0,B|173:341|137:298|172:295|132:244|71:243,2,187.000005706787,2|8|0,3:2|3:2|3:2,0:0:0:0:
393,295,124054,1,0,3:2:0:0:
274,148,124208,2,0,P|255:195|234:255,1,93.5000028533936,10|2,3:2|0:0,0:0:0:0:
43,49,124515,5,14,3:2:0:0:
107,220,124669,1,0,3:2:0:0:
321,47,124823,5,8,3:2:0:0:
240,235,124977,1,2,3:2:0:0:
370,335,125131,5,10,3:2:0:0:
480,79,125284,1,0,3:2:0:0:
244,121,125438,5,8,3:2:0:0:
474,226,125592,1,2,3:2:0:0:
198,384,125746,5,14,3:2:0:0:
72,100,126977,6,0,B|119:112|119:112|142:142|142:142|205:159,1,127.5,10|0,3:2|0:0,0:0:0:0:
209,190,127284,2,0,P|217:233|195:281,1,85,12|0,3:2|0:0,0:0:0:0:
0,298,127592,1,0,3:2:0:0:
125,226,127746,1,0,3:2:0:0:
330,314,127900,1,8,3:2:0:0:
436,252,128054,6,0,P|453:176|481:87,1,170,4|8,3:2|3:2,0:0:0:0:
458,52,128438,1,8,3:2:0:0:
458,52,128515,2,0,L|391:66,1,42.5,10|8,3:2|3:2,0:0:0:0:
322,174,128669,2,0,L|337:113,1,42.5,8|8,3:2|3:2,0:0:0:0:
190,31,128823,1,10,3:2:0:0:
198,39,129284,5,2,0:0:0:0:
198,39,129361,1,2,0:0:0:0:
198,39,129438,2,0,P|178:129|162:216,1,170,6|14,3:2|3:2,0:0:0:0:
6,143,129900,2,0,P|40:118|97:118,1,85,2|0,0:0|3:2,0:0:0:0:
266,183,130208,1,2,3:2:0:0:
100,275,130361,1,10,3:2:0:0:
307,376,130515,6,0,B|366:357|366:357|396:315|396:315|454:297,1,170,6|0,3:2|3:2,0:0:0:0:
294,384,130977,2,0,L|208:362,1,85,8|2,3:2|0:0,0:0:0:0:
38,208,131284,1,10,3:2:0:0:
74,186,131361,1,8,3:2:0:0:
116,184,131438,1,10,3:2:0:0:
154,201,131515,1,8,3:2:0:0:
181,233,131592,1,8,3:2:0:0:
181,233,131900,6,0,P|195:188|213:141,1,85,6|0,3:2|0:0,0:0:0:0:
68,6,132208,1,10,3:2:0:0:
179,52,132361,2,0,P|223:57|268:38,1,85,2|8,0:0|3:2,0:0:0:0:
398,0,132669,1,2,3:2:0:0:
398,0,132823,1,2,0:0:0:0:
512,150,132977,6,0,B|463:146|427:196|453:189|416:237|359:229,1,170,6|2,3:2|3:2,0:0:0:0:
185,147,133438,1,14,3:2:0:0:
300,294,133592,1,2,3:2:0:0:
133,384,133746,1,12,3:2:0:0:
198,256,133900,1,2,3:2:0:0:
91,68,134054,1,12,3:2:0:0:
91,68,134208,1,12,3:2:0:0:
26,196,134361,6,0,P|40:242|51:286,1,85,6|0,3:2|0:0,0:0:0:0:
70,329,134592,1,0,3:2:0:0:
70,329,134669,1,10,3:2:0:0:
198,256,134823,2,0,P|242:256|287:277,1,85,2|0,3:2|3:2,0:0:0:0:
421,355,135131,1,2,3:2:0:0:
349,191,135284,1,10,3:2:0:0:
417,88,135438,6,0,P|468:170|453:254,1,170,2|2,3:2|3:2,0:0:0:0:
277,295,135900,1,10,3:2:0:0:
349,191,136054,1,2,3:2:0:0:
137,121,136208,1,2,0:0:0:0:
137,121,136361,1,2,3:2:0:0:
170,296,136515,2,0,P|184:253|208:192,1,85,8|0,3:2|0:0,0:0:0:0:
79,44,136823,6,0,B|134:24|134:24|176:40|176:40|264:13,1,170,6|2,3:2|3:2,0:0:0:0:
440,142,137284,1,2,0:0:0:0:
386,0,137438,2,0,P|367:38|342:90,1,85,8|2,3:2|3:2,0:0:0:0:
434,270,137746,1,10,3:2:0:0:
244,151,137900,6,0,B|193:146|155:193|179:188|141:234|90:226,1,170,6|2,3:2|0:0,0:0:0:0:
197,61,138361,1,10,3:2:0:0:
236,52,138438,1,8,3:2:0:0:
277,60,138515,1,10,3:2:0:0:
313,84,138592,1,8,3:2:0:0:
337,118,138669,1,10,3:2:0:0:
337,118,139284,6,0,P|372:98|430:98,1,76.4999976654053,4|0,3:2|0:0,0:0:0:0:
455,120,139515,1,0,3:2:0:0:
455,120,139592,2,0,P|442:162|434:205,1,76.4999976654053,14|0,3:2|3:2,0:0:0:0:
496,319,139900,2,0,P|461:310|419:304,1,76.4999976654053,2|0,0:0|3:2,0:0:0:0:
296,248,140208,2,0,P|261:256|219:263,1,76.4999976654053,10|2,3:2|0:0,0:0:0:0:
79,358,140515,6,0,P|100:321|101:271,1,76.4999976654053,2|2,3:2|0:0,0:0:0:0:
93,238,140746,1,0,3:2:0:0:
93,238,140823,1,8,3:2:0:0:
0,112,140977,2,0,B|46:114|82:74|58:79|89:43|139:45,1,152.999995330811,2|0,3:2|3:2,0:0:0:0:
310,140,141438,2,0,P|296:176|283:220,1,76.4999976654053,8|0,3:2|0:0,0:0:0:0:
433,351,141746,6,0,P|423:311|401:257,1,76.4999976654053,0|0,3:2|0:0,0:0:0:0:
393,230,141977,1,0,3:2:0:0:
393,230,142054,1,8,3:2:0:0:
446,129,142208,1,0,3:2:0:0:
332,50,142361,2,0,P|299:46|253:64,1,76.4999976654053,2|0,0:0|3:2,0:0:0:0:
155,170,142669,2,0,P|140:115|116:36,1,114.749996498108,10|0,3:2|0:0,0:0:0:0:
75,43,142977,6,0,P|43:54|7:93,1,76.4999976654053,2|2,3:2|0:0,0:0:0:0:
1,132,143208,1,0,3:2:0:0:
1,132,143284,1,8,3:2:0:0:
108,254,143438,2,0,P|165:265|239:209,1,152.999995330811,2|2,3:2|3:2,0:0:0:0:
347,348,143900,2,0,P|313:330|251:322,1,76.4999976654053,10|0,3:2|0:0,0:0:0:0:
155,170,144208,6,0,P|162:137|184:96,1,76.4999976654053,4|0,3:2|0:0,0:0:0:0:
214,66,144438,1,0,3:2:0:0:
214,66,144515,1,10,3:2:0:0:
407,125,144669,1,2,3:2:0:0:
330,18,144823,2,0,L|305:100,1,76.4999976654053,2|0,0:0|3:2,0:0:0:0:
446,222,145131,2,0,P|386:225|329:288,1,114.749996498108,8|0,3:2|0:0,0:0:0:0:
306,284,145438,6,0,P|270:273|222:262,1,76.4999976654053,2|2,3:2|0:0,0:0:0:0:
186,256,145669,1,0,3:2:0:0:
186,256,145746,1,10,3:2:0:0:
34,295,145900,2,0,P|50:225|68:134,1,152.999995330811,2|0,3:2|3:2,0:0:0:0:
0,7,146361,2,0,P|42:37|116:29,1,114.749996498108,10|0,3:2|0:0,0:0:0:0:
146,21,146669,6,0,P|185:30|228:43,1,76.4999976654053,2|0,3:2|0:0,0:0:0:0:
263,56,146900,1,0,3:2:0:0:
263,56,146977,1,10,3:2:0:0:
199,187,147131,2,0,P|214:227|225:268,1,76.4999976654053,2|0,3:2|0:0,0:0:0:0:
265,384,147438,1,2,3:2:0:0:
386,222,147592,2,0,P|351:202|292:202,1,76.4999976654053,8|2,3:2|0:0,0:0:0:0:
117,257,147900,5,4,3:2:0:0:
11,138,148054,1,8,3:2:0:0:
30,105,148131,1,8,3:2:0:0:
62,84,148208,1,10,3:2:0:0:
99,78,148284,1,8,3:2:0:0:
135,88,148361,2,0,P|157:97|179:105,1,38.2499988327027,8|8,3:2|3:2,0:0:0:0:
334,45,148515,1,8,3:3:0:0:
334,45,148592,1,8,3:3:0:0:
334,45,148669,1,8,3:2:0:0:
199,195,148823,1,8,3:2:0:0:
360,321,148977,1,8,3:2:0:0:
365,298,149054,1,8,3:2:0:0:
370,275,149131,6,0,L|286:292,1,76.4999976654053,6|0,3:2|0:0,0:0:0:0:
253,303,149361,1,0,3:2:0:0:
253,303,149438,1,14,3:2:0:0:
142,358,149592,1,2,3:2:0:0:
6,257,149746,2,0,P|18:216|36:172,1,76.4999976654053,2|0,0:0|3:2,0:0:0:0:
215,104,150054,2,0,P|182:156|110:164,1,114.749996498108,10|0,3:2|0:0,0:0:0:0:
105,131,150361,6,0,L|85:48,1,76.4999976654053,2|2,3:2|0:0,0:0:0:0:
76,12,150592,1,0,3:2:0:0:
76,12,150669,1,8,3:2:0:0:
223,91,150823,2,0,P|297:74|379:61,1,152.999995330811,2|0,3:2|3:2,0:0:0:0:
496,10,151284,2,0,P|478:48|461:96,1,76.4999976654053,8|0,3:2|0:0,0:0:0:0:
508,254,151592,6,0,P|477:235|417:234,1,76.4999976654053,2|0,3:2|0:0,0:0:0:0:
401,256,151823,1,0,3:2:0:0:
401,256,151900,2,0,P|415:298|424:338,1,76.4999976654053,8|0,3:2|3:2,0:0:0:0:
260,383,152208,2,0,P|269:345|281:309,1,76.4999976654053,2|0,0:0|3:2,0:0:0:0:
129,199,152515,2,0,P|141:235|160:312,1,114.749996498108,10|0,3:2|0:0,0:0:0:0:
130,345,152823,6,0,P|93:348|39:312,1,76.4999976654053,2|0,3:2|0:0,0:0:0:0:
22,301,153054,1,0,3:2:0:0:
22,301,153131,1,8,3:2:0:0:
126,186,153284,2,0,B|177:171|177:171|214:189|214:189|272:174,1,152.999995330811,2|2,3:2|3:2,0:0:0:0:
254,18,153746,2,0,P|237:59|223:97,1,76.4999976654053,10|0,3:2|0:0,0:0:0:0:
346,235,154054,6,0,L|439:210,1,76.4999976654053,4|0,3:2|0:0,0:0:0:0:
464,202,154284,1,0,3:2:0:0:
464,202,154361,1,10,3:2:0:0:
356,119,154515,1,2,3:2:0:0:
456,18,154669,2,0,P|469:60|477:106,1,76.4999976654053,2|0,0:0|3:2,0:0:0:0:
329,241,154977,2,0,P|277:208|218:217,1,114.749996498108,10|0,3:2|0:0,0:0:0:0:
193,245,155284,6,0,P|205:286|214:335,1,76.4999976654053,2|2,3:2|0:0,0:0:0:0:
222,368,155515,1,0,3:2:0:0:
222,368,155592,1,8,3:2:0:0:
71,276,155746,2,0,P|85:208|108:112,1,152.999995330811,2|0,3:2|3:2,0:0:0:0:
186,0,156208,1,10,3:2:0:0:
9,73,156361,1,2,0:0:0:0:
190,219,156515,6,0,B|239:203|239:203|285:218|285:218|339:203,1,152.999995330811,6|8,3:2|3:2,0:0:0:0:
473,268,156977,1,2,3:2:0:0:
335,101,157131,6,0,B|283:117|283:117|237:102|237:102|182:119,1,152.999995330811,4|8,3:2|3:2,0:0:0:0:
0,179,157592,1,2,0:0:0:0:
139,24,157746,5,8,3:2:0:0:
95,149,157900,1,0,3:2:0:0:
145,239,158054,1,0,3:2:0:0:
101,364,158208,1,8,3:2:0:0:
101,364,158977,6,0,B|144:366|176:334|152:336|187:300|233:303,1,144.500002756119,6|14,3:2|3:2,0:0:0:0:
332,186,159438,2,0,P|317:231|305:271,1,72.2500013780594,2|0,0:0|3:2,0:0:0:0:
250,119,159746,1,0,3:2:0:0:
438,200,159900,2,0,P|476:188|529:177,1,72.2500013780594,8|0,3:2|0:0,0:0:0:0:
310,346,160208,5,0,3:2:0:0:
202,275,160361,1,0,3:2:0:0:
26,331,160515,2,0,P|40:295|51:256,1,72.2500013780594,8|0,3:2|0:0,0:0:0:0:
189,108,160823,1,2,3:2:0:0:
25,61,160977,1,2,3:2:0:0:
125,184,161131,1,10,3:2:0:0:
288,86,161284,1,2,0:0:0:0:
408,129,161438,6,0,L|500:110,1,72.2500013780594,2|0,3:2|3:2,0:0:0:0:
252,259,161746,1,10,3:2:0:0:
288,86,161900,2,0,L|269:178,1,72.2500013780594,2|0,0:0|3:2,0:0:0:0:
382,337,162208,1,0,3:2:0:0:
252,259,162361,2,0,P|213:257|162:283,1,72.2500013780594,12|0,3:2|0:0,0:0:0:0:
17,359,162669,5,0,3:2:0:0:
96,228,162823,1,0,3:2:0:0:
0,33,162977,2,0,B|44:34|72:71|53:67|79:113|137:103,1,144.500002756119,12|0,3:2|3:2,0:0:0:0:
333,25,163438,1,8,3:2:0:0:
307,5,163515,1,8,3:2:0:0:
274,1,163592,2,0,P|262:20|245:51,1,36.1250006890297,10|8,3:2|3:2,0:0:0:0:
215,123,163746,2,0,P|226:143|244:172,1,36.1250006890297,10|8,3:2|3:2,0:0:0:0:
321,258,163900,6,0,P|358:248|401:240,1,80.7499978437424,6|0,3:2|0:0,0:0:0:0:
162,360,164208,2,0,P|125:350|82:342,1,80.7499978437424,10|0,3:2|0:0,0:0:0:0:
1,149,164515,2,0,P|47:151|91:184,1,80.7499978437424,2|0,3:2|3:2,0:0:0:0:
230,255,164823,1,10,3:2:0:0:
230,255,164977,1,2,0:0:0:0:
200,120,165131,2,0,P|209:80|221:42,1,80.7499978437424,2|0,3:2|3:2,0:0:0:0:
392,25,165438,2,0,P|403:63|413:102,1,80.7499978437424,10|0,3:2|0:0,0:0:0:0:
230,255,165746,2,0,P|266:235|318:241,1,80.7499978437424,2|0,3:2|3:2,0:0:0:0:
495,324,166054,6,0,B|457:320|433:347|452:345|423:375|383:370,1,121.124996765614,10|0,3:2|0:0,0:0:0:0:
343,356,166361,5,14,3:2:0:0:
250,161,166515,1,0,3:2:0:0:
94,337,166669,5,10,3:2:0:0:
153,191,166823,1,0,3:2:0:0:
0,61,166977,5,14,3:2:0:0:
66,237,167131,1,0,3:2:0:0:
256,31,167284,5,10,3:2:0:0:
188,282,167438,1,0,3:2:0:0:
469,118,167592,5,14,3:2:0:0:
16,356,168823,6,0,B|59:345|59:345|85:314|85:314|145:298,1,127.5,10|0,3:2|0:0,0:0:0:0:
165,276,169131,2,0,P|168:232|150:187,1,85,12|0,3:2|0:0,0:0:0:0:
48,50,169438,1,0,3:2:0:0:
48,50,169592,1,0,3:2:0:0:
230,134,169746,1,8,3:2:0:0:
368,68,169900,6,0,P|353:107|338:164,1,85,0|0,3:2|0:0,0:0:0:0:
452,328,170208,1,0,3:2:0:0:
335,267,170361,2,0,P|294:263|244:286,1,85,8|0,3:2|0:0,0:0:0:0:
86,375,170669,1,0,3:2:0:0:
155,252,170823,1,0,3:2:0:0:
69,72,170977,1,8,3:2:0:0:
0,195,171131,1,2,0:0:0:0:
252,142,171284,5,10,3:2:0:0:
42,100,173008,6,0,L|35:54,2,34,2|0|14,3:2|3:2|3:2,0:0:0:0:
75,337,173284,1,10,3:2:0:0:
75,337,173746,6,0,L|169:319,1,76.4999976654053,6|2,3:2|0:0,0:0:0:0:
233,229,174054,2,0,L|157:214,1,76.4999976654053,2|2,3:2|3:2,0:0:0:0:
307,295,174361,6,0,P|326:261|323:198,1,80.7499978437424,10|2,3:2|3:2,0:0:0:0:
251,63,174669,2,0,P|253:102|273:138,1,80.7499978437424,10|2,3:2|3:2,0:0:0:0:
474,204,174977,5,6,3:2:0:0:
345,78,175131,1,10,3:2:0:0:
483,43,175284,1,10,3:2:0:0:
359,190,175438,1,10,3:2:0:0:
140,54,175592,5,10,3:2:0:0:
232,173,175746,1,10,3:2:0:0:
1,249,175900,1,10,3:2:0:0:
55,104,176054,1,10,3:2:0:0:
219,369,176208,5,12,3:2:0:0:
128,345,176361,1,0,3:2:0:0:
190,279,176515,1,0,3:2:0:0:
55,104,176669,5,12,3:2:0:0:
83,213,176823,1,0,3:2:0:0:
163,138,176977,1,0,3:2:0:0:
412,258,177131,5,12,3:2:0:0:
282,298,177284,1,0,3:2:0:0:
316,168,177438,1,0,3:2:0:0:
194,50,177592,5,12,3:2:0:0:
364,1,177746,1,0,3:2:0:0:
316,168,177900,1,0,3:2:0:0:
376,375,178054,5,12,3:2:0:0:
376,375,178669,6,0,L|399:272,1,89.2499972763062,14|0,3:2|0:0,0:0:0:0:
395,287,178977,2,0,L|468:274,1,59.4999981842042,8|2,3:2|0:0,0:0:0:0:
346,200,179284,2,0,L|273:186,1,59.4999981842042,10|2,3:2|3:2,0:0:0:0:
402,125,179592,2,0,L|474:111,1,59.4999981842042,10|0,3:2|3:2,0:0:0:0:
252,48,179900,5,10,3:2:0:0:
252,48,180054,1,2,0:0:0:0:
353,2,180208,2,0,L|334:69,1,59.4999981842042,10|2,3:2|3:2,0:0:0:0:
326,112,180438,1,0,3:2:0:0:
326,112,180515,2,0,P|304:134|275:144,1,59.4999981842042,10|2,3:2|3:2,0:0:0:0:
157,60,180823,1,10,3:2:0:0:
157,60,180977,1,2,3:2:0:0:
58,132,181131,6,0,P|69:201|78:266,1,118.999996368408,10|8,3:2|3:2,0:0:0:0:
56,349,181592,1,2,0:0:0:0:
214,293,181746,1,10,3:2:0:0:
214,293,181900,2,0,L|282:306,1,59.4999981842042,2|8,3:2|3:2,0:0:0:0:
153,384,182208,1,2,3:2:0:0:
0,232,182361,6,0,L|90:218,1,85,14|0,3:2|3:2,0:0:0:0:
227,111,182669,2,0,P|192:87|128:86,1,85,12|2,3:2|3:2,0:0:0:0:
272,304,182977,2,0,P|284:264|305:215,1,85,14|0,3:2|3:2,0:0:0:0:
502,202,183284,2,0,P|467:178|426:173,1,85,14|2,3:2|3:2,0:0:0:0:
356,13,183592,6,0,P|311:22|253:33,1,89.2499972763062,14|0,3:2|0:0,0:0:0:0:
217,22,183900,2,0,P|187:13|138:6,1,59.4999981842042,10|0,3:2|0:0,0:0:0:0:
37,64,184208,2,0,P|25:94|18:129,1,59.4999981842042,10|2,3:2|3:2,0:0:0:0:
156,183,184515,2,0,P|149:154|138:126,1,59.4999981842042,10|2,3:2|3:2,0:0:0:0:
0,253,184823,1,8,3:2:0:0:
0,253,184977,1,2,0:0:0:0:
110,276,185131,2,0,L|172:291,1,59.4999981842042,10|2,3:2|3:2,0:0:0:0:
217,301,185361,1,0,3:2:0:0:
217,301,185438,6,0,P|255:299|296:268,1,85,14|2,3:2|3:2,0:0:0:0:
487,250,185746,2,0,P|449:248|408:217,1,85,14|2,3:2|3:2,0:0:0:0:
339,31,186054,6,0,P|440:19|496:76,1,170,14|8,3:2|3:2,0:0:0:0:
349,184,186515,1,0,3:2:0:0:
225,132,186669,2,0,P|184:116|141:103,1,85,8|0,3:2|3:2,0:0:0:0:
312,311,186977,2,0,P|375:294|461:274,1,127.5,10|0,3:2|0:0,0:0:0:0:
304,322,187284,6,0,B|248:307|248:307|201:338|201:338|132:322,1,170,14|8,3:2|3:2,0:0:0:0:
58,373,187746,1,2,3:2:0:0:
113,223,187900,2,0,P|128:185|149:123,1,85,10|0,3:2|3:2,0:0:0:0:
94,10,188208,1,8,3:2:0:0:
94,10,188361,1,0,3:2:0:0:
244,85,188515,6,0,P|287:74|337:65,1,89.2499972763062,14|0,3:2|0:0,0:0:0:0:
331,65,188823,2,0,L|342:3,1,59.4999981842042,10|0,3:2|0:0,0:0:0:0:
446,9,189131,1,10,3:2:0:0:
446,9,189284,2,0,L|456:67,1,59.4999981842042,2|8,3:2|3:2,0:0:0:0:
483,241,189592,1,2,3:2:0:0:
378,180,189746,6,0,B|342:182|316:210|338:207|311:236|272:239,1,118.999996368408,8|10,3:2|3:2,0:0:0:0:
383,324,190208,1,0,3:2:0:0:
383,324,190284,1,0,3:2:0:0:
383,324,190361,2,0,L|399:250,1,59.4999981842042,10|0,3:2|3:2,0:0:0:0:
246,326,190669,2,0,P|219:318|183:310,1,59.4999981842042,10|0,3:2|3:2,0:0:0:0:
29,370,190977,5,10,3:2:0:0:
29,370,191131,1,0,0:0:0:0:
98,290,191284,1,10,3:2:0:0:
98,290,191438,1,0,0:0:0:0:
72,172,191592,1,10,3:2:0:0:
72,172,191746,2,0,L|57:96,1,59.4999981842042,2|8,3:2|3:2,0:0:0:0:
0,0,192054,1,2,3:2:0:0:
157,83,192208,6,0,P|207:57|273:69,1,118.999996368408,10|8,3:2|3:2,0:0:0:0:
376,143,192669,1,0,3:2:0:0:
376,143,192746,1,0,3:2:0:0:
376,143,192823,2,0,P|386:113|397:85,1,59.4999981842042,10|0,3:2|3:2,0:0:0:0:
227,163,193131,2,0,P|237:190|247:218,1,59.4999981842042,10|0,3:2|3:2,0:0:0:0:
165,360,193438,6,0,P|210:333|274:349,1,102,6|0,3:2|0:0,0:0:0:0:
302,354,193746,2,0,L|384:335,1,68,10|0,3:2|3:2,0:0:0:0:
478,250,194054,2,0,L|396:231,1,68,10|0,3:2|3:2,0:0:0:0:
479,372,194361,1,10,3:2:0:0:
479,372,194515,1,2,3:2:0:0:
324,253,194669,5,12,3:2:0:0:
394,108,194823,1,2,3:2:0:0:
157,61,194977,5,12,3:2:0:0:
234,210,195131,1,2,3:2:0:0:
103,353,195284,5,12,3:2:0:0:
26,204,195438,1,0,3:2:0:0:
323,330,195592,5,12,3:2:0:0:
323,330,195900,5,10,3:2:0:0:
402,239,196054,2,0,L|507:215,1,93.5000028533936,10|0,3:2|3:2,0:0:0:0:
187,344,196361,5,10,3:2:0:0:
92,189,196515,2,0,L|-13:165,1,93.5000028533936,10|0,3:2|3:2,0:0:0:0:
318,342,196823,5,10,3:2:0:0:
413,143,196977,2,0,L|544:113,1,93.5000028533936,10|0,3:2|3:2,0:0:0:0:
195,355,197284,5,10,3:2:0:0:
97,92,197438,2,0,L|-12:69,1,93.5000028533936,10|0,3:2|3:2,0:0:0:0:
314,355,197746,5,10,3:2:0:0:
428,48,197900,1,10,3:2:0:0:
428,48,198361,5,6,3:2:0:0:
215,131,198515,1,2,3:2:0:0:
295,26,198669,2,0,P|319:78|336:126,1,101.999996887207,6|2,3:2|0:0,0:0:0:0:
433,301,198977,1,2,3:2:0:0:
317,241,199131,1,2,3:2:0:0:
149,285,199284,2,0,P|95:271|-8:249,1,152.999995330811,10|0,3:2|0:0,0:0:0:0:
0,250,199592,6,0,P|-11:295|20:355,1,101.999996887207,2|0,3:2|3:2,0:0:0:0:
219,223,199900,2,0,P|207:177|190:117,1,101.999996887207,10|0,3:2|0:0,0:0:0:0:
28,46,200208,1,2,3:2:0:0:
28,46,200361,1,2,3:2:0:0:
192,124,200515,1,10,3:2:0:0:
298,76,200669,1,2,0:0:0:0:
476,151,200823,5,2,3:2:0:0:
476,151,200977,1,0,3:2:0:0:
428,4,201131,2,0,P|406:57|390:101,1,101.999996887207,8|0,3:2|0:0,0:0:0:0:
310,304,201438,1,2,3:2:0:0:
440,227,201592,1,0,3:2:0:0:
228,68,201746,1,8,3:2:0:0:
228,68,202054,6,0,B|170:56|127:119|157:106|116:172|57:162,1,203.999993774414,6|8,3:2|3:2,0:0:0:0:
11,43,202515,1,2,0:0:0:0:
226,160,202669,2,0,P|208:210|193:261,1,101.999996887207,2|0,3:2|3:2,0:0:0:0:
25,349,202977,2,0,P|61:320|128:321,1,101.999996887207,8|2,3:2|0:0,0:0:0:0:
355,384,203284,5,6,3:2:0:0:
296,271,203438,1,0,0:0:0:0:
362,115,203592,1,10,3:2:0:0:
303,2,203746,1,2,0:0:0:0:
491,132,203900,5,2,3:2:0:0:
400,245,204054,1,2,3:2:0:0:
206,130,204208,5,10,3:2:0:0:
297,17,204361,1,2,0:0:0:0:
410,236,204515,5,2,3:2:0:0:
410,236,204669,1,2,3:2:0:0:
267,325,204823,1,10,3:2:0:0:
164,268,204977,1,2,0:0:0:0:
12,361,205131,5,6,3:2:0:0:
24,315,205284,1,2,3:2:0:0:
96,103,205438,5,6,3:2:0:0:
81,147,205592,1,2,0:0:0:0:
151,267,205746,5,6,3:2:0:0:
151,267,205900,1,2,0:0:0:0:
301,189,206054,2,0,L|407:212,1,101.999996887207,8|0,3:2|0:0,0:0:0:0:
214,384,206361,1,2,3:2:0:0:
151,267,206515,1,0,3:2:0:0:
195,152,206669,1,10,3:2:0:0:
162,49,206823,1,2,0:0:0:0:
391,6,206977,6,0,P|371:61|356:111,1,106.25,14|0,3:2|3:2,0:0:0:0:
346,156,207208,1,0,3:2:0:0:
346,156,207284,2,0,P|355:185|366:212,1,53.125,0|0,3:2|3:2,0:0:0:0:
463,347,207438,6,0,P|420:321|361:327,1,106.25,14|2,0:0|3:2,0:0:0:0:
326,350,207669,1,0,3:2:0:0:
326,350,207746,2,0,P|299:363|270:370,1,53.125,0|0,3:2|3:2,0:0:0:0:
86,189,207900,6,0,B|146:180|180:236|159:228|191:274|256:259,1,184.875005641937,12|0,3:2|0:0,0:0:0:0:
367,216,208208,6,0,P|366:140|297:73,1,152.999995330811,6|0,3:2|0:0,0:0:0:0:
228,77,208515,2,0,P|178:92|121:103,1,101.999996887207,10|0,3:2|0:0,0:0:0:0:
0,22,208823,1,2,3:2:0:0:
0,22,208977,2,0,P|30:63|30:125,1,101.999996887207,2|8,3:2|3:2,0:0:0:0:
0,264,209284,6,0,P|9:319|20:369,1,101.999996887207,2|0,0:0|3:2,0:0:0:0:
103,188,209592,1,0,3:2:0:0:
271,254,209746,1,10,3:2:0:0:
380,211,209900,1,2,0:0:0:0:
464,255,210054,2,0,P|446:304|428:363,1,101.999996887207,2|0,3:2|3:2,0:0:0:0:
390,381,210284,1,2,0:0:0:0:
390,381,210361,2,0,P|338:381|290:343,1,101.999996887207,10|2,3:2|0:0,0:0:0:0:
157,173,210669,6,0,P|185:289|204:389,1,203.999993774414,2|10,3:2|3:2,0:0:0:0:
0,258,211131,1,2,0:0:0:0:
82,115,211284,2,0,P|126:82|189:87,1,101.999996887207,2|2,3:2|3:2,0:0:0:0:
221,105,211515,1,2,0:0:0:0:
221,105,211592,2,0,P|273:119|340:133,1,101.999996887207,8|2,3:2|0:0,0:0:0:0:
511,80,211900,5,2,3:2:0:0:
511,80,212054,1,0,3:2:0:0:
396,230,212208,2,0,P|406:185|426:120,1,101.999996887207,12|0,3:2|0:0,0:0:0:0:
512,296,212515,2,0,P|484:306|448:314,1,50.9999984436036,0|0,3:2|0:0,0:0:0:0:
285,202,212669,1,8,3:2:0:0:
246,187,212746,1,8,3:2:0:0:
200,191,212823,1,8,3:2:0:0:
159,220,212900,1,8,3:2:0:0:
140,272,212977,1,8,3:2:0:0:
160,330,213054,1,8,3:2:0:0:
215,367,213131,6,0,B|276:373|318:311|286:322|325:262|382:266,1,203.999993774414,6|8,3:2|3:2,0:0:0:0:
210,15,213746,2,0,B|264:11|303:71|271:60|313:122|374:116,1,203.999993774414,2|8,3:2|3:2,0:0:0:0:
373,22,214208,1,2,0:0:0:0:
197,107,214361,6,0,P|93:78|-9:54,2,203.999993774414,2|8|0,3:2|3:2|3:2,0:0:0:0:
226,327,215131,1,0,3:2:0:0:
32,187,215284,1,10,3:2:0:0:
81,313,215438,1,2,0:0:0:0:
282,159,215592,6,0,B|346:174|346:174|392:229|392:229|462:246,1,203.999993774414,14|8,3:2|3:2,0:0:0:0:
295,262,216054,1,2,0:0:0:0:
456,140,216208,2,0,P|439:58|311:48,1,203.999993774414,2|8,3:2|3:2,0:0:0:0:
199,116,216669,1,2,3:2:0:0:
0,28,216823,6,0,P|24:111|45:194,1,159.375,14|0,3:2|0:0,0:0:0:0:
121,244,217131,2,0,P|101:300|88:347,1,106.25,8|0,3:2|0:0,0:0:0:0:
319,306,217438,5,8,3:2:0:0:
199,116,217592,1,0,3:2:0:0:
429,29,217746,5,8,3:2:0:0:
314,208,217900,1,0,3:2:0:0:
117,66,218054,6,0,P|154:26|225:23,1,106.25,8|0,3:2|0:0,0:0:0:0:
465,221,218361,1,8,3:2:0:0:
224,335,218515,1,0,3:2:0:0:
224,335,218592,1,0,3:2:0:0:
224,335,218669,1,12,3:2:0:0:
314,208,218823,1,0,3:2:0:0:
512,354,218977,2,0,L|400:332,1,106.25,14|2,3:2|0:0,0:0:0:0:
106,373,219284,5,14,3:2:0:0:
224,335,219438,1,0,3:2:0:0:
136,252,219592,1,0,3:2:0:0:
371,108,219746,5,12,3:2:0:0:
399,268,219900,1,0,3:2:0:0:
251,217,220054,1,0,3:2:0:0:
32,309,220208,5,12,3:2:0:0:
251,217,220361,1,0,3:2:0:0:
57,75,220515,1,12,3:2:0:0:
475,38,221746,6,0,L|457:154,1,114.75,10|0,3:2|0:0,0:0:0:0:
457,151,223900,6,0,B|467:183|467:183|462:202|462:202|470:229,1,76.4999976654053,8|0,3:2|0:0,0:0:0:0:
493,313,224208,6,0,P|453:304|405:299,1,85,14|0,3:2|0:0,0:0:0:0:
206,375,224515,1,0,3:2:0:0:
245,198,224669,6,0,P|268:235|294:289,1,93.5000028533936,14|0,3:2|0:0,0:0:0:0:
69,342,224977,1,0,3:2:0:0:
166,134,225131,6,0,P|216:98|272:101,1,101.999996887207,14|0,3:2|0:0,0:0:0:0:
457,151,225438,5,2,0:0:0:0:
457,151,226054,1,2,0:0:0:0:
457,151,226669,6,0,P|440:200|431:245,1,76.4999976654053,2|0,3:2|3:2,0:0:0:0:
489,304,226977,6,0,B|446:299|411:337|437:331|403:371|354:369,1,152.999995330811,14|2,3:2|0:0,0:0:0:0:
164,366,227284,6,0,P|152:316|136:268,1,102,2|0,0:0|3:2,0:0:0:0:
3,92,227592,1,10,3:2:0:0:
132,153,227746,1,2,0:0:0:0:
292,68,227900,6,0,P|348:64|404:103,1,101.999996887207,2|0,3:2|0:0,0:0:0:0:
425,127,228131,1,0,3:2:0:0:
425,127,228208,2,0,P|417:177|403:237,1,101.999996887207,10|0,3:2|3:2,0:0:0:0:
512,79,228515,1,2,0:0:0:0:
327,163,228669,1,2,3:2:0:0:
155,40,228823,2,0,L|48:65,1,101.999996887207,10|0,3:2|3:2,0:0:0:0:
10,82,229054,1,2,3:2:0:0:
10,82,229131,6,0,P|27:125|31:163,1,76.4999976654053,2|0,3:2|3:2,0:0:0:0:
14,246,229438,6,0,B|55:258|95:226|69:228|110:197|157:205,1,152.999995330811,14|2,3:2|0:0,0:0:0:0:
318,384,229746,5,2,0:0:0:0:
145,300,229900,1,0,3:2:0:0:
291,219,230054,1,10,3:2:0:0:
400,273,230208,1,2,0:0:0:0:
490,208,230361,6,0,P|501:162|514:102,1,101.999996887207,2|0,3:2|0:0,0:0:0:0:
492,66,230592,1,0,3:2:0:0:
492,66,230669,2,0,P|439:58|386:91,1,101.999996887207,10|0,3:2|3:2,0:0:0:0:
249,206,230977,1,2,0:0:0:0:
400,273,231131,1,2,3:2:0:0:
142,354,231284,2,0,P|151:306|159:249,1,101.999996887207,10|0,3:2|3:2,3:2:0:0:
157,206,231515,1,2,3:2:0:0:
157,206,231592,6,0,P|126:180|77:173,1,76.4999976654053,2|0,3:2|3:2,0:0:0:0:
25,270,231900,6,0,B|71:272|104:232|78:237|113:200|156:205,1,152.999995330811,14|0,3:2|3:2,0:0:0:0:
72,19,232208,5,2,0:0:0:0:
228,116,232361,1,2,3:2:0:0:
365,81,232515,2,0,L|473:58,1,101.999996887207,10|0,3:2|3:2,3:2:0:0:
498,91,232746,1,2,3:2:0:0:
498,91,232823,6,0,P|473:119|462:163,1,76.4999976654053,2|0,3:2|3:2,0:0:0:0:
512,246,233131,6,0,B|469:241|434:279|460:273|426:313|379:314,1,152.999995330811,14|0,3:2|3:2,0:0:0:0:
133,371,233438,5,2,0:0:0:0:
198,243,233592,1,2,3:2:0:0:
62,97,233746,2,0,P|81:152|95:212,1,101.999996887207,10|0,3:2|0:0,0:0:0:0:
12,352,234054,5,6,3:2:0:0:
198,243,234208,2,0,P|255:242|300:273,1,101.999996887207,2|8,0:0|3:2,0:0:0:0:
452,384,234515,1,2,3:2:0:0:
407,256,234669,2,0,P|418:207|438:146,1,101.999996887207,2|0,0:0|3:2,0:0:0:0:
509,24,234977,2,0,P|444:42|344:60,1,152.999995330811,14|0,3:2|0:0,0:0:0:0:
313,80,235284,6,0,P|262:67|201:54,1,101.999996887207,6|8,3:2|3:2,0:0:0:0:
163,46,235515,1,8,3:2:0:0:
163,46,235592,1,8,3:2:0:0:
45,0,235746,1,8,3:2:0:0:
52,29,235823,1,8,3:2:0:0:
59,58,235900,1,2,3:2:0:0:
131,166,236054,1,8,3:2:0:0:
122,200,236131,1,8,3:2:0:0:
114,235,236208,1,10,3:2:0:0:
11,357,236361,1,2,3:2:0:0:
48,331,236438,1,2,3:2:0:0:
92,335,236515,6,0,P|134:345|175:357,1,76.4999976654053,2|0,3:2|3:2,0:0:0:0:
250,380,236823,6,0,B|267:336|241:292|237:317|214:272|234:234,1,152.999995330811,14|2,3:2|0:0,0:0:0:0:
353,89,237131,6,0,P|297:94|255:138,1,101.999996887207,2|0,0:0|3:2,0:0:0:0:
385,263,237438,1,10,3:2:0:0:
457,134,237592,1,2,0:0:0:0:
233,234,237746,6,0,P|188:220|117:204,1,101.999996887207,2|0,3:2|0:0,0:0:0:0:
86,215,237977,1,0,3:2:0:0:
86,215,238054,2,0,P|112:176|104:109,1,101.999996887207,10|0,3:2|3:2,0:0:0:0:
0,1,238361,2,0,P|50:16|108:29,1,101.999996887207,2|0,0:0|3:2,0:0:0:0:
274,129,238669,1,10,3:2:0:0:
377,72,238823,1,2,0:0:0:0:
512,132,238977,6,0,P|499:173|487:223,1,76.4999976654053,2|0,3:2|3:2,0:0:0:0:
512,296,239284,6,0,B|469:287|431:321|457:318|421:354|372:348,1,152.999995330811,14|2,3:2|0:0,0:0:0:0:
254,201,239592,6,0,P|304:195|357:233,1,101.999996887207,2|0,0:0|3:2,0:0:0:0:
184,382,239900,1,10,3:2:0:0:
94,293,240054,1,2,0:0:0:0:
137,151,240208,6,0,P|153:103|174:33,1,101.999996887207,2|0,3:2|0:0,0:0:0:0:
148,11,240438,1,0,3:2:0:0:
148,11,240515,2,0,P|96:7|41:44,1,101.999996887207,10|0,3:2|3:2,0:0:0:0:
252,127,240823,2,0,P|303:114|363:106,1,101.999996887207,2|0,0:0|3:2,0:0:0:0:
512,2,241131,1,10,3:2:0:0:
444,122,241284,1,2,0:0:0:0:
512,305,241438,6,0,P|469:291|419:281,1,76.4999976654053,2|0,3:2|3:2,0:0:0:0:
357,210,241746,6,0,B|313:208|281:248|306:241|277:282|228:285,1,152.999995330811,14|0,3:2|3:2,0:0:0:0:
52,358,242054,6,0,P|67:310|82:249,1,101.999996887207,2|2,0:0|3:2,0:0:0:0:
0,51,242361,1,10,3:2:0:0:
141,141,242515,1,2,0:0:0:0:
339,65,242669,6,0,P|394:47|428:38,1,76.4999976654053,2|0,3:2|3:2,0:0:0:0:
503,107,242977,6,0,B|512:150|478:188|481:162|445:198|451:247,1,152.999995330811,14|0,3:2|3:2,0:0:0:0:
243,192,243284,5,2,0:0:0:0:
366,326,243438,1,0,3:2:0:0:
366,326,243515,1,0,3:2:0:0:
366,326,243592,2,0,P|353:278|329:213,1,101.999996887207,8|0,3:2|0:0,0:0:0:0:
218,48,243900,6,0,P|164:35|81:96,1,152.999995330811,6|0,3:2|0:0,0:0:0:0:
70,134,244208,5,10,3:2:0:0:
242,229,244361,1,0,3:2:0:0:
24,277,244515,5,10,3:2:0:0:
168,140,244669,1,0,3:2:0:0:
412,260,244823,6,0,P|464:246|530:233,1,101.999996887207,10|0,3:2|0:0,0:0:0:0:
280,347,245131,6,0,P|274:299|312:236,1,101.999996887207,6|8,3:2|3:2,0:0:0:0:
333,216,245361,1,8,3:2:0:0:
333,216,245438,1,8,3:2:0:0:
407,116,245592,1,8,3:2:0:0:
401,86,245669,1,8,3:2:0:0:
387,60,245746,1,2,3:2:0:0:
206,0,245900,1,8,3:2:0:0:
184,24,245977,1,8,3:2:0:0:
171,62,246054,1,10,3:2:0:0:
180,112,246131,1,8,3:2:0:0:
214,162,246208,1,2,3:2:0:0:
230,226,246284,1,2,3:2:0:0:
202,286,246361,6,0,B|141:268|141:268|87:293|87:293|12:270,1,187.000005706787,6|10,3:2|3:2,0:0:0:0:
239,370,246823,1,2,3:2:0:0:
359,269,246977,2,0,L|466:247,1,93.5000028533936,8|2,3:2|3:2,0:0:0:0:
234,384,247284,1,10,3:2:0:0:
78,194,247438,6,0,P|123:132|252:159,1,187.000005706787,6|0,3:2|3:2,0:0:0:0:
375,29,247900,2,0,P|331:27|282:65,1,93.5000028533936,8|2,3:2|0:0,0:0:0:0:
412,201,248208,1,10,3:2:0:0:
425,162,248284,1,8,3:2:0:0:
440,124,248361,1,10,3:2:0:0:
457,87,248438,1,8,3:2:0:0:
475,51,248515,1,8,3:2:0:0:
475,51,248823,6,0,P|488:98|504:162,1,93.5000028533936,6|0,3:2|0:0,0:0:0:0:
329,231,249131,2,0,P|367:203|427:205,1,93.5000028533936,10|2,3:2|0:0,0:0:0:0:
480,379,249438,1,8,3:2:0:0:
300,317,249592,1,2,3:2:0:0:
193,363,249746,1,2,0:0:0:0:
68,269,249900,6,0,P|86:187|111:81,1,187.000005706787,6|2,3:2|3:2,0:0:0:0:
322,17,250361,1,14,3:2:0:0:
201,132,250515,1,2,3:2:0:0:
396,260,250669,1,12,3:2:0:0:
450,92,250823,1,2,3:2:0:0:
273,247,250977,1,12,3:2:0:0:
273,247,251131,1,12,3:2:0:0:
133,60,251284,6,0,P|169:37|226:37,1,93.5000028533936,6|0,3:2|0:0,0:0:0:0:
267,51,251515,1,0,3:2:0:0:
267,51,251592,1,10,3:2:0:0:
122,181,251746,2,0,P|101:225|83:274,1,93.5000028533936,2|0,3:2|3:2,0:0:0:0:
40,384,252054,1,2,3:2:0:0:
209,279,252208,1,10,3:2:0:0:
327,328,252361,6,0,B|386:312|386:312|438:332|438:332|527:308,1,187.000005706787,2|2,3:2|3:2,0:0:0:0:
295,154,252823,1,10,3:2:0:0:
473,199,252977,1,2,3:2:0:0:
309,333,253131,1,2,0:0:0:0:
383,221,253284,1,2,3:2:0:0:
274,58,253438,1,8,3:2:0:0:
274,58,253746,6,0,P|355:11|451:53,1,187.000005706787,14|2,3:2|3:2,0:0:0:0:
493,126,254208,1,0,3:2:0:0:
419,211,254361,2,0,P|367:216|310:179,1,93.5000028533936,2|0,3:2|3:2,0:0:0:0:
212,141,254669,2,0,P|160:136|103:173,1,93.5000028533936,2|0,3:2|3:2,0:0:0:0:
149,369,254977,5,8,3:2:0:0:
35,202,255131,1,8,3:2:0:0:
303,104,255284,1,8,3:2:0:0:
189,271,255438,1,8,3:2:0:0:
21,116,255592,5,8,3:2:0:0:
235,50,255746,1,8,3:2:0:0:
401,194,255900,1,8,3:2:0:0:
191,255,256054,1,8,3:2:0:0:
219,155,256208,6,0,L|273:167,2,50.9999984436036,2|0|0,0:0|0:0|0:0,0:0:0:0:
125,136,256669,1,2,0:0:0:0:
114,128,256977,2,0,L|60:140,1,50.9999984436036
3,68,257284,1,2,0:0:0:0:
162,326,257921,5,8,3:3:0:0:
162,326,257997,1,8,3:3:0:0:
162,326,258074,1,4,3:3:0:0:
256,192,258151,12,0,266536,0:0:0:0:
