osu file format v14

[General]
AudioFilename: audio.ogg
AudioLeadIn: 0
PreviewTime: 48524
Countdown: 0
SampleSet: Soft
StackLeniency: 0.4
Mode: 0
LetterboxInBreaks: 0
WidescreenStoryboard: 1

[Editor]
DistanceSpacing: 0.7
BeatDivisor: 4
GridSize: 32
TimelineZoom: 1.8

[Metadata]
Title:RAISE INSIGHT (TV Size)
TitleUnicode:RAISE INSIGHT (TV Size)
Artist:WANDS
ArtistUnicode:WANDS
Creator:Smoke
Version:aundy's INSANE
Source:名探偵コナン
Tags:japanese anime rock jrock j-rock pop jpop j-pop opening op 57 secret version ver detective conan case closed kaito kaitou kid edogawa magician magic froskya Revialink announcerf aundy melleganol nosik
BeatmapID:4117577
BeatmapSetID:1980599

[Difficulty]
HPDrainRate:5
CircleSize:3.8
OverallDifficulty:7.8
ApproachRate:9
SliderMultiplier:1.7
SliderTickRate:1

[Events]
//Background and Video events
0,0,"conan.jpg",0,0
Video,-76,"vid.mp4"
//Break Periods
2,70795,76952
//Storyboard Layer 0 (Background)
//Storyboard Layer 1 (Fail)
//Storyboard Layer 2 (Pass)
//Storyboard Layer 3 (Foreground)
//Storyboard Layer 4 (Overlay)
//Storyboard Sound Samples

[TimingPoints]
570,324.324324324324,4,2,1,55,1,0
570,-133.333333333333,4,2,1,55,0,0
4624,-133.333333333333,4,2,1,60,0,0
5431,-200,4,2,1,60,0,0
5678,-200,4,2,1,5,0,0
5759,-100,4,2,1,75,0,0
16137,-111.111111111111,4,2,1,60,0,0
26434,-111.111111111111,4,2,1,5,0,0
26515,-111.111111111111,4,2,1,70,0,0
36894,-200,4,2,1,55,0,0
39488,-133.333333333333,4,2,1,55,0,0
42083,-111.111111111111,4,2,1,65,0,0
42326,-111.111111111111,4,2,1,5,0,0
42407,-111.111111111111,4,2,1,65,0,0
47921,-111.111111111111,4,2,1,50,0,0
48083,-142.857142857143,4,2,1,50,0,0
48569,-100,4,2,1,80,0,1
49948,-100,4,2,1,5,0,1
50029,-100,4,2,1,80,0,1
51407,-100,4,2,1,5,0,1
51488,-100,4,2,1,80,0,1
60326,-100,4,2,1,5,0,1
60407,-100,4,2,1,80,0,1
64380,-100,4,2,1,5,0,1
64461,-100,4,2,1,80,0,1
66732,-100,4,2,1,60,0,0
69326,317.460317460317,4,2,1,60,1,0
69326,-111.111111111111,4,2,1,60,0,0
76927,312.5,4,2,1,60,1,0
77552,324.324324324324,4,2,1,70,1,0
77552,-111.111111111111,4,2,1,70,0,0
78200,324.324324324324,4,2,1,80,1,0
78200,-100,4,2,1,80,0,1
79578,-100,4,2,1,5,0,1
79659,-100,4,2,1,80,0,1
81037,-100,4,2,1,5,0,1
81118,-100,4,2,1,80,0,1
89956,-100,4,2,1,5,0,1
90037,-100,4,2,1,80,0,1
96605,-100,4,2,1,5,0,1
96686,-100,4,2,1,80,0,1
97902,-100,4,2,1,5,0,1
97983,-100,4,2,1,80,0,1
98956,-100,4,2,1,75,0,0
104064,-100,4,2,1,5,0,0
104145,-100,4,2,1,75,0,0
109335,-100,4,2,1,60,0,0
110632,-100,4,2,1,50,0,0
111929,-100,4,2,1,45,0,0
113227,-100,4,2,1,40,0,0
113875,-100,4,2,1,5,0,0

[Colours]
Combo1 : 166,172,244
Combo2 : 217,5,0
Combo3 : 247,153,91
Combo4 : 80,96,237

[HitObjects]
145,363,570,6,0,P|180:356|214:350,1,63.7500024318696,2|2,0:0|0:0,0:0:0:0:
325,258,1056,6,0,P|290:251|256:245,1,63.7500024318696
147,177,1542,6,0,P|182:170|216:164,1,63.7500024318696
321,105,2029,6,0,P|286:98|252:92,1,63.7500024318696
173,88,2515,5,2,0:0:0:0:
154,0,2677,1,2,0:0:0:0:
66,18,2839,1,2,0:0:0:0:
85,108,3002,1,2,0:0:0:0:
41,207,3164,6,0,P|76:200|110:194,1,63.7500024318696,2|2,0:0|0:0,0:0:0:0:
210,153,3651,6,0,P|203:188|197:222,1,63.7500024318696
238,330,4137,6,0,P|203:323|169:317,1,63.7500024318696
71,362,4624,6,0,P|76:330|82:299,2,63.7500024318696
41,207,5110,2,0,P|72:200|103:195,1,63.7500024318696
174,317,5434,6,0,P|205:311|237:306,1,63.7500024318696,8|0,0:0|0:0,0:0:0:0:
296,252,5759,6,0,P|304:210|312:168,1,85,6|2,3:1|0:0,0:0:0:0:
157,74,6083,2,0,P|165:116|173:158,1,85,10|2,0:0|3:2,0:0:0:0:
359,58,6407,2,0,P|317:50|275:42,1,85,2|0,0:0|0:0,0:0:0:0:
173,234,6732,6,0,P|207:186|319:170,1,170,10|0,0:0|0:0,0:0:0:0:
453,271,7218,1,2,3:2:0:0:
341,334,7380,2,0,P|349:292|357:250,1,85,10|0,0:0|0:0,0:0:0:0:
473,103,7705,1,2,0:0:0:0:
311,168,7867,1,0,3:2:0:0:
433,299,8029,2,0,P|474:300|512:281,1,85,10|0,0:0|3:2,0:0:0:0:
366,86,8353,6,0,B|302:74|302:74|258:91|258:91|200:81,1,170,4|8,3:2|0:0,0:0:0:0:
92,49,8840,1,2,3:2:0:0:
92,49,9002,2,0,P|100:91|108:133,1,85,2|0,0:0|0:0,0:0:0:0:
217,164,9326,1,10,0:0:0:0:
217,164,9488,2,0,P|209:122|201:80,1,85,2|0,0:0|0:0,0:0:0:0:
44,278,9813,5,2,3:2:0:0:
44,278,9975,2,0,P|89:240|201:253,1,170,10|2,0:0|3:2,0:0:0:0:
315,347,10461,1,0,3:2:0:0:
293,243,10624,1,10,0:0:0:0:
193,368,10786,1,0,0:0:0:0:
398,362,10948,6,0,P|356:354|314:346,1,85,6|2,3:1|0:0,0:0:0:0:
255,147,11272,2,0,P|297:155|339:163,1,85,10|2,0:0|3:2,0:0:0:0:
480,200,11597,1,2,0:0:0:0:
425,102,11759,1,0,0:0:0:0:
293,243,11921,6,0,P|210:237|154:176,1,170,10|0,0:0|0:0,0:0:0:0:
11,71,12407,1,2,3:2:0:0:
114,18,12569,2,0,P|106:60|98:102,1,85,10|0,0:0|0:0,0:0:0:0:
98,101,12813,1,0,0:0:0:0:
98,101,12894,1,2,0:0:0:0:
56,280,13056,1,0,3:2:0:0:
0,212,13218,2,0,P|37:192|79:193,1,85,10|0,0:0|3:2,0:0:0:0:
177,348,13542,5,4,3:2:0:0:
177,348,13705,2,0,P|185:306|193:264,1,85,2|8,0:0|0:0,0:0:0:0:
304,92,14029,1,2,3:2:0:0:
304,92,14192,2,0,P|296:134|288:176,1,85,2|0,0:0|3:2,0:0:0:0:
388,305,14515,1,10,0:0:0:0:
388,305,14678,2,0,P|346:297|304:289,1,85,2|0,0:0|0:0,0:0:0:0:
207,137,15002,5,2,3:2:0:0:
362,214,15164,1,10,0:0:0:0:
197,359,15326,5,0,3:2:0:0:
197,359,15407,1,0,3:2:0:0:
197,359,15488,1,2,3:2:0:0:
216,271,15650,1,2,3:2:0:0:
304,289,15812,1,10,0:0:0:0:
285,379,15975,1,2,0:0:0:0:
140,285,16137,6,0,P|177:277|215:270,1,76.4999976654053,6|2,3:2|0:0,0:0:0:0:
318,189,16461,2,0,P|261:141|187:144,2,152.999995330811,10|0|8,0:0|0:0|0:0,0:0:0:0:
304,289,17272,1,0,0:0:0:0:
421,155,17597,6,0,P|414:117|405:79,1,76.4999976654053,2|8,3:2|0:0,0:0:0:0:
302,114,17921,1,2,0:0:0:0:
302,114,18083,2,0,P|310:151|317:188,1,76.4999976654053,0|2,0:0|3:2,0:0:0:0:
343,313,18407,1,10,0:0:0:0:
343,313,18569,1,2,0:0:0:0:
254,275,18732,6,0,P|311:227|385:230,2,152.999995330811,2|10|2,3:2|0:0|0:0,0:0:0:0:
219,369,19542,1,2,0:0:0:0:
219,369,19705,2,0,P|171:359|58:338,1,152.999995330811,10|0,0:0|0:0,0:0:0:0:
11,246,20190,5,0,3:2:0:0:
11,246,20353,2,0,P|19:209|26:172,1,76.4999976654053,8|0,0:0|0:0,0:0:0:0:
130,167,20678,2,0,P|121:204|114:241,1,76.4999976654053,0|2,0:0|3:2,0:0:0:0:
81,65,21002,1,10,0:0:0:0:
81,65,21164,1,2,0:0:0:0:
205,120,21326,6,0,P|242:111|279:104,1,76.4999976654053,2|2,3:2|0:0,0:0:0:0:
365,180,21651,2,0,P|378:104|394:29,2,152.999995330811,10|0|8,0:0|0:0|0:0,0:0:0:0:
433,252,22461,1,0,0:0:0:0:
433,252,22624,2,0,P|380:219|292:232,1,152.999995330811,2|8,0:0|0:0,0:0:0:0:
206,310,23272,6,0,P|215:347|222:384,1,76.4999976654053,0|0,0:0|3:2,0:0:0:0:
309,305,23597,2,0,P|300:268|293:231,1,76.4999976654053,8|2,0:0|0:0,0:0:0:0:
321,134,23921,2,0,B|231:118|257:166|172:153,1,152.999995330811,2|10,3:2|0:0,0:0:0:0:
80,122,24407,2,0,P|101:82|200:58,1,152.999995330811,2|2,0:0|0:0,0:0:0:0:
189,227,24894,1,8,0:0:0:0:
189,227,25056,2,0,P|181:189|172:152,1,76.4999976654053,2|0,0:0|0:0,0:0:0:0:
45,14,25380,5,2,3:2:0:0:
199,57,25542,1,10,0:0:0:0:
92,197,25705,1,2,0:0:0:0:
92,197,25786,1,2,0:0:0:0:
92,197,25867,2,0,P|85:158|78:121,1,76.4999976654053,2|2,3:2|3:2,0:0:0:0:
258,132,26191,2,0,P|265:169|270:207,1,76.4999976654053,14|0,0:0|0:0,0:0:0:0:
192,319,26515,6,0,P|229:312|347:289,1,152.999995330811,6|10,3:1|0:0,0:0:0:0:
489,197,27002,1,2,3:2:0:0:
403,175,27164,2,0,P|400:212|415:247,1,76.4999976654053,2|2,0:0|0:0,0:0:0:0:
480,361,27488,2,0,P|485:323|492:285,1,76.4999976654053,10|2,0:0|0:0,0:0:0:0:
463,90,27813,6,0,P|433:123|327:140,1,152.999995330811,2|10,0:0|0:0,0:0:0:0:
183,47,28299,1,2,0:0:0:0:
279,0,28461,2,0,P|273:37|266:75,1,76.4999976654053,0|2,0:0|3:2,0:0:0:0:
182,210,28786,1,8,0:0:0:0:
330,140,28948,1,0,3:2:0:0:
183,47,29110,6,0,P|145:53|107:60,1,76.4999976654053,4|2,3:2|0:0,0:0:0:0:
182,210,29434,2,0,P|219:203|257:196,1,76.4999976654053,10|0,0:0|3:2,0:0:0:0:
98,154,29759,1,2,0:0:0:0:
98,154,29921,1,0,0:0:0:0:
39,276,30083,2,0,P|46:313|53:351,1,76.4999976654053,10|0,0:0|0:0,0:0:0:0:
186,250,30407,6,0,P|149:243|111:236,1,76.4999976654053,2|0,0:0|3:2,0:0:0:0:
211,355,30732,1,10,0:0:0:0:
211,355,30894,2,0,P|241:322|347:305,1,152.999995330811,2|0,0:0|3:2,0:0:0:0:
420,364,31380,2,0,P|426:326|434:288,1,76.4999976654053,8|0,0:0|0:0,0:0:0:0:
512,154,31705,5,4,3:2:0:0:
512,154,31867,2,0,B|430:141|440:183|362:171,1,152.999995330811,2|2,0:0|3:2,0:0:0:0:
258,150,32353,2,0,P|265:187|271:225,1,76.4999976654053,2|2,0:0|0:0,0:0:0:0:
388,77,32678,2,0,P|382:39|374:1,1,76.4999976654053,10|2,0:0|0:0,0:0:0:0:
352,255,33002,6,0,P|276:257|219:306,1,152.999995330811,2|10,0:0|0:0,0:0:0:0:
132,384,33488,1,2,0:0:0:0:
132,384,33651,2,0,P|126:346|118:308,1,76.4999976654053,2|2,0:0|3:2,0:0:0:0:
10,210,33975,1,10,0:0:0:0:
118,308,34137,1,2,3:2:0:0:
212,148,34299,5,6,3:2:0:0:
212,148,34461,1,2,0:0:0:0:
251,242,34624,2,0,P|175:240|118:191,1,152.999995330811,10|0,0:0|0:0,0:0:0:0:
111,37,35110,1,0,3:2:0:0:
0,129,35272,2,0,P|37:121|75:115,1,76.4999976654053,8|0,0:0|0:0,0:0:0:0:
225,72,35597,6,0,P|217:109|211:147,1,76.4999976654053,2|0,0:0|3:2,0:0:0:0:
104,267,35921,2,0,P|109:229|117:191,1,76.4999976654053,10|8,0:0|3:3,0:0:0:0:
117,191,36164,1,8,3:3:0:0:
117,191,36245,1,12,3:3:0:0:
211,147,36407,1,8,3:3:0:0:
295,199,36569,1,8,3:3:0:0:
286,298,36732,1,8,3:3:0:0:
194,325,36894,6,0,P|199:287|208:234,1,85,6|0,3:1|0:0,0:0:0:0:
307,114,37380,1,2,3:2:0:0:
307,114,37542,2,0,P|301:156|294:198,1,85,10|0,3:0|0:0,0:0:0:0:
124,147,38029,1,2,0:0:0:0:
124,147,38191,2,0,P|166:141|208:134,1,85,10|0,3:0|0:0,0:0:0:0:
369,285,38678,1,2,3:2:0:0:
369,285,38840,2,0,P|327:291|285:298,1,85,10|8,3:0|0:0,0:0:0:0:
194,325,39326,5,2,0:0:0:0:
194,325,39488,2,0,P|200:289|218:182,2,127.500004863739,2|6|10,3:2|0:0|3:0,0:0:0:0:
215,199,40461,1,2,0:0:0:0:
333,115,40786,2,0,P|270:121|213:93,1,127.500004863739,6|0,3:2|0:0,0:0:0:0:
213,93,41272,1,8,3:3:0:0:
113,16,41434,5,12,3:3:0:0:
124,104,41597,1,8,3:3:0:0:
139,191,41759,1,8,0:0:0:0:
139,191,42083,6,0,B|220:209|208:158|287:174,1,152.999995330811,6|10,3:1|0:0,0:0:0:0:
354,319,42569,2,0,P|308:313|262:251,1,114.749996498108,6|0,3:2|0:0,0:0:0:0:
264,263,42894,1,8,3:3:0:0:
413,181,43056,1,8,3:3:0:0:
277,98,43218,5,6,3:2:0:0:
277,98,43542,2,0,P|283:140|287:177,1,76.4999976654053,8|10,3:3|0:0,0:0:0:0:
354,319,43867,2,0,P|292:362|217:359,1,152.999995330811,6|8,3:2|3:3,0:0:0:0:
128,384,44353,1,8,3:3:0:0:
143,297,44515,1,8,3:3:0:0:
154,209,44678,6,0,P|229:206|290:249,1,152.999995330811,6|2,3:1|0:0,0:0:0:0:
394,119,45164,2,0,P|318:121|257:78,1,152.999995330811,6|2,3:2|0:0,0:0:0:0:
257,78,45651,1,2,0:0:0:0:
132,57,45813,6,0,P|138:99|154:212,1,152.999995330811,6|8,3:1|3:3,0:0:0:0:
93,329,46299,2,0,P|135:323|172:319,1,76.4999976654053,8|8,3:3|3:3,0:0:0:0:
323,260,46624,1,8,3:3:0:0:
243,165,46786,2,0,P|237:207|233:244,1,76.4999976654053,8|8,3:3|3:3,0:0:0:0:
273,355,47110,5,14,3:2:0:0:
153,208,47272,1,8,3:3:0:0:
331,171,47434,1,8,3:3:0:0:
174,359,47597,6,0,P|163:283|152:207,1,152.999995330811,14|0,3:2|0:0,0:0:0:0:
168,122,48083,2,0,P|126:128|99:133,2,59.4999981842042
271,12,48569,6,0,P|353:25|396:100,1,170,6|10,3:1|0:0,0:0:0:0:
279,190,49056,2,0,P|287:148|295:106,1,85,2|0,0:0|3:2,0:0:0:0:
501,31,49380,2,0,P|493:73|485:115,1,85,0|8,3:2|0:0,0:0:0:0:
478,243,49705,6,0,P|439:217|361:230,1,127.5,6|0,3:2|0:0,0:0:0:0:
294,273,50029,2,0,P|286:231|278:189,1,85,2|8,3:2|0:0,0:0:0:0:
180,83,50353,1,2,3:2:0:0:
180,83,50434,1,0,3:2:0:0:
180,83,50515,1,0,3:2:0:0:
356,131,50678,1,2,3:2:0:0:
206,271,50840,2,0,B|144:261|144:261|129:252|129:252|82:244,1,127.5,8|0,0:0|0:0,0:0:0:0:
62,221,51164,6,0,P|38:142|89:78,1,170,6|10,3:2|0:0,0:0:0:0:
269,122,51651,1,2,3:2:0:0:
269,122,51732,1,0,3:2:0:0:
269,122,51813,1,2,3:2:0:0:
196,0,51975,2,0,P|188:42|180:84,1,85,2|10,3:2|0:0,0:0:0:0:
206,271,52299,6,0,B|303:255|278:311|370:294,1,170,6|0,3:2|3:2,0:0:0:0:
512,200,52786,1,8,0:0:0:0:
413,143,52948,2,0,P|421:185|429:227,1,85,10|0,3:3|3:2,0:0:0:0:
463,43,53272,1,0,3:2:0:0:
322,163,53434,2,0,L|313:122,1,42.5,12|0,0:0|0:0,0:0:0:0:
453,1,53597,2,0,L|462:42,1,42.5
428,226,53759,5,6,3:2:0:0:
428,226,53921,2,0,P|386:234|344:242,1,85,2|8,0:0|0:0,0:0:0:0:
229,105,54245,1,2,0:0:0:0:
229,105,54407,2,0,P|271:113|313:121,1,85,2|0,3:2|3:2,0:0:0:0:
168,183,54732,1,8,0:0:0:0:
244,286,54894,6,0,P|252:244|260:202,1,85,6|0,3:2|0:0,0:0:0:0:
147,10,55218,2,0,P|139:52|131:94,1,85,2|8,3:2|0:0,0:0:0:0:
113,258,55542,1,2,3:2:0:0:
113,258,55624,1,0,3:2:0:0:
113,258,55705,1,0,3:2:0:0:
0,182,55867,2,0,P|42:174|84:166,1,85,2|8,3:2|0:0,0:0:0:0:
259,202,56191,1,2,0:0:0:0:
212,283,56353,6,0,P|164:216|188:137,1,170,6|8,3:2|0:0,0:0:0:0:
370,73,56840,1,2,0:0:0:0:
284,21,57002,2,0,B|272:81|272:81|289:125|289:125|277:188,1,170,6|8,3:2|0:0,0:0:0:0:
174,345,57488,1,0,3:2:0:0:
142,255,57651,6,0,B|239:239|214:295|306:278,1,170,6|8,3:2|0:0,0:0:0:0:
473,212,58137,1,2,0:0:0:0:
364,139,58299,2,0,P|372:181|380:223,1,85,2|10,3:2|0:0,0:0:0:0:
512,94,58624,1,8,3:2:0:0:
493,68,58705,1,8,0:0:0:0:
466,51,58786,1,8,0:0:0:0:
435,46,58867,1,8,0:0:0:0:
404,54,58948,6,0,B|343:42|343:42|299:59|299:59|239:47,1,170,6|8,3:1|0:0,0:0:0:0:
131,124,59434,2,0,P|123:82|115:40,1,85,2|0,0:0|3:2,0:0:0:0:
70,221,59759,1,2,3:2:0:0:
224,132,59921,1,8,0:0:0:0:
0,55,60083,6,0,P|54:25|115:40,1,127.5,6|0,3:2|0:0,0:0:0:0:
214,108,60407,2,0,P|172:116|130:124,1,85,2|8,3:2|0:0,0:0:0:0:
0,294,60732,1,2,3:2:0:0:
0,294,60813,1,0,3:2:0:0:
0,294,60894,1,0,3:2:0:0:
49,125,61056,1,2,3:2:0:0:
210,272,61218,2,0,P|165:315|102:316,1,127.5,8|0,0:0|0:0,0:0:0:0:
84,294,61542,6,0,P|92:252|100:210,1,85,6|2,3:2|0:0,0:0:0:0:
240,115,61867,1,10,0:0:0:0:
76,91,62029,2,0,B|173:75|148:131|240:114,1,170,6|8,3:2|3:3,0:0:0:0:
415,175,62515,1,8,3:3:0:0:
332,225,62678,6,0,B|320:165|320:165|337:121|337:121|325:60,1,170,6|8,3:2|3:3,0:0:0:0:
413,273,63164,1,8,3:3:0:0:
413,273,63326,2,0,P|328:262|261:310,1,170,6|8,3:2|0:0,0:0:0:0:
139,358,63813,5,8,3:2:0:0:
137,347,63894,1,0,3:2:0:0:
135,337,63975,1,0,3:2:0:0:
133,326,64056,1,0,3:2:0:0:
131,316,64137,2,0,B|139:269|139:269|148:254|148:254|158:192,1,127.5,6|0,3:2|0:0,0:0:0:0:
134,116,64461,2,0,P|183:116|217:137,1,85,10|0,0:0|0:0,0:0:0:0:
303,324,64786,2,0,P|261:316|219:308,1,85,2|0,3:2|3:2,0:0:0:0:
376,168,65110,2,0,P|384:210|392:252,1,85,10|0,0:0|0:0,0:0:0:0:
487,74,65434,6,0,P|424:72|379:29,1,127.5,2|0,3:2|0:0,0:0:0:0:
380,0,65759,2,0,P|338:8|296:16,1,85,10|0,0:0|0:0,0:0:0:0:
185,120,66083,1,2,3:2:0:0:
185,120,66245,1,0,3:2:0:0:
294,191,66407,2,0,P|286:149|278:107,1,85,10|0,0:0|0:0,0:0:0:0:
178,2,66732,5,10,0:0:0:0:
365,119,66894,1,8,0:0:0:0:
215,259,69326,5,6,3:2:0:0:
215,259,69484,2,0,P|206:206|189:106,1,152.999995330811,10|10,0:0|0:0,0:0:0:0:
190,109,69881,1,10,0:0:0:0:
190,109,69960,1,10,3:2:0:0:
253,42,70119,1,0,3:2:0:0:
340,68,70278,1,10,3:2:0:0:
341,159,70437,1,8,3:2:0:0:
255,193,70595,5,14,3:2:0:0:
157,210,77552,6,0,P|207:217|243:221,1,76.4999976654053,14|2,0:0|3:2,0:0:0:0:
233,220,77795,1,8,0:0:0:0:
233,220,77876,1,14,0:0:0:0:
318,319,78038,5,8,0:0:0:0:
318,319,78119,1,8,0:0:0:0:
318,319,78200,2,0,P|325:269|342:148,1,170,6|10,3:1|0:0,0:0:0:0:
474,35,78686,2,0,P|432:27|390:19,1,85,2|0,0:0|3:2,0:0:0:0:
258,134,79010,2,0,P|300:142|342:150,1,85,0|8,3:2|0:0,0:0:0:0:
195,22,79335,6,0,B|186:78|186:78|177:93|177:93|167:153,1,127.5,6|0,3:2|0:0,0:0:0:0:
190,231,79659,2,0,P|147:231|110:212,1,85,2|8,3:2|0:0,0:0:0:0:
29,70,79983,1,2,3:2:0:0:
29,70,80064,1,0,3:2:0:0:
29,70,80145,1,0,3:2:0:0:
168,145,80308,1,2,3:2:0:0:
46,269,80470,2,0,P|25:210|50:152,1,127.5,8|0,0:0|0:0,0:0:0:0:
80,131,80794,6,0,B|177:115|152:171|244:154,1,170,6|10,3:2|0:0,0:0:0:0:
406,231,81281,1,2,3:2:0:0:
406,231,81362,1,0,3:2:0:0:
406,231,81443,1,2,3:2:0:0:
294,302,81605,2,0,P|302:260|310:218,1,85,2|10,3:2|0:0,0:0:0:0:
512,125,81929,6,0,P|429:129|368:72,1,170,6|0,3:2|3:2,0:0:0:0:
183,106,82416,1,8,0:0:0:0:
262,7,82578,1,10,3:3:0:0:
262,7,82659,1,0,3:2:0:0:
262,7,82740,2,0,P|270:49|278:91,1,85,0|0,3:2|3:2,0:0:0:0:
268,227,83064,2,0,L|309:218,1,42.5,12|0,0:0|0:0,0:0:0:0:
409,63,83227,2,0,L|368:72,1,42.5
183,106,83389,5,6,3:2:0:0:
183,106,83551,2,0,P|145:86|103:88,1,85,2|8,0:0|0:0,0:0:0:0:
212,297,83875,1,2,0:0:0:0:
212,297,84037,2,0,P|249:316|291:314,1,85,2|0,3:2|3:2,0:0:0:0:
268,227,84362,1,8,0:0:0:0:
123,276,84524,6,0,P|115:318|107:360,1,85,6|0,3:2|0:0,0:0:0:0:
291,205,84848,2,0,P|283:163|275:121,1,85,2|8,3:2|0:0,0:0:0:0:
103,88,85172,1,2,3:2:0:0:
103,88,85254,1,0,3:2:0:0:
103,88,85335,1,0,3:2:0:0:
206,24,85497,2,0,P|198:66|190:108,1,85,2|8,3:2|0:0,0:0:0:0:
123,276,85821,1,2,0:0:0:0:
28,244,85983,6,0,P|88:187|171:191,1,170,6|8,3:2|0:0,0:0:0:0:
352,247,86470,1,2,0:0:0:0:
260,364,86632,2,0,B|271:303|271:303|254:259|254:259|266:199,1,170,6|8,3:2|0:0,0:0:0:0:
402,118,87118,5,0,3:2:0:0:
402,118,87199,1,0,3:2:0:0:
402,118,87281,2,0,B|310:135|335:79|238:95,1,170,6|8,3:2|0:0,0:0:0:0:
250,282,87767,1,0,3:2:0:0:
250,282,87848,1,0,3:2:0:0:
250,282,87929,2,0,P|258:240|266:198,1,85,2|8,3:2|0:0,0:0:0:0:
265,198,88172,1,8,0:0:0:0:
265,198,88254,1,10,3:2:0:0:
384,16,88416,6,0,L|393:57,1,42.5,8|8,0:0|0:0,0:0:0:0:
511,149,88578,2,0,B|451:137|451:137|407:154|407:154|346:143,1,170,6|8,3:1|0:0,0:0:0:0:
179,212,89064,2,0,P|171:170|163:128,1,85,2|0,0:0|3:2,0:0:0:0:
82,15,89389,1,2,3:2:0:0:
250,117,89551,1,8,0:0:0:0:
63,226,89713,6,0,P|117:196|178:211,1,127.5,6|0,3:2|0:0,0:0:0:0:
246,284,90037,2,0,P|254:242|262:200,1,85,2|8,3:2|0:0,0:0:0:0:
458,181,90362,1,2,3:2:0:0:
458,181,90443,1,0,3:2:0:0:
458,181,90524,1,0,3:2:0:0:
289,68,90686,1,2,3:2:0:0:
388,46,90848,2,0,B|379:102|379:102|370:117|370:117|361:169,1,127.5,8|0,0:0|0:0,0:0:0:0:
361,169,91172,5,6,3:2:0:0:
246,284,91335,1,2,0:0:0:0:
404,357,91497,1,10,0:0:0:0:
274,191,91659,2,0,B|177:175|202:231|110:214,1,170,6|8,3:2|3:3,0:0:0:0:
0,167,92145,1,8,3:3:0:0:
116,49,92308,6,0,B|104:109|104:109|121:153|121:153|109:216,1,170,6|8,3:2|3:3,0:0:0:0:
132,384,92794,1,8,3:3:0:0:
36,352,92956,2,0,P|98:297|181:298,1,170,6|8,3:2|0:0,0:0:0:0:
291,378,93443,5,8,3:2:0:0:
289,367,93524,1,0,3:2:0:0:
287,357,93605,1,0,3:2:0:0:
285,346,93686,1,0,3:2:0:0:
283,336,93767,2,0,B|291:289|291:289|300:274|300:274|310:212,1,127.5,6|0,3:2|0:0,0:0:0:0:
365,145,94091,2,0,P|323:137|281:129,1,85,10|0,0:0|0:0,0:0:0:0:
377,323,94416,2,0,P|419:331|461:339,1,85,2|0,3:2|3:2,0:0:0:0:
455,164,94740,2,0,P|447:206|439:248,1,85,10|0,0:0|0:0,0:0:0:0:
283,336,95064,5,2,3:2:0:0:
439,247,95227,1,0,3:2:0:0:
281,129,95389,2,0,P|273:171|265:213,1,85,10|0,0:0|0:0,0:0:0:0:
200,379,95713,1,2,3:2:0:0:
200,379,95875,1,0,3:2:0:0:
283,336,96037,2,0,P|240:296|168:291,1,127.5,10|0,0:0|0:0,0:0:0:0:
102,337,96362,6,0,B|90:276|90:276|107:232|107:232|95:172,1,170,6|10,3:1|0:0,0:0:0:0:
221,109,96848,2,0,P|213:151|205:193,1,85,2|0,0:0|3:2,0:0:0:0:
76,79,97172,1,2,3:2:0:0:
11,188,97335,2,0,P|53:180|95:172,1,85,10|0,0:0|0:0,0:0:0:0:
197,17,97659,6,0,P|259:21|306:63,1,127.5,2|0,3:2|0:0,0:0:0:0:
304,93,97983,2,0,P|262:101|220:109,1,85,10|0,0:0|3:2,0:0:0:0:
94,172,98308,1,2,3:2:0:0:
191,276,98470,1,0,3:2:0:0:
194,255,98551,1,8,3:3:0:0:
198,234,98632,2,0,L|205:191,1,42.5,8|8,3:2|3:2,0:0:0:0:
118,48,98794,2,0,L|111:89,1,42.5,8|8,3:2|3:2,0:0:0:0:
27,252,98956,6,0,B|124:236|99:292|191:275,1,170,6|8,3:1|0:0,0:0:0:0:
358,233,99443,1,2,0:0:0:0:
305,382,99605,2,0,P|297:340|289:298,1,85,0|2,3:2|3:2,0:0:0:0:
416,122,99929,1,8,0:0:0:0:
467,207,100091,6,0,P|384:211|323:154,1,170,6|2,3:2|3:2,0:0:0:0:
274,11,100578,1,10,0:0:0:0:
238,193,100740,1,2,3:2:0:0:
238,193,100821,1,0,3:2:0:0:
238,193,100902,1,2,3:2:0:0:
416,122,101064,1,2,3:2:0:0:
294,29,101227,2,0,B|238:38|238:38|223:47|223:47|170:55,1,127.5,8|0,0:0|0:0,0:0:0:0:
87,24,101551,6,0,P|98:108|110:192,1,170,4|10,3:2|0:0,0:0:0:0:
45,342,102037,2,0,P|87:334|129:326,1,85,2|0,3:2|3:2,0:0:0:0:
238,193,102362,1,2,3:2:0:0:
128,326,102524,1,8,0:0:0:0:
332,241,102686,6,0,P|336:158|279:97,1,170,6|2,3:2|3:2,0:0:0:0:
163,22,103172,2,0,P|171:64|179:106,1,85,8|8,0:0|3:3,0:0:0:0:
178,105,103416,1,8,3:3:0:0:
178,105,103497,1,12,3:3:0:0:
128,326,103659,1,2,3:2:0:0:
241,230,103821,2,0,P|199:222|157:214,1,85,12|0,0:0|0:0,0:0:0:0:
271,370,104145,6,0,B|363:387|338:331|435:347,1,170,6|8,3:1|0:0,0:0:0:0:
477,118,104632,1,2,3:2:0:0:
324,245,104794,1,2,3:2:0:0:
324,245,104875,1,2,0:0:0:0:
324,245,104956,2,0,P|282:237|240:229,1,85,2|10,3:2|0:0,0:0:0:0:
393,102,105281,6,0,P|435:110|477:118,1,85,6|2,3:2|0:0,0:0:0:0:
477,118,105524,1,2,0:0:0:0:
477,118,105605,1,2,3:2:0:0:
426,3,105767,1,10,0:0:0:0:
317,161,105929,1,8,0:0:0:0:
460,219,106091,1,10,0:0:0:0:
299,72,106254,1,8,0:0:0:0:
240,260,106416,2,0,P|282:252|324:244,1,85,10|8,0:0|0:0,0:0:0:0:
103,199,106740,5,6,3:2:0:0:
90,290,106902,1,8,3:2:0:0:
76,382,107064,1,8,3:2:0:0:
103,199,107227,6,0,B|195:216|170:160|267:176,1,170,6|8,3:2|3:2,0:0:0:0:
455,134,107713,1,8,3:2:0:0:
356,18,107875,6,0,B|368:78|368:78|351:122|351:122|363:185,1,170,6|8,3:2|3:2,0:0:0:0:
401,360,108362,1,8,3:2:0:0:
266,175,108524,5,6,3:2:0:0:
256,192,108605,12,0,113875,0:0:0:0:
