osu file format v14

[General]
AudioFilename: audio.ogg
AudioLeadIn: 0
PreviewTime: 48524
Countdown: 0
SampleSet: Soft
StackLeniency: 0.6
Mode: 0
LetterboxInBreaks: 0
WidescreenStoryboard: 1

[Editor]
Bookmarks: 5754,16132,26510,36889,42078,48564,66727,78195,98951,108519
DistanceSpacing: 0.2
BeatDivisor: 4
GridSize: 32
TimelineZoom: 1.8

[Metadata]
Title:RAISE INSIGHT (TV Size)
TitleUnicode:RAISE INSIGHT (TV Size)
Artist:WANDS
ArtistUnicode:WANDS
Creator:Smoke
Version:Melle's EXPERT
Source:名探偵コナン
Tags:japanese anime rock jrock j-rock pop jpop j-pop opening op 57 secret version ver detective conan case closed kaito kaitou kid edogawa magician magic froskya Revialink announcerf aundy melleganol nosik
BeatmapID:4119476
BeatmapSetID:1980599

[Difficulty]
HPDrainRate:5.5
CircleSize:4.4
OverallDifficulty:8.3
ApproachRate:9.1
SliderMultiplier:1.8
SliderTickRate:1

[Events]
//Background and Video events
Video,-76,"vid.mp4"
0,0,"conan 2.jpg",0,0
//Break Periods
2,70795,76343
//Storyboard Layer 0 (Background)
//Storyboard Layer 1 (Fail)
//Storyboard Layer 2 (Pass)
//Storyboard Layer 3 (Foreground)
//Storyboard Layer 4 (Overlay)
//Storyboard Sound Samples

[TimingPoints]
570,324.324324324324,4,2,1,55,1,0
570,-142.857142857143,4,2,1,55,0,0
4624,-125,4,2,1,60,0,0
5678,-125,4,2,1,60,0,0
5759,-90.9090909090909,4,2,1,75,0,0
16137,-125,4,2,1,60,0,0
26434,-125,4,2,1,5,0,0
26515,-100,4,2,1,70,0,0
30326,-100,4,2,1,5,0,0
30407,-100,4,2,1,70,0,0
36894,-166.666666666666,4,2,1,55,0,0
42083,-99.9999999999999,4,2,1,65,0,0
42326,-100,4,2,1,5,0,0
42407,-100,4,2,1,65,0,0
44921,-100,4,2,1,5,0,0
45002,-100,4,2,1,65,0,0
47921,-333.333333333333,4,2,1,50,0,0
48569,-86.9565217391304,4,2,1,80,0,1
48813,-86.9565217391304,4,2,1,5,0,1
48894,-86.9565217391304,4,2,1,80,0,1
51407,-86.9565217391304,4,2,1,5,0,1
51488,-86.9565217391304,4,2,1,80,0,1
59191,-86.9565217391304,4,2,1,5,0,1
59272,-86.9565217391304,4,2,1,80,0,1
66732,-105.263157894737,4,2,1,60,0,0
69326,317.460317460317,4,2,1,60,1,0
69326,-125,4,2,1,60,0,0
76927,312.5,4,2,1,60,1,0
76927,-111.111111111111,4,2,1,60,0,0
77552,324.324324324324,4,2,1,70,1,0
77552,-90.9090909090909,4,2,1,70,0,0
78200,324.324324324324,4,2,1,80,1,0
78200,-83.3333333333333,4,2,1,80,0,1
78443,-83.3333333333333,4,2,1,5,0,1
78524,-83.3333333333333,4,2,1,80,0,1
81037,-83.3333333333333,4,2,1,5,0,1
81118,-83.3333333333333,4,2,1,80,0,1
88821,-83.3333333333333,4,2,1,5,0,1
88902,-83.3333333333333,4,2,1,80,0,1
96605,-83.3333333333333,4,2,1,5,0,1
96686,-83.3333333333333,4,2,1,80,0,1
98956,-95.2380952380952,4,2,1,75,0,0
104064,-95.2380952380952,4,2,1,75,0,0
104145,-95.2380952380952,4,2,1,75,0,0
107470,-95.2380952380952,4,2,1,5,0,0
107551,-95.2380952380952,4,2,1,75,0,0
108118,-95.2380952380952,4,2,1,5,0,0
108199,-95.2380952380952,4,2,1,75,0,0
108524,-666.666666666667,4,2,1,75,0,0
109335,-666.666666666667,4,2,1,60,0,0
110632,-666.666666666667,4,2,1,50,0,0
111929,-666.666666666667,4,2,1,45,0,0
113227,-666.666666666667,4,2,1,40,0,0
113875,-666.666666666667,4,2,1,5,0,0

[Colours]
Combo1 : 166,172,244
Combo2 : 217,5,0
Combo3 : 247,153,91
Combo4 : 80,96,237

[HitObjects]
256,192,570,12,8,5434,0:0:0:0:
512,0,5759,6,0,B|438:21|438:21|412:64|412:64|310:99,1,198.000006042481,6|10,3:1|0:0,0:0:0:0:
253,169,6245,1,2,3:2:0:0:
185,97,6407,2,0,L|206:1,1,99.0000030212403,2|0,0:0|0:0,0:0:0:0:
330,84,6732,1,10,0:0:0:0:
253,169,6894,6,0,P|157:196|43:207,1,198.000006042481,2|2,0:0|3:2,0:0:0:0:
96,378,7380,2,0,P|44:361|-20:353,1,99.0000030212403,10|0,0:0|0:0,0:0:0:0:
136,277,7705,1,2,0:0:0:0:
197,358,7867,1,0,3:2:0:0:
48,215,8029,1,10,0:0:0:0:
197,358,8191,1,0,3:2:0:0:
261,276,8353,6,0,L|227:74,1,198.000006042481,4|8,3:2|0:0,0:0:0:0:
71,0,8840,5,2,3:2:0:0:
261,79,9002,1,2,0:0:0:0:
261,79,9326,5,10,0:0:0:0:
140,241,9488,1,2,0:0:0:0:
140,241,9813,5,2,3:2:0:0:
0,100,9975,1,10,0:0:0:0:
0,100,10299,5,2,3:2:0:0:
70,61,10461,1,0,3:2:0:0:
163,120,10624,1,10,0:0:0:0:
252,44,10786,1,0,0:0:0:0:
353,181,10948,6,0,B|427:175|460:223|423:239|468:286|533:264,1,198.000006042481,6|10,3:1|0:0,0:0:0:0:
509,193,11434,1,2,3:2:0:0:
372,258,11597,2,0,L|391:372,1,99.0000030212403,2|0,0:0|0:0,0:0:0:0:
509,193,11921,1,10,0:0:0:0:
401,146,12083,6,0,P|300:161|191:202,1,198.000006042481,2|2,0:0|3:2,0:0:0:0:
132,39,12569,2,0,P|92:57|28:67,1,99.0000030212403,10|0,0:0|0:0,0:0:0:0:
142,133,12894,1,2,0:0:0:0:
26,62,13056,1,0,3:2:0:0:
142,133,13218,1,10,0:0:0:0:
56,208,13380,2,0,L|43:153,1,49.5000015106202,0|0,3:2|0:0,0:0:0:0:
223,69,13542,5,4,3:2:0:0:
223,69,13705,2,0,L|336:91,1,99.0000030212403,2|8,0:0|0:0,0:0:0:0:
393,20,14029,5,2,3:2:0:0:
270,169,14191,2,0,B|258:219|258:219|284:269,1,99.0000030212403,2|0,0:0|3:2,0:0:0:0:
328,78,14515,5,10,0:0:0:0:
451,227,14677,2,0,B|463:277|463:277|437:327,1,99.0000030212403,2|0,0:0|0:0,0:0:0:0:
365,221,15002,5,2,3:2:0:0:
512,141,15164,1,10,0:0:0:0:
356,224,15326,1,0,3:2:0:0:
347,224,15407,1,0,3:2:0:0:
338,223,15488,1,2,3:2:0:0:
270,181,15651,5,2,3:2:0:0:
356,302,15813,1,10,0:0:0:0:
429,173,15975,1,2,0:0:0:0:
257,272,16137,6,0,P|221:267|180:247,1,72,6|2,3:2|0:0,0:0:0:0:
55,214,16461,2,0,P|98:205|147:98,2,144,10|0|8,0:0|0:0|0:0,0:0:0:0:
27,298,17272,2,0,P|97:314|156:354,1,144,0|2,0:0|3:2,0:0:0:0:
55,214,17759,1,8,0:0:0:0:
149,246,17921,6,0,P|167:211|173:175,1,72,2|0,0:0|0:0,0:0:0:0:
269,106,18245,1,2,3:2:0:0:
208,53,18407,1,10,0:0:0:0:
140,96,18569,1,2,0:0:0:0:
261,190,18732,6,0,B|317:172|317:172|350:182|350:182|406:166,2,144,2|10|2,3:2|0:0|0:0,0:0:0:0:
208,129,19542,1,2,0:0:0:0:
308,60,19705,1,10,0:0:0:0:
252,0,19867,6,0,L|286:169,1,144,0|0,0:0|3:2,0:0:0:0:
439,243,20353,2,0,L|411:385,1,144,8|0,0:0|0:0,0:0:0:0:
512,305,20840,1,2,3:2:0:0:
369,178,21002,1,10,0:0:0:0:
340,280,21164,1,2,0:0:0:0:
497,173,21326,6,0,P|492:134|469:93,1,72,2|2,3:2|0:0,0:0:0:0:
369,178,21651,2,0,P|301:201|220:210,2,144,10|0|8,0:0|0:0|0:0,0:0:0:0:
470,91,22461,1,0,0:0:0:0:
368,14,22624,2,0,P|295:17|215:48,2,144,2|8|0,0:0|0:0|0:0,0:0:0:0:
470,91,23434,1,0,3:2:0:0:
389,163,23597,2,0,P|373:124|367:87,1,72,8|2,0:0|0:0,0:0:0:0:
480,213,23921,6,0,P|416:253|336:266,1,144,2|10,3:2|0:0,0:0:0:0:
262,338,24407,2,0,P|229:317|190:308,1,72,2|0,0:0|0:0,0:0:0:0:
104,221,24732,2,0,P|143:211|175:192,1,72,2|8,0:0|0:0,0:0:0:0:
292,140,25056,6,0,P|285:78|259:-16,1,144,2|2,0:0|3:2,0:0:0:0:
70,3,25542,1,10,0:0:0:0:
126,77,25705,1,2,0:0:0:0:
135,74,25786,1,2,0:0:0:0:
146,71,25867,1,2,3:2:0:0:
201,0,26029,1,2,3:2:0:0:
45,90,26191,2,0,B|38:121|38:121|70:206,1,108,14|0,0:0|0:0,0:0:0:0:
78,203,26515,6,0,B|136:204|171:159|130:149|176:103|236:116,1,180,6|10,3:1|0:0,0:0:0:0:
286,38,27002,1,2,3:2:0:0:
320,120,27164,1,2,0:0:0:0:
196,38,27326,1,2,0:0:0:0:
365,0,27488,1,10,0:0:0:0:
196,38,27651,1,2,0:0:0:0:
320,120,27813,6,0,P|363:119|412:104,1,90,2|0,0:0|3:2,0:0:0:0:
286,38,28137,1,10,0:0:0:0:
220,137,28299,2,0,P|226:182|243:223,1,90,2|0,0:0|0:0,0:0:0:0:
382,277,28624,1,2,3:2:0:0:
383,288,28705,1,2,2:0:0:0:
382,298,28786,2,0,P|378:340|357:390,1,90,8|0,2:0|3:0,0:0:0:0:
280,312,29110,5,4,3:2:0:0:
442,170,29272,1,2,0:0:0:0:
332,227,29434,1,10,0:0:0:0:
271,161,29597,1,0,3:2:0:0:
275,152,29678,1,2,2:0:0:0:
278,143,29759,1,2,0:0:0:0:
340,233,29921,1,0,0:0:0:0:
182,123,30083,2,0,B|133:118|101:152|137:154|103:182|54:184,1,135,10|0,0:0|0:0,0:0:0:0:
45,194,30407,6,0,P|23:162|29:106,1,90,2|0,0:0|3:2,0:0:0:0:
0,0,30732,1,10,0:0:0:0:
84,53,30894,1,2,0:0:0:0:
91,57,30975,1,2,0:0:0:0:
99,60,31056,2,0,P|142:50|186:32,1,90,0|0,3:2|3:2,0:0:0:0:
232,110,31380,2,0,P|189:120|145:138,1,90,8|0,0:0|0:0,0:0:0:0:
0,366,31705,6,0,B|57:372|96:330|56:316|106:274|164:293,1,180,4|8,3:2|0:0,0:0:0:0:
314,239,32191,1,2,3:2:0:0:
242,289,32353,1,2,0:0:0:0:
200,208,32515,1,2,0:0:0:0:
331,327,32678,1,10,0:0:0:0:
200,208,32840,1,2,0:0:0:0:
293,142,33002,6,0,L|387:160,1,90,2|0,0:0|3:2,0:0:0:0:
448,92,33326,1,10,0:0:0:0:
338,0,33488,1,2,0:0:0:0:
330,4,33569,1,2,0:0:0:0:
322,8,33651,1,2,0:0:0:0:
345,108,33813,1,2,3:2:0:0:
471,0,33975,1,10,0:0:0:0:
345,108,34137,1,2,3:2:0:0:
439,177,34299,6,0,P|455:138|439:78,1,90,6|2,3:2|0:0,0:0:0:0:
254,75,34624,2,0,B|196:74|161:119|202:129|156:175|96:162,2,180,10|0|8,0:0|0:0|0:0,0:0:0:0:
337,153,35434,1,0,0:0:0:0:
269,252,35597,6,0,P|242:210|254:167,1,90,2|0,0:0|3:2,0:0:0:0:
361,280,35921,1,10,0:0:0:0:
425,220,36083,1,8,3:3:0:0:
428,211,36164,1,8,3:3:0:0:
431,202,36245,1,12,3:3:0:0:
354,287,36407,1,8,3:3:0:0:
440,375,36569,1,8,3:3:0:0:
495,316,36732,1,8,3:3:0:0:
320,377,36894,6,0,P|267:366|221:321,1,107.999996704102,6|0,3:1|0:0,0:0:0:0:
147,384,37380,1,2,3:2:0:0:
310,288,37542,6,0,P|313:238|281:181,1,107.999996704102,10|0,3:0|0:0,0:0:0:0:
344,118,38029,1,2,0:0:0:0:
224,253,38191,6,0,L|95:285,1,107.999996704102,10|0,3:0|0:0,0:0:0:0:
175,175,38678,1,2,3:2:0:0:
310,288,38840,6,0,L|379:308,2,53.9999983520508,10|0|8,3:0|3:2|0:0,0:0:0:0:
224,253,39326,1,2,0:0:0:0:
353,163,39488,6,0,L|419:147,1,53.9999983520508,2|0,3:2|0:0,0:0:0:0:
307,91,39813,2,0,L|373:75,1,53.9999983520508,6|0,0:0|3:2,0:0:0:0:
216,14,40137,6,0,L|163:1,1,53.9999983520508,10|0,3:0|0:0,0:0:0:0:
170,86,40462,2,0,L|117:73,1,53.9999983520508,2|0,0:0|0:0,0:0:0:0:
266,181,40786,6,0,P|303:143|305:85,1,107.999996704102,6|0,3:2|0:0,0:0:0:0:
472,71,41272,1,8,3:3:0:0:
434,0,41434,1,12,3:3:0:0:
365,41,41597,1,8,3:3:0:0:
512,211,41759,1,8,0:0:0:0:
512,211,42083,6,0,P|462:231|438:318,1,135,6|0,3:1|0:0,0:0:0:0:
445,317,42407,1,10,0:0:0:0:
338,214,42569,6,0,L|356:152,1,45,6|0,3:2|0:0,0:0:0:0:
350,170,42894,5,8,3:3:0:0:
350,170,43056,1,8,3:3:0:0:
228,272,43218,6,0,L|44:317,1,180,6|8,3:2|3:3,0:0:0:0:
206,364,43705,1,10,0:0:0:0:
23,227,43867,6,0,L|35:179,1,45,6|0,3:2|0:0,0:0:0:0:
33,183,44191,5,8,3:3:0:0:
33,183,44353,1,8,3:3:0:0:
33,183,44515,1,8,3:3:0:0:
169,157,44678,6,0,P|179:93|120:39,1,135,6|0,3:1|0:0,0:0:0:0:
117,39,45002,1,2,0:0:0:0:
273,157,45164,6,0,L|322:141,1,45,6|0,3:2|0:0,0:0:0:0:
315,143,45488,5,2,0:0:0:0:
315,143,45651,1,2,0:0:0:0:
214,248,45813,6,0,P|207:310|303:349,1,180,6|8,3:1|3:3,0:0:0:0:
414,307,46299,1,8,3:3:0:0:
319,221,46461,1,8,3:3:0:0:
401,127,46624,1,8,3:3:0:0:
338,68,46786,1,8,3:3:0:0:
397,15,46948,1,8,3:3:0:0:
249,50,47110,5,14,3:2:0:0:
401,127,47272,1,8,3:3:0:0:
409,123,47353,1,0,0:0:0:0:
417,120,47434,1,8,3:3:0:0:
229,45,47597,1,14,3:2:0:0:
229,45,47921,6,0,L|222:12,3,26.9999991760254
29,0,48569,6,0,B|15:32|15:32|67:141,1,155.250002961159,6|0,3:1|0:0,0:0:0:0:
115,205,48894,1,10,0:0:0:0:
219,93,49056,2,0,B|231:112|231:112|210:190,1,103.500001974106,2|0,0:0|3:2,0:0:0:0:
144,123,49380,1,0,3:2:0:0:
283,226,49542,1,8,0:0:0:0:
144,123,49705,6,0,P|93:134|46:162,1,103.500001974106,6|0,3:2|0:0,0:0:0:0:
283,226,50029,2,0,P|302:182|304:121,1,103.500001974106,2|8,3:2|0:0,0:0:0:0:
155,254,50353,2,0,P|164:302|197:357,1,103.500001974106,2|0,3:2|3:2,0:0:0:0:
342,373,50678,1,2,3:2:0:0:
283,226,50840,1,8,0:0:0:0:
190,349,51002,1,0,0:0:0:0:
366,270,51164,6,0,B|428:251|428:251|462:269|462:269|529:252,1,155.250002961159,6|0,3:2|0:0,0:0:0:0:
512,176,51488,1,10,0:0:0:0:
369,85,51651,1,2,3:2:0:0:
367,95,51732,1,0,3:2:0:0:
366,105,51813,1,2,3:2:0:0:
412,178,51975,1,2,3:2:0:0:
512,49,52137,1,10,0:0:0:0:
412,178,52299,6,0,B|332:174|307:235|351:226|317:295|234:291,1,207.000003948212,6|0,3:2|3:2,0:0:0:0:
65,335,52786,1,8,0:0:0:0:
164,236,52948,1,10,3:3:0:0:
197,371,53110,1,0,3:2:0:0:
46,228,53272,1,0,3:2:0:0:
274,305,53434,1,12,0:0:0:0:
274,305,53515,1,2,2:0:0:0:
274,305,53597,1,2,2:0:0:0:
274,305,53678,1,2,2:0:0:0:
274,305,53759,5,6,3:2:0:0:
164,236,53921,2,0,B|128:245|128:245|110:267|110:267|55:284,1,103.500001974106,2|8,0:0|0:0,0:0:0:0:
259,131,54245,5,2,0:0:0:0:
377,224,54407,2,0,B|413:233|413:233|431:255|431:255|486:272,1,103.500001974106,2|0,3:2|3:2,0:0:0:0:
373,53,54732,5,8,0:0:0:0:
259,131,54894,2,0,B|223:140|223:140|205:162|205:162|150:179,1,103.500001974106,6|0,3:2|0:0,0:0:0:0:
53,48,55218,6,0,P|100:49|139:88,1,103.500001974106,2|8,3:2|0:0,0:0:0:0:
87,225,55542,2,0,P|59:181|74:113,1,103.500001974106,2|0,3:2|3:2,0:0:0:0:
219,111,55867,2,0,P|186:155|129:165,1,103.500001974106,2|8,3:2|0:0,0:0:0:0:
138,86,56191,1,2,0:0:0:0:
259,205,56353,6,0,B|339:209|364:148|320:157|354:88|437:92,1,207.000003948212,6|8,3:2|0:0,0:0:0:0:
302,56,56840,1,2,0:0:0:0:
429,179,57002,6,0,B|442:218|442:218|382:375,1,207.000003948212,6|8,3:2|0:0,0:0:0:0:
512,309,57488,1,0,3:2:0:0:
327,279,57651,6,0,L|112:322,1,207.000003948212,6|8,3:2|0:0,0:0:0:0:
44,261,58137,1,2,0:0:0:0:
234,384,58299,5,2,3:2:0:0:
191,212,58461,1,10,0:0:0:0:
124,319,58624,2,0,L|174:308,1,51.7500009870529,8|8,3:2|0:0,0:0:0:0:
285,230,58786,1,8,0:0:0:0:
285,230,58867,1,8,0:0:0:0:
285,230,58948,6,0,B|343:244|343:244|365:280|365:280|431:296,1,155.250002961159,6|0,3:1|0:0,0:0:0:0:
494,315,59272,1,8,0:0:0:0:
416,215,59434,2,0,B|405:180|405:180|441:102,1,103.500001974106,2|0,0:0|3:2,0:0:0:0:
349,89,59759,1,2,3:2:0:0:
498,193,59921,1,8,0:0:0:0:
349,89,60083,6,0,B|284:75|236:133|300:147|245:200|165:185,1,207.000003948212,6|2,3:2|3:2,0:0:0:0:
104,94,60569,1,8,0:0:0:0:
217,9,60732,2,0,L|193:121,1,103.500001974106,2|0,3:2|3:2,0:0:0:0:
135,261,61056,1,2,3:2:0:0:
273,194,61218,1,8,0:0:0:0:
195,110,61380,1,2,2:0:0:0:
308,298,61542,5,6,3:2:0:0:
381,266,61705,1,2,0:0:0:0:
189,196,61867,1,10,0:0:0:0:
381,266,62029,6,0,B|305:285|305:285|277:333|277:333|192:357,1,207.000003948212,6|8,3:2|3:3,0:0:0:0:
369,357,62515,1,8,3:3:0:0:
207,260,62678,6,0,L|248:52,1,207.000003948212,6|8,3:2|3:3,0:0:0:0:
129,40,63164,1,8,3:3:0:0:
321,191,63326,6,0,B|401:195|426:134|382:143|416:74|499:78,1,207.000003948212,6|8,3:2|0:0,0:0:0:0:
492,90,63732,1,8,0:0:0:0:
492,90,63813,2,0,P|487:124|471:152,1,51.7500009870529,8|0,3:2|3:2,0:0:0:0:
512,233,63975,1,0,3:2:0:0:
512,233,64056,1,0,3:2:0:0:
512,233,64137,6,0,L|398:260,1,103.500001974106,6|0,3:2|0:0,0:0:0:0:
309,349,64461,2,0,L|195:322,1,103.500001974106,10|0,0:0|0:0,0:0:0:0:
48,225,64786,5,2,3:2:0:0:
78,300,64948,1,0,3:2:0:0:
184,223,65110,5,10,0:0:0:0:
210,148,65272,1,0,0:0:0:0:
77,60,65434,5,2,3:2:0:0:
1,87,65597,1,0,3:2:0:0:
184,223,65759,6,0,L|291:251,1,103.500001974106,10|0,0:0|0:0,0:0:0:0:
398,109,66083,5,2,3:2:0:0:
473,80,66245,1,0,3:2:0:0:
286,0,66407,5,10,0:0:0:0:
286,0,66732,5,10,0:0:0:0:
471,185,66894,1,8,0:0:0:0:
471,185,69326,5,6,3:2:0:0:
471,185,69484,2,0,P|404:194|360:264,1,144,10|10,0:0|0:0,0:0:0:0:
364,274,69881,1,10,0:0:0:0:
364,274,69960,1,10,3:2:0:0:
405,341,70119,1,0,3:2:0:0:
482,348,70278,1,10,3:2:0:0:
512,274,70437,1,8,3:2:0:0:
331,384,70595,1,14,3:2:0:0:
20,96,76927,5,2,0:0:0:0:
20,96,77005,1,0,0:0:0:0:
20,96,77083,2,0,P|8:73|-13:50,1,40.4999987640381
58,5,77239,2,0,P|81:17|102:19,1,40.4999987640381,2|0,0:0|0:0,0:0:0:0:
133,93,77395,2,0,P|115:109|99:129,1,40.4999987640381
0,181,77552,5,14,0:0:0:0:
70,249,77714,1,2,3:2:0:0:
78,247,77795,1,8,0:0:0:0:
86,246,77876,1,14,0:0:0:0:
219,159,78038,1,8,0:0:0:0:
219,159,78119,1,8,0:0:0:0:
219,159,78200,6,0,B|277:171|277:171|306:202|306:202|373:216,1,161.999995056153,6|0,3:1|0:0,0:0:0:0:
439,182,78524,1,10,0:0:0:0:
300,282,78686,2,0,B|288:324|288:324|314:386,1,107.999996704102,2|0,0:0|3:2,0:0:0:0:
382,318,79010,1,0,3:2:0:0:
224,246,79172,1,8,0:0:0:0:
382,318,79335,6,0,L|505:284,1,107.999996704102,6|0,3:2|0:0,0:0:0:0:
341,186,79659,2,0,L|226:163,1,107.999996704102,2|8,3:2|0:0,0:0:0:0:
409,41,79983,2,0,L|434:156,1,107.999996704102,2|0,3:2|3:2,0:0:0:0:
382,318,80308,1,2,3:2:0:0:
512,224,80470,1,8,0:0:0:0:
431,146,80632,1,0,0:0:0:0:
484,383,80794,6,0,L|511:224,1,161.999995056153,6|0,3:2|0:0,0:0:0:0:
505,143,81118,1,10,0:0:0:0:
399,227,81281,1,2,3:2:0:0:
389,232,81362,1,0,3:2:0:0:
379,237,81443,1,2,3:2:0:0:
341,143,81605,1,2,3:2:0:0:
487,256,81767,1,10,0:0:0:0:
341,143,81929,6,0,B|261:139|236:200|280:191|245:264|163:256,1,215.999993408203,6|0,3:2|3:2,0:0:0:0:
0,229,82416,1,8,0:0:0:0:
115,170,82578,1,10,3:3:0:0:
118,180,82659,1,0,3:2:0:0:
120,190,82740,1,0,3:2:0:0:
16,117,82902,1,0,3:2:0:0:
17,333,83064,1,12,0:0:0:0:
17,333,83145,1,2,2:0:0:0:
17,333,83227,1,2,2:0:0:0:
17,333,83308,1,2,2:0:0:0:
17,333,83389,5,6,3:2:0:0:
90,368,83551,2,0,L|210:337,1,107.999996704102,2|8,0:0|0:0,0:0:0:0:
267,198,83875,5,2,0:0:0:0:
193,230,84037,2,0,L|73:199,1,107.999996704102,2|0,3:2|3:2,0:0:0:0:
0,86,84362,5,8,0:0:0:0:
74,118,84524,2,0,L|194:87,1,107.999996704102,6|0,3:2|0:0,0:0:0:0:
369,98,84848,6,0,B|387:53|387:53|360:-3,1,107.999996704102,2|8,3:2|0:0,0:0:0:0:
256,147,85172,2,0,B|238:192|238:192|265:248,1,107.999996704102,2|0,3:2|3:2,0:0:0:0:
422,330,85497,2,0,L|399:215,1,107.999996704102,2|8,3:2|0:0,0:0:0:0:
256,147,85821,1,2,0:0:0:0:
400,224,85983,6,0,P|322:237|273:372,1,215.999993408203,6|8,3:2|0:0,0:0:0:0:
109,238,86470,1,2,0:0:0:0:
174,384,86632,6,0,L|210:123,1,215.999993408203,6|8,3:2|0:0,0:0:0:0:
88,65,87118,1,0,3:2:0:0:
88,65,87199,1,0,3:2:0:0:
88,65,87281,6,0,P|143:86|259:-5,1,215.999993408203,6|8,3:2|0:0,0:0:0:0:
351,136,87767,1,0,3:2:0:0:
355,126,87848,1,0,3:2:0:0:
358,115,87929,1,2,3:2:0:0:
249,179,88091,1,8,0:0:0:0:
253,189,88172,1,8,0:0:0:0:
256,200,88253,1,10,3:2:0:0:
426,278,88416,1,8,0:0:0:0:
426,278,88497,1,8,0:0:0:0:
426,278,88578,6,0,B|362:295|362:295|340:329|340:329|274:349,1,161.999995056153,6|0,3:1|0:0,0:0:0:0:
209,363,88902,1,8,0:0:0:0:
287,266,89064,2,0,B|306:219|306:219|282:157,1,107.999996704102,2|0,0:0|3:2,0:0:0:0:
215,227,89389,1,2,3:2:0:0:
377,134,89551,1,8,0:0:0:0:
215,227,89713,6,0,B|135:231|110:170|154:179|119:106|37:114,1,215.999993408203,6|2,3:2|3:2,0:0:0:0:
51,200,90199,1,8,0:0:0:0:
202,149,90362,2,0,B|217:97|217:97|192:39,1,107.999996704102,2|0,3:2|3:2,0:0:0:0:
123,0,90686,1,2,3:2:0:0:
302,104,90848,1,8,0:0:0:0:
335,0,91010,1,2,2:0:0:0:
202,149,91172,5,6,3:2:0:0:
129,117,91335,1,2,0:0:0:0:
335,0,91497,1,10,0:0:0:0:
129,117,91659,6,0,B|205:136|205:136|233:184|233:184|316:208,1,215.999993408203,6|8,3:2|3:3,0:0:0:0:
141,208,92145,1,8,3:3:0:0:
374,292,92308,6,0,B|298:311|298:311|270:359|270:359|185:383,1,215.999993408203,6|8,3:2|3:3,0:0:0:0:
364,383,92794,1,8,3:3:0:0:
212,292,92956,6,0,L|244:58,1,215.999993408203,6|8,3:2|0:0,0:0:0:0:
249,61,93362,1,8,0:0:0:0:
249,61,93443,1,8,3:2:0:0:
359,177,93605,1,0,3:2:0:0:
359,177,93686,1,0,3:2:0:0:
359,177,93767,6,0,L|469:153,1,107.999996704102,6|0,3:2|0:0,0:0:0:0:
343,315,94091,2,0,L|453:291,1,107.999996704102,10|0,0:0|0:0,0:0:0:0:
267,228,94416,5,2,3:2:0:0:
252,307,94578,1,0,3:2:0:0:
150,204,94740,5,10,0:0:0:0:
135,125,94902,1,0,0:0:0:0:
26,253,95064,5,2,3:2:0:0:
41,332,95226,1,0,3:2:0:0:
150,204,95389,6,0,L|126:72,1,107.999996704102,10|0,0:0|0:0,0:0:0:0:
291,152,95713,5,2,3:2:0:0:
367,179,95875,1,0,3:2:0:0:
150,204,96037,6,0,L|126:72,1,107.999996704102,10|0,0:0|0:0,0:0:0:0:
0,17,96362,6,0,P|47:52|148:20,1,161.999995056153,6|0,3:1|0:0,0:0:0:0:
213,59,96686,1,10,0:0:0:0:
52,146,96848,2,0,B|31:192|31:192|55:246,1,107.999996704102,2|0,0:0|3:2,0:0:0:0:
130,97,97172,1,2,3:2:0:0:
246,206,97335,2,0,B|267:252|267:252|243:306,1,107.999996704102,10|0,0:0|0:0,0:0:0:0:
0,373,97659,5,2,3:2:0:0:
162,220,97821,1,0,3:2:0:0:
243,304,97983,5,10,0:0:0:0:
0,171,98145,1,0,3:2:0:0:
87,293,98308,5,2,3:2:0:0:
205,108,98470,1,0,3:2:0:0:
205,108,98551,1,8,3:3:0:0:
205,108,98632,2,0,L|190:46,1,53.9999983520508,8|8,3:2|3:2,0:0:0:0:
88,155,98794,2,0,L|73:217,1,53.9999983520508,8|8,3:2|3:2,0:0:0:0:
243,304,98956,6,0,L|454:253,1,188.999994232178,6|8,3:1|0:0,0:0:0:0:
258,209,99443,2,0,L|148:183,1,94.499997116089,2|0,0:0|3:2,0:0:0:0:
342,90,99767,2,0,L|448:70,1,94.499997116089,2|8,3:2|0:0,0:0:0:0:
252,36,100091,6,0,P|222:125|259:210,1,188.999994232178,6|2,3:2|3:2,0:0:0:0:
317,298,100578,1,10,0:0:0:0:
365,221,100740,1,2,3:2:0:0:
362,211,100821,1,0,3:2:0:0:
358,202,100902,1,2,3:2:0:0:
258,209,101064,1,2,3:2:0:0:
411,299,101227,2,0,L|517:270,1,94.499997116089,8|0,0:0|0:0,0:0:0:0:
258,209,101551,6,0,B|196:202|154:258|197:259|166:305|103:310,1,188.999994232178,4|10,3:2|0:0,0:0:0:0:
6,224,102037,1,2,3:2:0:0:
9,215,102118,1,0,3:2:0:0:
12,206,102199,1,0,3:2:0:0:
104,234,102362,1,2,3:2:0:0:
25,311,102524,1,8,0:0:0:0:
108,135,102686,6,0,L|300:95,1,188.999994232178,6|2,3:2|3:2,0:0:0:0:
462,135,103172,1,8,0:0:0:0:
383,185,103335,1,8,3:3:0:0:
374,181,103416,1,8,3:3:0:0:
364,178,103497,1,12,3:3:0:0:
462,135,103659,1,2,3:2:0:0:
304,256,103821,1,12,0:0:0:0:
304,256,104145,6,0,P|342:247|444:350,1,188.999994232178,6|8,3:1|0:0,0:0:0:0:
512,238,104632,1,2,3:2:0:0:
509,247,104713,1,0,3:2:0:0:
507,256,104794,1,2,3:2:0:0:
445,186,104956,1,2,3:2:0:0:
512,125,105118,1,10,0:0:0:0:
415,267,105281,5,6,3:2:0:0:
406,270,105362,1,0,3:0:0:0:
397,274,105443,1,2,0:0:0:0:
316,218,105605,1,2,3:2:0:0:
249,285,105767,1,10,0:0:0:0:
176,206,105929,5,8,0:0:0:0:
334,322,106091,5,10,0:0:0:0:
442,161,106254,5,8,0:0:0:0:
284,76,106416,5,10,0:0:0:0:
334,322,106578,5,8,0:0:0:0:
444,73,106740,5,6,3:2:0:0:
301,216,106902,1,8,3:2:0:0:
284,76,107064,1,8,3:2:0:0:
461,269,107227,6,0,B|405:283|405:283|388:310|388:310|313:335,1,141.749995674133,6|0,3:2|0:0,0:0:0:0:
262,351,107551,1,8,3:2:0:0:
184,332,107713,1,8,3:2:0:0:
0,164,107875,6,0,B|56:178|56:178|73:205|73:205|148:230,1,141.749995674133,6|0,3:2|0:0,0:0:0:0:
199,246,108199,1,8,3:2:0:0:
277,227,108361,1,8,3:2:0:0:
401,131,108524,6,0,B|408:123|412:116|419:103|419:90|414:73|408:57|401:44|390:34|361:25|336:26|313:32|287:45|275:66|271:89|272:111|279:127|294:147|315:158|338:164|350:177|357:188|362:199|360:217|361:234|358:249|352:265|343:282|317:294,1,445.499986404419,6|0,3:2|0:0,0:0:0:0:
