osu file format v14

[General]
AudioFilename: audio.mp3
AudioLeadIn: 0
PreviewTime: -1
Countdown: 1
SampleSet: None
StackLeniency: 0.5
Mode: 0
LetterboxInBreaks: 0
WidescreenStoryboard: 1

[Editor]
Bookmarks: -1,9704,19176,53962,54894,73684,169809
DistanceSpacing: 1.6
BeatDivisor: 4
GridSize: 4
TimelineZoom: 4.099998

[Metadata]
Title:Ikenai Borderline (Speed Up Ver.)
TitleUnicode:いけないボーダーライン (Speed Up Ver.)
Artist:WALKURE
ArtistUnicode:ワルキューレ
Creator:ChronoNig
Version:My love for him towers over even the tallest of mountains
Source:マクロスΔ
Tags:I love Flezlin and Aoiyuuki MACROSS DELTA Scramble WALKÜRE Valkyrie マクロスΔスクランブル Idol Group 美雲・ギンヌメール Mikumo Guynemer カナメ・バッカニア Kaname Buccaneer マキナ・中島 Makina Nakajima レイナ・プラウラー Reina Prowler フレイア・ヴィオン Freyja Wion TV Series
BeatmapID:1126510
BeatmapSetID:525461

[Difficulty]
HPDrainRate:5
CircleSize:2
OverallDifficulty:9.7
ApproachRate:9.5
SliderMultiplier:2.99999990463257
SliderTickRate:1

[Events]
//Background and Video events
0,0,"31335ccb-a9f1-4400-935e-4d3774fa89b0.png",0,0
//Break Periods
//Storyboard Layer 0 (Background)
//Storyboard Layer 1 (Fail)
//Storyboard Layer 2 (Pass)
//Storyboard Layer 3 (Foreground)
//Storyboard Sound Samples

[TimingPoints]
542,310.583119807438,4,3,0,60,1,0
15449,-83.3333333333333,4,3,0,60,0,0
16071,-100,4,3,0,60,0,0
30047,-133.333333333333,4,3,0,60,0,0
30357,-100,4,3,0,60,0,0
61416,-76.9230769230769,4,3,0,60,0,1
66385,-66.6666666666667,4,3,0,60,0,1
67006,-76.9230769230769,4,3,0,60,0,1
76324,-66.6666666666667,4,3,0,60,0,1
76945,-76.9230769230769,4,3,0,60,0,1
80051,-100,4,3,0,60,0,0
81293,-200,4,3,0,60,0,0
83157,-83.3333333333333,4,3,0,60,0,0
88437,-83.3333333333333,4,3,0,60,0,0
89989,-100,4,3,0,60,0,0
124464,-83.3333333333333,4,3,0,60,0,1
129433,-66.6666666666667,4,3,0,60,0,1
130055,-83.3333333333333,4,3,0,60,0,1
139372,-66.6666666666667,4,3,0,60,0,1
139993,-83.3333333333333,4,3,0,60,0,1
143099,-100,4,3,0,60,0,0
144341,-133.333333333333,4,3,0,60,0,0
149466,-100,4,3,0,60,0,0
156765,-133.333333333333,4,3,0,60,0,0
160492,-83.3333333333333,4,3,0,60,0,0
162976,-83.3333333333333,4,3,0,60,0,1
167946,-66.6666666666667,4,3,0,60,0,1
168567,-83.3333333333333,4,3,0,60,0,1
177884,-66.6666666666667,4,3,0,60,0,1
178506,-83.3333333333333,4,3,0,60,0,1
181611,-83.3333333333333,4,3,0,60,0,0
183630,-80,4,3,0,60,0,0
185028,-66.6666666666667,4,3,0,60,0,1
189997,-62.5,4,3,0,60,0,1
190618,-76.9230769230769,4,3,0,60,0,1
199936,-62.5,4,3,0,60,0,1
200557,-76.9230769230769,4,3,0,60,0,1
204905,-83.3333333333333,4,3,0,60,0,0

[HitObjects]
68,122,542,6,0,P|132:85|238:118,1,149.999995231629
173,331,852,2,0,L|147:137,1,149.999995231628
401,161,1163,2,0,L|233:192,1,149.999995231628
424,279,1473,2,0,L|256:310,1,149.999995231628
377,50,1784,5,0,0:0:0:0:
424,279,1939,1,0,0:0:0:0:
172,246,2094,2,0,P|159:181|193:107,1,149.999995231629
252,330,2405,2,0,P|166:356|79:323,1,149.999995231629
263,192,2716,2,0,B|327:198|327:198|356:187|356:187|427:194,1,149.999995231629
299,87,3026,5,0,0:0:0:0:
374,293,3181,1,0,0:0:0:0:
390,45,3337,2,0,P|326:-7|214:28,1,149.999995231629
165,164,3647,2,0,B|155:224|155:224|179:327,1,149.999995231629
96,91,3958,2,0,P|187:68|262:124,1,149.999995231629
81,345,4268,6,0,L|40:165,1,149.999995231629
339,245,4579,1,0,0:0:0:0:
183,339,4734,1,0,0:0:0:0:
240,96,4890,6,0,L|199:276,1,149.999995231629
498,196,5201,1,0,0:0:0:0:
342,102,5356,1,0,0:0:0:0:
405,339,5511,5,0,0:0:0:0:
459,70,5666,1,0,0:0:0:0:
232,268,5821,2,0,B|272:267|307:290|307:290|323:251|380:224,1,149.999995231629
152,190,6132,2,0,P|122:270|166:363,1,149.999995231629
258,161,6443,1,0,0:0:0:0:
243,367,6598,1,0,0:0:0:0:
180,80,6753,5,0,0:0:0:0:
391,124,6908,1,0,0:0:0:0:
152,190,7064,2,0,B|106:181|81:140|81:140|72:66,1,149.999995231629
191,296,7374,6,0,B|106:298|44:254,1,149.999995231629
249,129,7685,1,0,0:0:0:0:
287,362,7840,1,0,0:0:0:0:
151,128,7995,6,0,B|154:22|285:-11|337:58|348:123|348:123|332:202|332:202|331:259|356:327|472:342|508:265|492:188|448:162|448:162|428:198|388:211|388:211|130:280|130:280|30:172|30:172|246:94|274:335|274:335|131:371|131:371|58:367|34:291,1,1799.99994277954
34,172,10014,1,0,0:0:0:0:
107,154,10092,1,0,0:0:0:0:
181,166,10170,2,0,P|219:189|248:248,1,74.9999976158143
331,261,10325,2,0,L|299:372,1,74.9999976158143
275,99,10480,6,0,P|360:82|456:149,1,149.999995231629
293,309,10791,2,0,B|235:304|235:304|205:312|205:312|86:299,1,149.999995231629
121,52,11101,1,0,0:0:0:0:
30,291,11257,1,0,0:0:0:0:
352,164,11412,1,0,0:0:0:0:
11,112,11567,1,0,0:0:0:0:
428,236,11722,6,0,P|452:143|386:68,1,149.999995231629
201,12,12033,2,0,L|207:202,1,149.999995231629
428,236,12344,1,0,0:0:0:0:
206,162,12499,1,0,0:0:0:0:
211,370,12654,1,0,0:0:0:0:
466,227,12810,1,0,0:0:0:0:
260,76,12965,6,0,P|179:68|107:184,1,224.999992847443
51,139,13275,2,0,B|71:283|71:283|88:331|173:361,1,224.999992847443
237,347,13586,5,0,0:0:0:0:
466,227,13741,1,0,0:0:0:0:
180,233,13897,1,0,0:0:0:0:
512,317,14052,2,0,B|590:258|571:163|488:120|488:120|353:236|220:156|205:47|308:-54|439:43|411:139,1,749.999976158143
150,333,14984,2,0,B|94:340|94:340|117:287,1,74.9999976158143
148,192,15139,2,0,B|169:140|169:140|204:186,1,74.9999976158143
270,262,15294,2,0,B|304:306|304:306|246:313,1,74.9999976158143
29,207,15449,6,0,L|116:5,1,179.99998878479
384,99,15760,2,0,P|304:157|220:23,1,269.999983177186
299,64,16071,2,0,L|275:182,1,74.9999976158143
169,174,16226,2,0,P|261:153|373:238,1,224.999992847443
469,265,16537,6,0,B|429:282|390:264|390:264|331:326|331:326|260:264|136:314,1,299.999990463257
94,77,17002,1,0,0:0:0:0:
119,356,17158,1,0,0:0:0:0:
308,107,17313,1,0,0:0:0:0:
0,172,17469,1,0,0:0:0:0:
0,172,17624,1,0,0:0:0:0:
324,7,17779,6,0,B|444:36|423:223|306:212|306:212|216:192|160:124|204:24|416:16|344:224|260:328,1,749.999976158143
144,240,18711,1,0,0:0:0:0:
126,93,18866,2,0,P|165:33|277:-4,1,149.999995231629
457,65,19176,2,0,P|447:108|448:154,1,74.9999976158143
308,158,19332,2,0,P|318:201|317:247,1,74.9999976158143
451,172,19487,2,0,P|456:215|472:258,1,74.9999976158143
314,265,19643,2,0,P|308:308|292:351,1,74.9999976158143
48,160,19798,6,0,L|35:86,1,74.9999976158143
329,61,19953,2,0,L|341:134,1,74.9999976158143
167,264,20108,2,0,L|189:192,1,74.9999976158143
478,256,20264,2,0,L|455:327,1,74.9999976158143
341,134,20419,6,0,B|393:97|468:97|507:161|507:161|468:152|434:165,1,224.999992847443
364,233,20729,2,0,B|297:248|297:248|199:198|234:91,1,224.999992847443
295,33,21040,1,0,0:0:0:0:
231,321,21195,1,0,0:0:0:0:
198,0,21351,1,0,0:0:0:0:
134,288,21506,1,0,0:0:0:0:
64,88,21661,6,0,B|346:173,1,224.999992847443
333,203,21972,2,0,B|117:137,1,224.999992847443
75,239,22282,1,0,0:0:0:0:
358,30,22438,1,0,0:0:0:0:
250,365,22593,1,0,0:0:0:0:
141,30,22748,1,0,0:0:0:0:
435,237,22903,6,0,B|356:303|255:244|255:244|262:155,1,224.999992847443
169,144,23214,2,0,B|248:78|349:137|349:137|342:226,1,224.999992847443
335,316,23525,1,0,0:0:0:0:
163,242,23680,1,0,0:0:0:0:
441,135,23835,1,0,0:0:0:0:
167,348,23991,6,0,B|38:352|19:182|59:104|237:83|280:167|280:167|189:166|154:67|245:2|379:1|337:108,1,749.999976158143
442,337,24922,1,0,0:0:0:0:
492,95,25078,2,0,B|502:57|502:57|491:11,1,74.9999976158143
292,305,25233,2,0,B|283:339|283:339|293:377,1,74.9999976158143
45,94,25388,6,0,B|14:55|14:55|123:-10|231:33,1,224.999992847443
289,70,25699,2,0,B|320:109|320:109|211:174|103:131,1,224.999992847443
388,30,26009,1,0,0:0:0:0:
437,331,26165,2,0,P|349:236|426:154,1,224.999992847443
437,242,26475,2,0,P|306:238|167:304,1,224.999992847443
135,323,26786,5,0,0:0:0:0:
54,52,26941,1,0,0:0:0:0:
330,118,27096,1,0,0:0:0:0:
32,351,27252,6,0,B|18:247|123:216|123:216|292:268,1,299.999990463257
441,151,27718,2,0,B|455:255|350:286|350:286|181:234,1,299.999990463257
47,68,28183,1,0,0:0:0:0:
339,171,28339,1,0,0:0:0:0:
47,68,28494,1,0,0:0:0:0:
339,171,28650,1,0,0:0:0:0:
52,344,28805,1,0,0:0:0:0:
155,52,28961,1,0,0:0:0:0:
188,370,29115,6,0,L|273:362,1,74.9999976158143
253,61,29270,2,0,L|338:69,1,74.9999976158143
357,348,29426,2,0,L|442:340,1,74.9999976158143
505,86,29581,6,0,B|432:80|432:80|426:140|374:168|374:168|238:155,1,299.999990463257
67,240,30047,2,0,L|11:232,1,56.2500003576279
259,265,30202,2,0,L|314:271,1,56.2500003576279
67,141,30357,6,0,P|79:51|193:88,1,224.999992847443
177,184,30668,2,0,P|173:318|243:371,1,224.999992847443
398,180,30979,1,0,0:0:0:0:
259,265,31134,1,0,0:0:0:0:
482,269,31289,2,0,B|507:217|507:217|490:63,1,149.999995231629
257,43,31600,6,0,B|206:42|206:42|241:77,1,74.9999976158143
363,195,31755,2,0,B|414:196|414:196|379:161,1,74.9999976158143
142,154,31910,2,0,B|91:153|91:153|126:188,1,74.9999976158143
296,333,32066,2,0,B|420:336|420:336|517:319|535:236|492:160,1,299.999990463257
396,87,32532,2,0,L|421:252,1,149.999995231629
170,232,32842,6,0,B|199:79|199:79|230:152,1,224.999992847443
315,198,33153,2,0,B|162:169|162:169|235:138,1,224.999992847443
396,87,33463,1,0,0:0:0:0:
353,317,33619,1,0,0:0:0:0:
500,51,33774,1,0,0:0:0:0:
457,281,33930,1,0,0:0:0:0:
137,140,34084,6,0,L|212:149,1,74.9999976158143
501,186,34240,2,0,L|389:173,1,74.9999976158143
0,225,34395,2,0,L|74:234,1,74.9999976158143
363,271,34551,2,0,B|233:258|233:258|241:372|241:372|341:349,1,299.999990463257
361,165,35016,2,0,L|176:144,1,149.999995231629
61,24,35327,6,0,P|-8:91|74:143,1,224.999992847443
170,71,35637,2,0,B|195:124|195:124|152:301,1,224.999992847443
310,167,35948,2,0,B|321:112|321:112|274:16,1,149.999995231629
415,167,36259,1,0,0:0:0:0:
291,322,36414,1,0,0:0:0:0:
474,76,36569,6,0,P|520:159|434:273,1,224.999992847443
291,322,36880,2,0,L|108:326,1,149.999995231629
265,171,37190,2,0,L|414:167,1,149.999995231629
186,89,37501,2,0,P|160:209|202:268,1,149.999995231629
490,84,37811,5,0,0:0:0:0:
425,343,37967,1,0,0:0:0:0:
364,48,38122,1,0,0:0:0:0:
299,307,38278,1,0,0:0:0:0:
243,13,38433,1,0,0:0:0:0:
178,272,38589,1,0,0:0:0:0:
400,191,38743,1,0,0:0:0:0:
94,106,38899,1,0,0:0:0:0:
404,89,39054,6,0,P|437:96|498:152,1,74.9999976158143
487,245,39209,2,0,P|464:270|385:294,1,74.9999976158143
311,242,39364,2,0,P|300:209|318:129,1,74.9999976158143
400,191,39520,1,0,0:0:0:0:
400,191,39830,5,0,0:0:0:0:
400,191,39986,2,0,L|310:219,1,74.9999976158143
220,60,40141,2,0,L|148:82,1,74.9999976158143
140,273,40296,6,0,B|-5:318|-5:318|67:240,1,224.999992847443
224,212,40607,2,0,B|248:241|252:284|236:334|236:334|373:293,1,224.999992847443
308,150,40917,2,0,P|189:113|138:149,1,149.999995231629
288,347,41228,2,0,L|443:301,1,149.999995231629
416,105,41538,6,0,P|377:64|339:37,1,74.9999976158143
271,14,41694,2,0,P|214:12|168:20,1,74.9999976158143
104,49,41849,2,0,P|63:87|35:125,1,74.9999976158143
13,306,42004,2,0,B|69:332|151:304|170:228|170:228|105:181|36:229,1,299.999990463257
257,269,42470,2,0,P|254:184|195:137,1,149.999995231629
354,334,42781,6,0,L|351:148,1,149.999995231629
447,268,43091,2,0,P|445:195|495:142,1,149.999995231629
209,142,43402,1,0,0:0:0:0:
495,141,43557,1,0,0:0:0:0:
240,39,43713,1,0,0:0:0:0:
454,38,43868,1,0,0:0:0:0:
247,236,44023,6,0,P|182:242|128:207,1,74.9999976158143
209,142,44178,2,0,P|236:82|293:53,1,74.9999976158143
306,157,44334,2,0,P|343:210|340:274,1,74.9999976158143
461,226,44489,6,0,B|453:315|365:334|365:334|177:332,1,299.999990463257
242,76,44955,1,0,0:0:0:0:
345,218,45110,1,0,0:0:0:0:
106,246,45265,6,0,P|26:184|133:150,1,224.999992847443
212,226,45576,2,0,P|171:329|15:322,1,224.999992847443
106,246,45887,2,0,L|296:210,1,149.999995231629
43,147,46197,2,0,L|233:111,1,149.999995231629
353,294,46508,6,0,B|360:178|360:178|309:124|309:124|312:-16,1,299.999990463257
432,70,46974,1,0,0:0:0:0:
253,218,47129,1,0,0:0:0:0:
74,70,47284,1,0,0:0:0:0:
254,322,47440,1,0,0:0:0:0:
433,174,47595,1,0,0:0:0:0:
46,233,47750,6,0,B|-59:239|-54:373|49:403|108:339|332:240|215:96|215:96|74:163|231:360|231:360|321:302|340:258,1,974.999969005585
369,194,48837,6,0,B|383:114|334:23|334:23|416:129|505:121|505:121|451:189|459:328,1,599.999980926514
78,155,49614,2,0,L|8:129,1,74.9999976158143
239,263,49769,2,0,L|309:289,1,74.9999976158143
215,128,49924,2,0,L|241:58,1,74.9999976158143
107,289,50079,2,0,L|81:359,1,74.9999976158143
321,135,50235,6,0,P|228:26|113:110,1,299.999990463257
199,270,50701,1,0,0:0:0:0:
199,270,50856,2,0,B|267:279|305:238|305:238|363:252|363:252|426:200|517:240,1,299.999990463257
446,345,51322,1,0,0:0:0:0:
446,345,51477,6,0,B|466:130|466:130|335:62|335:62|350:182,1,449.999985694885
260,337,52098,2,0,L|239:171,1,149.999995231629
106,112,52409,2,0,L|85:278,1,149.999995231629
29,41,52719,6,0,B|90:-24|203:11|212:102|212:102|335:74,1,299.999990463257
465,50,53185,1,0,0:0:0:0:
465,50,53341,2,0,B|461:108|433:140|433:140|461:192|461:192|437:239|437:239|457:292|427:347,1,299.999990463257
204,271,53807,1,0,0:0:0:0:
204,271,53962,2,0,P|111:302|213:163,1,449.999985694885
315,348,54583,2,0,L|315:183,1,149.999995231629
465,120,54894,2,0,L|464:269,1,149.999995231629
132,210,55204,6,0,B|122:37|122:37|147:121|228:128,1,299.999990463257
393,43,55670,1,0,0:0:0:0:
393,43,55825,2,0,B|230:29|230:29|282:45|308:87|306:156,1,299.999990463257
256,326,56291,1,0,0:0:0:0:
256,326,56446,2,0,B|142:388|70:204|190:160|190:160|229:261|350:242,1,449.999985694885
454,116,57068,2,0,L|292:132,1,149.999995231629
468,265,57378,2,0,L|453:115,1,149.999995231629
253,75,57689,6,0,B|273:262|273:262|299:317|354:328|354:328|143:344,1,449.999985694885
143,152,58310,1,0,0:0:0:0:
366,224,58465,1,0,0:0:0:0:
69,324,58621,1,0,0:0:0:0:
104,46,58776,1,0,0:0:0:0:
443,145,58931,6,0,P|467:180|475:221,1,74.9999976158143
293,302,59086,2,0,P|269:267|261:226,1,74.9999976158143
461,73,59242,6,0,P|456:115|436:151,1,74.9999976158143
158,249,59397,2,0,P|162:206|182:170,1,74.9999976158143
512,286,59552,6,0,P|477:310|436:318,1,74.9999976158143
103,101,59707,2,0,P|138:77|179:69,1,74.9999976158143
496,212,59863,6,0,L|511:285,1,74.9999976158143
43,280,60018,2,0,L|58:206,1,74.9999976158143
444,28,60173,5,0,0:0:0:0:
444,28,60795,6,0,L|420:213,3,149.999995231629
335,83,61416,6,0,B|274:81|274:81|229:67|229:67|178:79|178:79|61:75,1,194.999984874726
118,255,61726,2,0,P|190:269|186:140,1,194.999984874726
71,336,62037,2,0,P|190:367|283:318,1,194.999984874726
214,164,62348,2,0,P|171:144|99:188,1,97.4999924373631
118,255,62503,2,0,P|161:275|233:231,1,97.4999924373631
423,67,62658,6,0,P|331:115|349:218,1,194.999984874726
412,351,62969,2,0,B|435:237|435:237|412:135,1,194.999984874726
223,148,63279,2,0,L|489:164,1,194.999984874726
335,248,63590,2,0,L|237:242,1,97.4999924373631
325,61,63745,2,0,L|423:67,1,97.4999924373631
170,314,63900,6,0,P|141:211|211:146,1,194.999984874726
417,248,64211,2,0,B|323:283|323:283|213:231,1,194.999984874726
432,53,64522,2,0,L|416:253,1,194.999984874726
224,120,64832,2,0,L|375:115,1,97.4999924373631
237,242,64987,2,0,L|139:245,1,97.4999924373631
432,53,65143,6,0,B|491:133|491:133|390:226,1,194.999984874726
237,242,65453,2,0,P|336:258|413:322,1,194.999984874726
165,333,65764,2,0,P|120:212|171:132,1,194.999984874726
279,26,66075,2,0,L|278:134,1,97.4999924373631
408,315,66230,2,0,L|407:207,1,97.4999924373631
160,58,66385,6,0,B|-4:118|46:305|181:328|220:168|116:140,1,337.500002145767
40,285,66696,2,0,L|482:322,1,337.500002145767
501,323,67006,5,0,0:0:0:0:
298,69,67162,1,0,0:0:0:0:
40,285,67317,1,0,0:0:0:0:
376,313,67473,1,0,0:0:0:0:
0,123,67627,6,0,B|33:33|33:33|120:77,1,194.999984874726
232,187,67938,2,0,B|194:277|194:277|107:233,1,194.999984874726
251,80,68249,2,0,P|338:154|326:250,1,194.999984874726
250,79,68559,2,0,L|445:72,1,194.999984874726
386,337,68870,5,0,0:0:0:0:
445,72,69025,1,0,0:0:0:0:
255,342,69180,1,0,0:0:0:0:
314,77,69335,1,0,0:0:0:0:
131,349,69491,1,0,0:0:0:0:
190,84,69646,1,0,0:0:0:0:
0,354,69801,1,0,0:0:0:0:
59,89,69956,1,0,0:0:0:0:
431,200,70112,5,0,0:0:0:0:
79,221,70267,1,0,0:0:0:0:
431,200,70423,1,0,0:0:0:0:
79,221,70578,1,0,0:0:0:0:
397,100,70733,6,0,P|436:95|506:124,1,97.4999924373631
113,321,70889,2,0,P|64:325|19:308,1,97.4999924373631
394,300,71044,2,0,P|433:305|503:276,1,97.4999924373631
113,123,71200,2,0,P|64:118|19:135,1,97.4999924373631
189,207,71354,6,0,P|268:260|324:182,1,194.999984874726
254,66,71665,2,0,L|254:283,1,194.999984874726
351,65,71976,2,0,L|130:63,1,194.999984874726
342,162,72286,2,0,L|353:34,1,97.4999924373631
155,62,72441,2,0,L|164:160,1,97.4999924373631
301,275,72597,6,0,B|373:288|373:288|418:266|418:266|515:286,1,194.999984874726
227,175,72907,2,0,B|179:230|179:230|176:280|176:280|110:354,1,194.999984874726
342,164,73218,2,0,B|317:95|317:95|275:67|275:67|244:-26,1,194.999984874726
426,68,73529,2,0,L|457:160,1,97.4999924373631
258,267,73684,2,0,L|226:174,1,97.4999924373631
353,292,73839,6,0,P|265:365|174:314,1,194.999984874726
102,216,74150,2,0,P|193:198|257:266,1,194.999984874726
164,288,74460,2,0,L|151:94,1,194.999984874726
317,32,74771,2,0,L|308:159,1,97.4999924373631
303,241,74926,2,0,L|294:368,1,97.4999924373631
206,210,75081,6,0,P|304:142|390:191,1,194.999984874726
223,307,75392,2,0,P|204:214|268:146,1,194.999984874726
367,323,75703,2,0,P|274:341|206:277,1,194.999984874726
415,242,76013,6,0,L|541:244,1,97.4999924373631
303,241,76168,2,0,L|205:239,1,97.4999924373631
401,132,76324,6,0,B|474:85|474:85|388:30|388:30|216:134,1,337.500002145767
205,239,76634,2,0,B|77:315|77:315|-8:260|-8:260|64:213,1,337.500002145767
401,132,76945,1,0,0:0:0:0:
295,352,77100,1,0,0:0:0:0:
128,111,77256,1,0,0:0:0:0:
425,278,77411,1,0,0:0:0:0:
213,56,77566,6,0,P|156:15|35:67,1,194.999984874726
115,284,77877,2,0,B|163:220|163:220|115:70,1,194.999984874726
252,256,78187,2,0,B|171:369|171:369|31:403,1,194.999984874726
241,152,78498,1,0,0:0:0:0:
375,309,78653,1,0,0:0:0:0:
63,115,78808,5,0,0:0:0:0:
439,153,78964,1,0,0:0:0:0:
111,343,79119,1,0,0:0:0:0:
266,0,79274,1,0,0:0:0:0:
344,367,79429,1,0,0:0:0:0:
63,115,79585,5,0,0:0:0:0:
439,153,79741,1,0,0:0:0:0:
111,343,79896,1,0,0:0:0:0:
266,0,80051,5,0,0:0:0:0:
344,367,80361,5,0,0:0:0:0:
63,115,80672,5,0,0:0:0:0:
63,115,81293,6,0,B|150:57|270:145|238:253|238:253|180:210|94:221|94:221|178:117|244:76|302:82|302:82|346:145|350:227,1,824.999973773957
345,318,83157,6,0,P|393:314|442:273,1,89.9999943923952
512,271,83312,2,0,P|464:267|415:226,1,89.9999943923952
301,83,83467,5,0,0:0:0:0:
