osu file format v14

[General]
AudioFilename: audio.mp3
AudioLeadIn: 0
PreviewTime: -1
Countdown: 1
SampleSet: None
StackLeniency: 0.5
Mode: 0
LetterboxInBreaks: 0
WidescreenStoryboard: 1

[Editor]
Bookmarks: 185028
DistanceSpacing: 0.9
BeatDivisor: 4
GridSize: 4
TimelineZoom: 3.499999

[Metadata]
Title:Ikenai Borderline (Speed Up Ver.)
TitleUnicode:いけないボーダーライン (Speed Up Ver.)
Artist:WALKURE
ArtistUnicode:ワルキューレ
Creator:ChronoNig
Version:Love, my friends, defeats all.
Source:マクロスΔ
Tags:I love Flezlin and Aoiyuuki MACROSS DELTA Scramble WALKÜRE Valkyrie マクロスΔスクランブル Idol Group 美雲・ギンヌメール Mikumo Guynemer カナメ・バッカニア Kaname Buccaneer マキナ・中島 Makina Nakajima レイナ・プラウラー Reina Prowler フレイア・ヴィオン Freyja Wion TV Series
BeatmapID:1125866
BeatmapSetID:525461

[Difficulty]
HPDrainRate:3.5
CircleSize:4
OverallDifficulty:8.5
ApproachRate:9.5
SliderMultiplier:2.5
SliderTickRate:1

[Events]
//Background and Video events
0,0,"31335ccb-a9f1-4400-935e-4d3774fa89b0.png",0,0
//Break Periods
//Storyboard Layer 0 (Background)
//Storyboard Layer 1 (Fail)
//Storyboard Layer 2 (Pass)
//Storyboard Layer 3 (Foreground)
//Storyboard Sound Samples

[TimingPoints]
542,310.583119807438,4,3,0,51,1,0
29892,-133.333333333333,4,3,0,51,0,0
30357,-111.111111111111,4,3,0,51,0,0
58155,-100,4,3,0,51,0,0
58465,-90.9090909090909,4,3,0,51,0,0
60795,-76.9230769230769,4,3,0,51,0,0
80983,-166.666666666667,4,3,0,51,0,0
83312,-100,4,3,0,51,0,0
93406,-133.333333333333,4,3,0,51,0,0
123843,-74.0740740740741,4,3,0,51,0,0
144341,-100,4,3,0,51,0,0
159249,-83.3333333333333,4,3,0,51,0,0
162976,-76.9230769230769,4,3,0,51,0,0
182233,-66.6666666666667,4,3,0,51,0,0
183786,-74.0740740740741,4,3,0,51,0,0
184407,-66.6666666666667,4,3,0,51,0,0
214844,-62.5,4,3,0,51,0,0

[HitObjects]
256,192,8228,12,0,9859,0:0:0:0:
68,68,10014,6,0,P|88:64|180:76,1,62.5
196,188,10170,2,0,P|192:220|200:284,1,62.5
376,332,10325,2,0,P|386:292|384:251,1,62.5
444,156,10480,6,0,P|382:149|322:165,1,125
144,336,10791,2,0,P|144:252|136:160,1,125
132,160,11024,1,0,0:0:0:0:
120,112,11101,1,0,0:0:0:0:
260,240,11257,1,0,0:0:0:0:
340,44,11412,2,0,P|432:40|488:48,1,125
380,320,11722,6,0,L|372:172,1,125
124,32,12033,2,0,P|84:80|100:156,1,125
120,184,12266,1,0,0:0:0:0:
168,212,12344,1,0,0:0:0:0:
332,72,12499,1,0,0:0:0:0:
232,288,12654,2,0,P|276:276|336:272,1,62.5
368,208,12810,2,0,P|420:204|472:216,1,62.5
452,48,12965,6,0,L|452:136,1,62.5
408,344,13120,2,0,L|404:276,1,62.5
344,24,13275,6,0,L|344:112,1,62.5
300,320,13430,2,0,L|296:252,1,62.5
224,24,13586,5,0,0:0:0:0:
156,20,13664,1,0,0:0:0:0:
92,48,13741,1,0,0:0:0:0:
52,104,13819,1,0,0:0:0:0:
56,172,13897,1,0,0:0:0:0:
364,184,14052,1,0,0:0:0:0:
168,112,14207,5,0,0:0:0:0:
312,324,14362,1,0,0:0:0:0:
392,52,14518,2,0,B|376:88|424:124|424:124|432:168|384:192|408:248,1,187.5
420,240,14828,5,0,0:0:0:0:
364,228,14906,1,0,0:0:0:0:
308,240,14984,1,0,0:0:0:0:
272,280,15061,1,0,0:0:0:0:
200,256,15139,5,0,0:0:0:0:
168,188,15217,1,0,0:0:0:0:
184,116,15294,1,0,0:0:0:0:
248,76,15372,1,0,0:0:0:0:
324,84,15449,6,0,P|376:76|452:32,1,125
72,40,15760,2,0,B|56:100|56:100|64:192,1,125
352,212,16071,1,0,0:0:0:0:
152,112,16226,1,0,0:0:0:0:
216,336,16381,1,0,0:0:0:0:
288,40,16537,1,0,0:0:0:0:
104,208,16692,5,0,0:0:0:0:
392,116,16847,1,0,0:0:0:0:
112,96,17002,1,0,0:0:0:0:
344,48,17158,1,0,0:0:0:0:
260,316,17313,1,0,0:0:0:0:
200,24,17468,1,0,0:0:0:0:
388,240,17624,2,0,L|384:164,1,62.5
416,104,17779,6,0,P|432:180|340:200,1,187.5
300,176,18089,1,0,0:0:0:0:
252,172,18167,1,0,0:0:0:0:
204,180,18245,6,0,P|164:196|120:232,1,62.5
128,332,18400,2,0,P|168:316|212:280,1,62.5
132,124,18555,6,0,P|97:149|64:195,1,62.5
105,314,18710,2,0,P|139:288|172:242,1,62.5
56,72,18866,6,0,P|29:105|9:159,1,62.5
88,296,19021,2,0,P|114:262|134:208,1,62.5
128,88,19176,5,0,0:0:0:0:
360,244,19332,1,0,0:0:0:0:
144,176,19487,5,0,0:0:0:0:
432,104,19642,1,0,0:0:0:0:
224,228,19798,1,0,0:0:0:0:
280,40,19953,6,0,P|272:76|284:136,1,62.5
388,272,20108,2,0,P|360:247|302:227,1,62.5
133,249,20264,2,0,P|168:237|214:197,1,62.5
200,40,20419,6,0,P|188:116|280:196,1,187.5
304,140,20729,2,0,B|300:200|300:200|252:292,1,125
112,144,21040,1,0,0:0:0:0:
204,328,21195,1,0,0:0:0:0:
456,224,21351,1,0,0:0:0:0:
296,264,21506,1,0,0:0:0:0:
372,44,21661,6,0,P|380:160|376:200,1,125
88,308,21972,2,0,P|136:264|216:244,1,125
244,244,22205,1,0,0:0:0:0:
292,252,22282,1,0,0:0:0:0:
472,96,22438,1,0,0:0:0:0:
408,324,22593,1,0,0:0:0:0:
280,56,22748,1,0,0:0:0:0:
388,292,22903,6,0,P|352:288|308:304,1,62.5
232,228,23059,2,0,P|188:220|140:240,1,62.5
408,276,23214,6,0,P|378:254|332:246,1,62.5
288,128,23370,2,0,P|253:99|202:92,1,62.5
436,256,23525,6,0,P|413:227|370:207,1,62.5
376,64,23681,2,0,P|350:27|302:7,1,62.5
112,100,23835,2,0,P|156:92|196:104,1,62.5
176,316,23991,6,0,P|104:300|192:184,1,250
456,232,24456,6,0,B|404:260|404:260|344:236|344:236|287:259|287:259|212:232,1,250
404,76,24922,6,0,L|404:168,1,62.5
152,132,25078,2,0,L|152:220,1,62.5
344,236,25233,2,0,L|344:348,1,62.5
96,332,25388,6,0,B|24:336|24:336|168:300,1,187.5
152,228,25699,2,0,P|212:212|272:280,1,125
456,328,26009,5,0,0:0:0:0:
200,316,26165,1,0,0:0:0:0:
392,172,26320,1,0,0:0:0:0:
320,344,26475,1,0,0:0:0:0:
296,104,26630,5,0,0:0:0:0:
412,264,26786,2,0,P|480:252|480:212,1,62.5
244,192,26941,2,0,P|215:181|186:193,1,62.5
416,88,27096,1,0,0:0:0:0:
192,308,27252,5,0,0:0:0:0:
448,176,27407,1,0,0:0:0:0:
128,168,27562,5,0,0:0:0:0:
436,92,27718,2,0,P|512:120|528:204,2,125
372,100,28106,1,0,0:0:0:0:
336,152,28183,1,0,0:0:0:0:
424,288,28339,1,0,0:0:0:0:
280,40,28494,1,0,0:0:0:0:
224,324,28649,1,0,0:0:0:0:
80,64,28805,1,0,0:0:0:0:
416,156,28960,1,0,0:0:0:0:
160,244,29115,6,8,P|111:201|75:125,1,125
338,61,29426,6,0,P|386:103|422:179,1,125
112,100,29892,6,0,L|100:164,1,46.8750017881394
128,168,30047,6,0,L|116:232,1,46.8750017881394
144,236,30202,6,0,L|132:300,1,46.8750017881394
160,304,30357,6,0,B|220:320|252:312|292:300,1,112.499996566773
368,108,30668,1,0,0:0:0:0:
396,268,30823,1,0,0:0:0:0:
440,280,30901,1,0,0:0:0:0:
484,272,30979,1,0,0:0:0:0:
464,76,31134,1,0,0:0:0:0:
280,188,31289,1,0,0:0:0:0:
428,164,31445,1,0,0:0:0:0:
176,68,31600,6,0,P|160:136|172:216,1,112.499996566773
148,224,31833,2,0,L|92:208,1,56.2499982833863
224,316,32066,2,0,P|276:288|344:292,1,112.499996566773
440,172,32376,1,0,0:0:0:0:
244,76,32532,1,0,0:0:0:0:
348,300,32687,1,0,0:0:0:0:
176,124,32842,6,0,P|164:60|200:4,1,112.499996566773
408,112,33153,2,0,P|408:192|408:256,1,112.499996566773
368,288,33386,1,0,0:0:0:0:
368,288,33463,1,0,0:0:0:0:
72,200,33619,1,0,0:0:0:0:
196,320,33774,1,0,0:0:0:0:
244,48,33929,1,0,0:0:0:0:
264,264,34084,6,0,P|208:240|136:252,1,112.499996566773
64,312,34317,2,0,L|64:240,1,56.2499982833863
164,44,34550,2,0,P|196:108|320:84,1,168.749994850159
328,96,34861,1,0,0:0:0:0:
372,100,34939,1,0,0:0:0:0:
408,124,35016,1,0,0:0:0:0:
428,164,35094,1,0,0:0:0:0:
428,208,35172,1,0,0:0:0:0:
400,244,35249,1,0,0:0:0:0:
356,256,35327,6,0,P|288:256|240:284,1,112.499996566773
40,144,35637,2,0,P|44:228|40:292,1,112.499996566773
24,332,35870,1,0,0:0:0:0:
24,332,35948,1,0,0:0:0:0:
160,192,36103,1,0,0:0:0:0:
60,232,36259,1,0,0:0:0:0:
244,328,36414,1,0,0:0:0:0:
92,140,36569,6,0,P|100:92|160:40,1,112.499996566773
360,128,36880,1,0,0:0:0:0:
168,76,37035,1,0,0:0:0:0:
420,20,37190,5,0,0:0:0:0:
260,216,37346,1,0,0:0:0:0:
328,16,37501,5,0,0:0:0:0:
424,296,37656,1,0,0:0:0:0:
112,192,37811,2,0,P|164:160|220:148,1,112.499996566773
340,348,38122,2,0,P|292:344|228:268,1,112.499996566773
324,84,38433,1,0,0:0:0:0:
324,256,38588,1,0,0:0:0:0:
432,64,38743,1,0,0:0:0:0:
244,168,38899,1,0,0:0:0:0:
448,264,39054,5,0,0:0:0:0:
220,44,39209,1,0,0:0:0:0:
312,340,39364,5,0,0:0:0:0:
344,16,39520,1,0,0:0:0:0:
96,156,39675,5,0,0:0:0:0:
148,176,39753,1,0,0:0:0:0:
204,172,39830,1,0,0:0:0:0:
252,144,39908,1,0,0:0:0:0:
308,148,39986,1,0,0:0:0:0:
352,184,40063,1,0,0:0:0:0:
360,240,40141,1,0,0:0:0:0:
332,288,40218,1,0,0:0:0:0:
264,288,40296,6,0,P|204:280|144:280,1,112.499996566773
16,56,40607,2,0,P|48:108|116:104,1,112.499996566773
168,84,40840,1,0,0:0:0:0:
168,84,40917,1,0,0:0:0:0:
252,204,41073,2,0,P|256:248|256:288,1,56.2499982833863
352,352,41228,2,0,P|360:320|384:288,1,56.2499982833863
476,212,41383,2,0,P|440:192|400:184,1,56.2499982833863
268,68,41538,5,0,0:0:0:0:
464,300,41694,1,0,0:0:0:0:
464,300,41771,1,0,0:0:0:0:
464,300,41849,1,0,0:0:0:0:
192,176,42004,1,0,0:0:0:0:
424,84,42160,5,0,0:0:0:0:
416,152,42237,1,0,0:0:0:0:
408,220,42315,1,0,0:0:0:0:
400,288,42393,1,0,0:0:0:0:
396,316,42470,5,0,0:0:0:0:
380,308,42548,1,0,0:0:0:0:
364,300,42626,1,0,0:0:0:0:
348,292,42703,1,0,0:0:0:0:
280,300,42781,6,0,P|224:292|144:320,1,112.499996566773
296,92,43091,2,0,P|324:132|384:168,1,112.499996566773
440,120,43324,1,0,0:0:0:0:
440,120,43402,1,0,0:0:0:0:
420,276,43557,2,0,P|368:264|320:260,1,56.2499982833863
200,340,43713,2,0,P|240:308|248:268,1,56.2499982833863
96,188,43868,2,0,P|80:204|84:264,1,56.2499982833863
208,128,44023,6,0,B|96:144|96:144|24:96,1,168.749994850159
120,44,44334,2,0,P|116:124|148:184,1,112.499996566773
344,56,44644,5,0,0:0:0:0:
208,276,44800,1,0,0:0:0:0:
208,276,44877,1,0,0:0:0:0:
208,276,44955,1,0,0:0:0:0:
252,232,45033,1,0,0:0:0:0:
316,216,45110,1,0,0:0:0:0:
384,228,45188,1,0,0:0:0:0:
440,264,45265,6,0,P|448:196|440:132,1,112.499996566773
144,40,45576,2,0,L|140:148,1,56.2499982833863
48,288,45731,2,0,L|52:212,1,56.2499982833863
256,180,45887,1,0,0:0:0:0:
256,180,45964,1,0,0:0:0:0:
224,212,46042,1,0,0:0:0:0:
224,212,46120,1,0,0:0:0:0:
172,232,46197,2,0,L|136:180,1,56.2499982833863
340,32,46353,2,0,L|376:84,1,56.2499982833863
456,248,46508,5,0,0:0:0:0:
428,304,46585,1,0,0:0:0:0:
372,328,46663,2,0,L|288:336,1,56.2499982833863
88,284,46818,1,0,0:0:0:0:
60,228,46896,1,0,0:0:0:0:
64,164,46974,2,0,P|68:124|76:92,1,56.2499982833863
336,188,47129,6,0,L|304:252,1,56.2499982833863
148,52,47284,2,0,L|248:32,1,56.2499982833863
176,312,47440,6,0,L|120:256,1,56.2499982833863
416,60,47595,2,0,L|424:144,1,56.2499982833863
88,152,47750,6,0,P|156:144|236:292,1,224.999993133545
420,312,48216,1,0,0:0:0:0:
140,232,48371,1,0,0:0:0:0:
348,156,48527,1,0,0:0:0:0:
280,340,48682,1,0,0:0:0:0:
236,56,48837,1,0,0:0:0:0:
416,92,48992,5,0,0:0:0:0:
128,248,49148,1,0,0:0:0:0:
448,184,49303,5,0,0:0:0:0:
88,88,49458,1,0,0:0:0:0:
424,296,49614,5,0,0:0:0:0:
368,16,49769,1,0,0:0:0:0:
168,320,49924,5,0,0:0:0:0:
472,100,50080,1,0,0:0:0:0:
52,72,50235,5,0,0:0:0:0:
400,300,50390,2,0,L|404:184,1,112.499996566773
316,44,50701,1,0,0:0:0:0:
464,100,50856,5,0,0:0:0:0:
80,228,51011,2,0,P|152:208|212:224,1,112.499996566773
316,264,51322,1,0,0:0:0:0:
236,44,51477,5,0,0:0:0:0:
452,352,51632,2,0,P|448:280|460:216,1,112.499996566773
480,100,51943,1,0,0:0:0:0:
140,164,52098,5,0,0:0:0:0:
424,152,52254,1,0,0:0:0:0:
140,164,52409,1,0,0:0:0:0:
424,152,52564,1,0,0:0:0:0:
52,328,52719,6,0,L|36:184,1,112.499996566773
460,56,53030,2,0,L|476:200,1,112.499996566773
96,20,53341,6,0,P|100:80|64:156,1,112.499996566773
416,364,53651,2,0,P|412:304|448:228,1,112.499996566773
164,64,53962,5,0,0:0:0:0:
320,316,54117,1,0,0:0:0:0:
340,20,54272,5,0,0:0:0:0:
92,148,54428,1,0,0:0:0:0:
424,132,54583,1,0,0:0:0:0:
68,280,54738,1,0,0:0:0:0:
168,40,54894,2,0,L|208:128,1,56.2499982833863
236,344,55049,2,0,L|252:256,1,56.2499982833863
368,64,55204,5,0,0:0:0:0:
16,128,55359,2,0,L|148:128,1,112.499996566773
252,124,55670,1,0,0:0:0:0:
448,188,55825,5,0,0:0:0:0:
0,212,55981,2,0,P|76:212|148:236,1,112.499996566773
328,280,56291,2,0,L|320:200,1,56.2499982833863
232,40,56446,5,0,0:0:0:0:
120,328,56602,1,0,0:0:0:0:
232,40,56757,1,0,0:0:0:0:
120,328,56912,1,0,0:0:0:0:
72,84,57068,5,0,0:0:0:0:
400,156,57223,1,0,0:0:0:0:
72,84,57378,1,0,0:0:0:0:
400,156,57534,1,0,0:0:0:0:
16,224,57689,5,0,0:0:0:0:
320,64,57844,1,0,0:0:0:0:
324,128,57922,1,0,0:0:0:0:
328,188,57999,1,0,0:0:0:0:
96,336,58155,6,0,P|116:284|136:268,1,62.5
192,240,58310,1,0,0:0:0:0:
452,144,58465,2,0,L|384:128,1,68.7500020980836
284,104,58621,1,0,0:0:0:0:
408,344,58776,6,0,L|412:276,1,68.7500020980836
440,220,58931,5,0,0:0:0:0:
440,156,59009,1,0,0:0:0:0:
408,104,59086,1,0,0:0:0:0:
352,76,59164,1,0,0:0:0:0:
288,72,59242,2,0,L|220:112,1,68.7500020980836
52,160,59397,2,0,L|124:176,1,68.7500020980836
344,240,59552,5,0,0:0:0:0:
284,296,59630,1,0,0:0:0:0:
200,304,59708,1,0,0:0:0:0:
124,272,59785,1,0,0:0:0:0:
96,196,59863,1,0,0:0:0:0:
116,116,59941,1,0,0:0:0:0:
184,72,60018,1,0,0:0:0:0:
268,68,60096,1,0,0:0:0:0:
332,120,60173,5,0,0:0:0:0:
332,120,60484,5,0,0:0:0:0:
252,312,60795,6,0,P|196:324|156:316,1,81.2499962806703
112,164,60950,2,0,P|168:152|208:160,1,81.2499962806703
204,332,61105,6,0,P|148:344|108:336,1,81.2499962806703
64,184,61260,2,0,P|120:172|160:180,1,81.2499962806703
360,292,61416,6,0,P|376:228|368:104,1,162.499992561341
116,40,61726,1,0,0:0:0:0:
48,268,61882,1,0,0:0:0:0:
112,304,61959,1,0,0:0:0:0:
184,312,62037,2,0,P|252:296|360:308,1,162.499992561341
456,104,62348,2,0,L|472:188,1,81.2499962806703
332,176,62503,2,0,L|328:264,1,81.2499962806703
80,128,62658,6,0,L|192:104,1,81.2499962806703
244,212,62813,2,0,L|132:240,1,81.2499962806703
24,196,62969,2,0,P|-8:120|64:48,1,162.499992561341
260,48,63279,1,0,0:0:0:0:
252,120,63357,1,0,0:0:0:0:
300,176,63435,1,0,0:0:0:0:
372,192,63512,1,0,0:0:0:0:
348,152,63590,5,0,0:0:0:0:
320,228,63668,1,0,0:0:0:0:
376,288,63745,1,0,0:0:0:0:
456,276,63823,1,0,0:0:0:0:
484,200,63900,6,0,P|504:288|480:368,1,162.499992561341
104,248,64211,1,0,0:0:0:0:
332,60,64366,1,0,0:0:0:0:
404,80,64444,1,0,0:0:0:0:
460,128,64522,1,0,0:0:0:0:
296,328,64677,1,0,0:0:0:0:
208,28,64832,1,0,0:0:0:0:
40,224,64987,1,0,0:0:0:0:
400,92,65143,5,0,0:0:0:0:
68,76,65298,1,0,0:0:0:0:
440,204,65453,1,0,0:0:0:0:
100,312,65609,1,0,0:0:0:0:
192,32,65764,5,0,0:0:0:0:
352,324,65919,1,0,0:0:0:0:
332,28,66075,1,0,0:0:0:0:
76,200,66230,1,0,0:0:0:0:
148,236,66307,1,0,0:0:0:0:
228,220,66385,1,0,0:0:0:0:
444,92,66540,6,0,P|396:80|332:84,1,81.2499962806703
112,320,66696,6,0,P|164:324|312:280,1,162.499992561341
280,40,67006,5,0,0:0:0:0:
392,280,67162,1,0,0:0:0:0:
84,92,67317,5,0,0:0:0:0:
448,136,67472,1,0,0:0:0:0:
72,328,67627,6,0,P|48:248|60:160,1,162.499992561341
352,40,67938,1,0,0:0:0:0:
440,292,68093,1,0,0:0:0:0:
148,168,68249,2,0,P|112:104|-4:88,1,162.499992561341
160,328,68559,6,0,L|248:324,1,81.2499962806703
324,228,68714,2,0,L|416:216,1,81.2499962806703
440,104,68870,5,0,0:0:0:0:
440,104,68947,1,0,0:0:0:0:
440,104,69025,1,0,0:0:0:0:
440,104,69103,1,0,0:0:0:0:
396,56,69180,5,0,0:0:0:0:
332,48,69258,1,0,0:0:0:0:
268,64,69336,1,0,0:0:0:0:
224,112,69413,1,0,0:0:0:0:
220,176,69491,5,0,0:0:0:0:
164,224,69569,1,0,0:0:0:0:
92,208,69646,1,0,0:0:0:0:
68,140,69724,1,0,0:0:0:0:
100,72,69802,2,0,P|152:64|204:72,1,81.2499962806703
412,168,69957,2,0,P|380:168|308:160,1,81.2499962806703
432,24,70112,5,0,0:0:0:0:
440,96,70190,1,0,0:0:0:0:
452,168,70267,1,0,0:0:0:0:
464,240,70345,1,0,0:0:0:0:
412,220,70423,5,0,0:0:0:0:
368,232,70500,1,0,0:0:0:0:
344,260,70578,1,0,0:0:0:0:
336,288,70656,1,0,0:0:0:0:
336,312,70733,5,0,0:0:0:0:
268,288,70811,1,0,0:0:0:0:
196,280,70889,1,0,0:0:0:0:
128,300,70966,1,0,0:0:0:0:
76,352,71044,5,0,0:0:0:0:
32,272,71122,1,0,0:0:0:0:
40,184,71199,1,0,0:0:0:0:
92,112,71277,1,0,0:0:0:0:
172,76,71354,6,0,B|240:64|240:64|348:88,1,162.499992561341
416,336,71665,1,0,0:0:0:0:
448,72,71820,1,0,0:0:0:0:
460,144,71898,1,0,0:0:0:0:
476,216,71976,1,0,0:0:0:0:
208,184,72131,1,0,0:0:0:0:
448,72,72286,1,0,0:0:0:0:
324,312,72441,1,0,0:0:0:0:
296,32,72597,5,0,0:0:0:0:
52,216,72752,1,0,0:0:0:0:
420,264,72907,1,0,0:0:0:0:
144,40,73063,1,0,0:0:0:0:
248,336,73218,1,0,0:0:0:0:
388,76,73373,1,0,0:0:0:0:
80,156,73529,1,0,0:0:0:0:
428,168,73684,1,0,0:0:0:0:
112,236,73839,6,0,P|24:220|0:152,1,162.499992561341
268,72,74150,1,0,0:0:0:0:
212,308,74305,1,0,0:0:0:0:
264,360,74383,1,0,0:0:0:0:
336,352,74460,1,0,0:0:0:0:
476,164,74616,1,0,0:0:0:0:
172,200,74771,2,0,L|272:184,1,81.2499962806703
56,128,74926,2,0,L|148:112,1,81.2499962806703
352,60,75081,6,0,P|300:48|216:136,1,162.499992561341
224,176,75314,1,0,0:0:0:0:
272,220,75392,1,0,0:0:0:0:
336,212,75470,1,0,0:0:0:0:
392,160,75547,5,0,0:0:0:0:
376,232,75625,1,0,0:0:0:0:
316,272,75703,1,0,0:0:0:0:
244,272,75780,1,0,0:0:0:0:
180,236,75858,1,0,0:0:0:0:
156,164,75936,1,0,0:0:0:0:
164,92,76013,2,0,P|116:80|52:96,1,81.2499962806703
12,288,76168,2,0,P|56:296|132:292,1,81.2499962806703
248,160,76324,6,0,P|300:124|400:128,1,162.499992561341
464,325,76634,6,0,B|440:304|440:304|448:352,2,81.2499962806703
84,256,76945,5,0,0:0:0:0:
360,336,77100,1,0,0:0:0:0:
176,160,77256,2,0,P|168:224|200:336,1,162.499992561341
436,152,77566,5,0,0:0:0:0:
124,48,77721,1,0,0:0:0:0:
332,228,77877,1,0,0:0:0:0:
72,308,78032,1,0,0:0:0:0:
244,48,78187,5,0,0:0:0:0:
232,344,78343,1,0,0:0:0:0:
416,80,78498,1,0,0:0:0:0:
64,176,78653,2,0,P|160:208|256:196,2,162.499992561341
216,44,79119,6,0,L|224:164,1,81.2499962806703
296,340,79274,6,0,L|288:220,1,81.2499962806703
216,44,79430,6,0,L|224:164,1,81.2499962806703
296,340,79585,6,0,L|288:220,1,81.2499962806703
216,44,79740,6,0,L|224:164,1,81.2499962806703
296,340,79895,6,0,L|288:220,1,81.2499962806703
216,44,80051,5,0,0:0:0:0:
300,344,80361,5,0,0:0:0:0:
144,228,80517,1,0,0:0:0:0:
400,144,80672,2,0,P|344:120|352:224,1,162.499992561341
96,324,81138,6,0,B|56:272|44:176|44:176|124:224|144:164|144:164|112:160|48:88|140:80|140:80|192:88|216:120|236:152|220:200|208:228|184:248|148:264,1,674.999979400635
212,304,82691,5,0,0:0:0:0:
300,304,82846,5,0,0:0:0:0:
396,248,83001,5,0,0:0:0:0:
448,124,83157,5,0,0:0:0:0:
200,72,83312,5,0,0:0:0:0:
260,92,83390,1,0,0:0:0:0:
320,108,83467,2,0,P|381:89|456:88,1,125
392,320,83778,2,0,P|364:240|328:184,1,125
168,276,84088,5,0,0:0:0:0:
424,96,84244,1,0,0:0:0:0:
408,148,84321,1,0,0:0:0:0:
408,204,84399,2,0,P|416:272|440:340,1,125
88,144,84710,6,0,P|184:136|224:44,1,187.5
276,180,85020,2,0,P|248:228|256:304,1,125
420,216,85331,1,0,0:0:0:0:
336,344,85486,5,0,0:0:0:0:
368,72,85641,1,0,0:0:0:0:
444,292,85797,1,0,0:0:0:0:
280,120,85952,6,0,L|156:120,1,125
444,216,86262,2,0,L|304:216,1,125
88,192,86573,6,0,L|168:192,1,62.5
260,304,86728,2,0,L|184:304,1,62.5
32,232,86884,2,0,L|116:232,1,62.5
352,264,87039,2,0,P|264:288|268:152,1,250
368,148,87505,6,0,B|316:88|316:88|228:64|228:64|132:96,1,250
72,200,87971,6,0,P|56:160|32:132,1,62.5
212,240,88126,6,0,P|178:213|143:201,1,62.5
353,204,88281,6,0,P|310:197|274:204,1,62.5
392,304,88437,6,0,B|400:240|400:240|388:172|388:172|400:92,1,187.5
320,104,88747,2,0,P|360:52|448:60,1,125
360,276,89058,1,0,0:0:0:0:
128,152,89213,2,0,P|76:148|-4:160,1,125
84,332,89524,1,0,0:0:0:0:
104,112,89679,5,0,0:0:0:0:
232,332,89834,1,0,0:0:0:0:
272,64,89989,1,0,0:0:0:0:
212,296,90145,1,0,0:0:0:0:
440,188,90300,1,0,0:0:0:0:
160,152,90455,1,0,0:0:0:0:
432,168,90611,1,0,0:0:0:0:
272,280,90766,2,0,P|264:200|264:96,2,125
432,280,91232,5,0,0:0:0:0:
232,304,91387,1,0,0:0:0:0:
60,96,91542,1,0,0:0:0:0:
340,168,91698,1,0,0:0:0:0:
212,24,91853,1,0,0:0:0:0:
124,264,92008,1,0,0:0:0:0:
324,88,92164,6,0,L|412:76,1,62.5
112,172,92319,2,0,L|216:180,1,62.5
336,256,92474,6,0,L|452:264,1,62.5
56,272,92629,2,0,L|144:296,1,62.5
368,172,92940,5,0,0:0:0:0:
264,104,93095,5,0,0:0:0:0:
244,228,93251,5,0,0:0:0:0:
64,68,93406,5,0,0:0:0:0:
256,20,93561,1,0,0:0:0:0:
128,184,93716,2,0,L|140:312,1,93.7500035762788
156,320,93949,1,0,0:0:0:0:
156,320,94027,1,0,0:0:0:0:
244,204,94182,1,0,0:0:0:0:
44,256,94338,1,0,0:0:0:0:
232,180,94493,1,0,0:0:0:0:
288,324,94648,6,0,P|340:336|416:320,1,93.7500035762788
448,216,94881,1,0,0:0:0:0:
420,168,94959,2,0,P|404:112|396:68,1,93.7500035762788
228,32,95269,1,0,0:0:0:0:
424,88,95425,5,0,0:0:0:0:
172,136,95580,1,0,0:0:0:0:
304,64,95735,1,0,0:0:0:0:
100,80,95891,6,0,P|88:168|100:196,1,93.7500035762788
184,332,96201,1,0,0:0:0:0:
384,216,96356,1,0,0:0:0:0:
336,208,96434,1,0,0:0:0:0:
280,236,96512,2,0,P|212:244|144:240,1,93.7500035762788
36,120,96822,2,0,P|96:120|128:148,1,93.7500035762788
160,276,97133,5,0,0:0:0:0:
280,52,97288,1,0,0:0:0:0:
232,48,97366,1,0,0:0:0:0:
184,44,97443,1,0,0:0:0:0:
336,188,97599,1,0,0:0:0:0:
268,168,97676,1,0,0:0:0:0:
200,148,97754,5,0,0:0:0:0:
436,128,97909,1,0,0:0:0:0:
244,272,98065,2,0,L|160:360,1,93.7500035762788
32,160,98375,6,0,P|96:148|184:184,1,140.625005364418
248,224,98686,2,0,P|228:148|204:120,1,93.7500035762788
256,24,98996,6,0,P|248:52|256:96,1,46.8750017881394
388,188,99152,2,0,P|392:156|380:116,1,46.8750017881394
92,88,99307,2,0,P|100:120|124:152,1,46.8750017881394
264,328,99462,2,0,P|264:288|252:248,1,46.8750017881394
104,216,99618,5,0,0:0:0:0:
64,196,99695,1,0,0:0:0:0:
16,192,99773,2,0,L|68:172,1,46.8750017881394
164,56,99928,5,0,0:0:0:0:
224,56,100006,1,0,0:0:0:0:
276,88,100083,2,0,L|247:52,1,46.8750017881394
232,208,100239,2,0,L|220:132,1,46.8750017881394
133,289,100394,2,0,L|160:217,1,46.8750017881394
40,348,100549,5,0,0:0:0:0:
108,336,100627,1,0,0:0:0:0:
176,324,100705,1,0,0:0:0:0:
244,312,100782,1,0,0:0:0:0:
292,332,100860,6,0,P|300:280|384:244,1,140.625005364418
324,192,101170,1,0,0:0:0:0:
424,332,101326,1,0,0:0:0:0:
460,112,101481,1,0,0:0:0:0:
416,304,101636,1,0,0:0:0:0:
220,148,101792,1,0,0:0:0:0:
376,196,101947,1,0,0:0:0:0:
188,276,102102,5,0,0:0:0:0:
148,248,102180,1,0,0:0:0:0:
104,236,102257,1,0,0:0:0:0:
56,232,102335,1,0,0:0:0:0:
40,252,102413,5,0,0:0:0:0:
40,228,102490,1,0,0:0:0:0:
16,228,102568,1,0,0:0:0:0:
16,252,102646,1,0,0:0:0:0:
28,216,102723,5,0,0:0:0:0:
56,192,102801,1,0,0:0:0:0:
92,176,102879,1,0,0:0:0:0:
128,172,102956,1,0,0:0:0:0:
168,140,103034,5,0,0:0:0:0:
152,192,103112,1,0,0:0:0:0:
184,240,103189,1,0,0:0:0:0:
240,248,103267,1,0,0:0:0:0:
288,220,103345,6,0,P|336:200|412:216,1,93.7500035762788
480,300,103655,2,0,L|412:300,1,46.8750017881394
316,336,103810,2,0,L|244:336,1,46.8750017881394
120,300,103966,1,0,0:0:0:0:
132,300,104043,1,0,0:0:0:0:
148,300,104121,1,0,0:0:0:0:
164,300,104199,1,0,0:0:0:0:
216,264,104276,5,0,0:0:0:0:
188,264,104354,1,0,0:0:0:0:
160,264,104432,1,0,0:0:0:0:
132,264,104509,1,0,0:0:0:0:
56,280,104587,6,0,P|88:260|132:192,1,93.7500035762788
100,104,104820,2,0,P|80:132|80:184,1,46.8750017881394
160,232,105053,1,0,0:0:0:0:
216,44,105208,1,0,0:0:0:0:
340,156,105363,5,0,0:0:0:0:
340,156,105441,1,0,0:0:0:0:
340,156,105519,1,0,0:0:0:0:
272,304,105674,1,0,0:0:0:0:
328,272,105752,1,0,0:0:0:0:
392,276,105829,2,0,P|440:208|456:140,1,140.625005364418
416,64,106140,2,0,L|428:172,1,93.7500035762788
472,292,106450,5,0,0:0:0:0:
308,120,106606,1,0,0:0:0:0:
308,352,106761,5,0,0:0:0:0:
244,184,106916,1,0,0:0:0:0:
184,344,107072,5,0,0:0:0:0:
168,236,107227,1,0,0:0:0:0:
224,268,107304,1,0,0:0:0:0:
288,264,107382,1,0,0:0:0:0:
88,92,107537,5,0,0:0:0:0:
52,160,107615,1,0,0:0:0:0:
52,236,107693,1,0,0:0:0:0:
340,72,107848,5,0,0:0:0:0:
380,52,107926,1,0,0:0:0:0:
380,124,108003,5,0,0:0:0:0:
424,120,108081,1,0,0:0:0:0:
400,184,108159,5,0,0:0:0:0:
440,196,108236,1,0,0:0:0:0:
412,260,108314,6,0,B|368:276|360:312|360:312|336:280|288:272,1,140.625005364418
168,308,108624,6,0,B|200:280|232:272|232:272|208:264,1,93.7500035762788
40,252,108935,1,0,0:0:0:0:
220,192,109090,1,0,0:0:0:0:
428,184,109246,5,0,0:0:0:0:
200,144,109401,2,0,P|232:152|284:160,1,46.8750017881394
452,288,109556,1,0,0:0:0:0:
412,316,109634,1,0,0:0:0:0:
364,320,109711,1,0,0:0:0:0:
324,292,109789,1,0,0:0:0:0:
304,248,109867,6,0,P|272:232|236:232,1,46.8750017881394
92,332,110022,1,0,0:0:0:0:
64,272,110100,1,0,0:0:0:0:
60,208,110177,1,0,0:0:0:0:
88,148,110255,1,0,0:0:0:0:
140,108,110333,2,0,P|164:104|212:112,1,46.8750017881394
356,264,110488,2,0,P|336:296|296:316,1,46.8750017881394
148,220,110643,2,0,L|200:208,1,46.8750017881394
448,180,110799,6,0,L|324:168,1,93.7500035762788
320,40,111031,2,0,L|328:108,1,46.8750017881394
292,264,111264,1,0,0:0:0:0:
420,80,111420,5,0,0:0:0:0:
144,128,111575,1,0,0:0:0:0:
144,128,111653,1,0,0:0:0:0:
144,128,111730,1,0,0:0:0:0:
356,212,111886,1,0,0:0:0:0:
224,28,112041,5,0,0:0:0:0:
176,292,112196,1,0,0:0:0:0:
324,364,112351,5,0,0:0:0:0:
288,164,112507,1,0,0:0:0:0:
100,40,112662,5,0,0:0:0:0:
416,112,112817,1,0,0:0:0:0:
320,264,112973,5,0,0:0:0:0:
128,188,113128,1,0,0:0:0:0:
408,180,113283,5,0,0:0:0:0:
88,304,113438,2,0,P|88:220|84:176,1,93.7500035762788
28,100,113749,1,0,0:0:0:0:
348,312,113904,5,0,0:0:0:0:
88,36,114060,2,0,L|76:144,1,93.7500035762788
368,64,114370,1,0,0:0:0:0:
48,260,114526,5,0,0:0:0:0:
332,156,114681,2,0,P|408:152|448:160,1,93.7500035762788
252,348,114991,2,0,L|260:284,1,46.8750017881394
268,200,115147,5,0,0:0:0:0:
20,56,115302,2,0,L|172:32,1,140.625005364418
248,112,115613,2,0,L|240:36,1,46.8750017881394
328,60,115768,5,0,0:0:0:0:
100,280,115923,2,0,P|28:288|12:328,1,93.7500035762788
184,340,116234,1,0,0:0:0:0:
420,84,116389,5,0,0:0:0:0:
148,212,116544,2,0,P|92:200|40:220,1,93.7500035762788
184,340,116855,1,0,0:0:0:0:
288,112,117010,5,0,0:0:0:0:
356,320,117165,1,0,0:0:0:0:
416,24,117321,5,0,0:0:0:0:
264,268,117476,1,0,0:0:0:0:
496,152,117631,1,0,0:0:0:0:
128,80,117787,1,0,0:0:0:0:
440,324,117942,5,0,0:0:0:0:
328,24,118097,1,0,0:0:0:0:
112,320,118253,6,0,P|56:288|64:224,1,93.7500035762788
172,240,118563,6,0,P|116:208|124:144,1,93.7500035762788
112,320,118874,5,0,0:0:0:0:
172,240,119029,1,0,0:0:0:0:
232,160,119184,6,0,P|176:128|184:64,1,93.7500035762788
292,80,119495,6,0,P|236:48|244:-16,1,93.7500035762788
172,240,119805,5,0,0:0:0:0:
292,80,119961,1,0,0:0:0:0:
112,320,120116,1,0,0:0:0:0:
232,160,120271,1,0,0:0:0:0:
112,320,120427,5,0,0:0:0:0:
292,80,120582,1,0,0:0:0:0:
376,180,120737,5,0,0:0:0:0:
60,120,120892,1,0,0:0:0:0:
120,92,120970,1,0,0:0:0:0:
180,68,121048,1,0,0:0:0:0:
348,320,121203,1,0,0:0:0:0:
276,336,121281,1,0,0:0:0:0:
204,324,121358,1,0,0:0:0:0:
16,216,121514,6,0,L|88:196,1,46.8750017881394
176,216,121669,2,0,L|220:196,3,46.8750017881394
304,192,121979,5,0,0:0:0:0:
364,144,122057,1,0,0:0:0:0:
396,76,122135,2,0,L|356:32,1,46.8750017881394
100,72,122290,2,0,L|92:164,1,46.8750017881394
124,236,122445,5,0,0:0:0:0:
92,172,122523,1,0,0:0:0:0:
128,112,122601,1,0,0:0:0:0:
196,112,122678,1,0,0:0:0:0:
228,176,122756,1,0,0:0:0:0:
192,236,122834,1,0,0:0:0:0:
112,212,122911,5,0,0:0:0:0:
112,128,122989,1,0,0:0:0:0:
192,96,123067,1,0,0:0:0:0:
244,160,123144,1,0,0:0:0:0:
200,228,123222,1,0,0:0:0:0:
392,328,123532,6,0,L|388:288,2,23.4375008940697
132,300,123843,6,0,P|104:256|52:216,1,84.3750003218651
268,208,123998,2,0,P|280:157|272:92,1,84.3750003218651
188,236,124154,6,0,P|179:184|147:127,1,84.3750003218651
349,204,124309,2,0,P|380:162|398:99,1,84.3750003218651
88,52,124464,6,0,P|132:76|260:44,1,168.75000064373
312,164,124775,1,0,0:0:0:0:
176,224,124930,1,0,0:0:0:0:
112,248,125008,1,0,0:0:0:0:
51,275,125085,1,0,0:0:0:0:
119,287,125163,1,0,0:0:0:0:
183,303,125241,2,0,P|243:279|383:327,2,168.75000064373
112,100,125706,5,0,0:0:0:0:
76,340,125862,1,0,0:0:0:0:
232,136,126017,1,0,0:0:0:0:
300,144,126095,1,0,0:0:0:0:
360,176,126172,1,0,0:0:0:0:
272,292,126328,5,0,0:0:0:0:
212,232,126405,1,0,0:0:0:0:
132,208,126483,1,0,0:0:0:0:
48,208,126561,1,0,0:0:0:0:
88,272,126638,5,0,0:0:0:0:
88,188,126716,1,0,0:0:0:0:
144,128,126794,1,0,0:0:0:0:
224,108,126871,1,0,0:0:0:0:
304,136,126949,6,0,B|336:144|360:184|360:184|420:156|400:88,1,168.75000064373
424,248,127259,6,0,P|320:260|272:208,1,168.75000064373
232,168,127492,1,0,0:0:0:0:
152,192,127570,2,0,L|152:312,1,84.3750003218651
32,40,127725,2,0,L|32:124,1,84.3750003218651
256,104,127881,6,0,P|328:80|456:112,1,168.75000064373
436,296,128191,5,0,0:0:0:0:
376,328,128269,1,0,0:0:0:0:
312,316,128346,1,0,0:0:0:0:
276,256,128424,1,0,0:0:0:0:
280,188,128502,5,0,0:0:0:0:
212,136,128579,1,0,0:0:0:0:
128,140,128657,1,0,0:0:0:0:
60,192,128735,1,0,0:0:0:0:
40,272,128812,5,0,0:0:0:0:
24,240,128890,1,0,0:0:0:0:
16,208,128968,1,0,0:0:0:0:
16,176,129045,1,0,0:0:0:0:
48,108,129123,5,0,0:0:0:0:
88,164,129201,1,0,0:0:0:0:
152,188,129278,1,0,0:0:0:0:
220,176,129356,1,0,0:0:0:0:
268,128,129433,6,0,P|264:84|240:48,1,84.3750003218651
24,252,129589,2,0,P|57:280|100:288,1,84.3750003218651
328,216,129744,5,0,0:0:0:0:
440,52,129899,1,0,0:0:0:0:
416,316,130055,5,0,0:0:0:0:
132,100,130210,1,0,0:0:0:0:
80,224,130365,5,0,0:0:0:0:
440,148,130521,1,0,0:0:0:0:
136,328,130676,6,0,B|152:276|152:276|116:224|124:144,1,168.75000064373
460,56,130986,2,0,P|520:132|492:224,1,168.75000064373
444,188,131219,1,0,0:0:0:0:
384,216,131297,5,0,0:0:0:0:
412,236,131375,1,0,0:0:0:0:
428,264,131452,1,0,0:0:0:0:
444,296,131530,1,0,0:0:0:0:
416,332,131608,6,0,P|376:324|316:336,1,84.3750003218651
124,232,131763,2,0,P|192:220|244:232,1,84.3750003218651
68,328,131918,6,0,B|36:276|36:276|16:96,1,168.75000064373
56,108,132151,1,0,0:0:0:0:
116,76,132229,1,0,0:0:0:0:
184,68,132306,1,0,0:0:0:0:
248,84,132384,2,0,L|256:184,1,84.3750003218651
440,320,132539,2,0,L|432:232,1,84.3750003218651
220,152,132695,6,0,L|228:248,1,84.3750003218651
496,256,132850,2,0,L|484:152,1,84.3750003218651
164,216,133005,6,0,L|172:308,1,84.3750003218651
476,88,133160,5,0,0:0:0:0:
412,48,133238,1,0,0:0:0:0:
336,44,133316,1,0,0:0:0:0:
268,72,133393,1,0,0:0:0:0:
228,136,133471,1,0,0:0:0:0:
224,212,133549,1,0,0:0:0:0:
252,284,133626,2,0,P|220:304|132:292,1,84.3750003218651
28,160,133782,5,0,0:0:0:0:
108,116,133859,1,0,0:0:0:0:
200,112,133937,1,0,0:0:0:0:
284,148,134015,1,0,0:0:0:0:
340,224,134092,2,0,L|436:224,1,84.3750003218651
488,40,134248,2,0,L|392:40,1,84.3750003218651
96,280,134403,6,0,P|152:252|280:272,1,168.75000064373
424,328,134713,1,0,0:0:0:0:
424,72,134869,1,0,0:0:0:0:
364,132,134946,1,0,0:0:0:0:
284,156,135024,2,0,L|164:144,1,84.3750003218651
40,288,135179,2,0,L|152:276,1,84.3750003218651
400,340,135335,6,0,P|348:272|252:304,1,168.75000064373
64,116,135645,5,0,0:0:0:0:
440,204,135800,1,0,0:0:0:0:
56,208,135956,5,0,0:0:0:0:
432,288,136111,1,0,0:0:0:0:
144,32,136266,5,0,0:0:0:0:
316,320,136422,1,0,0:0:0:0:
320,236,136499,1,0,0:0:0:0:
352,156,136577,5,0,0:0:0:0:
384,192,136655,1,0,0:0:0:0:
396,240,136732,1,0,0:0:0:0:
392,292,136810,1,0,0:0:0:0:
312,256,136887,6,0,B|244:200|244:200|144:184,1,168.75000064373
40,312,137198,2,0,L|148:304,1,84.3750003218651
272,84,137353,1,0,0:0:0:0:
272,84,137431,1,0,0:0:0:0:
272,84,137509,2,0,L|168:100,1,84.3750003218651
4,184,137664,1,0,0:0:0:0:
56,192,137742,1,0,0:0:0:0:
104,200,137819,1,0,0:0:0:0:
156,208,137897,1,0,0:0:0:0:
180,184,137975,5,0,0:0:0:0:
256,192,138052,1,0,0:0:0:0:
320,236,138130,1,0,0:0:0:0:
344,308,138207,1,0,0:0:0:0:
332,384,138285,6,0,P|356:336|396:312,1,84.3750003218651
480,240,138440,2,0,P|460:200|416:168,1,84.3750003218651
212,64,138596,5,0,0:0:0:0:
128,72,138673,1,0,0:0:0:0:
72,136,138751,1,0,0:0:0:0:
92,216,138829,1,0,0:0:0:0:
168,248,138906,1,0,0:0:0:0:
248,224,138984,1,0,0:0:0:0:
312,172,139062,1,0,0:0:0:0:
392,188,139139,1,0,0:0:0:0:
448,124,139217,2,0,P|408:108|356:116,1,84.3750003218651
228,336,139372,2,0,P|280:340|344:312,1,84.3750003218651
144,48,139527,2,0,B|104:52|104:52|64:84,1,84.3750003218651
424,336,139683,6,0,L|440:232,1,84.3750003218651
88,208,139993,5,0,0:0:0:0:
440,112,140149,1,0,0:0:0:0:
88,208,140304,1,0,0:0:0:0:
440,112,140459,1,0,0:0:0:0:
140,320,140614,6,0,P|156:224|144:132,1,168.75000064373
392,36,140925,1,0,0:0:0:0:
360,104,141003,1,0,0:0:0:0:
388,172,141080,1,0,0:0:0:0:
352,240,141158,1,0,0:0:0:0:
392,304,141236,2,0,P|332:276|220:284,1,168.75000064373
74,35,141546,5,0,0:0:0:0:
117,76,141624,5,0,0:0:0:0:
80,153,141702,5,0,0:0:0:0:
124,189,141779,5,0,0:0:0:0:
88,272,141857,6,0,P|164:212|168:128,1,168.75000064373
424,268,142167,1,0,0:0:0:0:
320,28,142323,1,0,0:0:0:0:
300,84,142400,1,0,0:0:0:0:
308,144,142478,1,0,0:0:0:0:
368,204,142556,5,0,0:0:0:0:
304,164,142633,1,0,0:0:0:0:
232,184,142711,1,0,0:0:0:0:
188,248,142789,1,0,0:0:0:0:
116,264,142866,1,0,0:0:0:0:
56,220,142944,1,0,0:0:0:0:
44,144,143022,1,0,0:0:0:0:
96,88,143099,5,0,0:0:0:0:
96,88,143410,1,0,0:0:0:0:
96,88,143720,1,0,0:0:0:0:
248,280,144341,5,0,0:0:0:0:
424,56,144497,6,0,P|404:104|420:216,1,125
456,304,144807,1,0,0:0:0:0:
244,120,144963,1,0,0:0:0:0:
384,212,145118,1,0,0:0:0:0:
124,232,145273,1,0,0:0:0:0:
352,340,145429,6,0,B|340:272|340:272|368:120,1,187.5
304,36,145739,2,0,L|276:180,1,125
60,148,146050,1,0,0:0:0:0:
256,276,146205,1,0,0:0:0:0:
208,72,146360,1,0,0:0:0:0:
84,256,146516,1,0,0:0:0:0:
408,144,146981,5,0,0:0:0:0:
88,196,147137,2,0,L|160:192,1,62.5
188,304,147292,2,0,L|272:324,1,62.5
276,156,147447,2,0,L|356:136,1,62.5
360,292,147603,2,0,L|440:332,1,62.5
464,152,147758,5,0,0:0:0:0:
460,136,147836,1,0,0:0:0:0:
472,64,147913,6,0,P|420:124|296:112,1,187.5
132,208,148224,2,0,B|192:204|192:204|272:232,1,125
400,312,148534,5,0,0:0:0:0:
316,60,148690,1,0,0:0:0:0:
260,304,148845,1,0,0:0:0:0:
296,88,149000,1,0,0:0:0:0:
124,64,149311,5,0,0:0:0:0:
156,304,149466,1,0,0:0:0:0:
240,104,149621,5,0,0:0:0:0:
196,300,149777,1,0,0:0:0:0:
404,176,149932,5,0,0:0:0:0:
184,208,150087,1,0,0:0:0:0:
444,284,150243,5,0,0:0:0:0:
140,120,150398,1,0,0:0:0:0:
472,112,150553,5,0,0:0:0:0:
104,268,150708,1,0,0:0:0:0:
468,312,150864,5,0,0:0:0:0:
92,160,151019,1,0,0:0:0:0:
360,60,151174,2,0,P|396:56|500:76,2,125
144,44,151795,5,0,0:0:0:0:
156,260,151951,1,0,0:0:0:0:
300,32,152106,5,0,0:0:0:0:
252,320,152261,1,0,0:0:0:0:
96,84,152417,5,0,0:0:0:0:
404,292,152572,1,0,0:0:0:0:
216,40,152727,1,0,0:0:0:0:
84,308,152883,6,0,P|144:264|204:252,1,125
427,167,153193,2,0,P|420:105|427:44,1,125
224,96,153504,1,0,0:0:0:0:
432,264,153659,1,0,0:0:0:0:
104,156,153814,1,0,0:0:0:0:
404,288,153970,1,0,0:0:0:0:
160,64,154280,5,0,0:0:0:0:
164,240,154435,1,0,0:0:0:0:
388,80,154591,5,0,0:0:0:0:
164,240,154746,1,0,0:0:0:0:
280,40,154901,5,0,0:0:0:0:
164,240,155057,1,0,0:0:0:0:
464,164,155212,5,0,0:0:0:0:
164,240,155367,1,0,0:0:0:0:
408,296,155522,5,0,0:0:0:0:
164,240,155678,1,0,0:0:0:0:
448,72,155833,5,0,0:0:0:0:
164,240,155988,1,0,0:0:0:0:
116,36,156144,5,0,0:0:0:0:
164,240,156299,1,0,0:0:0:0:
384,184,156454,1,0,0:0:0:0:
164,240,156610,1,0,0:0:0:0:
220,80,156765,6,0,P|232:152|212:300,1,187.5
104,348,157075,2,0,L|196:324,1,62.5
336,236,157231,1,0,0:0:0:0:
336,236,157308,1,0,0:0:0:0:
336,236,157386,2,0,P|276:216|224:232,1,62.5
60,124,157541,1,0,0:0:0:0:
48,172,157619,1,0,0:0:0:0:
36,220,157697,1,0,0:0:0:0:
24,268,157774,1,0,0:0:0:0:
12,316,157852,1,0,0:0:0:0:
208,84,158007,6,0,P|272:76|428:128,1,187.5
440,332,158318,2,0,P|432:292|416:236,1,62.5
188,172,158473,1,0,0:0:0:0:
176,232,158551,1,0,0:0:0:0:
196,292,158628,2,0,P|240:312|276:316,1,62.5
436,148,158784,1,0,0:0:0:0:
392,96,158861,1,0,0:0:0:0:
332,64,158939,1,0,0:0:0:0:
264,60,159017,1,0,0:0:0:0:
200,80,159094,1,0,0:0:0:0:
52,200,159249,6,0,P|116:184|140:184,1,74.9999977111817
380,316,159405,2,0,P|314:314|290:308,1,74.9999977111817
300,28,159560,2,0,P|308:80|312:136,1,74.9999977111817
88,320,159715,1,0,0:0:0:0:
56,244,159793,1,0,0:0:0:0:
68,160,159871,1,0,0:0:0:0:
116,92,159948,1,0,0:0:0:0:
190,51,160026,2,0,P|230:51|274:63,1,74.9999977111817
436,196,160181,5,0,0:0:0:0:
388,276,160259,1,0,0:0:0:0:
300,308,160337,1,0,0:0:0:0:
214,273,160414,1,0,0:0:0:0:
174,206,160492,5,0,0:0:0:0:
174,206,160569,1,0,0:0:0:0:
174,206,160647,1,0,0:0:0:0:
174,206,160725,1,0,0:0:0:0:
174,206,160802,1,0,0:0:0:0:
208,148,160880,1,0,0:0:0:0:
276,144,160958,1,0,0:0:0:0:
328,104,161035,1,0,0:0:0:0:
376,104,161113,5,0,0:0:0:0:
392,128,161191,1,0,0:0:0:0:
416,144,161268,1,0,0:0:0:0:
444,152,161346,1,0,0:0:0:0:
476,132,161424,5,0,0:0:0:0:
476,200,161501,1,0,0:0:0:0:
420,260,161579,1,0,0:0:0:0:
332,252,161656,1,0,0:0:0:0:
260,196,161734,5,0,0:0:0:0:
208,184,161812,1,0,0:0:0:0:
156,172,161889,1,0,0:0:0:0:
104,160,161967,1,0,0:0:0:0:
24,216,162045,6,0,L|76:208,6,37.4999988555909
228,360,162355,6,0,L|224:260,1,74.9999977111817
316,64,162511,2,0,L|324:192,1,74.9999977111817
336,384,162666,6,0,L|324:276,1,74.9999977111817
200,20,162821,2,0,L|204:120,1,74.9999977111817
24,272,162976,6,0,P|104:240|208:260,1,162.499992561341
452,180,163287,1,0,0:0:0:0:
420,236,163365,1,0,0:0:0:0:
360,260,163442,1,0,0:0:0:0:
296,240,163520,1,0,0:0:0:0:
320,208,163598,5,0,0:0:0:0:
240,196,163675,1,0,0:0:0:0:
164,224,163753,1,0,0:0:0:0:
116,292,163831,1,0,0:0:0:0:
124,372,163908,2,0,P|64:352|40:308,1,81.2499962806703
4,160,164064,2,0,P|8:120|52:72,1,81.2499962806703
272,84,164219,6,0,L|144:108,1,81.2499962806703
468,140,164374,2,0,L|352:160,1,81.2499962806703
136,206,164529,2,0,L|216:192,1,81.2499962806703
331,261,164684,2,0,L|412:248,1,81.2499962806703
40,276,164840,5,0,0:0:0:0:
112,292,164918,1,0,0:0:0:0:
184,308,164995,1,0,0:0:0:0:
256,324,165073,1,0,0:0:0:0:
240,252,165151,5,0,0:0:0:0:
304,312,165228,1,0,0:0:0:0:
392,312,165306,1,0,0:0:0:0:
464,260,165383,1,0,0:0:0:0:
492,176,165461,2,0,P|476:88|424:8,1,162.499992561341
52,168,165772,1,0,0:0:0:0:
376,132,165927,5,0,0:0:0:0:
348,216,166005,1,0,0:0:0:0:
368,304,166082,2,0,L|376:216,1,81.2499962806703
176,260,166238,2,0,L|184:180,1,81.2499962806703
268,324,166393,2,0,L|276:236,1,81.2499962806703
76,280,166549,2,0,L|84:200,1,81.2499962806703
140,64,166703,5,0,0:0:0:0:
212,48,166781,1,0,0:0:0:0:
284,48,166859,1,0,0:0:0:0:
352,72,166936,1,0,0:0:0:0:
356,104,167014,5,0,0:0:0:0:
396,96,167092,1,0,0:0:0:0:
408,132,167169,1,0,0:0:0:0:
448,140,167247,1,0,0:0:0:0:
456,180,167325,1,0,0:0:0:0:
484,208,167402,1,0,0:0:0:0:
468,288,167480,5,0,0:0:0:0:
392,336,167558,1,0,0:0:0:0:
304,320,167635,1,0,0:0:0:0:
260,240,167713,1,0,0:0:0:0:
280,152,167791,1,0,0:0:0:0:
360,116,167868,1,0,0:0:0:0:
448,132,167946,6,0,P|468:176|476:232,1,81.2499962806703
180,76,168101,2,0,P|232:56|304:56,1,81.2499962806703
164,336,168256,6,0,B|116:304|60:305|60:305|64:268|139:230,1,162.499992561341
456,224,168567,5,0,0:0:0:0:
72,112,168722,1,0,0:0:0:0:
416,44,168878,1,0,0:0:0:0:
116,284,169033,1,0,0:0:0:0:
444,136,169188,6,0,P|344:120|276:116,1,162.499992561341
20,228,169499,1,0,0:0:0:0:
240,348,169654,1,0,0:0:0:0:
288,280,169732,1,0,0:0:0:0:
300,200,169809,2,0,L|296:112,1,81.2499962806703
124,208,169965,2,0,L|128:296,1,81.2499962806703
324,180,170120,2,0,L|320:92,1,81.2499962806703
96,228,170275,2,0,L|100:316,1,81.2499962806703
296,248,170430,5,0,0:0:0:0:
376,256,170508,1,0,0:0:0:0:
452,292,170586,1,0,0:0:0:0:
468,372,170663,1,0,0:0:0:0:
440,352,170741,5,0,0:0:0:0:
452,320,170819,1,0,0:0:0:0:
432,296,170896,1,0,0:0:0:0:
440,264,170974,1,0,0:0:0:0:
460,200,171052,5,0,0:0:0:0:
420,148,171129,1,0,0:0:0:0:
356,136,171207,1,0,0:0:0:0:
300,172,171285,1,0,0:0:0:0:
244,184,171362,5,0,0:0:0:0:
280,204,171440,1,0,0:0:0:0:
300,240,171518,1,0,0:0:0:0:
312,280,171595,1,0,0:0:0:0:
248,348,171673,5,0,0:0:0:0:
180,320,171750,1,0,0:0:0:0:
156,252,171828,1,0,0:0:0:0:
172,180,171906,1,0,0:0:0:0:
228,136,171983,5,0,0:0:0:0:
300,124,172061,1,0,0:0:0:0:
356,172,172139,1,0,0:0:0:0:
384,240,172216,1,0,0:0:0:0:
460,268,172294,5,0,0:0:0:0:
436,180,172372,1,0,0:0:0:0:
364,128,172449,1,0,0:0:0:0:
276,120,172527,1,0,0:0:0:0:
208,176,172605,1,0,0:0:0:0:
124,208,172682,1,0,0:0:0:0:
48,160,172760,1,0,0:0:0:0:
48,72,172837,1,0,0:0:0:0:
124,24,172915,6,0,P|224:24|288:40,1,162.499992561341
460,176,173226,1,0,0:0:0:0:
200,336,173381,1,0,0:0:0:0:
120,312,173459,1,0,0:0:0:0:
72,248,173536,2,0,L|64:148,1,81.2499962806703
216,36,173692,2,0,L|208:128,1,81.2499962806703
276,296,173847,6,0,P|344:260|452:272,1,162.499992561341
456,68,174157,5,0,0:0:0:0:
224,208,174313,1,0,0:0:0:0:
196,140,174390,1,0,0:0:0:0:
208,68,174468,1,0,0:0:0:0:
400,264,174623,5,0,0:0:0:0:
340,316,174701,1,0,0:0:0:0:
260,324,174779,1,0,0:0:0:0:
36,192,174934,5,0,0:0:0:0:
116,120,175012,1,0,0:0:0:0:
208,168,175089,1,0,0:0:0:0:
188,272,175167,1,0,0:0:0:0:
84,284,175245,2,0,P|76:196|48:112,2,162.499992561341
376,104,175710,5,0,0:0:0:0:
112,56,175866,1,0,0:0:0:0:
408,240,176021,1,0,0:0:0:0:
248,28,176176,1,0,0:0:0:0:
220,336,176332,1,0,0:0:0:0:
176,268,176409,1,0,0:0:0:0:
132,200,176487,1,0,0:0:0:0:
88,132,176564,1,0,0:0:0:0:
44,60,176642,6,0,L|44:188,1,81.2499962806703
296,220,176797,2,0,L|296:316,1,81.2499962806703
448,40,176953,6,0,L|448:168,1,81.2499962806703
184,120,177108,2,0,L|184:224,1,81.2499962806703
396,224,177263,6,0,L|396:328,1,81.2499962806703
72,352,177419,2,0,L|72:224,1,81.2499962806703
352,32,177574,6,0,L|352:156,1,81.2499962806703
104,264,177729,2,0,L|104:140,1,81.2499962806703
484,112,177884,6,0,P|448:68|392:48,1,81.2499962806703
224,344,178040,6,0,P|280:349|334:324,1,81.2499962806703
88,48,178195,5,0,0:0:0:0:
424,160,178350,1,0,0:0:0:0:
32,164,178506,5,0,0:0:0:0:
424,160,178661,1,0,0:0:0:0:
12,320,178816,5,0,0:0:0:0:
424,160,178972,1,0,0:0:0:0:
132,36,179127,5,0,0:0:0:0:
384,312,179282,1,0,0:0:0:0:
420,32,179437,1,0,0:0:0:0:
108,320,179593,1,0,0:0:0:0:
268,12,179748,1,0,0:0:0:0:
424,304,179903,1,0,0:0:0:0:
68,208,180059,1,0,0:0:0:0:
444,96,180214,5,0,0:0:0:0:
460,176,180291,1,0,0:0:0:0:
456,256,180369,1,0,0:0:0:0:
124,56,180524,5,0,0:0:0:0:
304,324,180680,1,0,0:0:0:0:
264,24,180835,1,0,0:0:0:0:
320,300,180990,1,0,0:0:0:0:
432,40,181146,1,0,0:0:0:0:
96,164,181301,1,0,0:0:0:0:
440,268,181456,1,0,0:0:0:0:
64,284,181611,6,0,L|144:272,1,81.2499962806703
232,44,181767,6,0,L|152:56,1,81.2499962806703
300,336,181922,6,0,L|380:324,1,81.2499962806703
472,92,182077,6,0,L|392:104,1,81.2499962806703
52,224,182233,6,0,P|104:232|176:212,1,93.7500035762788
460,160,182388,6,0,P|408:152|336:172,1,93.7500035762788
136,328,182543,5,0,0:0:0:0:
256,192,182698,12,0,183708,0:0:0:0:
84,80,183786,6,0,L|84:184,1,84.3750003218651
200,336,183941,6,0,L|200:240,1,84.3750003218651
292,32,184096,6,0,L|292:160,1,84.3750003218651
408,352,184251,6,0,L|408:248,1,84.3750003218651
396,44,184407,6,0,L|396:176,1,93.7500035762788
116,340,184562,6,0,L|116:208,1,93.7500035762788
76,48,184717,6,0,P|56:84|60:184,1,93.7500035762788
436,336,184873,6,0,P|456:300|452:200,1,93.7500035762788
232,24,185028,6,0,B|216:80|264:108|240:160|240:160|216:172|192:148|208:112,1,187.500007152558
428,64,185338,1,0,0:0:0:0:
276,300,185494,1,0,0:0:0:0:
184,308,185571,1,0,0:0:0:0:
100,268,185649,1,0,0:0:0:0:
60,184,185727,1,0,0:0:0:0:
76,92,185804,1,0,0:0:0:0:
468,144,185960,1,0,0:0:0:0:
164,212,186115,1,0,0:0:0:0:
368,40,186270,5,0,0:0:0:0:
80,296,186425,1,0,0:0:0:0:
472,108,186581,5,0,0:0:0:0:
48,64,186736,1,0,0:0:0:0:
216,292,186891,5,0,0:0:0:0:
220,216,186969,1,0,0:0:0:0:
264,156,187047,1,0,0:0:0:0:
332,124,187124,1,0,0:0:0:0:
416,132,187202,5,0,0:0:0:0:
328,168,187280,1,0,0:0:0:0:
240,204,187357,1,0,0:0:0:0:
152,236,187435,1,0,0:0:0:0:
64,268,187513,6,0,B|48:224|48:224|48:128|48:128|72:64,1,187.500007152558
136,44,187745,1,0,0:0:0:0:
220,44,187823,1,0,0:0:0:0:
420,288,187978,1,0,0:0:0:0:
328,316,188056,1,0,0:0:0:0:
236,332,188134,2,0,P|172:340|124:328,1,93.7500035762788
384,72,188289,2,0,B|392:124|392:124|388:200,1,93.7500035762788
48,244,188444,2,0,P|60:188|112:140,1,93.7500035762788
464,224,188600,5,0,0:0:0:0:
400,304,188677,5,0,0:0:0:0:
296,320,188755,5,0,0:0:0:0:
320,8,188910,1,0,0:0:0:0:
72,144,189065,5,0,0:0:0:0:
464,188,189221,1,0,0:0:0:0:
68,308,189376,5,0,0:0:0:0:
408,48,189531,1,0,0:0:0:0:
452,324,189687,5,0,0:0:0:0:
72,64,189842,1,0,0:0:0:0:
192,356,189997,6,0,L|212:200,1,93.7500035762788
464,72,190152,2,0,L|448:208,1,93.7500035762788
148,44,190308,1,0,0:0:0:0:
52,264,190463,5,0,0:0:0:0:
148,224,190541,1,0,0:0:0:0:
248,204,190618,2,0,P|296:200|348:216,1,93.7500035762788
280,336,190774,1,0,0:0:0:0:
488,176,190929,1,0,0:0:0:0:
232,52,191084,1,0,0:0:0:0:
148,64,191162,1,0,0:0:0:0:
80,112,191240,6,0,P|96:232|176:276,1,187.500007152558
224,240,191472,1,0,0:0:0:0:
308,224,191550,1,0,0:0:0:0:
392,244,191628,1,0,0:0:0:0:
464,288,191705,2,0,L|464:192,1,93.7500035762788
372,64,191861,2,0,P|334:91|310:131,1,93.7500035762788
280,316,192016,2,0,P|232:340|160:328,1,93.7500035762788
24,208,192171,1,0,0:0:0:0:
60,120,192249,1,0,0:0:0:0:
140,72,192327,1,0,0:0:0:0:
232,72,192404,1,0,0:0:0:0:
320,108,192482,6,0,L|344:212,3,93.7500035762788
268,208,192792,5,0,0:0:0:0:
212,256,192870,1,0,0:0:0:0:
160,312,192948,1,0,0:0:0:0:
88,332,193025,1,0,0:0:0:0:
20,296,193103,5,0,0:0:0:0:
72,228,193181,1,0,0:0:0:0:
152,208,193258,1,0,0:0:0:0:
236,224,193336,1,0,0:0:0:0:
316,248,193414,1,0,0:0:0:0:
396,228,193491,1,0,0:0:0:0:
444,160,193569,1,0,0:0:0:0:
432,76,193647,1,0,0:0:0:0:
364,24,193724,6,0,P|296:28|236:60,1,93.7500035762788
188,80,193879,5,0,0:0:0:0:
168,172,193957,5,0,0:0:0:0:
216,252,194035,5,0,0:0:0:0:
300,288,194112,5,0,0:0:0:0:
392,268,194190,5,0,0:0:0:0:
448,192,194268,5,0,0:0:0:0:
452,100,194345,5,0,0:0:0:0:
344,88,194423,1,0,0:0:0:0:
244,132,194501,1,0,0:0:0:0:
208,232,194578,1,0,0:0:0:0:
244,332,194656,5,0,0:0:0:0:
176,236,194734,1,0,0:0:0:0:
188,120,194811,1,0,0:0:0:0:
272,36,194889,1,0,0:0:0:0:
392,32,194967,6,0,P|448:104|456:212,1,187.500007152558
92,352,195277,1,0,0:0:0:0:
24,56,195432,1,0,0:0:0:0:
116,32,195510,1,0,0:0:0:0:
208,48,195588,1,0,0:0:0:0:
276,112,195665,1,0,0:0:0:0:
296,204,195743,1,0,0:0:0:0:
456,64,195898,1,0,0:0:0:0:
148,176,196054,1,0,0:0:0:0:
452,220,196209,5,0,0:0:0:0:
176,80,196364,1,0,0:0:0:0:
368,340,196519,1,0,0:0:0:0:
388,48,196675,5,0,0:0:0:0:
56,256,196830,1,0,0:0:0:0:
352,188,196985,1,0,0:0:0:0:
280,148,197063,1,0,0:0:0:0:
196,136,197141,1,0,0:0:0:0:
112,148,197218,1,0,0:0:0:0:
36,184,197296,5,0,0:0:0:0:
88,104,197374,1,0,0:0:0:0:
172,64,197451,6,0,P|216:68|332:176,1,187.500007152558
56,308,197762,2,0,L|72:204,1,93.7500035762788
356,32,197917,1,0,0:0:0:0:
380,124,197995,1,0,0:0:0:0:
380,216,198072,1,0,0:0:0:0:
164,336,198228,1,0,0:0:0:0:
276,112,198383,1,0,0:0:0:0:
16,212,198538,1,0,0:0:0:0:
356,316,198694,5,0,0:0:0:0:
432,48,198848,1,0,0:0:0:0:
448,132,198926,1,0,0:0:0:0:
468,216,199004,1,0,0:0:0:0:
236,28,199159,5,0,0:0:0:0:
264,128,199237,1,0,0:0:0:0:
296,228,199315,2,0,L|328:336,1,93.7500035762788
64,280,199470,2,0,L|36:380,1,93.7500035762788
312,100,199625,6,0,L|344:208,1,93.7500035762788
44,148,199781,2,0,L|16:244,1,93.7500035762788
424,344,199936,6,0,L|420:192,1,93.7500035762788
144,272,200091,6,0,L|144:156,1,93.7500035762788
456,140,200246,6,0,P|464:88|440:12,1,93.7500035762788
96,52,200402,1,0,0:0:0:0:
68,140,200479,1,0,0:0:0:0:
100,228,200557,1,0,0:0:0:0:
188,260,200635,1,0,0:0:0:0:
280,244,200712,2,0,P|316:236|400:240,1,93.7500035762788
508,344,200868,2,0,P|456:352|380:344,1,93.7500035762788
300,128,201023,2,0,P|335:139|405:184,1,93.7500035762788
140,344,201178,6,0,B|124:292|124:292|152:72,1,187.500007152558
460,32,201489,2,0,L|472:160,1,93.7500035762788
380,336,201644,2,0,L|392:236,1,93.7500035762788
284,48,201799,1,0,0:0:0:0:
188,52,201877,1,0,0:0:0:0:
96,80,201955,1,0,0:0:0:0:
40,156,202032,1,0,0:0:0:0:
32,248,202110,1,0,0:0:0:0:
68,236,202188,5,0,0:0:0:0:
104,228,202265,1,0,0:0:0:0:
140,220,202343,1,0,0:0:0:0:
176,212,202421,6,0,B|188:256|176:328,2,93.7500035762788
240,104,202653,1,0,0:0:0:0:
312,236,202731,6,0,P|300:304|272:360,2,93.7500035762788
352,88,202964,1,0,0:0:0:0:
440,280,203042,6,0,P|428:332|384:384,2,93.7500035762788
480,72,203275,1,0,0:0:0:0:
384,148,203352,5,0,0:0:0:0:
416,140,203430,1,0,0:0:0:0:
448,132,203508,1,0,0:0:0:0:
480,124,203585,1,0,0:0:0:0:
436,240,203663,6,0,B|364:244|296:228|288:156|296:112|296:112|268:72|268:72|236:112|236:112|196:140|164:116|192:40,1,375.000014305115
68,40,204129,1,0,0:0:0:0:
136,276,204284,1,0,0:0:0:0:
48,136,204439,1,0,0:0:0:0:
312,276,204595,1,0,0:0:0:0:
88,248,204750,1,0,0:0:0:0:
408,64,204905,6,0,L|424:256,1,187.500007152558
120,112,205216,2,0,L|88:328,1,187.500007152558
428,88,205526,6,0,L|484:312,1,187.500007152558
87,145,205837,2,0,L|40:368,1,187.500007152558
360,68,206148,6,0,P|360:200|424:304,1,187.500007152558
68,332,206458,2,0,P|80:240|56:100,1,187.500007152558
408,348,206769,6,0,B|420:248|420:248|476:136,1,187.500007152558
156,40,207079,2,0,B|96:108|96:108|-4:112,1,187.500007152558
420,96,207390,5,0,0:0:0:0:
156,224,207545,1,0,0:0:0:0:
420,96,207700,1,0,0:0:0:0:
156,224,207856,1,0,0:0:0:0:
420,96,208011,1,0,0:0:0:0:
156,224,208166,1,0,0:0:0:0:
420,96,208322,1,0,0:0:0:0:
156,224,208477,1,0,0:0:0:0:
368,320,208632,5,0,0:0:0:0:
244,68,208787,1,0,0:0:0:0:
368,320,208943,1,0,0:0:0:0:
244,68,209098,1,0,0:0:0:0:
368,320,209253,1,0,0:0:0:0:
244,68,209408,1,0,0:0:0:0:
368,320,209564,1,0,0:0:0:0:
244,68,209719,1,0,0:0:0:0:
24,104,209875,6,0,L|216:88,1,187.500007152558
212,324,210185,2,0,L|460:348,1,187.500007152558
16,140,210496,6,0,L|252:72,1,187.500007152558
264,268,210806,2,0,L|480:304,1,187.500007152558
8,212,211117,6,0,P|88:140|156:32,1,187.500007152558
428,152,211427,2,0,P|394:254|389:381,1,187.500007152558
176,320,211738,6,0,B|128:240|128:240|12:256,1,187.500007152558
336,64,212049,2,0,B|384:144|384:144|500:128,1,187.500007152558
384,304,212359,5,0,0:0:0:0:
96,92,212514,1,0,0:0:0:0:
384,304,212670,1,0,0:0:0:0:
96,92,212825,1,0,0:0:0:0:
384,304,212980,1,0,0:0:0:0:
96,92,213136,1,0,0:0:0:0:
384,304,213291,1,0,0:0:0:0:
96,92,213446,1,0,0:0:0:0:
80,336,213602,5,0,0:0:0:0:
376,72,213757,1,0,0:0:0:0:
80,336,213912,1,0,0:0:0:0:
376,72,214067,1,0,0:0:0:0:
80,336,214223,1,0,0:0:0:0:
376,72,214378,1,0,0:0:0:0:
80,336,214533,1,0,0:0:0:0:
376,72,214688,1,0,0:0:0:0:
40,36,214844,6,0,B|48:140|48:140|36:260,1,200
192,352,215154,2,0,B|184:248|184:248|196:128,1,200
320,32,215465,2,0,B|328:136|328:136|318:231,1,200
472,348,215776,2,0,B|464:244|464:244|473:148,1,200
72,48,216086,6,0,B|192:32|192:32|304:56,1,200
440,336,216397,2,0,B|320:352|320:352|208:328,1,200
16,140,216707,6,0,P|104:88|240:92,1,200
496,244,217018,2,0,P|408:296|272:292,1,200
132,56,217329,5,0,0:0:0:0:
400,128,217484,1,0,0:0:0:0:
132,56,217639,1,0,0:0:0:0:
324,296,217794,1,0,0:0:0:0:
132,56,217950,1,0,0:0:0:0:
400,128,218105,1,0,0:0:0:0:
132,56,218260,1,0,0:0:0:0:
324,296,218416,1,0,0:0:0:0:
436,136,218571,5,0,0:0:0:0:
192,296,218726,1,0,0:0:0:0:
436,136,218881,1,0,0:0:0:0:
108,144,219037,1,0,0:0:0:0:
436,136,219192,1,0,0:0:0:0:
192,296,219347,1,0,0:0:0:0:
436,136,219502,1,0,0:0:0:0:
108,144,219658,1,0,0:0:0:0:
408,116,219813,6,0,P|420:212|496:316,1,200
96,160,220124,2,0,P|104:296|40:368,1,200
376,200,220434,6,0,P|440:276|584:312,1,200
160,300,220745,2,0,P|56:324|-44:264,1,200
344,52,221056,2,0,B|444:44|444:44|464:160,1,200
144,312,221366,2,0,P|284:264|432:280,1,300
192,112,221677,6,0,P|240:228|252:332,1,200
452,352,221987,2,0,B|460:232|460:232|524:112,1,200
436,32,222298,5,0,0:0:0:0:
60,136,222453,1,0,0:0:0:0:
436,32,222608,1,0,0:0:0:0:
140,264,222764,1,0,0:0:0:0:
436,32,222919,1,0,0:0:0:0:
60,136,223074,1,0,0:0:0:0:
436,32,223230,1,0,0:0:0:0:
140,264,223385,1,0,0:0:0:0:
464,280,223540,5,0,0:0:0:0:
216,44,223695,1,0,0:0:0:0:
464,280,223851,1,0,0:0:0:0:
52,156,224006,1,0,0:0:0:0:
464,280,224161,1,0,0:0:0:0:
216,44,224317,1,0,0:0:0:0:
464,280,224472,1,0,0:0:0:0:
52,156,224627,1,0,0:0:0:0:
424,100,224783,5,0,0:0:0:0:
230,152,224938,1,0,0:0:0:0:
327,126,225093,1,0,0:0:0:0:
37,204,225248,1,0,0:0:0:0:
230,152,225404,1,0,0:0:0:0:
134,178,225559,1,0,0:0:0:0:
37,204,225714,1,0,0:0:0:0:
327,126,225870,1,0,0:0:0:0:
134,178,226025,1,0,0:0:0:0:
424,100,226180,1,0,0:0:0:0:
37,204,226335,1,0,0:0:0:0:
424,100,226491,5,0,0:0:0:0:
37,204,226646,1,0,0:0:0:0:
