osu file format v14

[General]
AudioFilename: audio.mp3
AudioLeadIn: 0
PreviewTime: -1
Countdown: 1
SampleSet: None
StackLeniency: 0.5
Mode: 0
LetterboxInBreaks: 0
WidescreenStoryboard: 1

[Editor]
Bookmarks: 169809
DistanceSpacing: 1.3
BeatDivisor: 4
GridSize: 4
TimelineZoom: 4.099998

[Metadata]
Title:Ikenai Borderline (Speed Up Ver.)
TitleUnicode:いけないボーダーライン (Speed Up Ver.)
Artist:WALKURE
ArtistUnicode:ワルキューレ
Creator:ChronoNig
Version:AR 9.5
Source:マクロスΔ
Tags:I love Flezlin and Aoiyuuki MACROSS DELTA Scramble WALKÜRE Valkyrie マクロスΔスクランブル Idol Group 美雲・ギンヌメール Mikumo Guynemer カナメ・バッカニア Kaname Buccaneer マキナ・中島 Makina Nakajima レイナ・プラウラー Reina Prowler フレイア・ヴィオン Freyja Wion TV Series
BeatmapID:1115206
BeatmapSetID:525461

[Difficulty]
HPDrainRate:5
CircleSize:4
OverallDifficulty:9.5
ApproachRate:9.5
SliderMultiplier:1.8
SliderTickRate:1

[Events]
//Background and Video events
0,0,"31335ccb-a9f1-4400-935e-4d3774fa89b0.png",0,0
//Break Periods
//Storyboard Layer 0 (Background)
//Storyboard Layer 1 (Fail)
//Storyboard Layer 2 (Pass)
//Storyboard Layer 3 (Foreground)
//Storyboard Sound Samples

[TimingPoints]
542,310.583119807438,4,3,0,60,1,0
30047,-133.333333333333,4,3,0,60,0,0
30357,-100,4,3,0,60,0,0
61416,-83.3333333333333,4,3,0,60,0,1
66385,-66.6666666666667,4,3,0,60,0,1
67006,-83.3333333333333,4,3,0,60,0,1
76324,-66.6666666666667,4,3,0,60,0,1
76945,-83.3333333333333,4,3,0,60,0,1
80051,-100,4,3,0,60,0,0
88437,-83.3333333333333,4,3,0,60,0,0
89989,-100,4,3,0,60,0,0
124464,-83.3333333333333,4,3,0,60,0,1
129433,-66.6666666666667,4,3,0,60,0,1
130055,-83.3333333333333,4,3,0,60,0,1
139372,-66.6666666666667,4,3,0,60,0,1
139993,-83.3333333333333,4,3,0,60,0,1
143099,-100,4,3,0,60,0,0
144341,-133.333333333333,4,3,0,60,0,0
149466,-100,4,3,0,60,0,0
156765,-133.333333333333,4,3,0,60,0,0
160492,-83.3333333333333,4,3,0,60,0,0
162976,-83.3333333333333,4,3,0,60,0,1
167946,-66.6666666666667,4,3,0,60,0,1
168567,-83.3333333333333,4,3,0,60,0,1
177884,-66.6666666666667,4,3,0,60,0,1
178506,-83.3333333333333,4,3,0,60,0,1
181611,-83.3333333333333,4,3,0,60,0,0
183630,-80,4,3,0,60,0,0
185028,-76.9230769230769,4,3,0,60,0,1
189997,-62.5,4,3,0,60,0,1
190618,-76.9230769230769,4,3,0,60,0,1
199936,-62.5,4,3,0,60,0,1
200557,-76.9230769230769,4,3,0,60,0,1
204905,-83.3333333333333,4,3,0,60,0,0

[HitObjects]
256,192,7995,12,0,9859,0:0:0:0:
144,92,10014,5,0,0:0:0:0:
172,240,10170,1,0,0:0:0:0:
64,72,10325,1,0,0:0:0:0:
87,34,10402,1,0,0:0:0:0:
120,16,10480,6,0,P|168:16|212:48,1,90
254,236,10791,2,0,P|242:284|182:324,1,90
57,225,11101,1,0,0:0:0:0:
254,215,11257,1,0,0:0:0:0:
61,336,11412,1,0,0:0:0:0:
158,167,11567,1,0,0:0:0:0:
231,340,11722,6,0,L|327:316,1,90
456,208,12033,2,0,L|360:184,1,90
152,141,12344,1,0,0:0:0:0:
345,78,12500,1,0,0:0:0:0:
243,204,12654,1,0,0:0:0:0:
280,5,12810,1,0,0:0:0:0:
294,267,12965,6,0,P|254:283|190:267,1,90
368,186,13275,2,0,P|408:170|472:186,1,90
396,58,13586,1,0,0:0:0:0:
418,252,13741,1,0,0:0:0:0:
512,99,13897,1,0,0:0:0:0:
272,131,14052,6,0,P|218:204|267:281,1,180
401,343,14518,1,0,0:0:0:0:
255,274,14673,1,0,0:0:0:0:
462,178,14828,1,0,0:0:0:0:
330,242,14983,1,0,0:0:0:0:
509,270,15139,5,0,0:0:0:0:
389,74,15294,1,0,0:0:0:0:
255,275,15449,6,0,L|271:383,1,90
147,186,15760,2,0,L|163:78,1,90
347,29,16071,1,0,0:0:0:0:
347,29,16226,2,0,P|372:92|333:171,1,135
246,191,16537,6,0,P|332:162|428:211,1,180
438,335,17002,1,0,0:0:0:0:
293,261,17158,1,0,0:0:0:0:
492,186,17313,1,0,0:0:0:0:
337,345,17468,1,0,0:0:0:0:
302,106,17624,1,0,0:0:0:0:
97,227,17779,6,0,B|104:272|140:288|140:288|276:280,1,180
466,238,18245,1,0,0:0:0:0:
486,346,18400,1,0,0:0:0:0:
264,120,18555,1,0,0:0:0:0:
244,228,18710,1,0,0:0:0:0:
422,22,18866,1,0,0:0:0:0:
442,130,19021,1,0,0:0:0:0:
284,12,19176,5,0,0:0:0:0:
442,130,19332,1,0,0:0:0:0:
264,120,19487,1,0,0:0:0:0:
466,238,19642,1,0,0:0:0:0:
244,228,19798,1,0,0:0:0:0:
486,346,19953,1,0,0:0:0:0:
222,332,20108,2,0,P|171:307|147:263,1,90
172,104,20419,6,0,P|175:160|149:203,1,90
1,264,20729,2,0,P|48:232|98:233,1,90
244,228,21040,1,0,0:0:0:0:
71,111,21195,1,0,0:0:0:0:
260,128,21351,1,0,0:0:0:0:
152,280,21506,1,0,0:0:0:0:
216,56,21661,6,0,P|260:44|328:76,1,90
456,152,21972,2,0,P|412:164|344:132,1,90
468,56,22282,1,0,0:0:0:0:
444,240,22438,1,0,0:0:0:0:
384,48,22593,1,0,0:0:0:0:
360,232,22749,1,0,0:0:0:0:
275,89,22903,6,0,P|231:85|167:109,1,90
207,299,23214,2,0,P|232:262|243:195,1,90
53,134,23525,2,0,P|71:174|124:217,1,90
275,89,23835,1,0,0:0:0:0:
207,299,23991,6,0,P|122:326|52:277,1,180
132,33,24456,1,0,0:0:0:0:
186,187,24612,1,0,0:0:0:0:
259,44,24767,1,0,0:0:0:0:
77,140,24923,1,0,0:0:0:0:
320,155,25078,1,0,0:0:0:0:
101,270,25234,1,0,0:0:0:0:
447,217,25388,6,0,L|419:117,1,90
308,280,25699,2,0,L|336:380,1,90
256,188,26009,2,0,P|316:176|372:200,1,90
224,345,26320,1,0,0:0:0:0:
133,184,26475,6,0,B|110:100|110:100|126:16,1,135
131,17,26786,1,0,0:0:0:0:
306,47,26941,1,0,0:0:0:0:
133,184,27096,1,0,0:0:0:0:
268,121,27252,2,0,P|280:162|289:213,1,90
169,320,27562,1,0,0:0:0:0:
8,156,27718,6,0,P|32:77|139:60,1,180
194,242,28183,1,0,0:0:0:0:
311,100,28339,1,0,0:0:0:0:
398,322,28494,1,0,0:0:0:0:
220,149,28649,1,0,0:0:0:0:
450,91,28805,1,0,0:0:0:0:
279,285,28960,1,0,0:0:0:0:
311,88,29115,5,0,0:0:0:0:
310,74,29192,1,0,0:0:0:0:
310,61,29270,1,0,0:0:0:0:
403,299,29426,1,0,0:0:0:0:
220,149,29581,1,0,0:0:0:0:
133,153,29892,5,0,0:0:0:0:
133,153,30047,2,0,L|141:55,1,67.5000025749208
223,122,30280,1,0,0:0:0:0:
220,149,30357,6,0,L|208:273,1,90
44,208,30668,2,0,L|52:118,1,90
312,23,30979,1,0,0:0:0:0:
139,87,31134,1,0,0:0:0:0:
327,229,31289,1,0,0:0:0:0:
320,99,31445,1,0,0:0:0:0:
211,238,31600,5,0,0:0:0:0:
206,282,31677,1,0,0:0:0:0:
215,326,31755,1,0,0:0:0:0:
432,265,31910,1,0,0:0:0:0:
298,304,32066,1,0,0:0:0:0:
492,204,32221,2,0,P|511:251|501:315,1,90
329,181,32532,1,0,0:0:0:0:
384,343,32688,1,0,0:0:0:0:
435,125,32842,6,0,P|437:80|425:37,1,90
188,45,33153,2,0,P|175:88|178:133,1,90
348,92,33463,2,0,P|304:104|260:103,1,90
95,49,33774,1,0,0:0:0:0:
134,213,33929,1,0,0:0:0:0:
260,103,34084,5,0,0:0:0:0:
260,139,34162,1,0,0:0:0:0:
260,175,34240,1,0,0:0:0:0:
260,344,34395,1,0,0:0:0:0:
396,220,34550,1,0,0:0:0:0:
384,348,34706,1,0,0:0:0:0:
260,212,34861,1,0,0:0:0:0:
456,292,35016,1,0,0:0:0:0:
192,280,35172,1,0,0:0:0:0:
416,197,35327,6,0,P|431:152|412:73,1,90
261,65,35637,2,0,L|350:57,1,90
99,75,35948,1,0,0:0:0:0:
214,171,36103,1,0,0:0:0:0:
77,223,36259,1,0,0:0:0:0:
173,303,36414,1,0,0:0:0:0:
313,124,36569,5,0,0:0:0:0:
356,130,36646,1,0,0:0:0:0:
390,159,36724,1,0,0:0:0:0:
309,345,36880,1,0,0:0:0:0:
219,240,37035,1,0,0:0:0:0:
388,287,37190,2,0,P|429:287|503:264,1,90
394,61,37501,1,0,0:0:0:0:
316,217,37656,1,0,0:0:0:0:
180,76,37811,5,0,0:0:0:0:
244,268,37966,1,0,0:0:0:0:
336,120,38122,1,0,0:0:0:0:
136,160,38277,1,0,0:0:0:0:
316,217,38433,1,0,0:0:0:0:
252,25,38588,1,0,0:0:0:0:
128,244,38743,2,0,L|120:356,1,90
144,36,39054,5,0,0:0:0:0:
32,136,39209,1,0,0:0:0:0:
240,144,39364,1,0,0:0:0:0:
128,244,39520,1,0,0:0:0:0:
128,244,39830,5,0,0:0:0:0:
206,312,39986,2,0,L|228:207,1,90
240,144,40218,1,0,0:0:0:0:
246,124,40296,6,0,L|342:136,1,90
411,298,40607,2,0,P|371:318|315:310,1,90
452,96,40917,1,0,0:0:0:0:
432,216,41073,1,0,0:0:0:0:
324,52,41228,1,0,0:0:0:0:
351,235,41384,1,0,0:0:0:0:
204,93,41538,5,0,0:0:0:0:
195,137,41615,1,0,0:0:0:0:
187,181,41693,1,0,0:0:0:0:
152,333,41849,1,0,0:0:0:0:
7,186,42004,6,0,P|37:104|122:162,1,180
242,241,42470,1,0,0:0:0:0:
73,280,42626,1,0,0:0:0:0:
238,347,42781,6,0,L|370:355,1,90
485,263,43091,2,0,L|395:257,1,90
256,152,43402,5,0,0:0:0:0:
345,157,43557,1,0,0:0:0:0:
503,68,43713,1,0,0:0:0:0:
413,62,43868,1,0,0:0:0:0:
256,152,44023,5,0,0:0:0:0:
211,150,44100,1,0,0:0:0:0:
166,149,44178,1,0,0:0:0:0:
28,144,44334,1,0,0:0:0:0:
256,152,44489,1,0,0:0:0:0:
144,68,44644,1,0,0:0:0:0:
180,256,44800,1,0,0:0:0:0:
240,48,44955,1,0,0:0:0:0:
279,239,45111,1,0,0:0:0:0:
84,125,45265,6,0,P|56:66|88:1,1,135
201,122,45576,2,0,L|174:286,1,135
274,198,45887,1,0,0:0:0:0:
98,208,46042,1,0,0:0:0:0:
285,318,46197,1,0,0:0:0:0:
109,308,46352,1,0,0:0:0:0:
274,198,46508,5,0,0:0:0:0:
318,201,46586,1,0,0:0:0:0:
354,229,46663,1,0,0:0:0:0:
457,127,46818,1,0,0:0:0:0:
403,307,46974,1,0,0:0:0:0:
365,61,47129,1,0,0:0:0:0:
426,219,47285,1,0,0:0:0:0:
242,72,47440,1,0,0:0:0:0:
447,45,47596,1,0,0:0:0:0:
249,209,47750,6,0,B|146:252|33:213|28:35|160:73|247:107|96:269|96:269|58:247|23:197,1,540
88,38,48837,2,0,B|161:16|216:73|216:73|296:124|352:67|338:19|260:-22|227:50,1,360
165,260,49614,6,0,L|176:318,1,45
255,128,49769,2,0,L|263:83,1,45
318,312,49924,2,0,L|329:370,1,45
421,150,50079,2,0,L|429:105,1,45
489,328,50235,6,0,P|404:343|298:295,1,180
262,219,50701,1,0,0:0:0:0:
262,219,50856,2,0,P|211:284|234:383,1,180
116,213,51322,1,0,0:0:0:0:
116,213,51477,2,0,P|60:241|140:297,1,180
244,232,51943,1,0,0:0:0:0:
244,232,52098,2,0,L|188:160,1,90
352,228,52409,2,0,L|324:141,1,90
444,272,52719,6,0,L|444:64,1,180
344,40,53185,1,0,0:0:0:0:
344,40,53341,2,0,B|248:72|260:24|152:52,1,180
48,92,53807,1,0,0:0:0:0:
48,92,53962,2,0,B|72:212|72:212|144:148,1,180
128,288,54428,1,0,0:0:0:0:
128,288,54583,2,0,B|212:212|212:212,1,90
240,344,54894,2,0,B|292:243|292:243,1,90
372,360,55204,6,0,B|392:172|392:172,1,180
408,44,55669,1,0,0:0:0:0:
408,44,55825,2,0,P|328:100|232:72,1,180
168,0,56290,1,0,0:0:0:0:
168,0,56446,2,0,L|160:216,1,180
149,311,56912,1,0,0:0:0:0:
149,311,57068,2,0,P|197:323|269:299,1,90
385,182,57378,2,0,P|341:170|297:176,1,90
463,291,57689,5,0,0:0:0:0:
221,212,57844,1,0,0:0:0:0:
460,134,57999,1,0,0:0:0:0:
312,337,58155,1,0,0:0:0:0:
311,86,58311,1,0,0:0:0:0:
348,214,58465,1,0,0:0:0:0:
99,71,58621,1,0,0:0:0:0:
227,34,58775,1,0,0:0:0:0:
48,160,58931,5,0,0:0:0:0:
27,199,59008,1,0,0:0:0:0:
21,244,59086,1,0,0:0:0:0:
30,287,59163,1,0,0:0:0:0:
54,325,59241,1,0,0:0:0:0:
90,353,59319,1,0,0:0:0:0:
132,366,59396,1,0,0:0:0:0:
177,365,59474,1,0,0:0:0:0:
212,352,59552,6,0,L|292:328,1,45
503,268,59708,2,0,L|423:244,1,45
196,192,59863,2,0,L|276:168,1,45
487,108,60019,2,0,L|407:84,1,45
168,32,60173,1,0,0:0:0:0:
35,80,60795,5,0,0:0:0:0:
168,32,60950,1,0,0:0:0:0:
32,68,61105,1,0,0:0:0:0:
171,44,61260,1,0,0:0:0:0:
100,224,61416,6,0,L|252:224,1,107.999996704102
272,360,61726,2,0,L|164:360,1,107.999996704102
288,168,62037,1,0,0:0:0:0:
364,308,62192,1,0,0:0:0:0:
380,100,62348,1,0,0:0:0:0:
456,240,62503,1,0,0:0:0:0:
280,44,62658,5,0,0:0:0:0:
480,56,62813,1,0,0:0:0:0:
372,224,62969,1,0,0:0:0:0:
384,8,63124,1,0,0:0:0:0:
276,152,63279,1,0,0:0:0:0:
476,164,63434,1,0,0:0:0:0:
212,88,63590,2,0,P|188:152|216:220,1,107.999996704102
124,56,63900,6,0,L|8:60,1,107.999996704102
300,44,64211,1,0,0:0:0:0:
124,56,64366,1,0,0:0:0:0:
276,152,64522,2,0,L|392:156,1,107.999996704102
100,140,64833,1,0,0:0:0:0:
276,152,64988,1,0,0:0:0:0:
104,228,65143,6,0,P|112:288|172:348,1,107.999996704102
296,264,65453,2,0,P|240:240|158:262,1,107.999996704102
324,360,65764,2,0,P|371:323|393:241,1,107.999996704102
356,112,66075,1,0,0:0:0:0:
472,232,66230,1,0,0:0:0:0:
169,144,66385,6,0,P|117:221|214:222,1,202.500007724762
288,180,66696,2,0,P|339:170|459:177,1,135.000005149842
211,334,67006,5,0,0:0:0:0:
211,135,67162,1,0,0:0:0:0:
44,248,67317,1,0,0:0:0:0:
211,135,67472,1,0,0:0:0:0:
24,64,67627,6,0,L|176:80,1,107.999996704102
318,123,67938,2,0,L|166:139,1,107.999996704102
384,36,68249,1,0,0:0:0:0:
376,224,68404,1,0,0:0:0:0:
264,40,68559,1,0,0:0:0:0:
468,124,68714,1,0,0:0:0:0:
272,336,68870,5,0,0:0:0:0:
199,140,69025,1,0,0:0:0:0:
36,228,69180,1,0,0:0:0:0:
242,262,69335,1,0,0:0:0:0:
248,78,69491,5,0,0:0:0:0:
114,239,69646,1,0,0:0:0:0:
272,336,69801,1,0,0:0:0:0:
198,140,69956,1,0,0:0:0:0:
128,352,70112,5,0,0:0:0:0:
352,256,70267,1,0,0:0:0:0:
120,133,70423,2,0,P|107:186|115:242,1,107.999996704102
375,103,70733,2,0,P|335:65|283:44,1,107.999996704102
272,339,71044,2,0,P|325:324|369:289,1,107.999996704102
188,68,71354,5,0,0:0:0:0:
280,248,71510,1,0,0:0:0:0:
116,240,71665,1,0,0:0:0:0:
296,148,71821,1,0,0:0:0:0:
180,356,71976,1,0,0:0:0:0:
191,155,72132,1,0,0:0:0:0:
388,308,72286,1,0,0:0:0:0:
190,272,72442,1,0,0:0:0:0:
384,208,72597,6,0,P|444:208|500:240,1,107.999996704102
485,79,72907,2,0,P|436:100|382:99,1,107.999996704102
236,44,73218,1,0,0:0:0:0:
416,0,73373,1,0,0:0:0:0:
296,166,73529,1,0,0:0:0:0:
204,4,73684,1,0,0:0:0:0:
248,248,73839,6,0,P|292:260|380:216,1,107.999996704102
140,236,74150,2,0,L|128:356,1,107.999996704102
32,164,74460,2,0,L|42:56,1,107.999996704102
260,156,74771,2,0,L|152:145,1,107.999996704102
356,182,75081,5,0,0:0:0:0:
212,44,75237,1,0,0:0:0:0:
272,232,75392,1,0,0:0:0:0:
420,108,75548,1,0,0:0:0:0:
240,140,75703,1,0,0:0:0:0:
388,16,75859,1,0,0:0:0:0:
432,228,76013,1,0,0:0:0:0:
504,88,76168,1,0,0:0:0:0:
441,319,76324,6,0,P|353:278|373:162,1,202.500007724762
432,228,76634,2,0,L|255:252,1,135.000005149842
512,213,76945,5,0,0:0:0:0:
298,246,77100,1,0,0:0:0:0:
455,136,77256,1,0,0:0:0:0:
355,329,77411,1,0,0:0:0:0:
211,132,77566,6,0,P|153:108|85:123,1,107.999996704102
298,246,77877,2,0,L|319:128,1,107.999996704102
145,208,78187,2,0,L|163:314,1,107.999996704102
28,187,78498,1,0,0:0:0:0:
211,132,78653,1,0,0:0:0:0:
86,297,78808,5,0,0:0:0:0:
42,101,78964,1,0,0:0:0:0:
157,267,79119,5,0,0:0:0:0:
185,47,79275,1,0,0:0:0:0:
234,272,79430,5,0,0:0:0:0:
345,55,79586,1,0,0:0:0:0:
301,308,79740,5,0,0:0:0:0:
497,125,79896,1,0,0:0:0:0:
301,308,80051,5,0,0:0:0:0:
234,272,80361,5,0,0:0:0:0:
157,267,80672,5,0,0:0:0:0:
256,192,81293,12,0,82846,0:0:0:0:
104,176,83001,5,0,0:0:0:0:
204,116,83157,1,0,0:0:0:0:
219,158,83234,1,0,0:0:0:0:
216,202,83312,1,0,0:0:0:0:
196,242,83389,1,0,0:0:0:0:
120,274,83467,6,0,L|209:280,1,90
309,164,83778,2,0,L|219:157,1,90
320,337,84088,1,0,0:0:0:0:
489,252,84244,1,0,0:0:0:0:
309,164,84399,1,0,0:0:0:0:
412,323,84554,1,0,0:0:0:0:
366,105,84710,6,0,P|311:84|251:105,1,90
485,226,85020,2,0,L|473:136,1,90
412,342,85331,1,0,0:0:0:0:
287,262,85486,1,0,0:0:0:0:
473,136,85641,1,0,0:0:0:0:
383,254,85797,1,0,0:0:0:0:
222,80,85952,2,0,L|315:80,1,90
138,262,86262,5,0,0:0:0:0:
48,72,86418,1,0,0:0:0:0:
204,183,86573,1,0,0:0:0:0:
134,52,86728,1,0,0:0:0:0:
14,264,86884,1,0,0:0:0:0:
204,183,87039,2,0,P|286:181|414:194,1,180
232,303,87505,5,0,0:0:0:0:
297,141,87660,1,0,0:0:0:0:
482,212,87815,1,0,0:0:0:0:
314,274,87970,1,0,0:0:0:0:
436,72,88126,1,0,0:0:0:0:
418,295,88281,1,0,0:0:0:0:
346,79,88437,6,0,P|280:64|236:96,1,107.999996704102
372,184,88747,2,0,L|487:176,1,107.999996704102
241,195,89058,1,0,0:0:0:0:
354,284,89213,6,0,P|379:220|361:164,1,107.999996704102
126,22,89524,2,0,B|157:229,1,161.999995056153
169,282,89834,1,0,0:0:0:0:
242,123,89989,5,0,0:0:0:0:
33,185,90145,1,0,0:0:0:0:
187,286,90300,2,0,L|287:302,1,90
349,128,90611,1,0,0:0:0:0:
448,255,90766,2,0,L|232:262,1,180
64,255,91232,5,0,0:0:0:0:
186,197,91387,1,0,0:0:0:0:
303,380,91542,1,0,0:0:0:0:
181,322,91697,1,0,0:0:0:0:
306,128,91853,1,0,0:0:0:0:
306,265,92008,1,0,0:0:0:0:
114,106,92164,1,0,0:0:0:0:
93,97,92241,1,0,0:0:0:0:
72,87,92319,1,0,0:0:0:0:
303,25,92474,5,0,0:0:0:0:
175,217,92629,1,0,0:0:0:0:
124,281,92940,5,0,0:0:0:0:
124,281,93095,2,0,P|158:299|221:281,1,90
289,243,93328,1,0,0:0:0:0:
312,250,93406,6,0,L|410:272,1,90
175,217,93716,2,0,L|87:197,1,90
224,49,94027,1,0,0:0:0:0:
253,169,94182,1,0,0:0:0:0:
126,55,94338,1,0,0:0:0:0:
308,1,94493,1,0,0:0:0:0:
132,173,94648,5,0,0:0:0:0:
87,174,94725,1,0,0:0:0:0:
42,175,94803,1,0,0:0:0:0:
253,169,94959,1,0,0:0:0:0:
201,282,95114,1,0,0:0:0:0:
215,100,95269,2,0,P|280:96|316:124,1,90
348,290,95580,1,0,0:0:0:0:
253,169,95735,1,0,0:0:0:0:
403,103,95891,6,0,L|509:113,1,90
430,271,96201,2,0,L|442:162,1,90
458,23,96512,1,0,0:0:0:0:
328,44,96667,1,0,0:0:0:0:
492,111,96822,1,0,0:0:0:0:
328,138,96978,1,0,0:0:0:0:
430,271,97133,5,0,0:0:0:0:
434,226,97210,1,0,0:0:0:0:
439,181,97288,1,0,0:0:0:0:
281,255,97443,1,0,0:0:0:0:
414,350,97599,1,0,0:0:0:0:
204,323,97754,1,0,0:0:0:0:
347,303,97909,1,0,0:0:0:0:
114,198,98065,1,0,0:0:0:0:
281,255,98220,1,0,0:0:0:0:
52,254,98375,6,0,P|35:216|63:133,1,90
203,157,98686,2,0,P|220:119|192:36,1,90
0,58,98996,1,0,0:0:0:0:
139,99,99152,1,0,0:0:0:0:
52,254,99307,1,0,0:0:0:0:
38,168,99462,1,0,0:0:0:0:
197,275,99618,6,0,B|239:289|239:289|359:284,1,135
440,273,99928,1,0,0:0:0:0:
440,273,100083,1,0,0:0:0:0:
280,171,100239,1,0,0:0:0:0:
280,171,100394,1,0,0:0:0:0:
461,82,100549,1,0,0:0:0:0:
363,210,100705,1,0,0:0:0:0:
235,93,100860,6,0,P|191:83|146:87,1,90
22,204,101170,2,0,L|144:195,1,90
311,215,101481,2,0,L|221:221,1,90
97,326,101792,2,0,P|141:335|186:331,1,90
292,118,102102,5,0,0:0:0:0:
356,301,102257,1,0,0:0:0:0:
200,151,102413,1,0,0:0:0:0:
410,76,102568,1,0,0:0:0:0:
470,155,102879,5,0,0:0:0:0:
470,155,103034,2,0,L|438:273,1,90
336,268,103267,1,0,0:0:0:0:
314,266,103345,2,0,L|225:258,1,90
10,231,103655,5,0,0:0:0:0:
200,182,103810,1,0,0:0:0:0:
5,102,103966,2,0,P|45:95|113:115,1,90
103,297,104276,2,0,P|96:252|105:209,1,90
282,85,104587,5,0,0:0:0:0:
278,116,104664,1,0,0:0:0:0:
274,147,104742,1,0,0:0:0:0:
181,59,104897,1,0,0:0:0:0:
387,113,105053,1,0,0:0:0:0:
195,205,105208,2,0,L|86:209,1,90
302,320,105519,2,0,L|321:207,1,90
364,36,105829,5,0,0:0:0:0:
408,195,105984,1,0,0:0:0:0:
459,25,106140,1,0,0:0:0:0:
494,152,106295,1,0,0:0:0:0:
190,69,106450,2,0,L|303:75,1,90
316,231,106761,1,0,0:0:0:0:
423,106,106916,1,0,0:0:0:0:
217,181,107072,5,0,0:0:0:0:
172,182,107149,1,0,0:0:0:0:
127,183,107227,1,0,0:0:0:0:
281,316,107382,2,0,L|381:310,1,90
108,283,107693,1,0,0:0:0:0:
298,213,107848,1,0,0:0:0:0:
180,344,108003,1,0,0:0:0:0:
216,179,108159,1,0,0:0:0:0:
37,186,108314,6,0,L|143:182,1,90
0,80,108624,2,0,L|106:84,1,90
205,251,108935,1,0,0:0:0:0:
233,75,109090,1,0,0:0:0:0:
336,231,109246,1,0,0:0:0:0:
354,127,109401,1,0,0:0:0:0:
126,182,109556,6,0,P|102:235|112:300,1,90
110,74,109867,1,0,0:0:0:0:
16,182,110022,1,0,0:0:0:0:
211,84,110177,1,0,0:0:0:0:
49,18,110333,1,0,0:0:0:0:
126,182,110488,1,0,0:0:0:0:
166,12,110643,1,0,0:0:0:0:
221,209,110799,6,0,L|213:319,1,90
306,173,111109,2,0,L|298:283,1,90
392,132,111420,2,0,L|384:242,1,90
470,87,111730,1,0,0:0:0:0:
470,87,111886,2,0,L|454:294,1,180
380,364,112351,5,0,0:0:0:0:
183,214,112507,1,0,0:0:0:0:
392,132,112662,1,0,0:0:0:0:
207,357,112817,1,0,0:0:0:0:
32,102,112973,1,0,0:0:0:0:
301,122,113128,1,0,0:0:0:0:
51,314,113283,6,0,B|20:334|20:334|29:156,1,180
119,75,113749,1,0,0:0:0:0:
119,75,113904,2,0,P|203:56|328:77,1,180
406,133,114370,1,0,0:0:0:0:
406,133,114526,2,0,B|394:194|394:194|409:236|409:236|411:277|371:333,1,180
229,331,114991,1,0,0:0:0:0:
229,331,115147,2,0,L|204:231,1,90
109,296,115457,2,0,L|137:196,1,90
21,201,115768,6,0,L|166:62,1,180
366,130,116234,1,0,0:0:0:0:
366,130,116389,2,0,B|303:165|249:124|249:124|183:182,1,180
313,58,116855,1,0,0:0:0:0:
313,58,117010,2,0,P|392:44|452:132,1,180
400,242,117476,1,0,0:0:0:0:
400,242,117632,2,0,L|300:217,1,90
365,122,117942,2,0,L|265:150,1,90
270,34,118253,6,0,L|131:179,1,180
67,246,118719,1,0,0:0:0:0:
67,246,118874,2,0,L|241:288,1,180
362,313,119340,1,0,0:0:0:0:
362,313,119495,2,0,L|311:141,1,180
270,34,119961,1,0,0:0:0:0:
270,34,120116,6,0,P|216:76|201:131,1,90
344,247,120427,2,0,P|398:205|413:150,1,90
420,22,120737,5,0,0:0:0:0:
484,219,120892,1,0,0:0:0:0:
265,169,121048,1,0,0:0:0:0:
455,109,121203,1,0,0:0:0:0:
320,309,121358,1,0,0:0:0:0:
352,84,121514,1,0,0:0:0:0:
154,216,121669,1,0,0:0:0:0:
359,177,121824,1,0,0:0:0:0:
102,28,121979,5,0,0:0:0:0:
115,70,122056,1,0,0:0:0:0:
118,115,122134,1,0,0:0:0:0:
107,158,122211,1,0,0:0:0:0:
85,197,122289,1,0,0:0:0:0:
64,237,122367,1,0,0:0:0:0:
58,281,122444,1,0,0:0:0:0:
74,323,122522,1,0,0:0:0:0:
109,350,122600,1,0,0:0:0:0:
154,354,122677,1,0,0:0:0:0:
193,334,122755,1,0,0:0:0:0:
218,297,122833,1,0,0:0:0:0:
223,252,122911,6,0,P|215:227|200:206,1,45
27,89,123067,2,0,P|15:108|8:129,1,45
141,270,123222,5,0,0:0:0:0:
141,270,123843,5,0,0:0:0:0:
330,247,123998,1,0,0:0:0:0:
139,245,124154,1,0,0:0:0:0:
328,268,124309,1,0,0:0:0:0:
159,102,124464,5,0,0:0:0:0:
244,322,124619,1,0,0:0:0:0:
338,82,124775,1,0,0:0:0:0:
253,302,124930,1,0,0:0:0:0:
242,64,125085,1,0,0:0:0:0:
443,190,125241,1,0,0:0:0:0:
269,162,125396,1,0,0:0:0:0:
482,104,125551,1,0,0:0:0:0:
360,309,125706,6,0,L|235:300,1,107.999996704102
49,178,126017,2,0,L|174:169,1,107.999996704102
405,148,126328,1,0,0:0:0:0:
298,247,126483,1,0,0:0:0:0:
333,37,126638,1,0,0:0:0:0:
387,238,126793,1,0,0:0:0:0:
130,93,126949,5,0,0:0:0:0:
300,143,127104,1,0,0:0:0:0:
43,139,127259,2,0,P|32:90|77:14,1,107.999996704102
300,143,127570,5,0,0:0:0:0:
130,193,127725,1,0,0:0:0:0:
387,189,127880,2,0,P|398:140|353:64,1,107.999996704102
236,246,128191,2,0,L|267:371,1,107.999996704102
387,189,128502,1,0,0:0:0:0:
358,338,128657,1,0,0:0:0:0:
160,195,128812,2,0,P|216:160|285:170,1,107.999996704102
418,276,129123,1,0,0:0:0:0:
400,66,129278,1,0,0:0:0:0:
160,195,129433,6,0,P|203:257|310:211,1,202.500007724762
237,186,129744,2,0,L|211:372,1,135.000005149842
253,70,130055,1,0,0:0:0:0:
90,110,130210,1,0,0:0:0:0:
344,118,130365,1,0,0:0:0:0:
168,20,130521,1,0,0:0:0:0:
440,29,130676,6,0,L|420:139,1,107.999996704102
237,186,130986,2,0,L|256:292,1,107.999996704102
485,225,131297,1,0,0:0:0:0:
321,122,131452,1,0,0:0:0:0:
370,350,131608,1,0,0:0:0:0:
504,142,131763,1,0,0:0:0:0:
237,186,131918,5,0,0:0:0:0:
412,272,132073,1,0,0:0:0:0:
233,97,132229,1,0,0:0:0:0:
408,183,132384,1,0,0:0:0:0:
224,13,132539,5,0,0:0:0:0:
172,235,132695,1,0,0:0:0:0:
139,2,132850,1,0,0:0:0:0:
87,224,133006,1,0,0:0:0:0:
68,78,133160,6,0,P|120:76|189:122,1,107.999996704102
268,234,133471,2,0,P|315:257|369:256,1,107.999996704102
294,57,133782,1,0,0:0:0:0:
172,235,133937,1,0,0:0:0:0:
378,105,134092,1,0,0:0:0:0:
87,186,134247,1,0,0:0:0:0:
403,105,134403,6,0,P|447:106|523:118,1,107.999996704102
355,214,134713,2,0,P|388:243|438:301,1,107.999996704102
235,120,135024,1,0,0:0:0:0:
370,34,135179,1,0,0:0:0:0:
355,214,135335,1,0,0:0:0:0:
295,61,135490,1,0,0:0:0:0:
215,276,135645,6,0,L|337:297,1,107.999996704102
160,196,135956,2,0,L|38:217,1,107.999996704102
254,368,136266,1,0,0:0:0:0:
267,159,136422,1,0,0:0:0:0:
89,311,136577,1,0,0:0:0:0:
215,276,136732,1,0,0:0:0:0:
98,120,136887,6,0,P|149:99|233:129,1,107.999996704102
435,121,137198,2,0,P|385:100|333:108,1,107.999996704102
157,186,137509,1,0,0:0:0:0:
372,190,137664,1,0,0:0:0:0:
132,289,137819,1,0,0:0:0:0:
390,293,137974,1,0,0:0:0:0:
263,69,138130,5,0,0:0:0:0:
286,299,138285,1,0,0:0:0:0:
96,130,138440,2,0,P|75:177|115:257,1,107.999996704102
347,125,138751,1,0,0:0:0:0:
157,186,138906,1,0,0:0:0:0:
333,296,139062,2,0,L|469:291,1,107.999996704102
133,322,139372,6,0,P|84:265|184:192,1,202.500007724762
155,255,139683,2,0,L|198:76,1,135.000005149842
477,51,139993,5,0,0:0:0:0:
300,67,140149,1,0,0:0:0:0:
466,181,140304,1,0,0:0:0:0:
333,301,140459,1,0,0:0:0:0:
372,109,140615,5,0,0:0:0:0:
418,298,140770,1,0,0:0:0:0:
253,171,140925,2,0,L|130:175,1,107.999996704102
349,22,141236,5,0,0:0:0:0:
395,211,141391,1,0,0:0:0:0:
230,84,141546,2,0,L|107:88,1,107.999996704102
14,321,141857,5,0,0:0:0:0:
119,166,142012,1,0,0:0:0:0:
160,370,142167,5,0,3:0:0:0:
209,169,142322,1,0,3:0:0:0:
319,363,142478,5,0,3:0:0:0:
294,136,142633,1,0,3:0:0:0:
454,294,142789,5,0,3:0:0:0:
342,68,142944,1,0,3:0:0:0:
243,263,143099,6,0,P|331:265|418:192,2,180
123,174,144497,6,0,L|145:40,1,135.000005149842
107,263,144963,1,0,0:0:0:0:
35,138,145118,1,0,0:0:0:0:
226,118,145273,1,0,0:0:0:0:
27,225,145429,1,0,0:0:0:0:
27,225,145739,6,0,L|202:245,1,135.000005149842
365,194,146205,1,0,0:0:0:0:
279,332,146360,1,0,0:0:0:0:
228,149,146515,1,0,0:0:0:0:
228,149,146981,6,0,L|139:321,1,135.000005149842
338,179,147447,1,0,0:0:0:0:
145,81,147603,1,0,0:0:0:0:
297,250,147758,1,0,0:0:0:0:
105,152,147914,1,0,0:0:0:0:
105,152,148224,6,0,B|192:180|172:126|267:160,1,135.000005149842
379,298,148690,1,0,0:0:0:0:
212,230,148845,1,0,0:0:0:0:
370,94,149000,1,0,0:0:0:0:
370,94,149466,6,0,B|308:105|308:105|257:98|257:98|168:115,1,180
0,155,149932,1,0,0:0:0:0:
186,239,150087,1,0,0:0:0:0:
107,30,150243,1,0,0:0:0:0:
54,245,150398,1,0,0:0:0:0:
54,245,150708,6,0,B|66:301|117:321|117:321|227:315,1,180
406,145,151174,1,0,0:0:0:0:
338,343,151330,1,0,0:0:0:0:
246,118,151485,1,0,0:0:0:0:
246,118,151951,6,0,P|161:106|117:206,1,180
261,366,152417,1,0,0:0:0:0:
193,179,152572,1,0,0:0:0:0:
3,333,152727,1,0,0:0:0:0:
205,288,152883,1,0,0:0:0:0:
205,288,153193,6,0,B|277:255|329:301|329:301|361:241,1,180
428,39,153659,1,0,0:0:0:0:
445,223,153814,1,0,0:0:0:0:
332,19,153970,1,0,0:0:0:0:
332,19,154435,6,0,B|292:32|272:64|272:64|272:94|272:94|252:133|199:144,1,180
4,39,154901,1,0,0:0:0:0:
195,62,155057,1,0,0:0:0:0:
29,273,155212,1,0,0:0:0:0:
68,102,155367,1,0,0:0:0:0:
68,102,155678,6,0,P|91:153|149:178,1,90
291,172,155988,1,0,0:0:0:0:
169,80,156144,2,0,L|125:289,1,180
101,344,156610,1,0,0:0:0:0:
245,353,156765,6,0,L|222:192,1,135.000005149842
101,344,157231,1,0,0:0:0:0:
204,119,157386,1,0,0:0:0:0:
335,276,157541,1,0,0:0:0:0:
117,147,157697,1,0,0:0:0:0:
341,142,157852,1,0,0:0:0:0:
139,237,158007,6,0,L|-14:261,1,135.000005149842
258,213,158473,1,0,0:0:0:0:
48,105,158628,1,0,0:0:0:0:
259,112,158784,1,0,0:0:0:0:
113,330,158939,1,0,0:0:0:0:
147,126,159094,1,0,0:0:0:0:
248,301,159249,6,0,L|396:265,1,135.000005149842
488,122,159715,1,0,0:0:0:0:
456,339,159871,1,0,0:0:0:0:
347,52,160026,1,0,0:0:0:0:
379,269,160182,1,0,0:0:0:0:
488,122,160337,1,0,0:0:0:0:
199,114,160492,5,0,0:0:0:0:
147,126,160569,1,0,0:0:0:0:
111,165,160647,1,0,0:0:0:0:
103,217,160724,1,0,0:0:0:0:
126,265,160802,1,0,0:0:0:0:
172,292,160880,1,0,0:0:0:0:
225,288,160957,1,0,0:0:0:0:
267,256,161035,1,0,0:0:0:0:
301,214,161113,5,0,0:0:0:0:
343,181,161191,1,0,0:0:0:0:
396,178,161268,1,0,0:0:0:0:
442,204,161346,1,0,0:0:0:0:
465,252,161424,1,0,0:0:0:0:
457,305,161501,1,0,0:0:0:0:
424,348,161579,2,0,P|393:359|326:340,1,53.9999983520508
193,204,161734,5,0,0:0:0:0:
193,204,162355,5,0,0:0:0:0:
249,42,162511,1,0,0:0:0:0:
179,194,162666,1,0,0:0:0:0:
235,32,162822,1,0,0:0:0:0:
92,245,162976,6,0,P|77:194|93:143,1,107.999996704102
265,255,163287,2,0,L|227:376,1,107.999996704102
184,79,163598,1,0,0:0:0:0:
384,154,163753,1,0,0:0:0:0:
179,194,163908,1,0,0:0:0:0:
389,39,164063,1,0,0:0:0:0:
119,135,164219,6,0,P|97:179|112:245,1,107.999996704102
344,263,164529,1,0,0:0:0:0:
167,309,164685,1,0,0:0:0:0:
265,82,164840,1,0,0:0:0:0:
245,343,164995,1,0,0:0:0:0:
343,116,165150,1,0,0:0:0:0:
166,162,165306,1,0,0:0:0:0:
415,199,165461,6,0,P|444:157|433:65,1,107.999996704102
265,255,165772,2,0,P|286:301|372:337,1,107.999996704102
283,100,166082,2,0,P|232:95|157:151,1,107.999996704102
90,325,166393,1,0,0:0:0:0:
50,176,166548,1,0,0:0:0:0:
265,255,166703,6,0,L|157:247,1,107.999996704102
372,110,167014,2,0,P|374:180|342:223,1,107.999996704102
93,94,167325,1,0,0:0:0:0:
295,149,167480,1,0,0:0:0:0:
157,247,167635,1,0,0:0:0:0:
210,52,167791,1,0,0:0:0:0:
292,244,167946,6,0,P|361:284|422:186,1,202.500007724762
292,244,168256,2,0,P|263:305|286:409,1,135.000005149842
137,271,168567,1,0,0:0:0:0:
372,324,168722,1,0,0:0:0:0:
185,184,168878,2,0,P|128:174|53:210,1,107.999996704102
264,306,169188,5,0,0:0:0:0:
253,113,169343,1,0,0:0:0:0:
137,271,169499,1,0,0:0:0:0:
347,262,169654,1,0,0:0:0:0:
132,94,169809,2,0,P|76:84|10:107,1,107.999996704102
206,197,170120,2,0,P|262:207|328:184,1,107.999996704102
466,47,170430,5,0,0:0:0:0:
416,287,170586,1,0,0:0:0:0:
303,85,170741,1,0,0:0:0:0:
508,223,170896,1,0,0:0:0:0:
286,328,171052,5,0,0:0:0:0:
393,135,171207,1,0,0:0:0:0:
424,344,171362,1,0,0:0:0:0:
196,236,171517,1,0,0:0:0:0:
427,205,171673,5,0,0:0:0:0:
286,328,171828,1,0,0:0:0:0:
275,109,171983,1,0,0:0:0:0:
356,271,172139,1,0,0:0:0:0:
112,178,172294,5,0,0:0:0:0:
352,153,172449,1,0,0:0:0:0:
112,156,172605,1,0,0:0:0:0:
352,183,172760,1,0,0:0:0:0:
104,48,172915,6,0,L|113:184,1,107.999996704102
352,153,173226,2,0,L|359:45,1,107.999996704102
177,92,173536,2,0,L|304:93,1,107.999996704102
459,9,173847,1,0,0:0:0:0:
441,163,174002,1,0,0:0:0:0:
278,11,174157,5,0,0:0:0:0:
491,87,174313,1,0,0:0:0:0:
262,176,174468,1,0,0:0:0:0:
381,51,174624,1,0,0:0:0:0:
307,267,174779,2,0,P|239:274|178:245,1,107.999996704102
141,101,175089,2,0,P|73:94|12:123,1,107.999996704102
7,332,175400,5,0,0:0:0:0:
181,182,175555,1,0,0:0:0:0:
9,204,175710,1,0,0:0:0:0:
170,331,175866,1,0,0:0:0:0:
141,101,176021,1,0,0:0:0:0:
70,267,176176,1,0,0:0:0:0:
275,163,176332,2,0,P|273:102|254:25,1,107.999996704102
222,256,176642,6,0,P|269:268|360:235,1,107.999996704102
477,93,176953,1,0,0:0:0:0:
303,159,177108,1,0,0:0:0:0:
512,253,177263,1,0,0:0:0:0:
388,88,177419,1,0,0:0:0:0:
343,335,177574,1,0,0:0:0:0:
437,194,177729,1,0,0:0:0:0:
193,154,177884,6,0,P|160:165|247:218,1,202.500007724762
278,120,178195,2,0,P|231:78|116:96,1,135.000005149842
1,220,178506,1,0,0:0:0:0:
193,154,178661,1,0,0:0:0:0:
37,65,178816,1,0,0:0:0:0:
80,258,178972,1,0,0:0:0:0:
384,83,179127,6,0,L|259:51,1,107.999996704102
355,283,179437,2,0,L|442:190,1,107.999996704102
193,154,179748,2,0,L|229:276,1,107.999996704102
314,168,180059,1,0,0:0:0:0:
275,334,180214,1,0,0:0:0:0:
67,73,180369,5,0,0:0:0:0:
288,66,180524,1,0,0:0:0:0:
37,152,180680,5,0,0:0:0:0:
324,175,180835,1,0,0:0:0:0:
163,75,180990,5,0,0:0:0:0:
422,67,181145,1,0,0:0:0:0:
129,167,181301,5,0,0:0:0:0:
466,198,181456,1,0,0:0:0:0:
94,260,181611,6,0,L|-48:246,1,107.999996704102
179,351,181922,2,0,L|37:337,1,107.999996704102
286,279,182233,2,0,L|144:265,1,107.999996704102
30,174,182543,6,0,L|261:198,1,215.999993408203
380,215,183009,1,0,0:0:0:0:
178,268,183164,2,0,P|150:220|168:140,1,107.999996704102
235,40,183475,1,0,0:0:0:0:
375,105,183630,6,0,B|384:151|359:187|359:187|379:214|379:214|324:259|350:354,1,225
296,127,184096,1,0,0:0:0:0:
421,287,184251,1,0,0:0:0:0:
70,206,184407,5,0,0:0:0:0:
256,282,184562,1,0,0:0:0:0:
93,135,184717,1,0,0:3:0:0:
264,263,184872,1,0,0:3:0:0:
172,51,185028,5,0,0:0:0:0:
125,301,185183,1,0,0:0:0:0:
363,136,185338,1,0,0:0:0:0:
148,216,185494,1,0,0:0:0:0:
404,287,185649,1,0,0:0:0:0:
431,57,185804,1,0,0:0:0:0:
216,137,185960,1,0,0:0:0:0:
472,208,186115,1,0,0:0:0:0:
157,74,186270,6,0,P|133:141|164:209,1,116.999994644165
336,317,186581,2,0,L|374:193,1,116.999994644165
220,25,186891,2,0,P|163:-5|89:26,1,116.999994644165
256,230,187202,2,0,L|410:196,1,116.999994644165
157,74,187513,5,0,0:0:0:0:
305,303,187668,1,0,0:0:0:0:
49,205,187823,1,0,0:0:0:0:
314,134,187978,1,0,0:0:0:0:
124,347,188134,2,0,L|-40:340,1,116.999994644165
121,167,188444,2,0,L|285:160,1,116.999994644165
495,89,188755,5,0,0:0:0:0:
320,263,188910,1,0,0:0:0:0:
369,63,189065,1,0,0:0:0:0:
451,297,189220,1,0,0:0:0:0:
287,73,189376,2,0,P|237:62|155:86,1,116.999994644165
0,202,189687,1,0,0:0:0:0:
166,316,189842,1,0,0:0:0:0:
173,75,189997,6,0,P|85:28|18:104,1,216
77,214,190308,2,0,P|126:167|100:105,1,144
21,319,190618,5,0,0:0:0:0:
259,265,190774,1,0,0:0:0:0:
101,106,190929,1,0,0:0:0:0:
150,366,191084,1,0,0:0:0:0:
280,123,191240,6,0,P|339:105|421:141,1,116.999994644165
466,275,191550,2,0,P|407:293|325:257,1,116.999994644165
174,141,191861,2,0,L|162:16,1,116.999994644165
264,228,192171,2,0,L|252:344,1,116.999994644165
72,289,192482,5,0,0:0:0:0:
269,143,192637,1,0,0:0:0:0:
20,208,192792,1,0,0:0:0:0:
269,143,192948,1,0,0:0:0:0:
47,64,193103,5,0,0:0:0:0:
233,325,193258,1,0,0:0:0:0:
174,7,193413,1,0,0:0:0:0:
142,342,193569,1,0,0:0:0:0:
240,69,193724,6,0,P|297:67|350:111,1,116.999994644165
314,216,193957,1,0,0:0:0:0:
287,216,194035,2,0,L|139:216,1,116.999994644165
407,216,194345,5,0,0:0:0:0:
78,216,194501,1,0,0:0:0:0:
408,297,194656,1,0,0:0:0:0:
77,296,194812,1,0,0:0:0:0:
301,131,194967,6,0,P|355:119|428:119,1,116.999994644165
219,261,195277,2,0,L|182:105,1,116.999994644165
353,244,195588,1,0,0:0:0:0:
142,319,195743,1,0,0:0:0:0:
301,131,195898,1,0,0:0:0:0:
269,369,196054,1,0,0:0:0:0:
91,156,196209,6,0,P|109:85|177:44,1,116.999994644165
409,90,196519,1,0,0:0:0:0:
191,147,196675,1,0,0:0:0:0:
460,180,196830,2,0,P|499:137|508:80,1,116.999994644165
391,262,197141,2,0,P|444:284|551:250,1,116.999994644165
321,112,197451,5,0,0:0:0:0:
285,321,197606,1,0,0:0:0:0:
248,56,197762,1,0,0:0:0:0:
212,265,197917,1,0,0:0:0:0:
432,93,198072,5,0,0:0:0:0:
165,133,198228,1,0,0:0:0:0:
391,262,198383,1,0,0:0:0:0:
341,14,198538,1,0,0:0:0:0:
83,100,198694,6,0,B|76:145|76:145|97:230,1,116.999994644165
248,56,199004,1,0,0:0:0:0:
19,23,199159,1,0,0:0:0:0:
205,237,199315,2,0,P|259:245|348:239,1,116.999994644165
172,88,199625,1,0,0:0:0:0:
127,318,199781,1,0,0:0:0:0:
390,294,199936,6,0,P|375:186|261:186,1,216
321,243,200246,2,0,L|498:237,1,144
232,248,200557,5,0,0:0:0:0:
452,137,200712,1,0,0:0:0:0:
207,139,200868,1,0,0:0:0:0:
452,137,201023,1,0,0:0:0:0:
180,35,201178,6,0,P|121:38|56:60,1,116.999994644165
332,174,201489,2,0,P|358:121|372:54,1,116.999994644165
131,227,201799,2,0,P|163:276|214:321,1,116.999994644165
445,184,202110,1,0,0:0:0:0:
353,349,202265,1,0,0:0:0:0:
178,167,202421,5,0,0:0:0:0:
437,348,202576,1,0,0:0:0:0:
252,152,202731,5,0,0:0:0:0:
502,274,202886,1,0,0:0:0:0:
158,86,203042,5,0,0:0:0:0:
417,267,203197,1,0,0:0:0:0:
232,71,203352,5,0,0:0:0:0:
482,193,203507,1,0,0:0:0:0:
189,306,203663,6,0,B|150:255|174:195|174:195|126:147|171:56,1,233.999989288331
323,12,204129,1,0,0:0:0:0:
465,214,204284,5,0,0:0:0:0:
230,134,204439,1,0,0:0:0:0:
443,100,204595,1,0,0:0:0:0:
252,248,204749,1,0,0:0:0:0:
190,19,204905,6,0,P|130:16|79:86,1,107.999996704102
182,182,205216,2,0,P|185:122|115:71,1,107.999996704102
150,254,205526,2,0,P|210:257|261:187,1,107.999996704102
112,148,205837,2,0,L|-16:181,1,107.999996704102
262,101,206148,6,0,L|366:74,1,107.999996704102
280,184,206458,2,0,L|369:122,1,107.999996704102
308,250,206769,2,0,L|370:162,1,107.999996704102
344,299,207079,2,0,L|372:194,1,107.999996704102
419,11,207390,5,0,0:0:0:0:
505,120,207545,1,0,0:0:0:0:
307,49,207700,2,0,P|256:38|175:62,1,107.999996704102
66,205,208011,1,0,0:0:0:0:
253,172,208166,1,0,0:0:0:0:
46,20,208322,6,0,L|23:179,1,107.999996704102
0,322,208632,1,0,0:0:0:0:
199,236,208787,1,0,0:0:0:0:
30,126,208943,1,0,0:0:0:0:
120,348,209098,1,0,0:0:0:0:
297,113,209253,5,0,0:0:0:0:
72,224,209409,1,0,0:0:0:0:
297,113,209564,1,0,0:0:0:0:
72,224,209720,1,0,0:0:0:0:
377,151,209875,6,0,P|379:85|339:29,1,107.999996704102
340,236,210185,2,0,P|406:238|462:198,1,107.999996704102
250,157,210496,2,0,L|106:180,1,107.999996704102
56,276,210806,2,0,L|200:299,1,107.999996704102
386,244,211117,6,0,L|363:100,1,107.999996704102
267,50,211427,2,0,L|244:194,1,107.999996704102
204,344,211738,1,0,0:0:0:0:
312,244,211893,1,0,0:0:0:0:
116,172,212049,1,0,0:0:0:0:
212,268,212204,1,0,0:0:0:0:
108,56,212359,5,0,0:0:0:0:
50,268,212514,1,0,0:0:0:0:
108,56,212670,1,0,0:0:0:0:
50,268,212825,1,0,0:0:0:0:
192,116,212980,5,0,0:0:0:0:
134,328,213135,1,0,0:0:0:0:
192,116,213291,1,0,0:0:0:0:
134,328,213446,1,0,0:0:0:0:
0,128,213602,5,0,0:0:0:0:
268,180,213757,1,0,0:0:0:0:
12,328,213912,5,0,0:0:0:0:
116,40,214067,1,0,0:0:0:0:
372,272,214223,5,0,0:0:0:0:
92,232,214378,1,0,0:0:0:0:
320,24,214533,5,0,0:0:0:0:
312,332,214689,1,0,0:0:0:0:
205,61,214844,6,0,P|126:64|62:98,1,107.999996704102
179,158,215154,2,0,P|258:161|322:195,1,107.999996704102
110,238,215465,2,0,P|31:241|-33:275,1,107.999996704102
84,335,215775,2,0,P|163:338|227:372,1,107.999996704102
416,341,216086,6,0,L|395:202,1,107.999996704102
284,170,216397,2,0,L|267:276,1,107.999996704102
416,231,216707,2,0,L|395:92,1,107.999996704102
284,60,217018,2,0,L|267:166,1,107.999996704102
469,54,217329,6,0,P|415:45|323:59,1,107.999996704102
204,39,217639,2,0,P|150:30|58:44,1,107.999996704102
89,205,217950,2,0,P|143:214|235:200,1,107.999996704102
354,220,218260,2,0,P|408:229|500:215,1,107.999996704102
268,119,218571,5,0,0:0:0:0:
322,368,218726,1,0,0:0:0:0:
369,97,218882,5,0,0:0:0:0:
236,334,219037,1,0,0:0:0:0:
282,22,219192,5,0,0:0:0:0:
336,271,219347,1,0,0:0:0:0:
383,0,219503,5,0,0:0:0:0:
250,237,219658,1,0,0:0:0:0:
185,54,219813,6,0,P|122:48|64:83,1,107.999996704102
156,243,220124,2,0,L|141:118,1,107.999996704102
213,334,220434,2,0,P|276:340|334:305,1,107.999996704102
242,145,220745,2,0,L|257:270,1,107.999996704102
36,150,221056,6,0,L|182:130,1,107.999996704102
304,104,221366,1,0,0:0:0:0:
196,24,221521,1,0,0:0:0:0:
254,252,221677,2,0,P|200:255|147:243,1,107.999996704102
11,334,221987,2,0,P|62:322|139:331,1,107.999996704102
173,154,222298,5,0,0:0:0:0:
273,362,222453,1,0,0:0:0:0:
221,71,222608,1,0,0:0:0:0:
321,279,222763,1,0,0:0:0:0:
468,154,222919,1,0,0:0:0:0:
369,362,223074,1,0,0:0:0:0:
420,71,223229,1,0,0:0:0:0:
321,279,223384,1,0,0:0:0:0:
168,58,223540,6,0,P|124:49|35:92,1,107.999996704102
76,201,223851,2,0,P|120:210|209:167,1,107.999996704102
284,19,224161,2,0,L|299:100,1,53.9999983520508
447,109,224317,2,0,L|434:174,1,53.9999983520508
274,181,224472,2,0,L|289:262,1,53.9999983520508
437,271,224628,2,0,L|424:336,1,53.9999983520508
191,358,224783,5,0,0:0:0:0:
191,358,224938,1,0,0:0:0:0:
78,284,225093,5,0,0:0:0:0:
78,284,225248,1,0,0:0:0:0:
271,243,225404,5,0,0:0:0:0:
271,243,225559,1,0,0:0:0:0:
26,172,225714,5,0,0:0:0:0:
26,172,225869,1,0,0:0:0:0:
256,139,226025,5,0,0:0:0:0:
256,139,226180,1,0,0:0:0:0:
0,37,226335,5,0,0:0:0:0:
0,37,226490,1,0,0:0:0:0:
264,0,226646,5,0,0:0:0:0:
