osu file format v14

[General]
AudioFilename: audio.mp3
AudioLeadIn: 0
PreviewTime: -1
Countdown: 1
SampleSet: None
StackLeniency: 0.5
Mode: 0
LetterboxInBreaks: 0
WidescreenStoryboard: 1

[Editor]
DistanceSpacing: 1.3
BeatDivisor: 4
GridSize: 4
TimelineZoom: 4.099998

[Metadata]
Title:Ikenai Borderline (Speed Up Ver.)
TitleUnicode:いけないボーダーライン (Speed Up Ver.)
Artist:WALKURE
ArtistUnicode:ワルキューレ
Creator:ChronoNig
Version:Your voice may even reach the heavens one day
Source:マクロスΔ
Tags:I love Flezlin and Aoiyuuki MACROSS DELTA Scramble WALKÜRE Valkyrie マクロスΔスクランブル Idol Group 美雲・ギンヌメール Mikumo Guynemer カナメ・バッカニア Kaname Buccaneer マキナ・中島 Makina Nakajima レイナ・プラウラー Reina Prowler フレイア・ヴィオン Freyja Wion TV Series
BeatmapID:1230854
BeatmapSetID:525461

[Difficulty]
HPDrainRate:3
CircleSize:4
OverallDifficulty:9
ApproachRate:9.8
SliderMultiplier:2.1
SliderTickRate:1

[Events]
//Background and Video events
0,0,"31335ccb-a9f1-4400-935e-4d3774fa89b0.png",0,0
//Break Periods
//Storyboard Layer 0 (Background)
//Storyboard Layer 1 (Fail)
//Storyboard Layer 2 (Pass)
//Storyboard Layer 3 (Foreground)
//Storyboard Sound Samples

[TimingPoints]
542,310.583119807438,4,3,0,51,1,0
542,-200,4,3,0,51,0,0
10014,-133.333333333333,4,3,0,51,0,0
10480,-83.3333333333333,4,3,0,51,0,0
10791,-100,4,3,0,51,0,0
30357,-133.333333333333,4,3,0,51,0,0
30668,-133.333333333333,4,3,0,51,0,0
61416,-83.3333333333333,4,3,0,51,0,1
66696,-66.6666666666667,4,3,0,51,0,1
67006,-83.3333333333333,4,3,0,51,0,1
76634,-66.6666666666667,4,3,0,51,0,1
76945,-83.3333333333333,4,3,0,51,0,1
80051,-125,4,3,0,51,0,0
81138,-200,4,3,0,51,0,0
83466,310.583119807438,4,3,0,51,1,0
83467,-100,4,3,0,51,0,0
93404,-133.333333333333,4,3,0,51,0,0
124462,-83.3333333333333,4,3,0,51,0,1
129742,-66.6666666666667,4,3,0,51,0,1
130053,-90.9090909090909,4,3,0,51,0,1
139681,-66.6666666666667,4,3,0,51,0,1
143097,-142.857142857143,4,3,0,51,0,0
149309,-117.647058823529,4,3,0,51,0,0
162975,-83.3333333333333,4,3,0,51,0,1
168255,-66.6666666666667,4,3,0,51,0,1
168565,-83.3333333333333,4,3,0,51,0,1
178193,-66.6666666666667,4,3,0,51,0,1
178504,-83.3333333333333,4,3,0,51,0,1
181610,-125,4,3,0,51,0,0
182542,310.583119807438,4,3,0,51,1,0
182542,-117.647058823529,4,3,0,51,0,0
185026,-80,4,3,0,51,0,1
190306,-62.5,4,3,0,51,0,1
190617,-79.9999999999999,4,3,0,51,0,1
200245,-62.5,4,3,0,51,0,1
200555,-68.9655172413793,4,3,0,51,0,1
203661,-100,4,3,0,51,0,0
204903,-79.9999999999999,4,3,0,51,0,1
224781,-166.666666666667,4,3,0,51,0,0

[HitObjects]
44,76,542,5,0,0:0:0:0:
43,86,697,1,0,0:0:0:0:
43,96,852,1,0,0:0:0:0:
43,106,1007,1,0,0:0:0:0:
118,168,1163,5,0,0:0:0:0:
118,178,1318,1,0,0:0:0:0:
118,188,1473,1,0,0:0:0:0:
118,198,1628,1,0,0:0:0:0:
24,313,1784,5,0,0:0:0:0:
24,302,1939,1,0,0:0:0:0:
24,291,2094,1,0,0:0:0:0:
22,280,2249,1,0,0:0:0:0:
151,358,2405,5,0,0:0:0:0:
153,345,2560,1,0,0:0:0:0:
153,334,2715,1,0,0:0:0:0:
153,322,2870,1,0,0:0:0:0:
203,91,3026,5,0,0:0:0:0:
209,116,3181,1,0,0:0:0:0:
214,141,3337,1,0,0:0:0:0:
220,166,3492,1,0,0:0:0:0:
296,249,3647,5,0,0:0:0:0:
290,274,3802,1,0,0:0:0:0:
285,299,3958,1,0,0:0:0:0:
279,324,4113,1,0,0:0:0:0:
384,264,4268,5,0,0:0:0:0:
395,184,4423,1,0,0:0:0:0:
475,195,4578,1,0,0:0:0:0:
463,275,4733,1,0,0:0:0:0:
384,264,4889,5,0,0:0:0:0:
386,183,5044,1,0,0:0:0:0:
467,185,5199,1,0,0:0:0:0:
463,266,5356,1,0,0:0:0:0:
279,324,5511,5,0,0:0:0:0:
274,243,5666,1,0,0:0:0:0:
194,249,5821,1,0,0:0:0:0:
200,330,5977,1,0,0:0:0:0:
279,324,6132,5,0,0:0:0:0:
265,243,6287,1,0,0:0:0:0:
186,258,6442,1,0,0:0:0:0:
201,338,6597,1,0,0:0:0:0:
213,168,6753,5,0,0:0:0:0:
88,220,6908,1,0,0:0:0:0:
213,168,7064,1,0,0:0:0:0:
88,220,7219,1,0,0:0:0:0:
116,85,7374,5,0,0:0:0:0:
315,112,7530,1,0,0:0:0:0:
116,85,7685,1,0,0:0:0:0:
315,112,7841,1,0,0:0:0:0:
196,279,7995,5,0,0:0:0:0:
256,192,8073,12,0,9859,0:0:0:0:
262,157,10014,5,0,0:0:0:0:
372,199,10170,2,0,L|365:114,1,78.7500030040742
292,53,10403,1,0,0:0:0:0:
292,53,10480,6,0,P|358:34|465:97,1,157.5
484,135,10791,2,0,L|471:244,1,105
356,320,11101,1,0,0:0:0:0:
350,158,11257,1,0,0:0:0:0:
456,348,11412,1,0,0:0:0:0:
273,240,11567,1,0,0:0:0:0:
180,379,11722,2,0,P|257:373|305:378,1,105
154,172,12033,6,0,L|150:297,1,105
47,120,12344,1,0,0:0:0:0:
62,245,12499,1,0,0:0:0:0:
181,58,12654,1,0,0:0:0:0:
171,180,12810,1,0,0:0:0:0:
0,45,12965,6,0,P|55:31|108:52,1,105
344,119,13275,2,0,P|289:133|236:112,1,105
181,58,13586,1,0,0:0:0:0:
279,219,13741,1,0,0:0:0:0:
297,36,13897,1,0,0:0:0:0:
194,265,14052,6,0,P|253:238|398:276,1,210
483,175,14518,2,0,L|480:288,1,105
292,352,14828,1,0,0:0:0:0:
345,111,14984,1,0,0:0:0:0:
381,303,15139,1,0,0:0:0:0:
189,337,15294,1,0,0:0:0:0:
152,144,15449,2,0,P|209:159|272:146,1,105
104,63,15760,6,0,L|109:236,1,157.5
108,220,16071,1,0,0:0:0:0:
208,66,16226,1,0,0:0:0:0:
20,145,16381,1,0,0:0:0:0:
215,62,16537,1,0,0:0:0:0:
202,273,16692,5,0,0:0:0:0:
89,53,16847,1,0,0:0:0:0:
74,258,17002,1,0,0:0:0:0:
273,168,17158,1,0,0:0:0:0:
81,43,17313,2,0,L|86:153,1,105
129,334,17624,1,0,0:0:0:0:
165,173,17779,2,0,P|244:177|323:295,1,210
212,368,18245,2,0,P|213:315|216:263,1,105
325,59,18555,6,0,P|312:124|320:179,1,105
417,283,18866,1,0,0:0:0:0:
471,127,19021,2,0,L|399:124,1,52.5
302,236,19176,2,0,L|374:233,1,52.5
484,117,19332,2,0,L|412:114,1,52.5
296,248,19487,2,0,L|368:245,1,52.5
495,110,19642,2,0,L|423:107,1,52.5
386,170,19798,5,0,0:0:0:0:
485,207,19953,1,0,0:0:0:0:
349,39,20108,2,0,P|349:113|347:150,1,105
132,85,20419,6,0,L|254:80,1,105
105,202,20729,2,0,L|-17:197,1,105
132,85,21040,1,0,0:0:0:0:
105,202,21195,1,0,0:0:0:0:
16,92,21351,5,0,0:0:0:0:
221,195,21506,1,0,0:0:0:0:
29,321,21661,6,0,L|26:202,1,105
223,383,21972,2,0,L|225:278,1,105
29,321,22282,1,0,0:0:0:0:
225,278,22438,1,0,0:0:0:0:
96,165,22593,5,0,0:0:0:0:
140,384,22748,1,0,0:0:0:0:
325,202,22903,6,0,L|204:193,1,105
27,92,23214,2,0,L|131:84,1,105
275,64,23525,1,0,0:0:0:0:
220,199,23680,1,0,0:0:0:0:
131,84,23835,1,0,0:0:0:0:
325,202,23991,6,0,P|305:272|177:309,1,210
184,311,24456,2,0,P|234:301|309:330,1,105
397,384,24767,1,0,0:0:0:0:
397,384,24922,1,0,0:0:0:0:
325,202,25078,2,0,L|320:321,1,105
494,384,25388,6,0,L|489:221,1,157.5
501,200,25699,2,0,P|448:218|391:197,1,105
315,65,26009,1,0,0:0:0:0:
444,123,26165,1,0,0:0:0:0:
212,162,26320,1,0,0:0:0:0:
407,32,26475,2,0,L|514:42,1,105
334,176,26786,1,0,0:0:0:0:
206,51,26941,1,0,0:0:0:0:
116,154,27096,1,0,0:0:0:0:
218,266,27252,6,0,L|210:144,1,105
114,58,27562,1,0,0:0:0:0:
33,237,27718,2,0,P|88:211|219:268,1,210
118,336,28183,6,0,L|111:219,1,105
334,176,28494,5,0,0:0:0:0:
289,345,28649,1,0,0:0:0:0:
431,143,28805,5,0,0:0:0:0:
419,377,28960,1,0,0:0:0:0:
355,65,29115,5,0,0:0:0:0:
351,54,29270,1,0,0:0:0:0:
407,261,29426,1,0,0:0:0:0:
351,54,29581,1,0,0:0:0:0:
351,54,30047,2,0,P|336:113|346:174,1,105
412,266,30280,1,0,0:0:0:0:
412,266,30357,6,0,P|361:267|325:282,1,78.7500030040742
183,272,30668,2,0,P|234:273|270:288,1,78.7500030040742
385,360,30979,1,0,0:0:0:0:
385,360,31134,1,0,0:0:0:0:
242,188,31289,1,0,0:0:0:0:
183,272,31445,1,0,0:0:0:0:
211,363,31600,6,0,L|214:276,1,78.7500030040742
100,232,31833,1,0,0:0:0:0:
100,232,31910,2,0,L|100:320,1,78.7500030040742
154,145,32221,1,0,0:0:0:0:
14,199,32376,1,0,0:0:0:0:
213,284,32532,1,0,0:0:0:0:
100,232,32687,1,0,0:0:0:0:
253,152,32842,2,0,P|328:155|359:153,1,78.7500030040742
159,66,33153,6,0,L|152:166,1,78.7500030040742
256,66,33463,1,0,0:0:0:0:
80,32,33619,1,0,0:0:0:0:
253,152,33774,1,0,0:0:0:0:
61,122,33929,1,0,0:0:0:0:
257,58,34084,6,0,P|307:66|352:66,1,78.7500030040742
437,39,34317,1,0,0:0:0:0:
437,39,34395,2,0,L|431:145,1,78.7500030040742
423,259,34706,1,0,0:0:0:0:
345,159,34861,1,0,0:0:0:0:
328,363,35017,1,0,0:0:0:0:
250,263,35172,1,0,0:0:0:0:
434,257,35327,6,0,L|437:351,1,78.7500030040742
236,345,35637,2,0,L|238:266,1,78.7500030040742
243,155,35948,1,0,0:0:0:0:
341,264,36103,1,0,0:0:0:0:
331,68,36259,1,0,0:0:0:0:
231,272,36414,1,0,0:0:0:0:
403,171,36569,6,0,P|354:173|318:175,1,78.7500030040742
162,215,36802,1,0,0:0:0:0:
162,215,36880,2,0,P|113:217|77:219,1,78.7500030040742
295,345,37190,2,0,P|246:347|210:349,1,78.7500030040742
209,82,37501,1,0,0:0:0:0:
257,244,37656,1,0,0:0:0:0:
50,342,37811,5,0,0:0:0:0:
82,132,37967,1,0,0:0:0:0:
257,244,38122,1,0,0:0:0:0:
37,230,38277,1,0,0:0:0:0:
209,82,38433,1,0,0:0:0:0:
143,274,38588,1,0,0:0:0:0:
24,40,38743,2,0,L|119:39,1,78.7500030040742
340,134,39054,5,0,0:0:0:0:
173,178,39209,1,0,0:0:0:0:
347,137,39364,5,0,0:0:0:0:
169,174,39519,1,0,0:0:0:0:
291,310,39675,5,0,0:0:0:0:
270,213,39830,1,0,0:0:0:0:
193,364,39986,1,0,0:0:0:0:
362,238,40141,1,0,0:0:0:0:
362,238,40218,1,0,0:0:0:0:
362,238,40296,6,0,L|472:243,1,78.7500030040742
419,129,40607,2,0,L|309:134,1,78.7500030040742
193,256,40917,1,0,0:0:0:0:
164,168,41073,1,0,0:0:0:0:
281,224,41228,1,0,0:0:0:0:
258,324,41383,1,0,0:0:0:0:
101,274,41538,6,0,P|150:259|196:266,1,78.7500030040742
151,353,41771,1,0,0:0:0:0:
151,353,41849,2,0,L|59:356,1,78.7500030040742
15,212,42160,1,0,0:0:0:0:
101,274,42315,1,0,0:0:0:0:
6,123,42470,1,0,0:0:0:0:
16,302,42626,1,0,0:0:0:0:
108,152,42781,6,0,P|156:156|202:155,1,78.7500030040742
355,107,43091,2,0,P|315:107|276:110,1,78.7500030040742
218,230,43402,1,0,0:0:0:0:
148,72,43557,1,0,0:0:0:0:
219,243,43713,1,0,0:0:0:0:
276,103,43868,1,0,0:0:0:0:
290,327,44023,5,0,0:0:0:0:
191,346,44178,1,0,0:0:0:0:
191,346,44256,1,0,0:0:0:0:
191,346,44334,1,0,0:0:0:0:
355,243,44489,1,0,0:0:0:0:
392,345,44644,1,0,0:0:0:0:
290,327,44800,1,0,0:0:0:0:
419,154,44955,1,0,0:0:0:0:
392,353,45110,1,0,0:0:0:0:
249,173,45265,6,0,P|186:173|151:195,1,78.7500030040742
76,251,45576,2,0,L|79:337,1,78.7500030040742
58,137,45887,1,0,0:0:0:0:
161,271,46042,1,0,0:0:0:0:
180,38,46197,1,0,0:0:0:0:
52,143,46353,1,0,0:0:0:0:
264,178,46508,5,0,0:0:0:0:
173,161,46663,1,0,0:0:0:0:
173,161,46741,1,0,0:0:0:0:
173,161,46818,1,0,0:0:0:0:
320,99,46974,1,0,0:0:0:0:
300,267,47129,1,0,0:0:0:0:
261,173,47284,1,0,0:0:0:0:
382,326,47440,1,0,0:0:0:0:
403,144,47595,1,0,0:0:0:0:
293,352,47750,6,0,P|292:316|291:262,1,78.7500030040742
320,99,48061,1,0,0:0:0:0:
420,234,48216,1,0,0:0:0:0:
217,317,48371,5,0,0:0:0:0:
390,337,48527,1,0,0:0:0:0:
201,178,48682,1,0,0:0:0:0:
108,358,48837,1,0,0:0:0:0:
108,358,48915,1,0,0:0:0:0:
108,358,48992,6,0,L|98:263,1,78.7500030040742
218,53,49303,1,0,0:0:0:0:
201,327,49458,1,0,0:0:0:0:
77,111,49614,1,0,0:0:0:0:
357,213,49769,1,0,0:0:0:0:
73,213,49924,1,0,0:0:0:0:
361,111,50079,1,0,0:0:0:0:
77,111,50235,6,0,P|152:87|231:117,1,157.500006008148
292,193,50701,1,0,0:0:0:0:
292,193,50856,2,0,P|264:115|298:27,1,157.500006008148
152,264,51322,1,0,0:0:0:0:
152,264,51477,2,0,P|150:185|145:106,1,157.500006008148
257,320,51943,1,0,0:0:0:0:
257,320,52098,2,0,P|255:258|260:229,1,78.7500030040742
356,114,52409,2,0,P|363:180|363:215,1,78.7500030040742
453,337,52719,6,0,L|457:172,1,157.500006008148
465,350,53185,1,0,0:0:0:0:
465,350,53341,2,0,P|382:332|300:354,1,157.500006008148
373,225,53807,1,0,0:0:0:0:
373,225,53962,2,0,L|370:323,1,78.7500030040742
176,371,54272,1,0,0:0:0:0:
158,198,54428,1,0,0:0:0:0:
181,378,54583,1,0,0:0:0:0:
243,240,54738,1,0,0:0:0:0:
69,330,54894,2,0,P|71:274|73:229,1,78.7500030040742
154,183,55204,6,0,P|79:207|7:177,1,157.500006008148
216,93,55670,1,0,0:0:0:0:
216,93,55825,2,0,P|216:199|250:248,1,157.500006008148
15,182,56291,1,0,0:0:0:0:
15,182,56446,2,0,P|25:72|30:13,1,157.500006008148
117,167,56912,1,0,0:0:0:0:
296,159,57068,2,0,P|247:134|224:129,1,78.7500030040742
109,71,57378,1,0,0:0:0:0:
276,63,57534,1,0,0:0:0:0:
122,75,57689,6,0,P|187:97|285:52,1,157.5
130,171,58155,2,0,L|141:270,1,78.7500030040742
5,95,58465,1,0,0:0:0:0:
280,166,58621,1,0,0:0:0:0:
94,375,58776,1,0,0:0:0:0:
22,283,58931,5,0,0:0:0:0:
70,263,59008,1,0,0:0:0:0:
122,264,59086,1,0,0:0:0:0:
169,286,59163,1,0,0:0:0:0:
203,325,59242,1,0,0:0:0:0:
236,364,59319,1,0,0:0:0:0:
285,383,59397,1,0,0:0:0:0:
336,378,59475,1,0,0:0:0:0:
380,349,59552,5,0,0:0:0:0:
407,294,59629,1,0,0:0:0:0:
400,232,59707,1,0,0:0:0:0:
360,184,59784,1,0,0:0:0:0:
301,166,59862,1,0,0:0:0:0:
241,184,59940,1,0,0:0:0:0:
207,238,60018,5,0,0:0:0:0:
207,311,60096,1,0,0:0:0:0:
303,276,60173,6,0,L|316:107,1,157.500006008148
315,118,60795,5,0,0:0:0:0:
161,145,60950,1,0,0:0:0:0:
318,130,61105,5,0,0:0:0:0:
157,134,61260,1,0,0:0:0:0:
406,37,61416,6,0,B|394:89|427:130|427:130|404:188|404:188|436:226|428:288,1,251.999992309571
506,61,61882,1,0,0:0:0:0:
212,248,62037,2,0,P|297:267|344:245,1,125.999996154785
149,37,62348,1,0,0:0:0:0:
265,383,62503,1,0,0:0:0:0:
329,128,62658,5,0,0:0:0:0:
67,278,62813,1,0,0:0:0:0:
379,362,62969,1,0,0:0:0:0:
259,36,63124,1,0,0:0:0:0:
136,364,63279,2,0,P|74:375|12:363,1,125.999996154785
394,248,63590,1,0,0:0:0:0:
136,0,63745,1,0,0:0:0:0:
119,59,63822,1,0,0:0:0:0:
135,119,63900,1,0,0:0:0:0:
178,163,63978,1,0,0:0:0:0:
221,209,64055,1,0,0:0:0:0:
237,268,64133,1,0,0:0:0:0:
220,328,64211,6,0,L|87:315,1,125.999996154785
259,36,64522,1,0,0:0:0:0:
394,248,64677,1,0,0:0:0:0:
34,179,64832,5,0,0:0:0:0:
459,86,64987,1,0,0:0:0:0:
295,372,65143,6,0,P|280:284|294:224,1,125.999996154785
377,15,65453,1,0,0:0:0:0:
132,267,65609,1,0,0:0:0:0:
459,358,65764,1,0,0:0:0:0:
498,300,65842,1,0,0:0:0:0:
509,232,65919,1,0,0:0:0:0:
486,166,65997,1,0,0:0:0:0:
433,120,66075,1,0,0:0:0:0:
309,384,66230,1,0,0:0:0:0:
54,161,66385,6,0,P|132:141|199:162,1,125.999996154785
394,248,66696,6,0,L|402:87,1,157.500006008148
118,28,67006,5,0,0:0:0:0:
220,328,67162,1,0,0:0:0:0:
457,30,67317,5,0,0:0:0:0:
42,162,67472,1,0,0:0:0:0:
309,384,67627,2,0,P|319:329|298:260,1,125.999996154785
16,55,67938,1,0,0:0:0:0:
288,9,68093,1,0,0:0:0:0:
119,277,68249,2,0,P|123:208|125:142,1,125.999996154785
198,0,68482,1,0,0:0:0:0:
198,0,68559,2,0,P|200:62|203:125,1,125.999996154785
36,354,68870,6,0,P|9:262|75:164,1,188.999994232178
237,284,69180,2,0,B|175:301|175:301|105:271,1,125.999996154785
16,55,69491,5,0,0:0:0:0:
345,218,69646,1,0,0:0:0:0:
0,261,69802,1,0,0:0:0:0:
340,114,69957,1,0,0:0:0:0:
194,323,70112,1,0,0:0:0:0:
157,311,70190,1,0,0:0:0:0:
194,298,70267,1,0,0:0:0:0:
157,286,70345,1,0,0:0:0:0:
194,271,70423,1,0,0:0:0:0:
157,260,70501,1,0,0:0:0:0:
194,246,70578,1,0,0:0:0:0:
157,235,70656,1,0,0:0:0:0:
181,206,70733,5,0,0:0:0:0:
398,344,70889,1,0,0:0:0:0:
180,187,71044,5,0,0:0:0:0:
399,358,71199,1,0,0:0:0:0:
503,195,71354,6,0,P|375:159|261:225,1,251.999992309571
392,263,71820,1,0,0:0:0:0:
447,4,71976,2,0,P|459:69|451:135,1,125.999996154785
278,335,72286,1,0,0:0:0:0:
506,191,72441,1,0,0:0:0:0:
171,96,72597,5,0,0:0:0:0:
459,4,72752,1,0,0:0:0:0:
26,102,72907,5,0,0:0:0:0:
392,263,73063,1,0,0:0:0:0:
124,38,73218,6,0,P|135:119|123:186,1,125.999996154785
94,381,73529,1,0,0:0:0:0:
392,263,73684,1,0,0:0:0:0:
335,236,73761,1,0,0:0:0:0:
272,236,73839,1,0,0:0:0:0:
215,262,73917,1,0,0:0:0:0:
159,289,73994,1,0,0:0:0:0:
96,289,74072,1,0,0:0:0:0:
39,262,74150,6,0,L|29:128,1,125.999996154785
264,73,74460,1,0,0:0:0:0:
305,333,74616,1,0,0:0:0:0:
138,179,74771,5,0,0:0:0:0:
481,135,74926,1,0,0:0:0:0:
131,44,75081,5,0,0:0:0:0:
275,212,75237,1,0,0:0:0:0:
39,262,75392,5,0,0:0:0:0:
362,8,75547,1,0,0:0:0:0:
512,370,75703,6,0,P|458:353|365:366,1,125.999996154785
199,370,76013,1,0,0:0:0:0:
264,73,76168,1,0,0:0:0:0:
389,357,76324,2,0,P|385:291|393:222,1,125.999996154785
132,29,76634,6,0,P|149:193|147:205,1,157.500006008148
91,303,76945,5,0,0:0:0:0:
373,114,77100,1,0,0:0:0:0:
0,127,77256,5,0,0:0:0:0:
389,357,77411,1,0,0:0:0:0:
21,368,77566,6,0,P|1:298|9:241,1,125.999996154785
467,72,77877,2,0,P|472:134|453:193,1,125.999996154785
234,377,78187,5,0,0:0:0:0:
109,17,78343,1,0,0:0:0:0:
509,252,78498,2,0,P|413:234|387:240,1,125.999996154785
21,368,78808,5,0,0:0:0:0:
291,29,78964,1,0,0:0:0:0:
241,384,79119,5,0,0:0:0:0:
0,127,79274,1,0,0:0:0:0:
442,196,79430,5,0,0:0:0:0:
0,249,79585,1,0,0:0:0:0:
431,377,79740,5,0,0:0:0:0:
103,7,79895,1,0,0:0:0:0:
459,48,80051,5,0,0:0:0:0:
453,63,80361,1,0,0:0:0:0:
445,77,80672,1,0,0:0:0:0:
299,215,80983,1,0,0:0:0:0:
299,215,81138,6,0,B|128:158|173:288|61:255|30:235|30:235|-54:187|-24:75|82:55|130:114|117:175|104:194|79:201|40:203|47:153,1,630
229,297,83157,5,0,0:0:0:0:
163,83,83312,1,0,0:0:0:0:
163,83,83390,1,0,0:0:0:0:
163,83,83467,6,0,L|267:70,1,105
382,224,83776,2,0,L|277:212,1,105
145,352,84088,1,0,0:0:0:0:
331,125,84242,1,0,0:0:0:0:
351,345,84397,1,0,0:0:0:0:
168,192,84553,1,0,0:0:0:0:
427,278,84708,6,0,P|416:223|432:167,1,105
471,6,85018,2,0,P|482:61|466:117,1,105
298,214,85329,1,0,0:0:0:0:
392,57,85484,1,0,0:0:0:0:
499,227,85640,1,0,0:0:0:0:
394,48,85795,1,0,0:0:0:0:
203,111,85950,6,0,P|256:112|308:111,1,105
390,317,86261,2,0,P|340:315|285:316,1,105
137,232,86571,1,0,0:0:0:0:
298,214,86727,1,0,0:0:0:0:
123,237,86882,1,0,0:0:0:0:
188,329,87037,6,0,P|224:258|181:141,1,210
18,243,87503,2,0,P|83:235|126:237,1,105
195,338,87814,1,0,0:0:0:0:
91,133,87969,1,0,0:0:0:0:
201,347,88124,1,0,0:0:0:0:
85,120,88280,1,0,0:0:0:0:
339,133,88435,6,0,P|331:215|351:298,1,157.5
355,296,88745,2,0,P|305:274|244:276,1,105
79,349,89056,1,0,0:0:0:0:
251,153,89211,1,0,0:0:0:0:
286,358,89367,1,0,0:0:0:0:
143,287,89522,2,0,P|146:234|146:170,1,105
18,48,89832,5,0,0:0:0:0:
245,257,89988,1,0,0:0:0:0:
57,223,90143,1,0,0:0:0:0:
214,60,90298,2,0,P|295:62|366:145,1,157.5
351,109,90609,1,0,0:0:0:0:
143,287,90764,1,0,0:0:0:0:
216,47,90919,1,0,0:0:0:0:
257,274,91075,1,0,0:0:0:0:
12,140,91230,1,0,0:0:0:0:
127,114,91385,1,0,0:0:0:0:
42,333,91541,5,0,0:0:0:0:
129,97,91696,1,0,0:0:0:0:
213,363,91851,1,0,0:0:0:0:
129,81,92007,1,0,0:0:0:0:
138,233,92162,5,0,0:0:0:0:
140,243,92317,1,0,0:0:0:0:
217,38,92472,1,0,0:0:0:0:
140,243,92628,1,0,0:0:0:0:
140,242,93094,6,0,P|188:224|240:227,1,105
326,268,93327,1,0,0:0:0:0:
326,268,93404,6,0,L|319:166,1,78.7500030040742
217,38,93715,2,0,L|211:116,1,78.7500030040742
201,310,94025,1,0,0:0:0:0:
123,142,94181,1,0,0:0:0:0:
203,322,94336,1,0,0:0:0:0:
240,227,94491,1,0,0:0:0:0:
100,355,94646,6,0,L|104:272,1,78.7500030040742
18,197,94879,1,0,0:0:0:0:
18,197,94957,2,0,L|21:275,1,78.7500030040742
123,142,95268,1,0,0:0:0:0:
32,79,95423,1,0,0:0:0:0:
103,276,95578,1,0,0:0:0:0:
11,203,95734,1,0,0:0:0:0:
204,78,95889,6,0,L|286:82,1,78.7500030040742
456,138,96199,2,0,P|415:134|375:158,1,78.7500030040742
304,268,96510,1,0,0:0:0:0:
362,65,96665,1,0,0:0:0:0:
442,228,96821,1,0,0:0:0:0:
359,56,96976,1,0,0:0:0:0:
393,310,97131,5,0,0:0:0:0:
364,202,97286,1,0,0:0:0:0:
364,202,97364,1,0,0:0:0:0:
364,202,97442,1,0,0:0:0:0:
308,379,97597,1,0,0:0:0:0:
209,329,97752,1,0,0:0:0:0:
401,311,97908,1,0,0:0:0:0:
232,213,98063,1,0,0:0:0:0:
309,384,98218,1,0,0:0:0:0:
131,252,98373,6,0,P|69:250|44:254,1,78.7500030040742
90,350,98684,2,0,L|90:264,1,78.7500030040742
144,137,98995,1,0,0:0:0:0:
40,178,99150,1,0,0:0:0:0:
232,213,99305,1,0,0:0:0:0:
131,252,99461,1,0,0:0:0:0:
240,30,99616,6,0,L|245:129,1,78.7500030040742
329,233,99849,1,0,0:0:0:0:
329,233,99926,2,0,P|320:178|326:140,1,78.7500030040742
200,381,100237,2,0,P|209:326|203:288,1,78.7500030040742
144,137,100548,1,0,0:0:0:0:
296,316,100703,1,0,0:0:0:0:
376,95,100858,5,0,0:0:0:0:
232,213,101013,1,0,0:0:0:0:
476,287,101169,1,0,0:0:0:0:
340,199,101324,1,0,0:0:0:0:
404,375,101479,1,0,0:0:0:0:
376,95,101635,1,0,0:0:0:0:
296,316,101790,1,0,0:0:0:0:
471,169,101945,1,0,0:0:0:0:
144,137,102100,5,0,0:0:0:0:
232,213,102256,1,0,0:0:0:0:
201,36,102411,5,0,0:0:0:0:
175,317,102566,1,0,0:0:0:0:
144,137,102722,1,0,0:0:0:0:
266,306,102877,1,0,0:0:0:0:
96,242,103032,1,0,0:0:0:0:
276,111,103188,1,0,0:0:0:0:
276,111,103265,1,0,0:0:0:0:
276,111,103343,6,0,L|374:107,1,78.7500030040742
476,287,103653,2,0,L|378:283,1,78.7500030040742
232,213,103964,1,0,0:0:0:0:
342,368,104119,1,0,0:0:0:0:
466,175,104275,1,0,0:0:0:0:
331,260,104430,1,0,0:0:0:0:
481,373,104585,6,0,L|484:280,1,78.7500030040742
328,181,104818,1,0,0:0:0:0:
328,181,104896,2,0,L|330:259,1,78.7500030040742
342,368,105206,1,0,0:0:0:0:
466,175,105362,1,0,0:0:0:0:
232,316,105517,1,0,0:0:0:0:
276,111,105672,1,0,0:0:0:0:
407,262,105827,6,0,P|363:253|318:264,1,78.7500030040742
118,362,106138,2,0,L|122:263,1,78.7500030040742
228,202,106449,1,0,0:0:0:0:
232,316,106604,1,0,0:0:0:0:
12,271,106759,1,0,0:0:0:0:
127,259,106915,1,0,0:0:0:0:
15,384,107070,5,0,0:0:0:0:
69,175,107225,1,0,0:0:0:0:
69,175,107303,1,0,0:0:0:0:
69,175,107380,1,0,0:0:0:0:
236,323,107536,1,0,0:0:0:0:
12,271,107691,1,0,0:0:0:0:
128,383,107846,1,0,0:0:0:0:
138,82,108002,1,0,0:0:0:0:
241,221,108157,1,0,0:0:0:0:
0,279,108312,6,0,P|-5:229|3:192,1,78.7500030040742
225,45,108623,2,0,P|230:83|225:122,1,78.7500030040742
106,252,108933,1,0,0:0:0:0:
19,75,109089,1,0,0:0:0:0:
240,206,109244,1,0,0:0:0:0:
91,153,109399,1,0,0:0:0:0:
311,57,109554,6,0,L|411:56,1,78.7500030040742
450,146,109865,1,0,0:0:0:0:
305,48,110020,1,0,0:0:0:0:
496,53,110176,5,0,0:0:0:0:
259,141,110331,1,0,0:0:0:0:
512,226,110486,5,0,0:0:0:0:
275,314,110641,1,0,0:0:0:0:
357,140,110797,6,0,P|363:203|356:249,1,78.7500030040742
171,361,111107,1,0,0:0:0:0:
220,229,111263,1,0,0:0:0:0:
289,330,111418,1,0,0:0:0:0:
102,260,111573,1,0,0:0:0:0:
178,96,111729,1,0,0:0:0:0:
179,369,111884,1,0,0:0:0:0:
179,369,111962,1,0,0:0:0:0:
179,369,112039,6,0,L|99:374,1,78.7500030040742
84,138,112350,1,0,0:0:0:0:
338,230,112505,1,0,0:0:0:0:
23,324,112660,5,0,0:0:0:0:
261,102,112816,1,0,0:0:0:0:
24,334,112971,5,0,0:0:0:0:
262,112,113127,1,0,0:0:0:0:
41,66,113281,6,0,P|77:151|58:244,1,157.500006008148
215,216,113747,1,0,0:0:0:0:
215,216,113903,2,0,P|173:193|63:219,1,157.500006008148
246,349,114369,1,0,0:0:0:0:
246,349,114524,2,0,P|243:268|249:185,1,157.500006008148
142,279,114990,1,0,0:0:0:0:
142,279,115145,2,0,L|233:276,1,78.7500030040742
268,153,115456,2,0,L|177:150,1,78.7500030040742
333,235,115766,6,0,P|361:162|346:86,1,157.500006008148
332,248,116232,1,0,0:0:0:0:
332,248,116387,2,0,P|391:237|482:271,1,157.500006008148
389,349,116853,1,0,0:0:0:0:
389,349,117008,2,0,P|391:268|393:232,1,78.7500030040742
456,140,117319,1,0,0:0:0:0:
390,270,117474,1,0,0:0:0:0:
346,86,117630,1,0,0:0:0:0:
463,227,117785,1,0,0:0:0:0:
236,292,117940,2,0,L|240:202,1,78.7500030040742
207,79,118251,6,0,B|264:119|264:119|345:85,1,157.500006008148
147,27,118717,1,0,0:0:0:0:
147,27,118872,2,0,P|148:115|146:189,1,157.500006008148
19,199,119338,1,0,0:0:0:0:
19,199,119493,2,0,P|52:161|148:187,1,157.500006008148
95,306,119959,1,0,0:0:0:0:
95,306,120114,2,0,L|89:223,1,78.7500030040742
241,55,120425,1,0,0:0:0:0:
228,238,120580,1,0,0:0:0:0:
240,68,120735,6,0,L|228:240,1,157.500006008148
166,21,121201,1,0,0:0:0:0:
108,128,121357,2,0,L|186:125,1,78.7500030040742
305,170,121667,1,0,0:0:0:0:
24,74,121823,1,0,0:0:0:0:
166,21,121978,5,0,0:0:0:0:
180,70,122055,1,0,0:0:0:0:
179,122,122133,1,0,0:0:0:0:
155,169,122211,1,0,0:0:0:0:
131,215,122288,1,0,0:0:0:0:
130,267,122366,1,0,0:0:0:0:
155,311,122443,1,0,0:0:0:0:
202,333,122521,1,0,0:0:0:0:
254,329,122599,5,0,0:0:0:0:
306,295,122676,1,0,0:0:0:0:
319,233,122754,1,0,0:0:0:0:
305,170,122832,1,0,0:0:0:0:
317,108,122910,1,0,0:0:0:0:
361,63,122987,1,0,0:0:0:0:
423,52,123065,5,0,0:0:0:0:
484,78,123142,1,0,0:0:0:0:
504,185,123220,6,0,L|491:372,1,157.5
492,341,123841,5,0,0:0:0:0:
504,185,123997,1,0,0:0:0:0:
484,340,124152,5,0,0:0:0:0:
512,186,124308,1,0,0:0:0:0:
287,354,124462,6,0,L|271:90,1,251.999992309571
122,319,124928,1,0,0:0:0:0:
484,78,125084,1,0,0:0:0:0:
35,12,125239,1,0,0:0:0:0:
288,361,125394,1,0,0:0:0:0:
271,102,125550,1,0,0:0:0:0:
27,372,125705,5,0,0:0:0:0:
327,226,125860,1,0,0:0:0:0:
176,29,126015,2,0,P|155:119|174:178,1,125.999996154785
428,336,126326,1,0,0:0:0:0:
428,336,126404,1,0,0:0:0:0:
428,336,126481,1,0,0:0:0:0:
208,235,126637,1,0,0:0:0:0:
376,49,126792,1,0,0:0:0:0:
288,368,126947,5,0,0:0:0:0:
221,384,127024,1,0,0:0:0:0:
152,371,127102,1,0,0:0:0:0:
97,329,127179,1,0,0:0:0:0:
66,269,127257,1,0,0:0:0:0:
65,200,127335,1,0,0:0:0:0:
91,136,127412,1,0,0:0:0:0:
144,91,127491,1,0,0:0:0:0:
211,79,127568,6,0,L|196:234,1,125.999996154785
13,379,127879,1,0,0:0:0:0:
120,3,128034,1,0,0:0:0:0:
392,267,128189,5,0,0:0:0:0:
0,170,128345,1,0,0:0:0:0:
333,67,128500,1,0,0:0:0:0:
238,375,128655,1,0,0:0:0:0:
135,208,128811,1,0,0:0:0:0:
202,176,128888,1,0,0:0:0:0:
277,176,128966,1,0,0:0:0:0:
344,209,129043,1,0,0:0:0:0:
392,267,129121,1,0,0:0:0:0:
333,67,129277,1,0,0:0:0:0:
245,294,129432,6,0,L|106:298,1,125.999996154785
486,341,129742,6,0,P|502:254|479:182,1,157.500006008148
211,79,130053,1,0,0:0:0:0:
505,107,130208,1,0,0:0:0:0:
351,384,130364,1,0,0:0:0:0:
254,0,130519,1,0,0:0:0:0:
5,293,130674,6,0,P|95:302|152:286,1,115.50000352478
429,26,130985,1,0,0:0:0:0:
67,207,131140,1,0,0:0:0:0:
67,207,131218,1,0,0:0:0:0:
67,207,131295,2,0,L|60:76,1,115.50000352478
258,6,131528,1,0,0:0:0:0:
258,6,131606,2,0,L|251:121,1,115.50000352478
426,384,131916,6,0,L|414:187,1,173.250005287171
415,211,132227,1,0,0:0:0:0:
157,372,132382,1,0,0:0:0:0:
499,332,132538,5,0,0:0:0:0:
60,91,132693,1,0,0:0:0:0:
495,242,132848,5,0,0:0:0:0:
145,380,133004,1,0,0:0:0:0:
21,268,133159,1,0,0:0:0:0:
76,229,133237,1,0,0:0:0:0:
143,216,133314,1,0,0:0:0:0:
210,232,133392,1,0,0:0:0:0:
265,274,133470,1,0,0:0:0:0:
320,313,133547,1,0,0:0:0:0:
388,321,133625,1,0,0:0:0:0:
452,296,133702,1,0,0:0:0:0:
495,242,133780,5,0,0:0:0:0:
256,378,133935,1,0,0:0:0:0:
493,164,134091,5,0,0:0:0:0:
263,386,134246,1,0,0:0:0:0:
129,95,134401,6,0,L|360:104,1,231.000007049561
41,14,134867,1,0,0:0:0:0:
145,303,135022,1,0,0:0:0:0:
277,7,135178,1,0,0:0:0:0:
16,278,135333,1,0,0:0:0:0:
390,206,135488,1,0,0:0:0:0:
129,95,135643,6,0,P|120:161|137:222,1,115.50000352478
467,266,135954,2,0,P|478:209|468:152,1,115.50000352478
284,14,136265,1,0,0:0:0:0:
284,14,136342,1,0,0:0:0:0:
284,14,136420,1,0,0:0:0:0:
276,288,136575,1,0,0:0:0:0:
347,104,136731,1,0,0:0:0:0:
179,299,136886,5,0,0:0:0:0:
211,352,136963,1,0,0:0:0:0:
268,378,137041,1,0,0:0:0:0:
329,366,137118,1,0,0:0:0:0:
366,314,137196,1,0,0:0:0:0:
362,250,137274,1,0,0:0:0:0:
339,190,137352,1,0,0:0:0:0:
340,127,137429,1,0,0:0:0:0:
361,66,137507,6,0,L|493:57,1,115.50000352478
276,288,137818,1,0,0:0:0:0:
163,13,137973,1,0,0:0:0:0:
444,163,138128,5,0,0:0:0:0:
8,254,138283,1,0,0:0:0:0:
512,337,138439,5,0,0:0:0:0:
49,109,138594,1,0,0:0:0:0:
289,35,138749,1,0,0:0:0:0:
285,98,138826,1,0,0:0:0:0:
282,161,138904,1,0,0:0:0:0:
279,225,138981,1,0,0:0:0:0:
276,288,139059,1,0,0:0:0:0:
444,163,139215,1,0,0:0:0:0:
163,13,139370,5,0,0:0:0:0:
412,40,139526,1,0,0:0:0:0:
165,247,139681,6,0,L|-12:254,1,157.500006008148
289,35,139992,5,0,0:0:0:0:
273,377,140147,1,0,0:0:0:0:
52,112,140302,5,0,0:0:0:0:
498,246,140458,1,0,0:0:0:0:
38,358,140613,6,0,P|0:272|10:188,1,157.500006008148
289,35,140923,1,0,0:0:0:0:
165,247,141079,1,0,0:0:0:0:
0,16,141234,5,0,0:0:0:0:
409,338,141389,1,0,0:0:0:0:
409,338,141467,1,0,0:0:0:0:
409,338,141545,1,0,0:0:0:0:
502,37,141700,1,0,0:0:0:0:
38,358,141855,5,0,0:0:0:0:
512,206,142010,1,0,0:0:0:0:
3,210,142166,5,0,0:0:0:0:
409,338,142321,1,0,0:0:0:0:
163,13,142476,5,0,0:0:0:0:
160,354,142632,1,0,0:0:0:0:
512,134,142787,5,0,0:0:0:0:
52,112,142942,1,0,0:0:0:0:
391,205,143097,5,0,0:0:0:0:
399,210,143408,1,0,0:0:0:0:
407,215,143719,1,0,0:0:0:0:
407,215,144340,5,0,0:0:0:0:
315,121,144495,2,0,L|323:229,1,73.4999977569581
256,303,144806,1,0,0:0:0:0:
350,297,144961,1,0,0:0:0:0:
223,209,145116,1,0,0:0:0:0:
203,384,145272,1,0,0:0:0:0:
256,303,145427,1,0,0:0:0:0:
261,308,145737,5,0,0:0:0:0:
92,287,146048,5,0,0:0:0:0:
322,208,146203,1,0,0:0:0:0:
203,384,146359,1,0,0:0:0:0:
211,111,146514,1,0,0:0:0:0:
210,119,146980,5,0,0:0:0:0:
409,102,147290,5,0,0:0:0:0:
210,217,147446,1,0,0:0:0:0:
293,60,147601,1,0,0:0:0:0:
350,297,147756,1,0,0:0:0:0:
309,173,147911,1,0,0:0:0:0:
313,180,148222,5,0,0:0:0:0:
72,158,148533,5,0,0:0:0:0:
167,41,148688,1,0,0:0:0:0:
167,41,148766,1,0,0:0:0:0:
167,41,148843,1,0,0:0:0:0:
138,301,148999,1,0,0:0:0:0:
65,47,149154,1,0,0:0:0:0:
40,322,149309,5,0,0:0:0:0:
226,169,149464,2,0,L|324:171,1,89.2500017023087
167,41,149775,1,0,0:0:0:0:
246,298,149930,1,0,0:0:0:0:
277,85,150086,1,0,0:0:0:0:
138,301,150241,1,0,0:0:0:0:
45,61,150396,1,0,0:0:0:0:
41,73,150707,5,0,0:0:0:0:
280,76,151017,5,0,0:0:0:0:
246,298,151173,1,0,0:0:0:0:
167,41,151328,1,0,0:0:0:0:
418,191,151483,2,0,P|360:190|288:194,1,89.2500017023087
138,301,151794,1,0,0:0:0:0:
197,208,151949,2,0,P|209:165|195:107,1,89.2500017023087
87,0,152260,1,0,0:0:0:0:
282,68,152415,1,0,0:0:0:0:
109,150,152570,1,0,0:0:0:0:
304,218,152726,1,0,0:0:0:0:
177,57,152881,1,0,0:0:0:0:
176,67,153191,5,0,0:0:0:0:
386,21,153502,5,0,0:0:0:0:
197,208,153657,1,0,0:0:0:0:
197,208,153735,1,0,0:0:0:0:
197,208,153813,1,0,0:0:0:0:
448,126,153968,2,0,L|454:225,1,89.2500017023087
346,363,154278,5,0,0:0:0:0:
330,108,154434,2,0,P|378:108|428:123,1,89.2500017023087
512,319,154744,1,0,0:0:0:0:
180,342,154900,1,0,0:0:0:0:
365,197,155055,1,0,0:0:0:0:
347,377,155210,1,0,0:0:0:0:
190,121,155365,5,0,0:0:0:0:
195,132,155676,5,0,0:0:0:0:
399,70,155987,5,0,0:0:0:0:
256,234,156142,2,0,L|263:371,1,133.875002553463
274,377,156453,2,0,L|268:279,1,89.2500017023087
120,44,156763,6,0,P|90:108|119:219,1,178.500003404617
351,159,157229,1,0,0:0:0:0:
179,293,157384,1,0,0:0:0:0:
251,30,157540,1,0,0:0:0:0:
367,360,157695,1,0,0:0:0:0:
69,307,157850,1,0,0:0:0:0:
361,153,158005,6,0,L|505:161,1,133.875002553463
494,160,158316,1,0,0:0:0:0:
251,30,158471,1,0,0:0:0:0:
427,280,158627,1,0,0:0:0:0:
506,0,158782,1,0,0:0:0:0:
232,219,158937,1,0,0:0:0:0:
498,166,159092,1,0,0:0:0:0:
174,160,159248,6,0,P|185:233|191:317,1,133.875002553463
189,292,159558,1,0,0:0:0:0:
337,101,159714,1,0,0:0:0:0:
0,82,159869,1,0,0:0:0:0:
352,221,160024,1,0,0:0:0:0:
102,273,160180,1,0,0:0:0:0:
244,12,160335,1,0,0:0:0:0:
23,211,160490,5,0,0:0:0:0:
1,267,160567,1,0,0:0:0:0:
14,327,160645,1,0,0:0:0:0:
61,366,160722,1,0,0:0:0:0:
123,371,160800,1,0,0:0:0:0:
175,339,160878,1,0,0:0:0:0:
200,283,160955,1,0,0:0:0:0:
186,223,161033,5,0,0:0:0:0:
169,150,161111,1,0,0:0:0:0:
199,81,161188,1,0,0:0:0:0:
261,43,161266,1,0,0:0:0:0:
334,48,161344,1,0,0:0:0:0:
391,97,161421,1,0,0:0:0:0:
409,168,161499,1,0,0:0:0:0:
381,237,161576,5,0,0:0:0:0:
280,266,161655,5,0,0:0:0:0:
290,153,161732,6,0,L|318:151,14,22.3125004255772
290,153,162354,5,0,0:0:0:0:
355,336,162509,1,0,0:0:0:0:
293,141,162664,5,0,0:0:0:0:
351,347,162819,1,0,0:0:0:0:
478,86,162975,6,0,B|333:112|378:29|232:60,1,251.999992309571
86,151,163441,1,0,0:0:0:0:
421,0,163596,1,0,0:0:0:0:
347,363,163751,1,0,0:0:0:0:
94,0,163907,1,0,0:0:0:0:
406,209,164062,1,0,0:0:0:0:
12,384,164217,5,0,0:0:0:0:
247,44,164372,1,0,0:0:0:0:
478,269,164528,2,0,P|395:295|333:270,1,125.999996154785
19,64,164838,1,0,0:0:0:0:
19,64,164916,1,0,0:0:0:0:
19,64,164994,1,0,0:0:0:0:
356,90,165149,1,0,0:0:0:0:
138,373,165304,2,0,L|132:294,1,62.9999980773926
17,200,165459,5,0,0:0:0:0:
89,178,165536,1,0,0:0:0:0:
164,178,165614,1,0,0:0:0:0:
232,210,165691,1,0,0:0:0:0:
295,251,165769,1,0,0:0:0:0:
368,269,165847,1,0,0:0:0:0:
442,258,165924,1,0,0:0:0:0:
498,205,166003,1,0,0:0:0:0:
507,129,166081,6,0,P|443:112|362:114,1,125.999996154785
138,373,166391,1,0,0:0:0:0:
326,0,166546,1,0,0:0:0:0:
444,384,166702,1,0,0:0:0:0:
17,200,166857,1,0,0:0:0:0:
507,129,167012,5,0,0:0:0:0:
35,359,167168,1,0,0:0:0:0:
491,276,167323,1,0,0:0:0:0:
491,276,167401,1,0,0:0:0:0:
491,276,167478,1,0,0:0:0:0:
17,200,167634,1,0,0:0:0:0:
282,375,167789,1,0,0:0:0:0:
51,3,167944,6,0,P|23:71|46:167,1,125.999996154785
370,330,168255,6,0,L|361:167,1,157.500006008148
122,84,168565,5,0,0:0:0:0:
378,344,168721,1,0,0:0:0:0:
474,0,168876,5,0,0:0:0:0:
91,272,169031,1,0,0:0:0:0:
486,177,169186,6,0,P|390:166|328:166,1,125.999996154785
17,200,169497,1,0,0:0:0:0:
251,16,169652,1,0,0:0:0:0:
251,16,169730,1,0,0:0:0:0:
251,16,169808,2,0,L|245:168,1,125.999996154785
413,384,170041,1,0,0:0:0:0:
413,384,170118,2,0,L|408:258,1,125.999996154785
122,84,170429,5,0,0:0:0:0:
300,382,170584,1,0,0:0:0:0:
362,30,170739,5,0,0:0:0:0:
151,380,170895,1,0,0:0:0:0:
151,380,170972,1,0,0:0:0:0:
151,380,171050,2,0,L|150:298,1,62.9999980773926
251,16,171205,2,0,L|250:78,1,62.9999980773926
7,292,171361,1,0,0:0:0:0:
403,132,171516,1,0,0:0:0:0:
444,323,171671,5,0,0:0:0:0:
363,329,171748,1,0,0:0:0:0:
289,295,171826,1,0,0:0:0:0:
243,229,171904,1,0,0:0:0:0:
195,165,171981,1,0,0:0:0:0:
115,159,172059,1,0,0:0:0:0:
58,214,172136,1,0,0:0:0:0:
61,293,172214,1,0,0:0:0:0:
123,344,172292,6,0,B|189:363|189:363|260:338,1,125.999996154785
454,44,172603,1,0,0:0:0:0:
154,248,172758,1,0,0:0:0:0:
486,384,172913,6,0,L|478:126,1,251.999992309571
211,30,173379,1,0,0:0:0:0:
124,359,173535,1,0,0:0:0:0:
376,230,173690,1,0,0:0:0:0:
0,158,173845,5,0,0:0:0:0:
399,347,174000,1,0,0:0:0:0:
0,384,174156,5,0,0:0:0:0:
211,14,174311,1,0,0:0:0:0:
424,370,174466,5,0,0:0:0:0:
213,0,174621,1,0,0:0:0:0:
80,261,174777,1,0,0:0:0:0:
80,261,174855,1,0,0:0:0:0:
80,261,174932,1,0,0:0:0:0:
371,65,175088,1,0,0:0:0:0:
71,13,175243,2,0,L|81:99,1,62.9999980773926
151,320,175398,5,0,0:0:0:0:
212,362,175475,1,0,0:0:0:0:
286,360,175553,1,0,0:0:0:0:
346,316,175630,1,0,0:0:0:0:
369,245,175708,1,0,0:0:0:0:
346,174,175786,1,0,0:0:0:0:
287,130,175863,1,0,0:0:0:0:
212,128,175941,1,0,0:0:0:0:
151,170,176019,6,0,L|144:316,1,125.999996154785
290,17,176330,1,0,0:0:0:0:
0,158,176485,1,0,0:0:0:0:
439,316,176640,5,0,0:0:0:0:
134,76,176796,1,0,0:0:0:0:
512,63,176951,5,0,0:0:0:0:
151,320,177106,1,0,0:0:0:0:
290,17,177262,1,0,0:0:0:0:
298,91,177339,1,0,0:0:0:0:
306,166,177417,1,0,0:0:0:0:
316,241,177494,1,0,0:0:0:0:
324,317,177572,1,0,0:0:0:0:
134,76,177727,1,0,0:0:0:0:
480,179,177883,5,0,0:0:0:0:
71,209,178038,1,0,0:0:0:0:
400,22,178193,6,0,L|389:207,1,157.500006008148
240,370,178504,1,0,0:0:0:0:
7,28,178659,1,0,0:0:0:0:
483,283,178815,5,0,0:0:0:0:
60,364,178970,1,0,0:0:0:0:
290,17,179125,6,0,P|306:94|292:160,1,125.999996154785
0,285,179436,1,0,0:0:0:0:
324,317,179591,1,0,0:0:0:0:
200,83,179746,5,0,0:0:0:0:
240,370,179902,1,0,0:0:0:0:
475,170,180057,2,0,P|387:164|341:173,1,125.999996154785
56,363,180367,5,0,0:0:0:0:
127,0,180523,1,0,0:0:0:0:
416,351,180678,5,0,0:0:0:0:
3,126,180833,1,0,0:0:0:0:
488,30,180989,5,0,0:0:0:0:
116,222,181144,1,0,0:0:0:0:
306,0,181299,5,0,0:0:0:0:
252,379,181454,1,0,0:0:0:0:
252,379,181532,1,0,0:0:0:0:
252,379,181610,5,0,0:0:0:0:
213,109,181920,1,0,0:0:0:0:
252,379,182231,1,0,0:0:0:0:
213,109,182542,6,0,L|211:231,1,89.2500017023087
145,310,182852,1,0,0:0:0:0:
306,178,183007,1,0,0:0:0:0:
115,63,183163,6,0,P|107:117|118:168,1,89.2500017023087
281,296,183473,1,0,0:0:0:0:
79,239,183629,2,0,L|168:233,1,89.2500017023087
414,149,183939,1,0,0:0:0:0:
112,150,184094,1,0,0:0:0:0:
367,358,184250,1,0,0:0:0:0:
265,93,184405,5,0,0:0:0:0:
215,357,184560,1,0,0:0:0:0:
255,91,184716,5,0,0:0:0:0:
224,358,184871,1,0,0:0:0:0:
25,50,185026,6,0,P|139:28|265:93,1,262.5
417,259,185492,1,0,0:0:0:0:
65,343,185647,1,0,0:0:0:0:
371,10,185803,1,0,0:0:0:0:
379,371,185958,5,0,0:0:0:0:
9,40,186113,1,0,0:0:0:0:
505,116,186268,5,0,0:0:0:0:
115,188,186424,1,0,0:0:0:0:
496,301,186579,5,0,0:0:0:0:
106,188,186734,1,0,0:0:0:0:
371,2,186890,5,0,0:0:0:0:
327,208,187045,1,0,0:0:0:0:
327,208,187123,1,0,0:0:0:0:
327,208,187200,1,0,0:0:0:0:
169,13,187356,1,0,0:0:0:0:
440,192,187511,5,0,0:0:0:0:
426,261,187588,1,0,0:0:0:0:
375,310,187666,1,0,0:0:0:0:
304,320,187743,1,0,0:0:0:0:
241,287,187821,1,0,0:0:0:0:
186,241,187898,1,0,0:0:0:0:
115,239,187976,1,0,0:0:0:0:
66,291,188053,1,0,0:0:0:0:
153,345,188132,6,0,L|158:187,1,131.25
29,22,188443,1,0,0:0:0:0:
327,208,188598,1,0,0:0:0:0:
3,384,188753,5,0,0:0:0:0:
164,0,188908,1,0,0:0:0:0:
348,384,189064,5,0,0:0:0:0:
0,194,189219,1,0,0:0:0:0:
224,106,189374,1,0,0:0:0:0:
296,103,189451,1,0,0:0:0:0:
368,101,189529,1,0,0:0:0:0:
440,99,189606,1,0,0:0:0:0:
512,97,189685,2,0,L|508:173,1,65.625
152,353,189840,1,0,0:0:0:0:
266,0,189995,5,0,0:0:0:0:
391,286,190151,1,0,0:0:0:0:
61,276,190306,6,0,L|70:99,1,168
290,296,190617,5,0,0:0:0:0:
0,384,190772,1,0,0:0:0:0:
66,8,190927,5,0,0:0:0:0:
236,384,191083,1,0,0:0:0:0:
511,97,191238,6,0,P|446:73|356:92,1,131.25
61,276,191548,1,0,0:0:0:0:
169,3,191704,1,0,0:0:0:0:
169,3,191781,1,0,0:0:0:0:
169,3,191859,1,0,0:0:0:0:
400,293,192014,1,0,0:0:0:0:
400,293,192092,1,0,0:0:0:0:
400,293,192170,1,0,0:0:0:0:
293,6,192325,1,0,0:0:0:0:
39,118,192480,5,0,0:0:0:0:
46,199,192557,1,0,0:0:0:0:
105,260,192635,1,0,0:0:0:0:
189,272,192712,1,0,0:0:0:0:
262,231,192790,1,0,0:0:0:0:
284,145,192869,1,0,0:0:0:0:
346,89,192947,1,0,0:0:0:0:
433,88,193024,1,0,0:0:0:0:
500,147,193102,1,0,0:0:0:0:
512,229,193180,1,0,0:0:0:0:
468,304,193257,1,0,0:0:0:0:
387,332,193335,1,0,0:0:0:0:
303,306,193413,1,0,0:0:0:0:
262,231,193490,1,0,0:0:0:0:
202,167,193567,1,0,0:0:0:0:
118,143,193645,1,0,0:0:0:0:
46,199,193722,6,0,P|41:247|52:312,1,65.625
154,383,193878,1,0,0:0:0:0:
154,383,193955,1,0,0:0:0:0:
154,383,194033,2,0,P|157:350|156:317,1,65.625
32,79,194188,1,0,0:0:0:0:
32,79,194266,1,0,0:0:0:0:
32,79,194344,5,0,0:0:0:0:
251,384,194499,1,0,0:0:0:0:
197,1,194654,1,0,0:0:0:0:
49,352,194810,1,0,0:0:0:0:
390,201,194965,6,0,P|252:187|127:173,1,262.5
0,269,195431,1,0,0:0:0:0:
298,0,195586,1,0,0:0:0:0:
154,384,195741,1,0,0:0:0:0:
21,30,195897,5,0,0:0:0:0:
402,317,196052,1,0,0:0:0:0:
0,282,196207,5,0,0:0:0:0:
485,130,196362,1,0,0:0:0:0:
10,22,196518,5,0,0:0:0:0:
501,245,196673,1,0,0:0:0:0:
154,384,196828,2,0,P|146:306|157:242,1,131.25
373,95,197139,1,0,0:0:0:0:
254,312,197294,1,0,0:0:0:0:
39,196,197449,5,0,0:0:0:0:
90,146,197526,1,0,0:0:0:0:
160,131,197604,1,0,0:0:0:0:
228,151,197681,1,0,0:0:0:0:
284,197,197759,1,0,0:0:0:0:
350,225,197837,1,0,0:0:0:0:
421,217,197914,1,0,0:0:0:0:
480,176,197992,1,0,0:0:0:0:
373,95,198071,6,0,L|368:268,1,131.25
159,262,198381,1,0,0:0:0:0:
159,262,198459,1,0,0:0:0:0:
159,262,198537,1,0,0:0:0:0:
245,0,198692,5,0,0:0:0:0:
355,370,198847,1,0,0:0:0:0:
28,197,199002,5,0,0:0:0:0:
508,95,199158,1,0,0:0:0:0:
177,380,199313,1,0,0:0:0:0:
105,374,199390,1,0,0:0:0:0:
47,333,199468,1,0,0:0:0:0:
18,267,199545,1,0,0:0:0:0:
28,197,199623,1,0,0:0:0:0:
431,230,199779,1,0,0:0:0:0:
150,259,199934,5,0,0:0:0:0:
373,103,200089,1,0,0:0:0:0:
512,360,200245,6,0,L|339:371,1,168
0,384,200555,1,0,0:0:0:0:
104,16,200711,1,0,0:0:0:0:
349,378,200866,5,0,0:0:0:0:
100,0,201021,1,0,0:0:0:0:
177,383,201176,5,0,0:0:0:0:
429,0,201332,1,0,0:0:0:0:
0,190,201487,5,0,0:0:0:0:
512,237,201642,1,0,0:0:0:0:
512,237,201720,1,0,0:0:0:0:
512,237,201798,1,0,0:0:0:0:
15,76,201953,1,0,0:0:0:0:
509,372,202108,5,0,0:0:0:0:
261,0,202264,1,0,0:0:0:0:
10,295,202419,5,0,0:0:0:0:
92,339,202496,1,0,0:0:0:0:
185,320,202574,1,0,0:0:0:0:
233,239,202651,1,0,0:0:0:0:
259,148,202729,1,0,0:0:0:0:
338,97,202807,1,0,0:0:0:0:
432,118,202885,1,0,0:0:0:0:
481,200,202962,5,0,0:0:0:0:
458,291,203040,1,0,0:0:0:0:
378,343,203118,1,0,0:0:0:0:
286,320,203195,1,0,0:0:0:0:
233,239,203273,1,0,0:0:0:0:
166,173,203351,5,0,0:0:0:0:
69,158,203428,5,0,0:0:0:0:
13,258,203506,5,0,0:0:0:0:
92,339,203584,5,0,0:0:0:0:
196,303,203661,6,0,L|203:110,1,157.5
201,145,203972,1,0,0:0:0:0:
273,384,204127,1,0,0:0:0:0:
21,265,204282,1,0,0:0:0:0:
21,265,204360,1,0,0:0:0:0:
21,265,204438,1,0,0:0:0:0:
348,217,204593,1,0,0:0:0:0:
0,384,204748,1,0,0:0:0:0:
76,53,204903,6,0,P|162:50|222:100,1,131.25
255,232,205214,1,0,0:0:0:0:
354,0,205369,1,0,0:0:0:0:
122,129,205525,1,0,0:0:0:0:
421,313,205680,1,0,0:0:0:0:
301,106,205835,1,0,0:0:0:0:
116,271,205991,1,0,0:0:0:0:
434,193,206146,6,0,P|429:109|428:42,1,131.25
256,235,206456,1,0,0:0:0:0:
503,271,206612,1,0,0:0:0:0:
291,383,206767,1,0,0:0:0:0:
344,199,206922,1,0,0:0:0:0:
509,372,207078,1,0,0:0:0:0:
240,318,207233,1,0,0:0:0:0:
432,64,207388,6,0,P|366:72|288:57,1,131.25
177,0,207699,1,0,0:0:0:0:
238,212,207854,1,0,0:0:0:0:
365,0,208009,1,0,0:0:0:0:
94,138,208165,1,0,0:0:0:0:
386,300,208320,1,0,0:0:0:0:
201,103,208475,1,0,0:0:0:0:
135,296,208630,5,0,0:0:0:0:
36,37,208786,1,0,0:0:0:0:
135,303,208941,5,0,0:0:0:0:
222,27,209097,1,0,0:0:0:0:
135,310,209252,5,0,0:0:0:0:
30,26,209408,1,0,0:0:0:0:
325,231,209562,5,0,0:0:0:0:
0,224,209718,1,0,0:0:0:0:
287,139,209873,6,0,L|436:147,1,131.25
342,339,210183,1,0,0:0:0:0:
191,112,210339,1,0,0:0:0:0:
424,276,210494,1,0,0:0:0:0:
169,257,210649,1,0,0:0:0:0:
446,131,210805,1,0,0:0:0:0:
494,361,210960,1,0,0:0:0:0:
294,235,211115,6,0,P|205:238|158:265,1,131.25
24,371,211426,1,0,0:0:0:0:
243,320,211581,1,0,0:0:0:0:
73,133,211736,1,0,0:0:0:0:
142,384,211892,1,0,0:0:0:0:
199,74,212047,1,0,0:0:0:0:
26,251,212202,1,0,0:0:0:0:
304,229,212357,5,0,0:0:0:0:
61,124,212513,1,0,0:0:0:0:
356,103,212668,5,0,0:0:0:0:
113,208,212824,1,0,0:0:0:0:
316,234,212979,5,0,0:0:0:0:
48,118,213135,1,0,0:0:0:0:
368,97,213289,5,0,0:0:0:0:
100,213,213445,1,0,0:0:0:0:
289,29,213600,5,0,0:0:0:0:
289,29,213677,1,0,0:0:0:0:
289,29,213755,1,0,0:0:0:0:
202,269,213910,1,0,0:0:0:0:
171,67,214066,1,0,0:0:0:0:
468,224,214221,5,0,0:0:0:0:
325,318,214376,2,0,L|321:234,1,65.625
378,94,214532,2,0,L|381:159,1,65.625
311,334,214687,2,0,L|307:250,1,65.625
388,78,214842,6,0,L|393:221,1,131.25
476,366,215153,1,0,0:0:0:0:
290,158,215308,1,0,0:0:0:0:
494,250,215463,1,0,0:0:0:0:
224,358,215619,1,0,0:0:0:0:
266,33,215774,1,0,0:0:0:0:
346,260,215929,1,0,0:0:0:0:
36,139,216084,6,0,P|11:203|34:297,1,131.25
226,377,216395,1,0,0:0:0:0:
8,373,216550,1,0,0:0:0:0:
290,158,216706,1,0,0:0:0:0:
121,210,216861,1,0,0:0:0:0:
351,383,217016,1,0,0:0:0:0:
160,69,217172,1,0,0:0:0:0:
113,345,217327,6,0,P|181:321|282:332,1,131.25
479,372,217637,1,0,0:0:0:0:
322,256,217793,1,0,0:0:0:0:
499,102,217948,1,0,0:0:0:0:
458,240,218103,1,0,0:0:0:0:
263,87,218259,1,0,0:0:0:0:
512,114,218414,1,0,0:0:0:0:
313,269,218569,5,0,0:0:0:0:
383,27,218724,1,0,0:0:0:0:
383,27,218802,1,0,0:0:0:0:
383,27,218880,2,0,L|386:98,1,65.625
396,313,219035,1,0,0:0:0:0:
116,193,219190,5,0,0:0:0:0:
304,168,219346,1,0,0:0:0:0:
0,0,219501,5,0,0:0:0:0:
28,269,219656,1,0,0:0:0:0:
203,93,219811,6,0,P|109:60|55:72,1,131.25
157,310,220122,1,0,0:0:0:0:
298,74,220277,1,0,0:0:0:0:
281,373,220433,1,0,0:0:0:0:
116,193,220588,1,0,0:0:0:0:
422,303,220743,1,0,0:0:0:0:
146,319,220899,1,0,0:0:0:0:
311,60,221054,6,0,L|458:55,1,131.25
308,268,221364,1,0,0:0:0:0:
231,4,221520,1,0,0:0:0:0:
406,175,221675,1,0,0:0:0:0:
98,197,221830,1,0,0:0:0:0:
331,53,221986,1,0,0:0:0:0:
419,326,222141,1,0,0:0:0:0:
454,68,222296,5,0,0:0:0:0:
297,282,222451,1,0,0:0:0:0:
134,79,222607,5,0,0:0:0:0:
416,183,222762,1,0,0:0:0:0:
341,42,222917,5,0,0:0:0:0:
433,334,223073,1,0,0:0:0:0:
466,60,223228,5,0,0:0:0:0:
187,194,223383,1,0,0:0:0:0:
446,344,223538,6,0,P|480:292|479:212,1,131.25
243,89,223849,1,0,0:0:0:0:
383,257,224004,1,0,0:0:0:0:
151,294,224160,2,0,L|85:296,1,65.625
2,150,224315,2,0,L|67:152,1,65.625
317,318,224470,2,0,L|251:320,1,65.625
168,174,224625,2,0,L|233:176,1,65.625
0,370,224781,6,0,L|1:307,1,62.9999980773926
75,139,225091,1,0,0:0:0:0:
151,311,225247,1,0,0:0:0:0:
150,329,225402,1,0,0:0:0:0:
149,347,225557,1,0,0:0:0:0:
307,198,225713,1,0,0:0:0:0:
310,216,225868,1,0,0:0:0:0:
170,149,226023,5,0,0:0:0:0:
168,167,226178,1,0,0:0:0:0:
360,62,226334,1,0,0:0:0:0:
363,80,226489,1,0,0:0:0:0:
122,0,226644,5,0,0:0:0:0:
256,192,226722,12,0,228508,0:0:0:0:
