osu file format v14

[General]
AudioFilename: audio.mp3
AudioLeadIn: 0
PreviewTime: 160927
Countdown: 0
SampleSet: Soft
StackLeniency: 0.7
Mode: 0
LetterboxInBreaks: 0
WidescreenStoryboard: 1

[Editor]
DistanceSpacing: 1.3
BeatDivisor: 4
GridSize: 32
TimelineZoom: 2.699999

[Metadata]
Title:Zettai Reido Novatic
TitleUnicode:絶対零度θノヴァティック
Artist:WALKUERE
ArtistUnicode:ワルキューレ
Creator:Pentori
Version:Insane
Source:マクロスΔ
Tags:macross delta walkure trap
BeatmapID:1186867
BeatmapSetID:552252

[Difficulty]
HPDrainRate:5.6
CircleSize:4
OverallDifficulty:8
ApproachRate:9
SliderMultiplier:1.52
SliderTickRate:1

[Events]
//Background and Video events
0,0,"718518.jpg",0,0
//Break Periods
2,85878,93078
2,139012,150244
//Storyboard Layer 0 (Background)
//Storyboard Layer 1 (Fail)
//Storyboard Layer 2 (Pass)
//Storyboard Layer 3 (Foreground)
//Storyboard Sound Samples

[TimingPoints]
1679,333.333333333333,4,2,1,30,1,0
5678,-166.666666666667,4,2,1,60,0,0
6345,-100,4,2,1,50,0,0
7012,-100,4,2,1,60,0,0
11012,-83.3333333333333,4,2,1,60,0,0
14845,-83.3333333333333,4,2,1,5,0,0
15012,-83.3333333333333,4,2,1,40,0,0
16345,-83.3333333333333,4,2,1,50,0,0
17678,-111.111111111111,4,2,4,30,0,0
28345,-111.111111111111,4,2,4,40,0,0
47012,-111.111111111111,4,2,1,40,0,0
49678,-125,4,2,3,40,0,0
59012,-125,4,2,1,60,0,0
61512,-71.4285714285714,4,2,1,70,0,0
61845,-100,4,2,1,70,0,0
62178,-100,4,2,1,50,0,0
62845,-71.4285714285714,4,2,1,70,0,0
63178,-100,4,2,1,70,0,0
63512,-100,4,2,1,50,0,0
64178,-100,4,2,2,80,0,1
71012,-100,4,2,1,70,0,0
71512,-100,4,2,1,50,0,0
72178,-71.4285714285714,4,2,1,70,0,0
72512,-100,4,2,1,70,0,0
72845,-100,4,2,1,50,0,0
73512,-71.4285714285714,4,2,1,70,0,0
73845,-100,4,2,1,70,0,0
74178,-100,4,2,1,50,0,0
74845,-100,4,2,2,80,0,1
80345,-100,4,2,1,60,0,0
81678,-83.3333333333333,4,2,1,70,0,0
83178,-83.3333333333333,4,2,2,70,0,0
85678,-83.3333333333333,4,2,1,35,0,0
96178,-83.3333333333333,4,2,1,5,0,0
96345,-83.3333333333333,4,2,1,60,0,0
101678,352.941176470588,4,2,1,40,1,0
101678,-166.666666666667,4,2,1,40,0,0
103266,365.853658536585,4,2,1,40,1,0
104178,333.333333333333,4,2,2,60,1,0
104178,-100,4,2,2,60,0,0
105678,333.333333333333,4,2,2,60,1,0
125677,-100,4,2,1,60,0,0
126344,-100,4,2,1,40,0,0
126844,-166.666666666667,4,2,1,60,0,0
128344,-100,4,2,1,60,0,0
129511,-166.666666666667,4,2,1,60,0,0
131011,-100,4,2,1,60,0,0
132177,-166.666666666667,4,2,1,60,0,0
150844,-111.111111111111,4,2,2,40,0,0
156344,-111.111111111111,4,2,2,50,0,0
159011,-111.111111111111,4,2,2,60,0,0
160344,-125,4,2,1,40,0,0
161511,-71.4285714285714,4,2,1,70,0,0
161844,-100,4,2,1,70,0,0
162177,-100,4,2,1,50,0,0
162844,-71.4285714285714,4,2,1,70,0,0
163177,-100,4,2,1,70,0,0
163511,-100,4,2,1,50,0,0
164177,-100,4,2,2,80,0,1
171011,-100,4,2,1,70,0,0
171511,-100,4,2,1,50,0,0
172177,-71.4285714285714,4,2,1,70,0,0
172511,-100,4,2,1,70,0,0
172844,-100,4,2,1,50,0,0
173511,-71.4285714285714,4,2,1,70,0,0
173844,-100,4,2,1,70,0,0
174177,-100,4,2,1,50,0,0
174844,-100,4,2,2,80,0,0
175011,-100,4,2,2,80,0,1
180344,-100,4,2,1,60,0,0
181677,-83.3333333333333,4,2,1,70,0,0
183177,-100,4,2,2,60,0,0
191511,-100,4,2,2,65,0,0
192011,-100,4,2,2,70,0,0
192511,-100,4,2,2,75,0,0
193011,-100,4,2,2,80,0,0
193344,-100,4,2,2,90,0,0

[Colours]
Combo1 : 128,0,255
Combo2 : 255,128,0
Combo3 : 0,128,255

[HitObjects]
262,120,5678,6,0,P|206:74|120:92,1,159.599995129395,8|0,0:1|0:0,0:0:0:0:
67,150,6345,5,10,0:1:0:0:
70,176,6428,1,8,0:1:0:0:
73,202,6512,1,10,0:1:0:0:
76,229,6595,1,8,0:1:0:0:
79,255,6678,2,0,L|73:324,3,38,10|8|10|8,0:1|0:1|0:1|0:1,0:0:0:0:
39,328,7012,6,0,B|92:320|92:320|139:334|139:334|200:326,1,152,4|8,0:0|0:1,0:0:0:0:
350,304,7512,1,2,0:0:0:0:
265,370,7678,2,0,P|270:313|275:265,1,76,10|2,0:1|0:0,0:0:0:0:
282,193,8012,1,10,0:1:0:0:
170,141,8178,6,0,P|173:178|176:216,1,76,2|8,0:0|0:1,0:0:0:0:
340,132,8512,2,0,P|296:110|241:120,1,76,2|8,0:0|0:1,0:0:0:0:
349,254,8845,2,0,P|403:242|447:233,1,76,2|8,0:0|0:1,0:0:0:0:
476,72,9178,2,0,P|473:109|470:147,1,76,2|8,0:0|0:1,0:0:0:0:
369,49,9512,1,2,0:0:0:0:
282,193,9678,6,0,B|195:173|195:173|114:205,1,152,10|8,0:1|0:1,0:0:0:0:
195,335,10178,1,2,0:0:0:0:
195,335,10262,1,2,0:0:0:0:
195,335,10345,2,0,P|206:286|192:247,1,76,10|0,0:1|0:0,0:0:0:0:
50,262,10678,2,0,L|110:272,3,38,10|10|10|10,0:1|0:1|0:1|0:1,0:0:0:0:
120,295,11012,6,0,B|222:267|201:325|305:304,1,182.399994433594,14|8,0:1|0:1,0:0:0:0:
303,108,11512,2,0,P|256:164|269:230,1,136.799995825195,14|0,0:1|0:0,0:0:0:0:
335,183,11845,2,0,L|349:42,1,136.799995825195,14|0,0:1|0:0,0:0:0:0:
275,10,12178,2,0,B|214:4|214:4|166:25|166:25|92:19,1,182.399994433594,14|12,0:1|0:1,0:0:0:0:
256,192,12595,12,0,14845,0:0:0:0:
344,137,15012,5,8,0:1:0:0:
344,137,15178,1,8,0:1:0:0:
310,280,15345,1,8,0:1:0:0:
310,280,15512,1,8,0:1:0:0:
167,246,15678,1,8,0:1:0:0:
167,246,15845,1,8,0:1:0:0:
201,103,16012,1,8,0:1:0:0:
201,103,16178,1,8,0:1:0:0:
330,200,16345,6,0,P|362:212|405:203,1,45.5999986083985,8|8,0:1|0:1,0:0:0:0:
283,128,16512,2,0,P|315:116|358:125,1,45.5999986083985,8|8,0:1|0:1,0:0:0:0:
248,225,16678,2,0,P|264:254|303:275,1,45.5999986083985,8|8,0:1|0:1,0:0:0:0:
201,103,16845,2,0,P|217:73|256:52,1,45.5999986083985,8|8,0:1|0:1,0:0:0:0:
161,234,17012,2,0,P|154:267|171:308,1,45.5999986083985,8|8,0:1|0:1,0:0:0:0:
114,94,17178,2,0,P|107:60|124:19,1,45.5999986083985,8|8,0:1|0:1,0:0:0:0:
62,246,17345,5,8,0:1:0:0:
341,267,17678,5,12,0:1:0:0:
341,267,17845,2,0,L|246:260,1,68.3999979125977,0|8,0:0|0:0,0:0:0:0:
404,321,18178,2,0,P|423:262|389:200,1,136.799995825195,8|8,0:1|0:0,0:0:0:0:
229,193,18678,1,8,0:1:0:0:
229,193,18762,1,0,0:0:0:0:
229,193,18845,2,0,P|201:221|193:261,1,68.3999979125977,0|0,0:0|0:0,0:0:0:0:
388,199,19178,5,8,0:1:0:0:
355,113,19345,2,0,L|362:45,2,68.3999979125977,8|0|0,0:0|0:0|0:0,0:0:0:0:
458,46,19845,1,8,0:0:0:0:
282,0,20012,2,0,L|245:11,2,34.1999989562989,0|0|0,0:0|0:0|0:0,0:0:0:0:
150,171,20345,6,0,L|168:19,1,136.799995825195,8|8,0:1|0:0,0:0:0:0:
77,0,20845,2,0,L|60:135,1,136.799995825195,8|8,0:1|0:0,0:0:0:0:
133,254,21345,1,8,0:1:0:0:
133,254,21428,1,0,0:0:0:0:
133,254,21512,2,0,P|166:254|197:240,1,68.3999979125977,0|0,0:0|0:0,0:0:0:0:
251,62,21845,5,8,0:0:0:0:
170,108,22012,2,0,P|152:137|149:170,1,68.3999979125977,0|0,0:0|0:0,0:0:0:0:
277,213,22345,2,0,P|260:183|232:163,1,68.3999979125977,8|0,0:0|0:0,0:0:0:0:
232,163,22595,1,0,0:0:0:0:
232,163,22678,1,0,0:0:0:0:
133,254,22845,1,8,0:0:0:0:
283,348,23012,5,8,0:1:0:0:
283,348,23178,2,0,L|364:335,1,68.3999979125977,0|8,0:0|0:0,0:0:0:0:
474,230,23512,2,0,P|508:304|479:369,1,136.799995825195,8|8,0:1|0:0,0:0:0:0:
409,171,24012,1,8,0:1:0:0:
409,171,24095,1,0,0:0:0:0:
409,171,24178,2,0,P|441:148|488:144,1,68.3999979125977,0|0,0:0|0:0,0:0:0:0:
379,260,24512,5,8,0:1:0:0:
310,197,24678,2,0,P|271:185|224:197,2,68.3999979125977,8|0|0,0:0|0:0|0:0,0:0:0:0:
188,248,25178,2,0,L|204:103,1,136.799995825195,8|0,0:0|0:0,0:0:0:0:
123,27,25678,6,0,P|96:62|92:110,1,68.3999979125977,8|0,0:1|0:0,0:0:0:0:
188,248,26012,1,8,0:0:0:0:
231,173,26178,2,0,B|184:164|184:164|145:176|145:176|90:167,1,136.799995825195,8|8,0:1|0:0,0:0:0:0:
9,226,26678,1,8,0:1:0:0:
9,226,26762,1,0,0:0:0:0:
9,226,26845,2,0,L|16:308,1,68.3999979125977,0|0,0:0|0:0,0:0:0:0:
147,369,27178,5,8,0:0:0:0:
147,369,28345,5,10,0:1:0:0:
238,283,28512,1,2,0:0:0:0:
118,184,28678,2,0,L|125:275,1,68.3999979125977,10|10,0:0|0:1,0:0:0:0:
282,146,29012,2,0,P|247:125|198:126,1,68.3999979125977,2|8,0:0|0:0,0:0:0:0:
333,249,29345,2,0,L|329:293,2,34.1999989562989,2|0|2,0:0|0:0|0:0,0:0:0:0:
369,74,29678,5,10,0:1:0:0:
282,146,29845,1,2,0:0:0:0:
434,214,30012,2,0,L|513:206,1,68.3999979125977,10|8,0:0|0:1,0:0:0:0:
326,317,30345,2,0,L|333:249,1,68.3999979125977,2|10,0:0|0:0,0:0:0:0:
416,367,30678,1,2,0:0:0:0:
416,367,30762,1,0,0:0:0:0:
416,367,30845,1,2,0:0:0:0:
243,275,31012,5,8,0:1:0:0:
156,342,31178,2,0,L|149:274,1,68.3999979125977,2|8,0:0|0:0,0:0:0:0:
47,206,31512,2,0,L|54:274,1,68.3999979125977,10|0,0:1|0:0,0:0:0:0:
186,187,31845,2,0,L|179:119,1,68.3999979125977,10|0,0:0|0:0,0:0:0:0:
178,118,32095,1,0,0:0:0:0:
178,118,32178,1,2,0:0:0:0:
73,16,32345,5,8,0:1:0:0:
205,40,32512,2,0,P|251:71|263:104,1,68.3999979125977,2|8,0:0|0:0,0:0:0:0:
110,167,32845,2,0,P|97:112|111:80,1,68.3999979125977,10|0,0:1|0:0,0:0:0:0:
253,190,33178,2,0,L|329:182,1,68.3999979125977,10|0,0:0|0:0,0:0:0:0:
321,182,33428,1,0,0:0:0:0:
321,182,33512,1,2,0:0:0:0:
434,114,33678,6,0,P|483:166|462:250,1,136.799995825195,10|10,0:1|0:0,0:0:0:0:
511,335,34178,2,0,L|374:308,1,136.799995825195,10|10,0:1|0:0,0:0:0:0:
290,362,34678,2,0,L|245:368,2,34.1999989562989,0|0|2,0:0|0:0|0:0,0:0:0:0:
314,217,35012,6,0,P|262:182|181:200,1,136.799995825195,10|10,0:1|0:0,0:0:0:0:
233,335,35512,2,0,P|239:277|244:245,1,68.3999979125977,10|0,0:1|0:0,0:0:0:0:
89,171,35845,2,0,P|93:204|96:238,1,68.3999979125977,10|0,0:0|0:0,0:0:0:0:
20,309,36178,1,2,0:0:0:0:
11,113,36345,6,0,B|73:81|73:81|164:95,1,136.799995825195,10|10,0:1|0:0,0:0:0:0:
253,218,36845,2,0,B|320:229|320:229|382:197,1,136.799995825195,10|8,0:1|0:0,0:0:0:0:
296,71,37345,1,8,0:1:0:0:
296,71,37428,1,0,0:0:0:0:
296,71,37512,2,0,L|304:139,1,68.3999979125977,0|0,0:0|0:0,0:0:0:0:
329,328,37845,5,8,0:0:0:0:
344,246,38012,1,8,0:0:0:0:
247,310,38178,1,0,0:0:0:0:
264,230,38345,1,0,0:0:0:0:
167,295,38512,1,8,0:0:0:0:
182,214,38678,1,0,0:0:0:0:
182,214,38845,1,0,0:0:0:0:
75,119,39012,5,10,0:1:0:0:
240,79,39178,1,2,0:0:0:0:
157,7,39345,2,0,L|151:91,1,68.3999979125977,10|10,0:0|0:1,0:0:0:0:
329,116,39678,2,0,L|324:47,1,68.3999979125977,2|8,0:0|0:0,0:0:0:0:
445,7,40012,1,2,0:0:0:0:
445,7,40095,1,0,0:0:0:0:
445,7,40178,1,2,0:0:0:0:
502,161,40345,5,10,0:1:0:0:
426,94,40512,1,2,0:0:0:0:
321,208,40678,2,0,L|400:202,1,68.3999979125977,10|8,0:0|0:1,0:0:0:0:
480,328,41012,2,0,L|411:322,1,68.3999979125977,2|10,0:0|0:0,0:0:0:0:
250,267,41345,1,2,0:0:0:0:
324,370,41512,1,2,0:0:0:0:
321,208,41678,6,0,P|263:176|193:193,1,136.799995825195,10|8,0:1|0:0,0:0:0:0:
108,125,42178,2,0,P|86:168|91:210,1,68.3999979125977,10|0,0:1|0:0,0:0:0:0:
208,80,42512,2,0,P|203:46|185:17,1,68.3999979125977,10|0,0:0|0:0,0:0:0:0:
196,190,42845,2,0,L|276:179,1,68.3999979125977,2|8,0:0|0:1,0:0:0:0:
137,279,43178,6,0,L|57:268,1,68.3999979125977,2|8,0:0|0:0,0:0:0:0:
196,368,43512,2,0,L|276:357,1,68.3999979125977,10|0,0:1|0:0,0:0:0:0:
368,260,43845,1,10,0:0:0:0:
359,347,44012,2,0,L|353:403,2,34.1999989562989,0|0|2,0:0|0:0|0:0,0:0:0:0:
474,262,44345,6,0,L|456:110,1,136.799995825195,10|10,0:1|0:0,0:0:0:0:
345,48,44845,2,0,L|356:139,1,68.3999979125977,10|0,0:1|0:0,0:0:0:0:
261,217,45178,2,0,L|252:149,1,68.3999979125977,10|0,0:0|0:0,0:0:0:0:
252,149,45428,1,0,0:0:0:0:
252,149,45512,1,2,0:0:0:0:
211,0,45678,6,0,P|158:54|170:120,1,136.799995825195,10|10,0:1|0:0,0:0:0:0:
299,89,46178,2,0,P|255:73|211:86,1,68.3999979125977,10|0,0:1|0:0,0:0:0:0:
132,191,46512,2,0,P|98:191|67:177,1,68.3999979125977,10|0,0:0|0:0,0:0:0:0:
67,177,46762,1,0,0:0:0:0:
67,177,46845,1,0,0:0:0:0:
253,162,47012,6,0,L|240:322,1,136.799995825195,14|10,0:1|0:0,0:0:0:0:
394,357,47512,2,0,P|387:291|327:252,1,136.799995825195,14|8,0:1|0:0,0:0:0:0:
180,345,48012,2,0,L|335:331,1,136.799995825195,12|0,0:1|0:0,0:0:0:0:
98,241,48512,2,0,B|121:321|68:304|105:402,1,136.799995825195,12|0,0:1|0:0,0:0:0:0:
189,244,49678,6,0,B|239:255|276:226|276:226|306:269|361:268,1,182.4,12|0,0:1|0:0,0:0:0:0:
443,236,50345,1,8,0:0:0:0:
363,57,51012,5,2,0:0:0:0:
363,57,51178,2,0,L|356:198,1,121.6,8|8,0:1|0:1,0:0:0:0:
351,267,51678,1,8,0:0:0:0:
238,75,52345,6,0,P|188:48|105:77,1,121.6,8|0,0:1|0:0,0:0:0:0:
161,225,53012,2,0,P|168:179|176:122,2,91.2,8|0|0,0:0|0:0|0:0,0:0:0:0:
85,290,53678,5,2,0:0:0:0:
264,199,54012,1,8,0:1:0:0:
96,90,54345,1,8,0:0:0:0:
295,291,55012,6,0,P|351:243|327:126,1,182.4,8|0,0:1|0:0,0:0:0:0:
263,95,55678,1,8,0:0:0:0:
85,309,56512,5,8,0:1:0:0:
118,168,56845,1,8,0:1:0:0:
118,168,57012,2,0,L|107:318,1,121.6,8|8,0:0|0:1,0:0:0:0:
256,192,57428,12,0,58845,0:0:0:0:
182,232,59012,5,12,0:1:0:0:
326,150,59178,1,0,0:0:0:0:
135,150,59345,5,0,0:0:0:0:
372,232,59512,1,12,0:1:0:0:
254,111,61012,6,0,L|263:30,2,60.8
309,173,61512,6,0,B|225:140|242:201|135:168,1,159.599995129395,12|0,0:1|0:0,0:0:0:0:
62,111,61845,2,0,L|70:208,1,76,8|8,0:1|0:1,0:0:0:0:
159,76,62178,5,12,0:1:0:0:
359,303,62512,1,12,0:1:0:0:
85,349,62845,6,0,B|150:342|150:342|183:356|183:356|256:347,1,159.599995129395,12|0,0:1|0:0,0:0:0:0:
277,270,63178,2,0,P|284:224|259:182,1,76,2|0,0:0|0:0,0:0:0:0:
182,89,63512,5,12,0:1:0:0:
438,12,63845,1,12,0:1:0:0:
376,272,64178,6,0,P|291:238|227:272,1,152,14|8,0:1|0:1,0:0:0:0:
454,227,64678,2,0,P|468:272|450:324,1,76,10|0,0:0|0:0,0:0:0:0:
302,335,65012,1,2,0:0:0:0:
363,120,65178,1,8,0:1:0:0:
363,120,65262,1,0,0:0:0:0:
363,120,65345,1,8,0:0:0:0:
376,272,65512,6,0,L|363:111,1,152,2|8,0:0|0:1,0:0:0:0:
206,98,66012,2,0,P|257:81|298:96,1,76,8|0,0:0|0:0,0:0:0:0:
421,186,66345,1,2,0:0:0:0:
248,241,66512,2,0,L|255:159,1,76,10|10,0:1|0:0,0:0:0:0:
215,327,66845,1,2,0:0:0:0:
363,320,67012,6,0,B|284:294|302:349|205:325,1,152,8|8,0:1|0:0,0:0:0:0:
86,265,67512,1,2,0:0:0:0:
228,171,67678,2,0,P|250:224|231:271,1,76,2|10,0:0|0:1,0:0:0:0:
111,110,68012,1,10,0:0:0:0:
341,84,68178,6,0,L|207:62,1,114,2|0,0:0|0:0,0:0:0:0:
206,81,68512,2,0,P|202:44|195:-13,1,76,2|8,0:0|0:0,0:0:0:0:
390,156,68845,2,0,P|385:193|381:231,1,76,2|0,0:0|0:0,0:0:0:0:
472,97,69178,1,10,0:1:0:0:
472,97,69262,1,0,0:0:0:0:
472,97,69345,1,8,0:0:0:0:
290,180,69512,1,2,0:0:0:0:
453,297,69678,6,0,P|376:274|313:313,1,152,10|8,0:1|0:0,0:0:0:0:
169,220,70178,1,2,0:0:0:0:
169,220,70262,1,2,0:0:0:0:
169,220,70345,1,2,0:0:0:0:
290,180,70512,1,8,0:1:0:0:
233,356,70678,2,0,L|238:267,1,76,8|8,0:0|0:1,0:0:0:0:
370,150,71012,6,0,P|305:158|236:83,1,152,12|0,0:1|0:0,0:0:0:0:
326,68,71512,5,12,0:1:0:0:
437,316,71845,1,12,0:1:0:0:
166,288,72178,6,0,B|134:265|93:268|93:268|55:304|-3:289,1,159.599995129395,12|0,0:1|0:0,0:0:0:0:
33,210,72512,2,0,P|28:168|28:127,1,76,8|8,0:1|0:1,0:0:0:0:
109,30,72845,5,12,0:1:0:0:
261,292,73178,1,12,0:1:0:0:
412,30,73512,6,0,B|392:92|392:92|414:196,1,159.599995129395,12|0,0:1|0:0,0:0:0:0:
454,273,73845,2,0,L|379:261,1,76,2|0,0:0|0:0,0:0:0:0:
261,292,74178,5,12,0:1:0:0:
320,8,74512,1,12,0:1:0:0:
46,99,74845,5,10,0:1:0:0:
46,99,75012,2,0,B|109:95|109:95|139:108|139:108|212:104,1,152,2|10,0:0|0:0,0:0:0:0:
82,179,75512,2,0,P|65:226|76:266,1,76,2|0,0:0|0:0,0:0:0:0:
240,338,75845,1,10,0:1:0:0:
240,338,75928,1,0,0:0:0:0:
240,338,76012,1,8,0:0:0:0:
150,384,76178,6,0,P|152:346|136:312,1,76,2|0,0:0|0:0,0:0:0:0:
0,226,76512,2,0,P|31:247|68:250,1,76,10|8,0:1|0:0,0:0:0:0:
212,176,76845,2,0,P|178:192|156:223,1,76,2|0,0:0|0:0,0:0:0:0:
317,372,77178,2,0,B|325:336|325:336|313:295,2,76,10|10|10,0:1|0:0|0:1,0:0:0:0:
239,259,77678,6,0,L|416:239,1,152,10|8,0:1|0:0,0:0:0:0:
491,302,78178,1,0,0:0:0:0:
491,302,78262,1,0,0:0:0:0:
491,302,78345,2,0,P|498:253|506:203,1,76,2|10,0:0|0:1,0:0:0:0:
374,348,78678,1,10,0:0:0:0:
306,173,78845,6,0,P|355:133|463:168,1,152,2|2,0:0|0:0,0:0:0:0:
264,79,79345,1,10,0:0:0:0:
394,230,79512,1,2,0:0:0:0:
394,230,79595,1,0,0:0:0:0:
394,230,79678,2,0,P|403:274|391:315,1,76,2|10,0:0|0:1,0:0:0:0:
201,271,80012,1,8,0:0:0:0:
289,367,80178,1,8,0:1:0:0:
330,153,80345,5,8,0:1:0:0:
256,192,80428,12,0,81512,0:0:0:0:
156,14,81678,6,0,B|194:124|194:124|164:191,1,182.399994433594,14|0,0:1|0:0,0:0:0:0:
43,293,82178,2,0,P|90:266|186:300,1,136.799995825195,14|0,0:1|0:0,0:0:0:0:
221,346,82512,2,0,L|366:328,1,136.799995825195,14|0,0:1|0:0,0:0:0:0:
426,373,82845,2,0,P|375:302|422:205,1,182.399994433594,14|14,0:1|0:1,0:0:0:0:
256,192,83262,12,10,85678,0:1:0:0:
256,192,93678,12,0,96178,0:0:0:0:
355,224,96345,5,10,0:1:0:0:
314,325,96512,1,8,0:1:0:0:
416,366,96678,1,8,0:1:0:0:
456,264,96845,1,10,0:1:0:0:
157,224,97345,5,10,0:1:0:0:
198,325,97512,1,8,0:1:0:0:
96,366,97678,1,8,0:1:0:0:
56,264,97845,1,10,0:1:0:0:
355,160,99012,5,10,0:1:0:0:
314,59,99178,1,8,0:1:0:0:
416,18,99345,1,8,0:1:0:0:
456,120,99512,1,10,0:1:0:0:
157,160,100012,5,10,0:1:0:0:
198,59,100178,1,8,0:1:0:0:
96,18,100345,1,8,0:1:0:0:
56,120,100512,1,10,0:1:0:0:
359,329,101678,6,0,P|364:254|375:186,1,136.799995825195,2|2,0:0|0:0,0:0:0:0:
152,71,102736,2,0,P|162:138|166:206,1,136.799995825195,2|2,0:0|0:0,0:0:0:0:
466,83,104178,6,0,L|366:68,1,76,14|0,0:1|0:0,0:0:0:0:
329,209,104511,1,8,0:1:0:0:
224,133,104678,2,0,L|324:118,1,76,8|0,0:0|0:0,0:0:0:0:
191,217,105011,2,0,P|170:273|183:309,1,76,2|8,0:0|0:1,0:0:0:0:
354,343,105344,2,0,L|347:226,1,114,8|0,0:0|0:0,0:0:0:0:
329,209,105678,6,0,L|336:111,1,76,10|8,0:1|0:1,0:0:0:0:
165,186,106011,1,8,0:0:0:0:
204,10,106178,1,2,0:0:0:0:
204,10,106261,1,0,0:0:0:0:
204,10,106344,2,0,P|252:62|236:147,1,152,2|8,0:0|0:0,0:0:0:0:
85,88,106844,1,2,0:0:0:0:
165,186,107011,6,0,L|154:350,1,152,10|8,0:1|0:0,0:0:0:0:
66,277,107511,1,2,0:0:0:0:
253,246,107678,2,0,L|345:258,1,76,2|8,0:0|0:1,0:0:0:0:
165,186,108011,1,8,0:0:0:0:
234,328,108178,1,0,0:0:0:0:
375,181,108344,6,0,P|386:115|322:55,1,152,8|8,0:1|0:0,0:0:0:0:
180,104,108844,1,2,0:0:0:0:
180,104,108928,1,0,0:0:0:0:
180,104,109011,1,0,0:0:0:0:
308,135,109178,1,8,0:1:0:0:
244,9,109344,2,0,L|150:14,1,76,10|8,0:0|0:1,0:0:0:0:
37,152,109678,6,0,P|64:87|22:11,1,152,10|8,0:1|0:0,0:0:0:0:
158,135,110178,1,0,0:0:0:0:
6,243,110344,2,0,L|95:233,1,76,0|8,0:0|0:1,0:0:0:0:
194,328,110678,2,0,L|204:252,1,76,10|0,0:0|0:0,0:0:0:0:
411,215,111011,6,0,P|348:229|280:167,1,152,10|8,0:1|0:0,0:0:0:0:
355,69,111511,1,2,0:0:0:0:
355,69,111594,1,0,0:0:0:0:
355,69,111678,2,0,L|362:152,1,76,0|8,0:0|0:1,0:0:0:0:
507,201,112011,2,0,L|500:284,1,76,10|0,0:0|0:0,0:0:0:0:
301,320,112344,5,10,0:1:0:0:
389,250,112511,1,0,0:0:0:0:
252,173,112678,2,0,L|167:183,1,76,8|0,0:0|0:0,0:0:0:0:
176,181,112927,1,0,0:0:0:0:
176,181,113011,1,0,0:0:0:0:
52,264,113177,1,8,0:1:0:0:
86,102,113344,2,0,L|76:54,3,38,8|0|2|2,0:0|0:0|0:0|0:0,0:0:0:0:
52,40,113677,6,0,L|218:28,1,152,10|8,0:1|0:0,0:0:0:0:
275,157,114177,1,0,0:0:0:0:
275,157,114261,1,0,0:0:0:0:
275,157,114344,2,2,P|221:156|188:128,1,76,2|8,0:0|0:1,0:1:0:0:
369,134,114677,2,0,P|395:181|387:223,1,76,8|0,0:0|0:0,0:0:0:0:
303,65,115011,6,0,L|311:-16,1,76,10|2,0:1|0:0,0:0:0:0:
427,49,115344,1,10,0:0:0:0:
512,0,115511,1,2,0:0:0:0:
489,197,115677,2,0,P|437:162|343:189,1,152,2|8,0:0|0:0,0:0:0:0:
460,296,116177,1,2,0:0:0:0:
280,291,116344,6,0,P|258:340|268:385,1,76,10|10,0:1|0:1,0:0:0:0:
353,179,116677,2,0,P|351:141|332:108,1,76,10|0,0:0|0:0,0:0:0:0:
161,149,117011,1,2,0:0:0:0:
268,168,117177,1,10,0:1:0:0:
198,46,117344,1,10,0:0:0:0:
91,65,117511,1,2,0:0:0:0:
154,224,117677,6,0,L|161:141,1,76,10|2,0:1|0:0,0:0:0:0:
98,301,118011,1,10,0:0:0:0:
237,268,118177,1,2,0:0:0:0:
69,123,118344,2,0,P|15:162|16:254,1,152,2|8,0:0|0:0,0:0:0:0:
98,301,118844,1,2,0:0:0:0:
235,160,119011,6,0,L|151:146,1,76,10|10,0:1|0:1,0:0:0:0:
256,286,119344,2,0,L|330:273,1,76,10|0,0:0|0:0,0:0:0:0:
330,273,119594,1,0,0:0:0:0:
330,273,119677,1,2,0:0:0:0:
487,191,119844,1,10,0:1:0:0:
378,85,120011,2,0,L|385:185,1,76,10|2,0:0|0:0,0:0:0:0:
450,26,120344,6,0,P|393:-7|304:32,1,152,10|10,0:1|0:0,0:0:0:0:
232,128,120844,2,0,L|237:52,1,76,2|0,0:0|0:0,0:0:0:0:
68,116,121177,5,10,0:1:0:0:
13,42,121344,2,0,P|85:24|145:67,1,152,10|10,0:0|0:1,0:0:0:0:
74,206,121844,2,0,L|-18:189,1,76,10|8,0:1|0:0,0:0:0:0:
170,179,122177,1,2,0:0:0:0:
170,179,122261,1,0,0:0:0:0:
170,179,122344,2,0,P|186:223|172:274,1,76,2|10,0:0|0:1,0:0:0:0:
61,355,122677,2,0,P|58:317|73:282,1,76,10|0,0:0|0:0,0:0:0:0:
253,366,123011,6,0,L|161:353,1,76,8|0,0:1|0:0,0:0:0:0:
359,270,123344,1,8,0:0:0:0:
410,367,123511,1,0,0:0:0:0:
269,268,123677,2,0,L|278:172,1,76,0|8,0:0|0:1,0:0:0:0:
443,188,124011,1,8,0:0:0:0:
359,270,124177,1,0,0:0:0:0:
401,107,124344,5,8,0:1:0:0:
473,302,124511,1,0,0:0:0:0:
269,268,124677,1,0,0:0:0:0:
443,188,124844,1,0,0:0:0:0:
319,371,125011,5,0,0:0:0:0:
223,172,125177,1,8,0:1:0:0:
411,259,125344,5,8,0:0:0:0:
169,294,125511,1,0,0:0:0:0:
337,138,125677,6,0,L|326:312,1,152,12|8,0:1|0:1,0:0:0:0:
208,150,126344,1,8,0:1:0:0:
208,150,126427,1,8,0:1:0:0:
208,150,126511,1,8,0:1:0:0:
208,150,126594,1,8,0:1:0:0:
208,150,126677,1,8,0:1:0:0:
272,71,126844,6,0,P|336:45|401:71,1,136.799995825195,10|0,0:1|0:0,0:0:0:0:
458,131,127511,2,0,L|450:242,1,91.199997216797,2|0,0:0|0:0,0:0:0:0:
382,279,128011,2,0,P|348:269|325:269,1,45.5999986083985,2|0,0:0|0:0,0:0:0:0:
266,314,128344,6,0,P|292:260|238:174,1,152,12|8,0:1|0:1,0:0:0:0:
130,261,129011,1,8,0:1:0:0:
148,259,129094,1,8,0:1:0:0:
167,257,129177,1,8,0:1:0:0:
186,256,129261,1,8,0:1:0:0:
205,254,129344,1,8,0:1:0:0:
170,169,129511,6,0,L|185:26,1,136.799995825195,10|0,0:1|0:0,0:0:0:0:
263,77,130177,2,0,P|320:84|355:57,1,91.199997216797,10|0,0:1|0:0,0:0:0:0:
410,132,130677,2,0,P|395:167|397:193,1,45.5999986083985,10|0,0:1|0:0,0:0:0:0:
452,245,131011,6,0,B|399:222|399:222|293:240,1,152,12|8,0:1|0:1,0:0:0:0:
148,336,131511,1,8,0:3:0:0:
148,336,131594,1,8,0:3:0:0:
148,336,131677,1,8,0:3:0:0:
218,213,131844,2,0,L|226:314,1,76,8|4,0:3|0:3,0:0:0:0:
170,121,132177,6,0,P|123:174|140:251,1,136.799995825195,10|0,0:1|0:0,0:0:0:0:
218,213,132844,2,0,L|317:219,1,91.199997216797,10|0,0:1|0:0,0:0:0:0:
391,178,133344,2,0,P|408:212|407:236,1,45.5999986083985,10|0,0:1|0:0,0:0:0:0:
378,305,133677,5,10,0:1:0:0:
315,127,133844,1,8,0:1:0:0:
500,162,134011,1,8,0:1:0:0:
309,218,134177,1,8,0:1:0:0:
419,96,134344,1,8,0:1:0:0:
469,252,134511,1,8,0:1:0:0:
315,127,134677,1,8,0:1:0:0:
292,128,134761,1,8,0:1:0:0:
269,130,134844,1,8,0:1:0:0:
246,132,134927,1,8,0:1:0:0:
224,134,135011,5,2,0:0:0:0:
256,192,135094,12,8,136344,0:1:0:0:
241,105,150844,6,0,P|189:75|97:112,1,136.799995825195,12|8,0:1|0:1,0:0:0:0:
204,205,151344,2,0,L|352:182,1,136.799995825195,0|0,1:0|0:0,0:0:0:0:
416,252,151844,1,8,0:1:0:0:
416,252,152011,2,0,P|433:290|425:331,1,68.3999979125977,0|0,1:0|0:0,0:0:0:0:
304,368,152344,6,0,L|156:345,1,136.799995825195,8|0,0:1|1:0,0:0:0:0:
79,382,152844,2,0,L|69:302,1,68.3999979125977,0|0,0:0|0:0,0:0:0:0:
11,238,153177,2,0,P|53:202|146:213,1,136.799995825195,8|0,0:1|0:0,0:0:0:0:
220,261,153677,6,0,L|239:103,1,136.799995825195,8|0,0:1|1:0,0:0:0:0:
310,64,154177,2,0,P|378:76|403:160,1,136.799995825195,0|8,0:0|0:1,0:0:0:0:
367,219,154677,1,0,1:0:0:0:
467,283,154844,6,0,L|457:203,1,68.3999979125977,0|0,0:0|0:0,0:0:0:0:
319,152,155177,2,0,P|293:181|286:220,1,68.3999979125977,8|0,0:1|1:0,0:0:0:0:
359,324,155511,2,0,P|323:310|280:318,1,68.3999979125977,0|0,0:0|0:0,0:0:0:0:
181,377,155844,2,0,L|191:297,2,68.3999979125977,8|0|8,0:1|1:0|0:1,0:0:0:0:
105,265,156344,5,8,0:1:0:0:
240,228,156511,1,8,0:1:0:0:
154,178,156677,2,0,P|134:123|170:51,1,136.799995825195,0|0,1:0|0:0,0:0:0:0:
249,108,157177,1,8,0:1:0:0:
323,10,157344,2,0,L|250:15,1,68.3999979125977,0|0,1:0|0:0,0:0:0:0:
419,135,157677,6,0,L|436:-16,1,136.799995825195,8|0,0:1|1:0,0:0:0:0:
326,128,158177,2,0,L|333:196,1,68.3999979125977,0|0,0:0|0:0,0:0:0:0:
347,314,158511,1,8,0:1:0:0:
238,198,158677,1,8,0:0:0:0:
419,245,158844,1,8,0:1:0:0:
287,378,159011,6,0,L|200:366,1,68.3999979125977,8|8,0:0|0:1,0:0:0:0:
51,298,159344,2,0,L|138:286,1,68.3999979125977,8|8,0:0|0:1,0:0:0:0:
305,207,159677,2,0,L|218:195,1,68.3999979125977,8|8,0:0|0:1,0:0:0:0:
69,127,160011,2,0,L|156:115,1,68.3999979125977,8|8,0:0|0:1,0:0:0:0:
305,47,160344,5,8,0:1:0:0:
147,174,161011,6,0,P|148:143|136:116,2,60.8,0|0|0,0:0|0:0|0:0,0:0:0:0:
66,229,161511,6,0,B|110:237|143:212|143:212|178:251|240:240,1,159.599995129395,12|0,0:1|0:0,0:0:0:0:
306,211,161844,2,0,L|294:303,1,76,8|8,0:1|0:1,0:0:0:0:
403,354,162177,5,12,0:1:0:0:
504,99,162511,1,12,0:1:0:0:
233,140,162844,6,0,P|185:77|208:5,1,159.599995129395,12|0,0:1|0:0,0:0:0:0:
295,40,163177,2,0,L|382:30,1,76,2|0,0:0|0:0,0:0:0:0:
412,156,163511,5,12,0:1:0:0:
246,355,163844,1,12,0:1:0:0:
157,111,164177,6,0,B|103:104|103:104|66:115|66:115|0:107,1,152,14|8,0:1|0:1,0:0:0:0:
100,260,164677,2,0,P|116:223|98:168,1,76,10|0,0:0|0:0,0:0:0:0:
27,338,165011,1,2,0:0:0:0:
197,272,165177,1,10,0:1:0:0:
31,213,165344,1,8,0:0:0:0:
155,370,165511,6,0,L|335:354,1,152,2|8,0:0|0:1,0:0:0:0:
456,284,166011,2,0,P|412:282|362:241,1,76,8|0,0:0|0:0,0:0:0:0:
319,158,166344,1,2,0:0:0:0:
447,124,166511,1,10,0:1:0:0:
447,124,166594,1,0,0:0:0:0:
447,124,166677,2,0,L|437:221,1,76,10|2,0:0|0:0,0:0:0:0:
241,192,167011,6,0,P|240:126|308:73,1,152,8|8,0:1|0:0,0:0:0:0:
384,267,167511,2,0,L|298:256,1,76,2|2,0:0|0:0,0:0:0:0:
147,205,167844,1,10,0:1:0:0:
319,158,168011,1,10,0:0:0:0:
223,305,168177,6,0,L|229:229,1,76,2|8,0:0|0:1,0:0:0:0:
97,135,168511,2,0,P|68:169|64:216,1,76,2|8,0:0|0:0,0:0:0:0:
209,130,168844,2,0,L|202:54,1,76,2|0,0:0|0:0,0:0:0:0:
147,205,169177,1,10,0:1:0:0:
296,137,169344,1,8,0:0:0:0:
120,15,169511,1,2,0:0:0:0:
120,15,169594,1,0,0:0:0:0:
120,15,169677,6,0,P|67:49|62:138,1,152,8|8,0:1|0:0,0:0:0:0:
219,159,170177,1,2,0:0:0:0:
219,159,170261,1,2,0:0:0:0:
219,159,170344,2,0,P|184:126|137:122,1,76,2|8,0:0|0:1,0:0:0:0:
63,241,170677,1,8,0:0:0:0:
229,315,170844,1,8,0:1:0:0:
146,352,171011,6,0,B|139:297|139:297|154:263|154:263|144:184,1,152,12|0,0:1|0:0,0:0:0:0:
138,107,171511,5,12,0:1:0:0:
387,39,171844,1,12,0:1:0:0:
322,288,172177,6,0,B|412:268|391:328|478:312,1,159.599995129395,12|0,0:1|0:0,0:0:0:0:
453,231,172511,2,0,L|460:147,1,76,8|8,0:1|0:1,0:0:0:0:
338,165,172844,5,12,0:1:0:0:
128,13,173177,1,12,0:1:0:0:
102,271,173511,6,0,L|86:99,1,159.599995129395,12|0,0:1|0:0,0:0:0:0:
176,146,173844,2,0,P|221:144|260:109,1,76,2|0,0:0|0:0,0:0:0:0:
316,53,174177,5,12,0:1:0:0:
475,256,174511,1,12,0:1:0:0:
219,292,174844,5,10,0:1:0:0:
219,292,175011,2,0,P|293:255|366:288,1,152,14|10,0:1|0:0,0:0:0:0:
480,180,175511,2,0,L|474:268,1,76,2|0,0:0|0:0,0:0:0:0:
376,180,175844,1,10,0:1:0:0:
294,350,176011,1,8,0:0:0:0:
497,350,176177,6,0,P|457:334|408:345,1,76,2|0,0:0|0:0,0:0:0:0:
221,362,176511,2,0,P|259:365|294:350,1,76,10|8,0:1|0:0,0:0:0:0:
157,207,176844,2,0,P|135:238|130:276,1,76,2|0,0:0|0:0,0:0:0:0:
323,229,177177,2,0,P|306:194|276:171,2,76,10|10|8,0:1|0:0|0:1,0:0:0:0:
157,207,177677,6,0,L|173:56,1,152,10|8,0:1|0:0,0:0:0:0:
351,51,178177,1,0,0:0:0:0:
351,51,178261,1,0,0:0:0:0:
351,51,178344,2,0,P|306:30|259:48,1,76,2|10,0:0|0:1,0:0:0:0:
355,184,178677,1,10,0:0:0:0:
446,20,178844,6,0,P|503:108|468:168,1,152,2|0,0:0|0:0,0:0:0:0:
302,111,179344,1,10,0:0:0:0:
429,279,179511,1,2,0:0:0:0:
429,279,179594,1,0,0:0:0:0:
429,279,179677,2,0,L|434:195,1,76,2|10,0:0|0:1,0:0:0:0:
304,264,180011,1,8,0:0:0:0:
202,173,180177,1,8,0:1:0:0:
130,356,180344,5,8,0:1:0:0:
256,192,180427,12,0,181511,0:0:0:0:
398,305,181677,6,0,B|406:240|406:240|388:200|388:200|400:108,1,182.399994433594,14|0,0:1|0:0,0:0:0:0:
214,167,182177,2,0,P|184:112|209:42,1,136.799995825195,14|0,0:1|0:0,0:0:0:0:
265,103,182511,2,0,L|247:259,1,136.799995825195,14|0,0:1|0:0,0:0:0:0:
292,309,182844,2,0,P|238:265|122:293,1,182.399994433594,14|14,0:1|0:1,0:0:0:0:
23,249,183344,6,0,P|-1:297|9:342,1,76,8|2,0:0|0:0,0:0:0:0:
104,169,183677,2,0,L|96:84,1,76,0|8,0:0|0:1,0:0:0:0:
0,31,184011,1,10,0:0:0:0:
190,106,184177,1,0,0:0:0:0:
190,106,184261,1,0,0:0:0:0:
190,106,184344,5,10,0:1:0:0:
11,146,184511,1,10,0:1:0:0:
106,0,184677,2,0,L|195:12,1,76,8|0,0:0|0:0,0:0:0:0:
230,186,185011,2,0,P|277:132|260:48,1,152,2|8,0:0|0:0,0:0:0:0:
94,127,185511,1,0,0:0:0:0:
140,206,185677,6,0,P|153:249|132:302,2,76,10|8|8,0:1|0:1|0:0,0:0:0:0:
55,345,186177,1,2,0:0:0:0:
55,345,186261,1,0,0:0:0:0:
55,345,186344,2,0,P|125:316|202:370,1,152,0|10,0:0|0:0,0:0:0:0:
240,234,186844,1,0,0:0:0:0:
374,351,187011,6,0,P|336:354|294:325,1,76,10|8,0:1|0:1,0:0:0:0:
240,234,187344,2,0,L|248:151,1,76,8|0,0:0|0:0,0:0:0:0:
247,158,187594,1,0,0:0:0:0:
247,158,187677,1,2,0:0:0:0:
383,81,187844,1,0,0:0:0:0:
408,182,188011,1,8,0:0:0:0:
283,54,188177,1,0,0:0:0:0:
457,9,188344,6,0,P|485:57|476:100,1,76,10|8,0:1|0:1,0:0:0:0:
331,148,188677,2,0,L|167:132,1,152,8|0,0:0|0:0,0:0:0:0:
8,154,189177,1,0,0:0:0:0:
78,243,189344,2,0,P|128:242|159:223,1,76,8|0,0:0|0:0,0:0:0:0:
219,47,189677,5,10,0:1:0:0:
261,208,189844,1,10,0:1:0:0:
101,163,190011,2,0,P|95:122|118:76,1,76,8|0,0:0|0:0,0:0:0:0:
174,225,190344,2,0,L|165:401,1,152,2|8,0:0|0:0,0:0:0:0:
380,332,190844,1,0,0:0:0:0:
380,332,190927,1,0,0:0:0:0:
380,332,191011,6,0,L|294:321,1,76,14|8,0:1|0:1,0:0:0:0:
207,310,191344,1,8,0:1:0:0:
53,252,191511,6,0,L|139:241,1,76,14|8,0:1|0:1,0:0:0:0:
256,224,191844,1,8,0:1:0:0:
420,187,192011,6,0,L|334:176,1,76,14|8,0:1|0:1,0:0:0:0:
186,154,192344,1,8,0:1:0:0:
11,97,192511,6,0,L|97:86,1,76,14|8,0:1|0:1,0:0:0:0:
274,61,192844,1,8,0:1:0:0:
186,154,193011,5,14,0:1:0:0:
187,191,193094,1,8,0:1:0:0:
189,229,193177,1,8,0:1:0:0:
190,267,193261,1,8,0:1:0:0:
192,305,193344,1,14,0:1:0:0:
