osu file format v14

[General]
AudioFilename: audio.mp3
AudioLeadIn: 0
PreviewTime: 160927
Countdown: 0
SampleSet: Soft
StackLeniency: 0.7
Mode: 0
LetterboxInBreaks: 0
WidescreenStoryboard: 1

[Editor]
DistanceSpacing: 1.3
BeatDivisor: 4
GridSize: 32
TimelineZoom: 2.699999

[Metadata]
Title:Zettai Reido Novatic
TitleUnicode:絶対零度θノヴァティック
Artist:WALKUERE
ArtistUnicode:ワルキューレ
Creator:Pentori
Version:Easy
Source:マクロスΔ
Tags:macross delta walkure trap
BeatmapID:1174532
BeatmapSetID:552252

[Difficulty]
HPDrainRate:2
CircleSize:3
OverallDifficulty:2
ApproachRate:3
SliderMultiplier:0.94
SliderTickRate:1

[Events]
//Background and Video events
0,0,"718518.jpg",0,0
//Break Periods
2,17678,26905
2,85878,94905
2,139012,149404
//Storyboard Layer 0 (Background)
//Storyboard Layer 1 (Fail)
//Storyboard Layer 2 (Pass)
//Storyboard Layer 3 (Foreground)
//Storyboard Sound Samples

[TimingPoints]
1679,333.333333333333,4,2,1,30,1,0
5678,-100,4,2,1,60,0,0
6345,-100,4,2,1,50,0,0
7012,-100,4,2,1,60,0,0
12512,-100,4,2,2,60,0,0
15012,-100,4,2,1,40,0,0
16345,-100,4,2,1,50,0,0
28345,-100,4,2,4,40,0,0
47012,-100,4,2,1,40,0,0
49678,-100,4,2,3,40,0,0
59012,-100,4,2,1,60,0,0
61512,-100,4,2,1,70,0,0
64178,-100,4,2,2,80,0,1
71012,-100,4,2,1,70,0,0
74845,-100,4,2,2,80,0,1
80345,-100,4,2,1,60,0,0
81678,-100,4,2,1,70,0,0
83178,-100,4,2,2,70,0,0
85678,-100,4,2,1,35,0,0
96345,-100,4,2,1,60,0,0
101678,352.941176470588,4,2,1,40,1,0
101678,-100,4,2,1,40,0,0
103266,365.853658536585,4,2,1,40,1,0
104178,333.333333333333,4,2,2,60,1,0
104178,-100,4,2,2,60,0,0
105678,333.333333333333,4,2,2,60,1,0
125677,-100,4,2,1,60,0,0
150844,-100,4,2,2,40,0,0
156344,-100,4,2,2,50,0,0
159011,-100,4,2,2,60,0,0
160344,-100,4,2,1,40,0,0
161511,-100,4,2,1,70,0,0
164177,-100,4,2,2,80,0,1
171011,-100,4,2,1,70,0,0
175011,-100,4,2,2,80,0,1
180344,-100,4,2,1,60,0,0
181677,-100,4,2,1,70,0,0
183177,-100,4,2,2,60,0,0
191511,-100,4,2,2,65,0,0
192011,-100,4,2,2,70,0,0
192511,-100,4,2,2,75,0,0
193011,-100,4,2,2,80,0,0
193344,-100,4,2,2,90,0,0

[Colours]
Combo1 : 128,0,255
Combo2 : 255,128,0
Combo3 : 0,128,255

[HitObjects]
463,190,5678,6,0,B|421:159|374:168|374:168|319:209|253:184,1,188,8|10,0:1|0:1,0:0:0:0:
121,100,7012,6,0,P|179:165|149:281,1,188,4|10,0:0|0:1,0:0:0:0:
88,311,8012,1,10,0:1:0:0:
160,370,8345,2,0,P|218:362|264:357,1,94,8|8,0:1|0:1,0:0:0:0:
313,285,9012,2,0,P|364:290|413:296,1,94,8|8,0:1|0:1,0:0:0:0:
476,232,9678,6,0,P|428:162|308:173,1,188,10|10,0:1|0:1,0:0:0:0:
251,206,10678,1,10,0:1:0:0:
168,160,11012,6,0,B|133:169|100:145|100:145|68:186|2:183,1,141,14|14,0:1|0:1,0:0:0:0:
21,88,11845,1,14,0:1:0:0:
94,29,12178,2,0,P|175:35|218:42,1,94,14|12,0:1|0:1,0:0:0:0:
256,192,15012,12,8,17345,0:1:0:0:
325,339,28345,6,0,P|335:278|350:203,1,94,10|10,0:1|0:0,0:0:0:0:
405,177,29012,2,0,P|324:203|223:127,1,188,2|10,0:0|0:1,0:0:0:0:
156,202,30012,2,0,P|185:267|165:328,1,94,10|2,0:0|0:0,0:0:0:0:
101,333,30678,1,2,0:0:0:0:
31,269,31012,6,0,B|36:217|36:217|56:189|56:189|63:116,2,141,8|10|0,0:1|0:1|0:0,0:0:0:0:
101,333,32345,1,8,0:1:0:0:
183,287,32678,2,0,P|259:271|331:318,1,141,8|10,0:0|0:0,0:0:0:0:
437,230,33678,6,0,P|445:145|453:68,2,141,10|10|0,0:1|0:1|0:0,0:0:0:0:
350,192,35012,2,0,B|272:165|272:165|178:194,1,141,10|10,0:1|0:1,0:0:0:0:
134,229,35845,1,10,0:0:0:0:
47,117,36345,6,0,P|108:80|179:101,2,141,10|10|8,0:1|0:1|0:1,0:0:0:0:
75,255,37845,2,0,P|142:270|200:233,1,141,2|0,0:0|0:0,0:0:0:0:
249,152,38678,1,0,0:0:0:0:
339,178,39012,6,0,P|344:117|357:51,1,94,10|10,0:1|0:0,0:0:0:0:
427,33,39678,2,0,P|500:102|461:212,1,188,2|10,0:0|0:1,0:0:0:0:
419,244,40678,1,10,0:0:0:0:
336,198,41012,2,0,P|270:189|205:181,1,94,2|2,0:0|0:0,0:0:0:0:
167,241,41678,6,0,P|108:206|9:238,2,141,10|10|0,0:1|0:1|0:0,0:0:0:0:
217,320,43012,1,8,0:1:0:0:
306,291,43345,2,0,P|322:188|331:124,1,141,8|10,0:0|0:0,0:0:0:0:
217,63,44345,6,0,P|151:27|71:50,2,141,10|10|0,0:1|0:1|0:0,0:0:0:0:
181,150,45678,2,0,P|189:227|195:305,1,141,10|10,0:1|0:1,0:0:0:0:
270,345,46512,1,10,0:0:0:0:
403,298,47012,6,0,P|355:248|255:259,1,141,14|14,0:1|0:1,0:0:0:0:
166,317,48012,2,0,P|90:319|35:267,1,141,12|12,0:1|0:1,0:0:0:0:
249,25,49678,6,0,B|327:12|327:12|378:27|378:27|457:16,1,188,12|8,0:1|0:0,0:0:0:0:
466,204,51012,2,0,P|399:147|281:180,1,188,2|8,0:0|0:0,0:0:0:0:
118,135,52345,6,0,B|96:249|96:249|127:326,1,188,8|8,0:1|0:0,0:0:0:0:
310,297,53678,2,0,L|429:313,2,94,2|8|8,0:0|0:1|0:0,0:0:0:0:
244,120,55012,2,0,L|450:91,1,188,8|8,0:1|0:0,0:0:0:0:
201,37,56512,6,0,P|156:92|167:172,1,141,8|8,0:1|0:0,0:0:0:0:
230,220,57345,1,8,0:1:0:0:
256,192,57678,12,12,59012,0:1:0:0:
145,157,61512,6,0,P|139:105|131:53,1,94,12|8,0:1|0:1,0:0:0:0:
366,221,62845,2,0,P|358:272|352:324,1,94,12|2,0:1|0:0,0:0:0:0:
470,57,64178,6,0,B|393:34|405:86|306:59,1,141,14|10,0:1|0:0,0:0:0:0:
256,8,65012,2,0,P|187:30|163:155,1,188,2|0,0:0|0:0,0:0:0:0:
230,187,66012,1,8,0:0:0:0:
323,178,66345,2,0,P|315:238|314:298,1,94,2|10,0:0|0:0,0:0:0:0:
369,347,67012,6,0,P|300:291|187:330,1,188,8|2,0:1|0:0,0:0:0:0:
131,254,68012,1,10,0:0:0:0:
43,287,68345,2,0,P|36:203|18:118,2,141,8|2|8,0:1|0:0|0:0,0:0:0:0:
131,254,69678,6,0,B|191:258|228:223|228:223|264:266|338:267,1,188,10|2,0:1|0:0,0:0:0:0:
389,237,70678,1,8,0:0:0:0:
463,294,71012,2,0,P|480:221|427:151,1,141,12|12,0:1|0:1,0:0:0:0:
430,73,71845,1,12,0:1:0:0:
339,96,72178,6,0,P|287:91|221:80,1,94,12|8,0:1|0:1,0:0:0:0:
65,301,73512,2,0,P|117:296|183:285,1,94,12|2,0:1|0:0,0:0:0:0:
235,18,74845,6,0,P|228:106|223:185,1,141,10|10,0:1|0:0,0:0:0:0:
287,228,75678,2,0,P|362:269|429:242,2,141,0|2|8,0:0|0:0|0:0,0:0:0:0:
364,174,77012,2,0,L|385:78,1,94,0|10,0:0|0:0,0:0:0:0:
291,68,77678,6,0,B|222:59|222:59|176:74|176:74|78:60,1,188,10|2,0:1|0:0,0:0:0:0:
28,12,78678,1,10,0:0:0:0:
11,106,79012,2,0,L|27:239,1,94,0|10,0:0|0:0,0:0:0:0:
89,265,79678,2,0,P|147:256|209:249,1,94,2|8,0:0|0:0,0:0:0:0:
269,286,80345,5,8,0:1:0:0:
256,192,80512,12,14,81678,0:1:0:0:
256,192,83178,12,14,85678,0:1:0:0:
69,99,96345,6,0,B|136:63|136:63|239:81,1,141,10|10,0:1|0:1,0:0:0:0:
233,211,97345,2,0,B|166:247|166:247|63:229,1,141,10|10,0:1|0:1,0:0:0:0:
373,50,99012,6,0,P|450:98|446:182,1,141,10|10,0:1|0:1,0:0:0:0:
354,237,100012,2,0,P|277:189|283:102,1,141,10|10,0:1|0:1,0:0:0:0:
165,354,101678,6,0,B|130:330|95:332|95:332|57:360|-5:348,2,141,2|2|2,0:0|0:0|0:0,0:0:0:0:
289,287,103266,1,2,0:0:0:0:
116,63,104178,6,0,P|187:26|279:65,1,141,14|8,0:1|0:0,0:0:0:0:
303,109,105011,2,0,P|274:157|280:221,1,94,2|8,0:0|0:0,0:0:0:0:
349,246,105678,2,0,P|416:237|470:229,2,94,10|8|2,0:1|0:0|0:0,0:0:0:0:
270,298,106678,1,8,0:0:0:0:
193,243,107011,6,0,B|166:154|221:154|192:58,1,188,10|2,0:1|0:0,0:0:0:0:
108,16,108011,1,8,0:0:0:0:
22,55,108344,2,0,B|-1:120|-1:120|25:216,2,141,8|2|10,0:1|0:0|0:0,0:0:0:0:
108,16,109678,6,0,B|163:11|194:40|194:40|234:12|307:34,1,188,10|0,0:1|0:0,0:0:0:0:
363,79,110678,1,10,0:0:0:0:
453,51,111011,2,0,P|498:128|462:211,2,141,10|2|10,0:1|0:0|0:0,0:0:0:0:
363,79,112344,6,0,P|311:82|259:85,1,94,10|8,0:1|0:0,0:0:0:0:
210,158,113011,2,0,P|158:154|106:151,1,94,0|8,0:0|0:0,0:0:0:0:
56,223,113677,2,0,B|92:278|67:345|67:345|105:351|145:317,1,188,10|2,0:1|0:0,0:0:0:0:
207,286,114677,1,8,0:0:0:0:
275,351,115011,6,0,P|360:366|436:267,1,188,10|2,0:1|0:0,0:0:0:0:
394,216,116011,1,8,0:0:0:0:
432,130,116344,2,0,P|380:123|308:116,1,94,10|10,0:1|0:0,0:0:0:0:
246,100,117011,2,0,P|253:163|261:234,1,94,2|10,0:0|0:0,0:0:0:0:
172,236,117677,6,0,P|93:190|102:76,1,188,10|2,0:1|0:0,0:0:0:0:
142,24,118677,1,8,0:0:0:0:
221,75,119011,2,0,P|281:76|338:37,1,94,10|10,0:1|0:0,0:0:0:0:
389,114,119677,2,0,P|365:172|383:242,1,94,2|10,0:0|0:0,0:0:0:0:
429,272,120344,6,0,B|372:251|372:251|279:272,1,141,10|2,0:1|0:0,0:0:0:0:
167,332,121344,2,0,P|190:246|144:165,1,141,10|10,0:0|0:1,0:0:0:0:
73,100,122344,2,0,L|199:85,1,94,2|10,0:0|0:0,0:0:0:0:
245,139,123011,6,0,P|329:87|432:134,1,188,8|0,0:1|0:0,0:0:0:0:
469,183,124011,1,8,0:0:0:0:
433,270,124344,2,0,P|366:261|295:251,1,94,8|0,0:1|0:0,0:0:0:0:
255,300,125011,2,0,P|249:237|235:163,1,94,0|8,0:0|0:0,0:0:0:0:
200,123,125677,6,0,P|267:114|338:104,1,94,12|8,0:1|0:1,0:0:0:0:
489,239,126844,2,0,B|482:180|449:156|449:156|457:95|506:52|506:52|438:88|372:39,1,329,10|2,0:1|0:0,0:0:0:0:
305,36,128344,6,0,P|312:103|315:170,1,94,12|8,0:1|0:1,0:0:0:0:
426,335,129511,2,0,B|385:340|357:322|357:322|318:339|318:339|284:320|246:325,1,188,10|10,0:1|0:1,0:0:0:0:
114,364,130677,1,10,0:1:0:0:
121,270,131011,6,0,L|129:154,1,94,12|8,0:1|0:1,0:0:0:0:
315,35,132177,2,0,P|393:48|417:181,1,188,10|10,0:1|0:1,0:0:0:0:
371,267,133344,1,10,0:1:0:0:
256,192,133677,12,2,135011,0:0:0:0:
121,66,136344,5,8,0:1:0:0:
459,161,150844,6,0,P|403:125|300:161,1,141,12|0,0:1|1:0,0:0:0:0:
267,202,151677,2,0,P|206:195|153:189,1,94,0|0,0:0|1:0,0:0:0:0:
107,257,152344,2,0,B|141:157|141:157|101:44,1,188,8|0,0:1|0:0,0:0:0:0:
177,10,153344,1,0,1:0:0:0:
262,48,153677,6,0,P|323:41|440:24,1,141,8|0,0:1|0:0,0:0:0:0:
469,95,154511,2,0,P|441:147|458:221,1,94,8|0,0:1|0:0,0:0:0:0:
492,259,155177,1,8,0:1:0:0:
411,307,155511,2,0,B|342:287|342:287|267:312,1,141,0|0,0:0|1:0,0:0:0:0:
195,357,156344,6,0,P|197:258|299:218,1,188,8|0,0:1|0:0,0:0:0:0:
355,249,157344,1,0,1:0:0:0:
427,189,157677,2,0,P|420:120|419:64,1,94,8|0,0:1|1:0,0:0:0:0:
347,34,158344,2,0,P|285:15|219:43,1,94,0|8,0:0|0:0,0:0:0:0:
179,74,159011,6,0,P|117:92|51:64,1,94,8|8,0:0|0:0,0:0:0:0:
41,167,159677,2,0,P|75:204|88:254,1,94,8|8,0:0|0:0,0:0:0:0:
44,328,160344,1,8,0:1:0:0:
365,259,161511,6,0,P|425:270|491:279,1,94,12|8,0:1|0:1,0:0:0:0:
214,131,162844,2,0,P|154:142|88:151,1,94,12|2,0:1|0:0,0:0:0:0:
369,13,164177,6,0,P|427:72|410:152,1,141,14|10,0:1|0:0,0:0:0:0:
345,174,165011,2,0,P|293:159|234:153,1,94,2|8,0:0|0:0,0:0:0:0:
182,214,165677,2,0,P|125:191|64:204,2,94,0|8|2,0:0|0:0|0:0,0:0:0:0:
216,301,166677,1,10,0:0:0:0:
304,268,167011,6,0,P|385:250|469:335,1,188,8|2,0:1|0:0,0:0:0:0:
394,377,168011,1,10,0:0:0:0:
300,369,168344,2,0,L|179:350,1,94,0|8,0:0|0:0,0:0:0:0:
114,370,169011,2,0,P|109:308|96:237,1,94,0|8,0:0|0:0,0:0:0:0:
49,200,169677,6,0,B|118:188|118:188|164:201|164:201|235:191,1,188,8|2,0:1|0:0,0:0:0:0:
291,117,170677,1,8,0:0:0:0:
368,169,171011,2,0,P|362:254|359:344,1,141,12|12,0:1|0:1,0:0:0:0:
434,366,171844,1,12,0:1:0:0:
503,302,172177,6,0,P|499:240|495:186,1,94,12|8,0:1|0:1,0:0:0:0:
218,253,173511,2,0,P|214:304|210:356,1,94,12|2,0:1|0:0,0:0:0:0:
421,94,175011,6,0,B|365:97|331:65|331:65|298:105|230:105,1,188,14|0,0:1|0:0,0:0:0:0:
168,59,176011,1,8,0:0:0:0:
91,114,176344,2,0,P|73:181|98:240,1,94,0|8,0:0|0:0,0:0:0:0:
145,268,177011,2,0,P|205:255|258:256,1,94,0|10,0:0|0:0,0:0:0:0:
316,304,177677,6,0,P|386:243|359:125,1,188,10|2,0:1|0:0,0:0:0:0:
310,92,178677,1,10,0:0:0:0:
231,144,179011,2,0,P|171:131|118:132,1,94,8|10,0:1|0:0,0:0:0:0:
104,42,179677,2,0,P|155:40|206:28,1,94,2|8,0:0|0:0,0:0:0:0:
288,7,180344,5,8,0:1:0:0:
256,192,180511,12,14,181677,0:1:0:0:
438,91,183177,6,0,P|378:130|376:229,1,141,14|0,0:1|0:0,0:0:0:0:
427,263,184011,1,10,0:0:0:0:
359,327,184344,2,0,P|300:309|231:308,1,94,10|8,0:1|0:0,0:0:0:0:
179,337,185011,2,0,P|176:278|163:214,1,94,2|8,0:0|0:0,0:0:0:0:
97,184,185677,6,0,P|167:110|263:131,1,188,10|0,0:1|0:0,0:0:0:0:
323,65,186677,1,10,0:0:0:0:
377,141,187011,2,0,P|372:199|367:270,1,94,10|8,0:1|0:0,0:0:0:0:
461,218,187677,2,0,P|464:166|469:114,1,94,2|8,0:0|0:0,0:0:0:0:
406,53,188344,6,0,B|365:23|315:34|315:34|265:70|201:47,1,188,10|0,0:1|0:0,0:0:0:0:
145,7,189344,1,8,0:0:0:0:
67,59,189677,2,0,P|45:123|64:181,1,94,10|8,0:1|0:0,0:0:0:0:
121,207,190344,2,0,P|143:271|124:329,1,94,2|8,0:0|0:0,0:0:0:0:
78,367,191011,6,0,P|150:336|231:372,1,141,14|14,0:1|0:1,0:0:0:0:
317,263,192011,2,0,B|322:215|322:215|340:188|340:188|347:120,1,141,14|14,0:1|0:1,0:0:0:0:
238,38,193011,5,14,0:1:0:0:
151,75,193344,1,14,0:1:0:0:
