osu file format v14

[General]
AudioFilename: audio.mp3
AudioLeadIn: 0
PreviewTime: 153085
Countdown: 0
SampleSet: Soft
StackLeniency: 0.7
Mode: 0
LetterboxInBreaks: 0
WidescreenStoryboard: 1

[Editor]
Bookmarks: 585,22040,40948,52585,64221,78766,102039,116585,116675,116766,116857,116948,117039,117130,117221,117312,117403,117494,117585,117675,117766,117857,117948,118039,118130,118221,118312,118403,118494,118585,118675,118766,118857,118948,119039,119130,119221,119312,119403,119494,119585,119675,119766,119857,119948,120039,120130,120221,120312,120403,120494,120585,120675,120766,120857,120948,121039,121130,121221,121312,121403,121494,121585,121675,121766,121857,121948,122039,122130,122221,128221,139857,154403,177675,177766,177857,177948,178039,178130,178221,178312,178403,178494,178585,178675,178766,178857,178948,179039,179130,179221,179312,179403,179494,179585,179675,179766,179857,179948,180039,180130,180221,180312,180403,180494,180585,180675,180766,180857,180948,181039,181130,181221,181312,181403,181494,181585,181675,181766,181857,181948,182039,182130,182221,182312,182403,182494,182585,182675,182766,182857,182948,183039,183130,183221,183312,183403,183494,183585,183675,183766,183857,183948,184039,184130,184221,184312,184403,184494,184585,184675,184766,184857,184948,196948,208584,224584,263857,287130,298766,313312
DistanceSpacing: 0.6
BeatDivisor: 4
GridSize: 4
TimelineZoom: 2.899999

[Metadata]
Title:Walkuere ga Tomaranai
TitleUnicode:ワルキューレがとまらない
Artist:WALKUERE
ArtistUnicode:ワルキューレ
Creator:ShiraKai
Version:Sigrdrifa
Source:マクロスΔ
Tags:macross delta walkure kacha nasya n_a_s_y_a collab rare track Freyja Wion Mikumo Guynemer Kaname Buccaneer Makina Nakajima Reina Prowler Minori Suzuki Koshimizu Ami Nishida Nozomi Toyama Nao Yasuno Kiyono JUNNA
BeatmapID:1330764
BeatmapSetID:630378

[Difficulty]
HPDrainRate:6.2
CircleSize:3.8
OverallDifficulty:8
ApproachRate:9
SliderMultiplier:1.7
SliderTickRate:1

[Events]
//Background and Video events
0,0,"BG.jpg",0,0
//Break Periods
2,116585,121621
2,177676,184199
//Storyboard Layer 0 (Background)
//Storyboard Layer 1 (Fail)
//Storyboard Layer 2 (Pass)
//Storyboard Layer 3 (Foreground)
//Storyboard Sound Samples

[TimingPoints]
585,625,4,2,2,40,1,0
585,-125,4,2,2,40,0,0
10272,-125,4,2,2,20,0,0
11835,-125,4,2,2,40,0,0
20585,363.636363636364,4,2,2,40,1,0
22766,-100,4,2,1,55,0,0
23494,-100,4,2,1,60,0,0
24221,-100,4,2,1,65,0,0
24948,-100,4,2,1,70,0,0
40766,-100,4,2,1,40,0,0
40948,-142.857142857143,4,2,1,30,0,0
50585,-142.857142857143,4,2,1,40,0,0
51494,-111.111111111111,4,2,1,20,0,0
52221,-166.666666666667,4,2,1,40,0,0
52585,-100,4,2,1,60,0,0
61948,-66.6666666666667,4,2,1,50,0,0
62039,-66.6666666666667,4,2,1,70,0,0
62766,-100,4,2,1,70,0,0
63130,-100,4,2,2,30,0,0
64221,-166.666666666667,4,2,1,50,0,0
72585,-83.3333333333334,4,2,1,50,0,0
72948,-100,4,2,1,60,0,0
75857,-100,4,2,1,70,0,0
76948,-100,4,2,1,75,0,0
78766,-100,4,2,1,80,0,1
90312,-100,4,2,1,80,0,0
90403,-100,4,2,1,80,0,1
100948,-100,4,2,1,80,0,0
101494,-100,4,2,1,50,0,0
102039,-100,4,2,1,70,0,1
102130,-100,4,2,1,70,0,0
104766,-90.9090909090909,4,2,1,70,0,0
105312,-100,4,2,1,70,0,0
107675,-90.9090909090909,4,2,1,70,0,0
108221,-100,4,2,1,70,0,0
122221,-100,4,2,1,40,0,0
122403,-142.857142857143,4,2,1,30,0,0
126221,-142.857142857143,4,2,1,40,0,0
126403,-100,4,2,1,40,0,0
127130,-100,4,2,1,20,0,0
127675,-166.666666666667,4,2,1,40,0,0
128221,-100,4,2,1,60,0,0
137675,-66.6666666666667,4,2,1,50,0,0
138766,-66.6666666666667,4,2,2,30,0,0
139857,-166.666666666667,4,2,1,50,0,0
140403,-100,4,2,1,50,0,0
142766,-166.666666666667,4,2,1,50,0,0
143312,-100,4,2,1,50,0,0
145675,-166.666666666667,4,2,1,50,0,0
146221,-100,4,2,1,50,0,0
148585,-100,4,2,1,60,0,0
151494,-100,4,2,1,70,0,0
152585,-76.9230769230769,4,2,1,75,0,0
153130,-76.9230769230769,4,2,2,50,0,0
154403,-100,4,2,1,80,0,1
164585,-166.666666666667,4,2,1,80,0,1
164857,-166.666666666667,4,2,1,5,0,1
164948,-66.6666666666667,4,2,1,80,0,1
165039,-66.6666666666667,4,2,1,5,0,1
165130,-133.333333333333,4,2,1,80,0,1
165948,-133.333333333333,4,2,1,80,0,0
166039,-100,4,2,1,80,0,1
174766,-83.3333333333333,4,2,1,80,0,1
176039,-71.4285714285714,4,2,1,80,0,1
176403,-58.8235294117647,4,2,1,80,0,1
176585,-58.8235294117647,4,2,1,80,0,0
184948,-58.8235294117647,4,2,1,50,0,0
185312,363.636363636364,4,2,1,50,1,0
185312,-133.333333333333,4,2,1,50,0,0
196948,-111.111111111111,4,2,1,60,0,0
208584,-100,4,2,1,70,0,0
216584,-76.9230769230769,4,2,1,70,0,0
217312,-100,4,2,1,70,0,0
224584,-166.666666666667,4,2,2,30,0,0
235675,-125,4,2,2,50,0,0
237675,-333.333333333333,4,2,1,30,0,0
238039,-66.6666666666667,4,2,1,85,0,1
238402,-90.9090909090909,4,2,1,85,0,1
247857,-166.666666666667,4,2,1,85,0,1
248130,-166.666666666667,4,2,1,5,0,1
248221,-66.6666666666667,4,2,1,85,0,1
248312,-66.6666666666667,4,2,1,5,0,1
248402,-133.333333333333,4,2,1,85,0,1
249221,-133.333333333333,4,2,1,85,0,0
249312,-90.9090909090909,4,2,1,85,0,1
260221,-60.6060606060606,4,2,1,85,0,1
260857,-60.6060606060606,4,2,1,85,0,0
260948,-60.6060606060606,4,2,1,85,0,1
261584,-60.6060606060606,4,2,1,85,0,0
261675,-60.6060606060606,4,2,1,85,0,1
262312,-60.6060606060606,4,2,1,85,0,0
262402,-60.6060606060606,4,2,1,85,0,1
262675,-60.6060606060606,4,2,1,85,0,0
262766,-100,4,2,1,85,0,1
262857,-100,4,2,1,20,0,1
262948,-100,4,2,1,85,0,1
263039,-100,4,2,1,85,0,0
263130,-76.9230769230769,4,2,1,85,0,1
263221,-100,4,2,1,20,0,1
263312,-100,4,2,1,85,0,1
263402,-100,4,2,1,85,0,0
263493,-62.5,4,2,1,85,0,1
263539,-62.5,4,2,1,50,0,1
263812,-90.9090909090909,4,2,1,20,0,0
263857,-90.9090909090909,4,2,1,90,0,1
269675,-76.9230769230769,4,2,1,90,0,1
270221,-90.9090909090909,4,2,1,90,0,1
271130,-76.9230769230769,4,2,1,90,0,1
271493,-90.9090909090909,4,2,1,90,0,1
274039,-133.333333333333,4,2,1,90,0,1
274402,-66.6666666666667,4,2,1,90,0,1
274584,-66.6666666666667,4,2,1,90,0,1
275402,-66.6666666666667,4,2,1,90,0,0
275493,-90.9090909090909,4,2,1,90,0,1
281312,-66.6666666666667,4,2,1,90,0,1
281857,-90.9090909090909,4,2,1,90,0,1
282766,-66.6666666666667,4,2,1,90,0,1
283130,-90.9090909090909,4,2,1,90,0,1
284221,-66.6666666666667,4,2,1,90,0,1
285493,-50,4,2,1,90,0,1
286039,-100,4,2,1,90,0,0
286402,-100,4,2,1,50,0,0
287130,-100,4,2,1,70,0,1
287221,-100,4,2,1,70,0,0
297312,-100,4,2,1,80,0,0
298766,-100,4,2,1,70,0,1
298857,-100,4,2,1,70,0,0
308948,-83.3333333333333,4,2,1,80,0,0
310039,-66.6666666666667,4,2,1,80,0,0
310402,-83.3333333333333,4,2,1,80,0,0

[Colours]
Combo1 : 0,242,121
Combo2 : 134,128,255
Combo3 : 255,165,74
Combo4 : 255,53,53
Combo5 : 255,81,168

[HitObjects]
56,271,585,6,0,B|94:312|114:364|114:364|117:319|139:277|139:277|175:312|194:352|194:352|196:291|215:241,1,408,4|2,0:1|0:0,0:0:0:0:
170,77,2772,1,2,0:0:0:0:
260,169,3085,6,0,B|212:155|212:155|178:167|178:167|128:155,1,136,2|0,0:0|0:0,0:0:0:0:
276,313,4335,2,0,B|329:302|329:302|363:314|363:314|407:299,1,136,2|0,0:0|0:0,0:0:0:0:
512,166,5585,6,0,P|523:99|502:35,2,136,2|2|2,0:0|0:0|0:0,0:0:0:0:
412,201,7460,1,2,0:0:0:0:
297,105,8085,6,0,B|299:146|274:208|274:208|319:145|379:109|379:109|274:95|268:48|169:33,1,476,2|2,0:0|0:0,0:0:0:0:
142,4,10585,2,0,P|133:69|78:106,1,136,2|0,0:0|0:0,0:0:0:0:
0,180,11835,6,0,L|28:327,1,136,2|2,0:0|0:0,0:0:0:0:
356,290,13085,6,0,B|315:272|270:288|270:288|239:241|239:241|194:272|116:263,1,272,4|2,0:1|0:0,0:0:0:0:
208,349,14960,1,2,0:0:0:0:
318,199,15585,6,0,P|366:316|493:306,2,272,4|2|4,0:1|0:0|0:1,0:0:0:0:
256,192,18241,12,4,20585,0:1:0:0:
246,119,22039,5,4,0:0:0:0:
256,127,22766,1,4,0:0:0:0:
254,145,23494,1,4,0:0:0:0:
340,248,23857,1,4,0:0:0:0:
148,316,24221,1,4,0:0:0:0:
264,328,24403,5,8,0:3:0:0:
264,328,24494,1,8,0:3:0:0:
264,328,24585,2,0,L|246:218,1,85,4|0,0:0|0:0,0:0:0:0:
442,157,24948,6,0,P|384:168|337:185,1,85,4|0,0:0|0:0,0:0:0:0:
184,96,25312,1,8,0:0:0:0:
246,243,25494,1,0,0:0:0:0:
288,144,25675,1,2,0:0:0:0:
152,224,25857,1,2,0:0:0:0:
336,296,26039,1,8,0:0:0:0:
439,80,26221,6,2,P|419:145|416:181,1,85,0|2,0:0|0:0,0:1:0:0:
246,243,26585,2,2,P|259:284|274:343,1,85,0|8,0:0|0:0,0:1:0:0:
476,228,26948,2,2,P|388:244|328:176,1,170,0|2,0:0|0:0,0:1:0:0:
260,72,27494,1,8,0:0:0:0:
104,256,27675,6,0,P|140:236|216:220,1,85,0|2,0:0|0:0,0:0:0:0:
316,192,28039,1,0,0:0:0:0:
208,100,28221,1,8,0:0:0:0:
248,288,28403,1,0,0:0:0:0:
416,132,28585,2,0,L|396:248,1,85,2|2,0:0|0:0,0:0:0:0:
256,72,28948,1,8,0:0:0:0:
164,256,29130,6,2,P|231:240|248:231,1,85,0|2,0:0|0:0,0:1:0:0:
340,76,29494,2,2,P|277:56|236:52,1,85,0|8,0:0|0:0,0:1:0:0:
328,280,29857,2,2,P|376:245|508:216,1,170,0|2,0:0|0:0,0:1:0:0:
476,132,30403,1,12,0:0:0:0:
416,309,30585,1,0,0:0:0:0:
240,264,30766,6,0,L|136:244,1,85,4|0,0:0|0:0,0:0:0:0:
348,148,31130,2,0,P|335:82|326:45,1,85,8|0,0:0|0:0,0:0:0:0:
192,112,31494,1,2,0:0:0:0:
241,262,31675,1,2,0:0:0:0:
348,148,31857,1,8,0:0:0:0:
189,29,32039,6,2,P|107:53|87:76,1,85,0|2,0:0|0:0,0:1:0:0:
244,192,32403,2,2,P|300:215|342:214,1,85,0|8,0:0|0:0,0:1:0:0:
396,80,32766,1,0,0:0:0:0:
244,192,32948,2,0,P|168:188|120:140,2,127.5,2|0|0,0:0|0:0|0:3,0:0:0:0:
376,320,33675,6,0,P|388:208|400:132,1,170,4|8,0:0|0:0,0:0:0:0:
336,40,34221,1,0,0:0:0:0:
260,152,34403,2,0,P|242:199|236:256,1,85,2|2,0:0|0:0,0:0:0:0:
132,320,34766,2,0,L|112:256|100:224,1,85,8|2,0:0|0:0,0:0:0:0:
313,232,35130,6,0,P|373:246|421:258,1,85,12|2,0:0|0:0,0:0:0:0:
180,75,35494,2,0,P|136:94|78:111,1,85,12|2,0:0|0:0,0:0:0:0:
161,336,35857,2,0,P|243:337|299:276,1,170,12|8,0:0|0:0,0:0:0:0:
299,275,36312,1,8,0:0:0:0:
299,275,36403,1,2,0:0:0:0:
86,137,36585,5,4,0:0:0:0:
227,224,36766,2,0,L|313:248,1,85,8|0,0:0|0:0,0:0:0:0:
66,158,37130,5,4,0:0:0:0:
309,140,37312,2,0,L|361:118,2,42.5,8|8|2,0:0|0:0|0:0,0:0:0:0:
180,74,37675,5,4,0:0:0:0:
296,262,37857,2,0,L|366:339,1,85,8|0,0:0|0:0,0:0:0:0:
198,46,38221,5,4,0:0:0:0:
151,317,38403,2,0,L|133:391,2,42.5,8|8|4,0:0|0:0|0:3,0:0:0:0:
348,48,38766,5,4,0:0:0:0:
36,248,38948,1,8,0:0:0:0:
448,144,39130,2,0,L|500:128,2,42.5,4|8|8,0:0|0:0|0:3,0:0:0:0:
256,192,39494,5,4,0:0:0:0:
256,192,39585,12,0,40767,3:0:0:0:
258,365,40948,6,0,B|183:375|212:350|140:358,2,118.999996368408,2|2|2,0:0|0:0|0:0,0:0:0:0:
370,251,42039,1,2,0:0:0:0:
319,190,42221,6,0,P|289:238|306:301,1,118.999996368408
408,332,42766,1,2,0:0:0:0:
370,251,42948,1,0,0:0:0:0:
440,172,43130,2,0,P|442:201|452:229,1,59.4999981842042,2|0,0:0|0:0,0:0:0:0:
397,67,43494,2,0,P|384:94|378:123,1,59.4999981842042,2|0,0:0|0:0,0:0:0:0:
472,38,43857,6,0,P|413:29|362:0,1,118.999996368408,2|2,0:0|0:0,0:0:0:0:
284,42,44403,2,0,P|286:71|296:99,1,59.4999981842042,0|2,0:0|0:0,0:0:0:0:
228,153,44766,2,0,P|198:155|171:167,1,59.4999981842042,0|2,0:0|0:0,0:0:0:0:
80,50,45130,1,0,0:0:0:0:
80,50,45312,6,0,L|208:71,2,118.999996368408,2|2|2,0:0|0:0|0:0,0:0:0:0:
80,50,46221,1,0,0:0:0:0:
87,140,46403,1,2,0:0:0:0:
7,101,46585,1,0,0:0:0:0:
171,166,46766,6,0,B|166:224|166:224|160:231|160:231|156:283,1,118.999996368408,2|2,0:0|0:0,0:0:0:0:
75,243,47312,2,0,P|32:281|44:337,1,118.999996368408
130,365,47857,1,2,0:0:0:0:
130,365,48039,6,0,B|205:375|176:350|247:358,1,118.999996368408
381,361,48585,2,0,P|359:341|332:330,1,59.4999981842042,2|0,0:0|0:0,0:0:0:0:
260,275,48948,2,0,P|263:245|267:216,1,59.4999981842042,2|0,0:0|0:0,0:0:0:0:
349,155,49312,2,0,P|353:184|357:214,1,59.4999981842042,2|0,0:0|0:0,0:0:0:0:
434,260,49675,5,2,0:0:0:0:
501,201,49857,1,0,0:0:0:0:
434,260,50039,1,2,0:0:0:0:
357,214,50221,2,0,P|353:184|349:155,1,59.4999981842042,0|2,0:0|0:0,0:0:0:0:
473,49,50585,5,8,0:3:0:0:
475,66,50675,1,8,0:3:0:0:
474,83,50766,1,4,0:3:0:0:
471,100,50857,1,4,0:3:0:0:
464,116,50948,1,4,0:3:0:0:
450,128,51039,1,4,0:3:0:0:
435,137,51130,5,4,0:3:0:0:
362,58,51494,2,2,B|367:37|391:34|404:54|400:78|370:84|370:84|327:60|327:60|283:73|231:68,1,229.499992996216,0|0,0:0|0:0,0:1:0:0:
211,87,52221,2,0,P|187:78|165:64,1,50.9999984436036
324,212,52585,6,0,P|412:188|436:184,1,85,4|0,0:0|0:0,0:0:0:0:
232,320,52948,2,0,P|173:315|120:272,1,127.5,8|0,0:0|0:0,0:0:0:0:
108,234,53312,2,0,L|118:193|128:152,1,85,2|0,0:0|0:0,0:0:0:0:
84,48,53675,1,8,0:0:0:0:
0,200,53857,6,0,P|39:185|80:174,1,85,0|2,0:0|0:0,0:0:0:0:
320,320,54221,1,0,0:0:0:0:
256,152,54403,2,8,L|236:244,1,85,8|0,0:0|0:0,0:0:0:0:
192,320,54766,1,2,0:0:0:0:
336,220,54948,1,0,0:0:0:0:
156,172,55130,1,8,0:0:0:0:
340,248,55312,1,0,0:0:0:0:
312,72,55494,6,0,P|288:156|284:188,1,85,2|0,0:0|0:0,0:0:0:0:
140,96,55857,1,8,0:0:0:0:
112,272,56039,2,0,P|180:256|220:228,1,85,0|2,0:0|0:0,0:0:0:0:
332,312,56403,2,0,L|296:204,1,85,0|8,0:0|0:0,0:0:0:0:
224,144,56766,1,0,0:0:0:0:
192,260,56948,6,0,P|272:228|384:196,2,170,2|8|2,0:0|0:0|0:0,0:0:0:0:
28,184,57857,1,0,0:0:0:0:
136,204,58039,2,8,P|112:128|100:108,1,85,8|0,0:0|0:0,0:0:0:0:
100,292,58403,6,0,P|148:300|200:312,1,85,4|0,0:0|0:0,0:0:0:0:
360,220,58766,1,8,0:0:0:0:
376,320,58948,2,0,P|328:336|288:352,1,85,0|2,0:0|0:0,0:0:0:0:
116,176,59312,2,0,P|156:189|196:201,1,85,0|8,0:0|0:0,0:0:0:0:
380,136,59675,1,0,0:0:0:0:
292,284,59857,5,4,0:0:0:0:
380,136,60039,2,0,L|408:220,1,85,0|8,0:0|0:0,0:0:0:0:
188,208,60403,2,0,P|132:224|68:136,1,170
32,56,60948,1,8,0:0:0:0:
160,128,61130,1,0,0:0:0:0:
12,280,61312,5,4,0:0:0:0:
128,252,61494,1,8,0:3:0:0:
156,280,61585,1,8,0:3:0:0:
192,292,61675,1,4,0:3:0:0:
232,296,61766,1,4,0:3:0:0:
268,288,61857,1,4,0:3:0:0:
304,268,61948,1,4,0:3:0:0:
336,244,62039,6,0,P|444:260|468:304,1,127.500004863739,4|0,0:0|0:0,0:0:0:0:
388,292,62312,2,0,P|392:232|416:164,1,127.500004863739,4|0,0:0|0:0,0:0:0:0:
416,76,62585,1,4,0:0:0:0:
152,204,62766,1,4,0:0:0:0:
336,244,63130,5,2,0:0:0:0:
208,208,63494,1,2,0:0:0:0:
272,88,63857,1,2,0:0:0:0:
284,167,64221,6,0,B|214:159|214:159|207:167|207:167|136:160,1,152.999995330811,4|8,0:0|0:0,0:0:0:0:
8,36,65312,2,0,B|77:28|77:28|84:36|84:36|156:28,1,152.999995330811,2|8,0:0|0:0,0:0:0:0:
227,75,66039,1,0,0:0:0:0:
156,27,66221,1,8,0:3:0:0:
49,175,66403,1,2,0:0:0:0:
135,159,66585,1,8,0:3:0:0:
181,286,66766,5,8,0:0:0:0:
0,250,66948,1,0,0:0:0:0:
50,326,67130,6,0,B|28:244|65:274|49:175,1,152.999995330811,4|8,0:0|0:0,0:0:0:0:
268,375,68221,2,0,P|250:305|180:286,1,152.999995330811,2|8,0:0|0:0,0:0:0:0:
134,365,68948,1,0,0:0:0:0:
178,286,69130,1,8,0:3:0:0:
50,326,69312,1,2,0:0:0:0:
0,250,69494,1,8,0:3:0:0:
178,286,69675,5,8,0:0:0:0:
220,139,69857,1,0,0:0:0:0:
94,199,70039,6,0,P|170:192|246:183,1,152.999995330811,4|8,0:0|0:0,0:0:0:0:
278,310,71130,2,0,P|354:316|430:325,1,152.999995330811,2|8,0:0|0:0,0:0:0:0:
468,246,71857,1,0,0:0:0:0:
430,325,72039,1,8,0:3:0:0:
312,145,72221,1,2,0:0:0:0:
391,190,72403,1,8,0:3:0:0:
503,4,72585,6,0,P|498:29|492:53,1,50.9999984436036,8|8,0:0|0:3,0:0:0:0:
478,134,72766,1,4,0:3:0:0:
478,134,72948,6,0,B|442:126|420:97|420:97|385:97|385:97|362:70|332:60,1,170,4|8,2:0|0:0,0:0:0:0:
234,196,73494,1,2,0:0:0:0:
186,41,73675,1,0,0:0:0:0:
312,145,73857,1,2,0:0:0:0:
126,242,74039,1,8,0:0:0:0:
184,128,74221,6,0,B|50:112|50:112|71:139,1,170,4|2,0:0|0:0,0:0:0:0:
113,369,74766,2,0,L|127:242,1,127.5,8|0,0:0|0:0,0:0:0:0:
140,259,75130,1,2,0:0:0:0:
13,219,75312,1,2,0:0:0:0:
95,354,75494,1,8,0:0:0:0:
95,354,75585,1,8,0:0:0:0:
95,354,75675,1,8,0:3:0:0:
317,228,75857,5,4,0:0:0:0:
194,184,76039,1,2,0:0:0:0:
300,357,76221,1,8,0:0:0:0:
431,279,76403,5,6,0:0:0:0:
431,279,76494,1,2,0:0:0:0:
431,279,76585,2,0,P|411:287|392:297,1,42.5,8|8,0:0|0:0,0:0:0:0:
317,228,76766,1,2,0:0:0:0:
464,183,76948,6,0,P|444:174|423:168,1,42.5,12|10,0:0|0:0,0:0:0:0:
338,100,77130,2,2,P|332:78|329:50,1,42.5,10|10,0:0|0:0,0:1:0:0:
424,0,77312,1,12,0:0:0:0:
372,92,78766,6,0,P|248:116|212:120,1,127.5,4|0,0:0|0:0,0:0:0:0:
200,144,79130,2,0,P|128:112|84:108,1,85,8|0,0:0|0:0,0:0:0:0:
0,96,79494,1,2,0:0:0:0:
0,96,79585,1,0,0:0:0:0:
0,96,79675,1,0,0:0:0:0:
59,240,79857,1,8,0:0:0:0:
200,144,80039,6,0,L|208:88|212:60,1,85,0|2,0:0|0:0,0:0:0:0:
96,56,80403,1,0,0:0:0:0:
356,160,80585,2,0,L|244:184,1,85,8|0,0:0|0:0,0:0:0:0:
104,200,80948,1,2,0:0:0:0:
104,200,81039,1,0,0:0:0:0:
104,200,81130,1,0,0:0:0:0:
232,280,81312,1,8,0:0:0:0:
60,208,81494,1,0,0:0:0:0:
292,348,81675,6,2,P|408:288|448:300,1,170,2|8,0:0|0:0,0:1:0:0:
504,172,82221,2,2,P|444:160|392:144,1,85,0|2,0:0|0:0,0:1:0:0:
220,72,82585,1,0,0:0:0:0:
308,196,82766,1,8,0:0:0:0:
175,331,82948,6,2,P|201:215|216:156,1,170,0|0,0:0|0:0,0:1:0:0:
260,60,83494,1,8,0:0:0:0:
104,168,83675,1,0,0:0:0:0:
288,244,83857,5,2,0:0:0:0:
288,244,83948,1,0,0:0:0:0:
288,244,84039,1,0,0:0:0:0:
104,168,84221,1,8,0:0:0:0:
360,112,84403,1,0,0:0:0:0:
92,292,84585,6,0,L|44:308,2,42.5,4|0|0,0:0|0:0|0:0,0:0:0:0:
240,144,84948,1,8,0:0:0:0:
370,257,85130,6,0,P|332:318|256:306,1,127.5
281,321,85494,1,0,0:0:0:0:
132,152,85675,1,8,0:0:0:0:
288,244,85857,1,0,0:0:0:0:
280,64,86039,6,0,L|292:8,2,42.5,4|0|0,0:0|0:0|0:0,0:0:0:0:
124,180,86403,1,8,0:0:0:0:
312,248,86585,6,0,P|372:212|435:211,1,127.5
428,209,86948,1,8,0:3:0:0:
334,132,87130,1,8,0:0:0:0:
396,337,87312,1,0,0:0:0:0:
175,245,87494,6,2,P|75:221|35:213,2,127.5,4|0|0,0:0|0:0|0:0,0:1:0:0:
404,204,88221,1,2,0:0:0:0:
265,89,88403,1,0,0:0:0:0:
244,318,88585,1,8,0:0:0:0:
244,318,88675,1,8,0:0:0:0:
244,318,88766,1,2,0:0:0:0:
244,318,88857,1,2,0:0:0:0:
244,318,88948,5,4,0:0:0:0:
188,140,89312,1,4,0:0:0:0:
388,268,89494,6,0,P|456:276|516:196,1,170,4|8,0:0|0:3,0:0:0:0:
284,220,90039,1,12,0:0:0:0:
260,252,90130,1,8,0:0:0:0:
224,264,90221,1,8,0:3:0:0:
184,264,90312,1,0,0:0:0:0:
152,248,90403,6,0,P|100:204|20:220,1,127.5,4|0,0:0|0:0,0:0:0:0:
4,184,90766,2,0,L|36:84,1,85,8|0,0:0|0:0,0:0:0:0:
248,172,91130,2,0,L|336:144,1,85,2|0,0:0|0:0,0:0:0:0:
300,336,91494,1,8,0:0:0:0:
173,233,91675,6,0,P|101:237|54:274,1,127.5
58,268,92039,1,0,0:0:0:0:
108,128,92221,1,8,0:0:0:0:
108,128,92312,1,0,0:0:0:0:
108,128,92403,1,0,0:0:0:0:
244,304,92585,6,0,P|264:232|276:204,1,85,2|0,0:0|0:0,0:0:0:0:
380,176,92948,1,8,0:0:0:0:
216,84,93130,1,0,0:0:0:0:
488,208,93312,6,2,P|512:136|456:64,1,170,2|8,0:0|0:0,0:1:0:0:
352,180,93857,2,2,P|332:268|332:276,1,85,0|2,0:0|0:0,0:1:0:0:
176,192,94221,2,2,P|168:136|152:92,1,85,0|8,0:0|0:0,0:1:0:0:
100,300,94585,6,2,P|212:324|248:296,1,127.5,0|0,0:0|0:0,0:1:0:0:
216,321,94948,1,0,0:0:0:0:
309,92,95130,1,8,0:0:0:0:
184,248,95312,1,0,0:0:0:0:
340,216,95494,5,2,0:0:0:0:
340,216,95585,1,0,0:0:0:0:
340,216,95675,1,0,0:0:0:0:
112,144,95857,1,8,0:0:0:0:
272,360,96039,1,0,0:0:0:0:
268,152,96221,6,0,L|248:88,2,42.5,4|0|0,0:0|0:0|0:0,0:0:0:0:
132,300,96585,1,8,0:0:0:0:
316,296,96766,6,0,P|408:264|488:236,1,170
136,72,97312,1,8,0:0:0:0:
312,156,97494,1,0,0:0:0:0:
144,288,97675,6,0,L|76:328,2,42.5,4|0|0,0:0|0:0|0:0,0:0:0:0:
288,104,98039,1,8,0:0:0:0:
412,276,98221,6,0,P|312:276|256:196,1,170,0|8,0:0|0:3,0:0:0:0:
182,80,98766,2,0,L|173:23,2,42.5,8|8|0,0:0|0:0|0:3,0:0:0:0:
272,232,99130,6,2,L|252:340,1,85,4|0,0:0|0:3,0:1:0:0:
400,132,99494,1,12,0:0:0:0:
272,232,99675,2,0,P|144:200|76:192,1,170,4|8,0:0|0:0,0:1:0:0:
106,194,100403,6,2,P|170:142|246:146,1,127.5,4|0,0:0|0:0,0:1:0:0:
212,137,100766,1,8,0:3:0:0:
124,24,100948,1,12,0:0:0:0:
51,264,101494,5,0,0:0:0:0:
21,180,101675,2,0,P|63:179|103:192,1,85,0|0,3:0|3:0,0:0:0:0:
70,353,102039,6,0,B|139:339|139:339|168:356|168:356|233:345,1,170,4|8,0:1|0:0,0:0:0:0:
295,262,102585,1,0,0:0:0:0:
394,370,102766,1,2,0:0:0:0:
233,345,102948,1,2,0:0:0:0:
351,184,103130,1,8,0:0:0:0:
194,176,103312,6,2,P|199:219|209:260,1,85,0|2,0:0|0:0,0:1:0:0:
351,184,103675,2,2,P|361:142|366:100,1,85,0|8,0:0|0:0,0:1:0:0:
291,19,104039,2,2,P|210:8|164:74,1,170,0|2,0:0|0:0,0:1:0:0:
274,123,104585,1,8,0:0:0:0:
291,19,104766,6,2,B|251:12|217:-16|217:-16|195:35|164:73,1,187.000005706787,2|2,0:0|0:0,0:1:0:0:
194,176,105312,1,8,0:0:0:0:
23,91,105494,1,0,0:0:0:0:
148,253,105675,1,2,0:0:0:0:
0,300,105857,1,2,0:0:0:0:
186,357,106039,1,8,0:0:0:0:
48,169,106221,6,2,P|53:211|64:252,1,85,0|2,0:0|0:0,0:1:0:0:
310,282,106585,2,2,P|274:259|232:251,1,85,0|8,0:0|0:0,0:1:0:0:
17,377,106948,2,2,L|185:356,1,170,0|2,0:0|0:0,0:1:0:0:
64,252,107494,1,12,0:0:0:0:
17,377,107675,6,2,B|46:371|74:353|74:353|121:382|121:382|150:367|186:356,1,187.000005706787,2|2,0:0|0:0,0:1:0:0:
232,251,108221,1,8,0:0:0:0:
423,341,108403,1,0,0:0:0:0:
310,282,108585,1,2,0:0:0:0:
448,189,108766,1,2,0:0:0:0:
339,369,108948,1,8,0:0:0:0:
301,201,109130,6,2,P|342:206|374:233,1,85,0|2,0:0|0:0,0:1:0:0:
512,72,109494,2,2,L|428:86,1,85,0|8,0:0|0:0,0:1:0:0:
374,233,109857,1,2,0:1:0:0:
348,125,110039,2,0,B|341:80|341:80|348:53|348:53|338:0,2,127.5,2|0|4,0:0|0:0|0:3,0:0:0:0:
108,40,110766,6,0,B|148:8|148:8|261:42,1,170,4|8,0:0|0:0,0:0:0:0:
348,125,111312,1,0,0:0:0:0:
185,188,111494,2,0,P|171:143|169:99,1,85,2|2,0:0|0:0,0:0:0:0:
326,214,111857,2,0,P|322:256|309:296,1,85,8|2,0:0|0:0,0:0:0:0:
203,375,112221,5,4,0:0:0:0:
38,256,112403,1,2,0:0:0:0:
114,328,112585,1,12,0:0:0:0:
185,188,112766,1,2,0:0:0:0:
13,362,112948,5,4,0:0:0:0:
223,273,113130,1,2,0:0:0:0:
91,173,113312,1,8,0:0:0:0:
91,173,113403,1,8,0:0:0:0:
91,173,113494,1,2,0:0:0:0:
114,328,113675,5,4,0:0:0:0:
326,214,113857,1,8,0:0:0:0:
343,210,114221,5,4,0:0:0:0:
170,79,114403,1,8,0:0:0:0:
170,79,114494,1,8,0:0:0:0:
170,79,114585,1,2,0:0:0:0:
223,273,114766,1,8,0:0:0:0:
223,273,114857,1,8,0:0:0:0:
223,273,114948,1,4,0:3:0:0:
467,182,115130,5,12,0:0:0:0:
352,124,122221,5,0,3:3:0:0:
352,124,122312,1,0,3:3:0:0:
352,124,122403,2,0,P|385:129|425:141,1,59.4999981842042,2|0,3:2|0:0,0:0:0:0:
304,252,122766,2,0,P|276:188|272:172,1,59.4999981842042,2|0,0:0|0:0,0:0:0:0:
212,124,123130,2,0,P|158:123|104:184,1,118.999996368408,2|2,0:0|0:0,0:0:0:0:
160,260,123675,1,0,0:0:0:0:
212,124,123857,6,0,L|280:136,1,59.4999981842042,2|0,0:0|0:0,0:0:0:0:
360,228,124221,2,0,P|432:215|490:206,2,118.999996368408,2|2|2,0:0|0:0|0:0,0:0:0:0:
200,164,125130,1,0,0:0:0:0:
300,168,125312,6,0,P|282:115|262:95,1,59.4999981842042,2|0,0:0|0:0,0:0:0:0:
168,72,125675,1,2,0:0:0:0:
124,216,125857,2,0,P|152:209|180:198,1,59.4999981842042,0|2,0:0|0:0,0:0:0:0:
312,232,126221,1,8,0:3:0:0:
328,260,126312,1,8,0:3:0:0:
325,291,126403,6,2,L|317:335,3,42.5,4|4|4|4,0:3|0:3|0:3|0:3,0:0:0:0:
222,229,126766,1,4,0:3:0:0:
222,229,127130,6,2,B|284:232|328:168|282:107,1,170,0|0,0:0|0:0,0:1:0:0:
217,39,127675,2,0,P|194:93|190:105,1,50.9999984436036
222,229,128039,1,0,0:0:0:0:
123,142,128221,6,0,P|64:138|40:204,1,127.5,4|0,0:0|0:0,0:0:0:0:
7,193,128585,2,0,P|14:234|29:274,1,85,8|0,0:0|0:0,0:0:0:0:
222,229,128948,2,0,P|214:270|199:310,1,85,2|0,0:0|0:0,0:0:0:0:
100,358,129312,1,8,0:0:0:0:
124,234,129494,6,0,B|184:219|184:219|222:229|222:229|255:216|288:209,1,170
331,355,130039,1,8,0:0:0:0:
387,188,130221,1,0,0:0:0:0:
485,315,130403,5,2,0:0:0:0:
388,280,130585,1,0,0:0:0:0:
355,96,130766,1,8,0:0:0:0:
387,188,130948,1,0,0:0:0:0:
512,73,131130,6,0,B|470:87|470:87|443:110|443:110|401:88|354:96,1,170,2|8,0:0|0:0,0:0:0:0:
163,178,131675,1,0,0:0:0:0:
269,27,131857,2,0,P|260:68|237:103,1,85,2|0,0:0|0:0,0:0:0:0:
80,56,132221,2,0,P|119:40|161:35,1,85,8|0,0:0|0:0,0:0:0:0:
163,178,132585,6,0,B|132:158|85:160|85:160|43:187|0:174,2,170,2|8|2,0:0|0:0|0:0,0:0:0:0:
53,340,133494,1,0,0:0:0:0:
213,264,133675,1,8,0:0:0:0:
103,241,133857,1,0,0:0:0:0:
220,353,134039,6,0,P|278:334|300:276,1,127.5,4|0,0:0|0:0,0:0:0:0:
298,245,134403,1,8,0:0:0:0:
419,345,134585,2,0,B|455:351|455:351|500:332,1,85,0|2,0:0|0:0,0:0:0:0:
378,236,134948,2,0,P|392:276|407:315,1,85,0|8,0:0|0:0,0:0:0:0:
469,207,135312,6,0,B|433:213|433:213|387:194,1,85,0|4,0:0|0:0,0:0:0:0:
512,96,135675,2,0,P|497:136|482:175,1,85,0|8,0:0|0:0,0:0:0:0:
293,126,136039,6,0,B|322:102|329:59|329:59|379:61|410:96,1,170
388,194,136585,1,8,0:0:0:0:
235,50,136766,1,0,0:0:0:0:
188,159,136948,5,4,0:0:0:0:
105,71,137130,1,8,0:3:0:0:
74,57,137220,1,8,0:3:0:0:
41,64,137311,1,4,0:3:0:0:
19,89,137402,1,4,0:3:0:0:
15,122,137493,1,4,0:3:0:0:
32,151,137584,1,4,0:3:0:0:
62,165,137675,6,0,B|111:161|111:161|133:168|133:168|187:159,1,127.500004863739,4|0,0:0|0:0,0:0:0:0:
226,189,137948,2,0,P|252:246|230:304,1,127.500004863739,4|0,0:0|0:0,0:0:0:0:
188,333,138221,2,0,L|124:325,1,63.7500024318696,4|0,0:0|0:0,0:0:0:0:
85,292,138403,5,12,0:0:0:0:
272,377,138766,5,2,0:0:0:0:
165,248,139130,1,2,0:0:0:0:
305,157,139494,1,2,0:0:0:0:
424,257,139857,6,0,P|358:268|319:282,1,101.999996887207,4|0,0:0|0:0,0:0:0:0:
217,191,140403,6,0,L|242:73,1,85,8|0,0:0|0:0,0:0:0:0:
364,28,140766,1,0,0:0:0:0:
305,157,140948,2,0,P|228:136|117:109,1,170,2|0,0:0|0:0,0:0:0:0:
0,156,141494,5,8,0:0:0:0:
106,235,141675,1,0,0:0:0:0:
160,72,141857,1,8,0:3:0:0:
185,233,142039,5,2,0:0:0:0:
52,300,142221,1,8,0:3:0:0:
264,308,142403,2,0,P|284:260|289:212,1,85,8|0,0:1|0:0,0:0:0:0:
161,135,142766,6,0,L|186:238,1,101.999996887207,4|0,0:0|0:0,0:0:0:0:
392,256,143312,6,0,P|400:207|412:154,1,85,8|0,0:0|0:0,0:0:0:0:
343,64,143675,1,0,0:0:0:0:
245,184,143857,2,0,P|149:170|129:88,1,170,2|0,0:0|0:0,0:0:0:0:
108,293,144403,5,8,0:0:0:0:
207,95,144585,1,0,0:0:0:0:
74,156,144766,1,8,0:3:0:0:
120,20,144948,5,2,0:0:0:0:
210,205,145130,1,4,0:3:0:0:
341,120,145312,2,0,P|385:126|449:145,1,85,8|0,0:1|0:0,0:0:0:0:
236,288,145675,6,2,P|164:279|138:251,1,101.999996887207,4|0,0:0|0:0,0:1:0:0:
8,193,146221,6,0,L|43:292,1,85,8|0,0:0|0:0,0:0:0:0:
80,384,146585,1,0,0:0:0:0:
210,205,146766,2,2,P|330:253|332:297,1,170,2|0,0:0|0:0,0:1:0:0:
422,181,147312,5,8,0:0:0:0:
243,278,147494,1,0,0:0:0:0:
296,136,147675,1,0,0:0:0:0:
180,88,147857,5,0,0:0:0:0:
324,216,148039,1,8,0:3:0:0:
184,320,148221,1,8,0:1:0:0:
184,320,148312,1,8,0:3:0:0:
184,320,148403,1,4,0:3:0:0:
312,272,148585,6,0,P|292:180|268:80,1,170,4|8,0:0|0:0,0:0:0:0:
24,200,149130,2,0,P|68:208|132:216,1,85,4|0,0:0|0:0,0:0:0:0:
196,76,149494,1,2,0:0:0:0:
112,244,149675,1,8,0:0:0:0:
360,164,149857,6,0,P|300:156|216:232,1,170,4|2,0:0|0:0,0:0:0:0:
312,250,150403,2,0,P|323:291|336:332,1,85,8|0,0:0|0:0,0:0:0:0:
496,208,150766,2,0,P|428:192|388:180,1,85,2|2,0:0|0:0,0:0:0:0:
372,52,151130,2,0,L|424:26,2,42.5,8|8|8,0:0|0:0|0:3,0:0:0:0:
281,95,151494,5,4,0:0:0:0:
441,178,151675,1,2,0:0:0:0:
264,288,151857,1,8,0:0:0:0:
476,166,152039,1,6,0:0:0:0:
136,284,152221,1,8,0:0:0:0:
136,284,152312,1,8,0:0:0:0:
136,284,152403,1,2,0:0:0:0:
352,316,152585,6,0,L|288:340,1,55.2499974708558,12|8,0:0|0:0,0:0:0:0:
152,190,152766,2,2,L|216:204,1,55.2499974708558,2|2,0:0|0:0,0:1:0:0:
323,114,152948,1,4,0:0:0:0:
249,280,153130,5,2,0:0:0:0:
165,118,153312,1,2,0:0:0:0:
341,173,153494,1,2,0:0:0:0:
232,80,153675,5,2,0:0:0:0:
133,210,153857,1,2,0:0:0:0:
264,304,154039,1,2,0:0:0:0:
364,174,154221,1,2,0:0:0:0:
164,255,154403,6,0,P|125:237|83:228,1,85,4|0,0:0|0:0,0:0:0:0:
319,154,154766,2,0,P|357:136|399:127,1,85,8|0,0:0|0:0,0:0:0:0:
129,48,155130,1,2,0:0:0:0:
247,0,155312,2,0,P|243:42|234:83,1,85,0|8,0:0|0:0,0:0:0:0:
24,133,155675,6,0,P|49:57|129:48,1,170
34,230,156221,1,8,0:0:0:0:
198,159,156403,1,0,0:0:0:0:
100,117,156585,1,2,0:0:0:0:
100,117,156675,1,0,0:0:0:0:
100,117,156766,1,0,0:0:0:0:
260,230,156948,1,8,0:0:0:0:
122,203,157130,1,0,0:0:0:0:
60,354,157312,6,2,B|80:378|80:378|102:284,1,127.5,2|0,0:0|0:0,0:1:0:0:
102,284,157675,1,8,0:0:0:0:
259,230,157857,2,2,P|301:237|335:262,1,85,0|2,0:0|0:0,0:1:0:0:
208,380,158221,2,2,P|201:337|194:296,1,85,0|8,0:0|0:0,0:1:0:0:
392,181,158585,6,2,P|376:265|364:349,1,170,0|0,0:0|0:0,0:1:0:0:
307,154,159130,1,8,0:0:0:0:
460,285,159312,1,0,0:0:0:0:
492,88,159494,1,2,0:0:0:0:
492,88,159585,1,0,0:0:0:0:
492,88,159675,1,0,0:0:0:0:
335,262,159857,1,8,0:0:0:0:
512,192,160039,1,2,0:0:0:0:
403,87,160221,6,0,P|410:67|415:46,2,42.5,4|0|0,0:0|0:0|0:0,0:0:0:0:
335,262,160585,1,8,0:0:0:0:
215,165,160766,6,0,B|210:136|218:105|218:105|193:59|193:59|208:4,1,170
129,120,161312,1,8,0:0:0:0:
295,41,161494,1,0,0:0:0:0:
97,4,161675,6,0,P|89:23|84:44,2,42.5,4|0|0,0:0|0:0|0:0,0:0:0:0:
217,105,162039,1,8,0:0:0:0:
8,186,162221,6,0,B|44:134|44:134|88:158|88:158|103:134|129:120,1,170,0|8,0:0|0:3,0:0:0:0:
2,66,162766,1,8,0:0:0:0:
74,240,162948,1,0,0:0:0:0:
248,216,163130,6,2,L|164:200,1,85,4|0,0:0|0:0,0:1:0:0:
162,237,163403,2,2,P|154:279|128:312,1,85,0|0,0:0|0:0,0:1:0:0:
93,329,163675,1,2,0:1:0:0:
348,373,163857,5,2,0:0:0:0:
238,302,164039,1,0,0:0:0:0:
238,302,164130,1,2,0:0:0:0:
238,302,164221,2,0,P|242:322|244:343,1,42.5,8|8,0:0|0:0,0:0:0:0:
383,266,164403,2,0,P|385:245|391:225,1,42.5,2|2,0:0|0:0,0:0:0:0:
245,111,164585,6,2,P|253:148|257:186,1,76.4999976654053,4|0,0:0|0:0,0:1:0:0:
293,200,164948,6,0,P|324:202|355:210,1,63.7500024318696,12|0,0:0|0:0,0:0:0:0:
470,96,165130,6,2,L|343:112,1,127.500004863739,4|4,0:0|0:3,0:1:0:0:
52,19,165675,1,8,0:0:0:0:
83,26,165766,1,8,0:0:0:0:
114,33,165857,1,2,0:0:0:0:
145,39,165948,1,2,0:0:0:0:
176,42,166039,6,0,P|168:83|157:124,1,85,4|0,0:0|0:0,0:0:0:0:
3,111,166403,2,0,L|16:194,1,85,8|0,0:0|0:0,0:0:0:0:
154,138,166766,1,2,0:0:0:0:
19,210,166948,1,0,0:0:0:0:
193,229,167130,1,8,0:0:0:0:
28,310,167312,6,0,B|67:308|94:281|94:281|123:325|169:336,1,170
295,236,167857,2,0,P|334:219|376:215,1,85,8|0,0:0|0:0,0:0:0:0:
362,315,168221,1,2,0:0:0:0:
362,315,168312,1,0,0:0:0:0:
362,315,168403,1,0,0:0:0:0:
193,229,168585,1,8,0:0:0:0:
273,378,168766,1,0,0:0:0:0:
499,316,168948,6,2,B|482:289|444:280|444:280|419:317|419:317|389:311|362:315,1,170,2|8,0:0|0:0,0:1:0:0:
371,114,169494,2,2,P|413:118|451:135,1,85,0|2,0:0|0:0,0:1:0:0:
295,236,169857,2,2,P|334:219|376:215,1,85,0|8,0:0|0:0,0:1:0:0:
275,88,170221,6,2,P|325:24|407:22,1,170,0|0,0:0|0:0,0:1:0:0:
371,114,170766,1,8,0:0:0:0:
198,21,170948,1,0,0:0:0:0:
241,165,171130,1,2,0:0:0:0:
241,165,171221,1,0,0:0:0:0:
241,165,171312,1,0,0:0:0:0:
48,125,171494,1,8,0:0:0:0:
222,284,171675,1,2,0:0:0:0:
170,105,171857,6,0,P|183:89|200:77,2,42.5,4|0|0,0:0|0:0|0:0,0:0:0:0:
107,289,172221,1,8,0:0:0:0:
0,198,172403,6,0,B|54:213|54:213|96:196|96:196|163:210,1,170
15,311,172948,1,8,0:0:0:0:
239,365,173130,1,0,0:0:0:0:
107,289,173312,6,0,P|110:310|114:331,2,42.5,4|0|0,0:0|0:0|0:0,0:0:0:0:
241,165,173675,1,8,0:0:0:0:
0,198,173857,6,0,B|54:213|54:213|96:196|96:196|163:210,1,170,0|8,0:0|0:3,0:0:0:0:
317,110,174403,2,0,P|320:89|324:68,2,42.5,8|8|2,0:0|0:0|0:0,0:0:0:0:
76,91,174766,6,0,L|240:64,1,152.999995330811,4|0,0:0|0:0,0:0:0:0:
226,66,175130,1,12,0:0:0:0:
318,231,175312,5,4,0:0:0:0:
401,243,175675,1,8,0:0:0:0:
474,290,176039,6,2,B|425:272|425:272|401:242|401:242|364:249|364:249|318:231,1,178.499994552612,12|0,0:0|0:0,0:1:0:0:
357,361,176403,6,2,P|321:370|285:374,1,72.2500013780594,8|0,0:3|0:0,0:1:0:0:
204,286,176585,1,12,0:0:0:0:
84,204,184948,5,4,0:0:0:0:
84,204,185312,6,0,P|146:217|210:241,1,127.500004863739,4|0,0:0|0:0,0:0:0:0:
336,251,185857,1,0,0:0:0:0:
256,170,186039,2,0,L|264:98,1,63.7500024318696
256,170,186402,5,0,0:0:0:0:
206,377,186584,2,0,L|194:313,1,63.7500024318696
304,336,186948,6,0,P|380:336|416:300,1,127.500004863739
300,124,187675,2,0,P|276:144|252:180,1,63.7500024318696
196,268,188039,1,0,0:0:0:0:
80,219,188221,6,0,P|144:239|200:271,1,127.500004863739,4|0,0:0|0:0,0:0:0:0:
352,272,188766,2,0,P|344:308|344:344,1,63.7500024318696
468,300,189130,6,0,P|440:224|420:156,2,127.500004863739
296,232,190221,2,0,P|237:256|216:272,1,63.7500024318696
67,99,190584,2,0,P|119:131|187:123,1,127.500004863739,4|0,0:0|0:0,0:0:0:0:
183,125,191130,6,0,L|194:62,1,63.7500024318696,4|0,0:0|0:0,0:0:0:0:
296,64,191493,1,0,0:0:0:0:
320,144,191675,1,0,0:0:0:0:
248,192,191857,2,0,L|168:228,1,63.7500024318696
160,128,192221,5,0,0:0:0:0:
248,192,192402,2,0,L|320:188,1,63.7500024318696
251,319,192766,2,0,L|248:186,1,127.500004863739
392,176,193493,2,0,P|416:184|480:196,2,63.7500024318696
248,192,194039,6,0,P|181:231|116:209,1,127.500004863739,4|0,0:0|0:0,0:0:0:0:
32,172,194584,1,0,0:0:0:0:
332,256,194948,2,0,P|344:212|348:184,1,63.7500024318696
220,67,195312,6,0,P|235:135|252:211,2,127.500004863739
152,236,196221,1,8,0:0:0:0:
318,141,196402,2,2,P|385:143|416:198,1,127.500004863739,4|0,0:0|0:0,0:0:0:0:
416,190,196948,6,0,P|454:198|490:209,1,76.4999976654053,6|0,0:0|0:0,0:0:0:0:
418,367,197312,2,0,P|455:358|491:347,1,76.4999976654053,2|0,0:0|0:0,0:0:0:0:
282,257,197675,2,0,L|434:279,1,152.999995330811,2|2,0:0|0:0,0:0:0:0:
418,367,198221,1,0,0:0:0:0:
356,288,198402,6,0,L|281:278,1,76.4999976654053,2|0,0:0|0:0,0:0:0:0:
235,357,198766,2,0,P|200:372|162:373,1,76.4999976654053,2|0,0:0|0:0,0:0:0:0:
86,319,199130,1,2,0:0:0:0:
159,261,199312,1,8,0:3:0:0:
162,373,199493,5,8,0:0:0:0:
0,317,199675,1,2,0:0:0:0:
159,261,199857,6,0,B|171:216|169:154|169:154|155:169|134:182,1,152.999995330811,4|2,0:0|0:0,0:0:0:0:
50,230,200402,2,0,B|45:183|22:126|22:126|14:144|0:164,1,152.999995330811
86,319,200948,1,2,0:0:0:0:
159,261,201130,6,0,B|171:216|169:154|169:154|155:169|134:182,1,152.999995330811
50,230,201675,1,2,0:0:0:0:
102,91,201857,1,0,0:0:0:0:
133,182,202039,5,8,0:3:0:0:
260,128,202221,1,4,0:3:0:0:
187,30,202402,6,0,P|191:49|196:68,1,38.2499988327027,8|8,0:0|0:0,0:0:0:0:
337,175,202584,2,0,L|341:156|345:137,1,38.2499988327027,8|8,0:0|0:0,0:0:0:0:
429,29,202766,6,0,L|276:40,1,152.999995330811,4|8,0:0|0:0,0:0:0:0:
274,24,203312,2,0,L|427:13,1,152.999995330811,0|2,0:0|0:0,0:0:0:0:
344,137,203857,1,8,0:0:0:0:
512,194,204039,1,0,0:0:0:0:
422,99,204221,6,0,B|433:143|417:178|417:178|414:222|437:257,1,152.999995330811,4|8,0:0|0:0,0:0:0:0:
446,246,204766,2,0,B|428:220|431:176|431:176|447:141|436:97,1,152.999995330811,0|8,0:0|0:3,0:0:0:0:
436,97,205221,1,2,0:0:0:0:
436,97,205312,1,8,0:0:0:0:
341,225,205493,1,2,0:0:0:0:
511,298,205675,6,0,P|440:292|407:356,1,152.999995330811,4|8,0:0|0:0,0:0:0:0:
266,291,206221,1,0,0:0:0:0:
341,225,206402,1,8,0:3:0:0:
341,225,206493,1,8,0:3:0:0:
341,225,206584,2,0,P|344:243|349:262,1,38.2499988327027,4|4,0:3|0:3,0:0:0:0:
231,166,206766,2,0,P|227:184|222:203,1,38.2499988327027,8|0,0:0|0:0,0:0:0:0:
137,268,206948,6,0,B|186:316|186:316|266:291,1,152.999995330811,4|2,0:0|0:0,0:0:0:0:
341,225,207493,1,8,0:0:0:0:
254,382,207675,1,2,0:0:0:0:
83,123,207857,1,8,0:0:0:0:
136,269,208039,1,2,0:0:0:0:
266,186,208221,1,0,3:0:0:0:
266,186,208312,1,0,3:0:0:0:
266,186,208402,1,0,3:0:0:0:
266,186,208493,1,0,3:0:0:0:
266,186,208584,6,0,L|256:252,3,42.5,4|0|0|0,0:0|0:0|0:0|0:0,0:0:0:0:
376,152,208948,2,0,L|356:80,3,42.5,8|0|0|0,0:0|0:0|0:0|0:0,0:0:0:0:
432,248,209312,1,2,0:0:0:0:
432,248,209402,1,0,0:0:0:0:
432,248,209493,1,2,0:0:0:0:
256,72,209675,1,8,0:0:0:0:
152,268,209857,6,0,P|216:288|296:208,1,170,4|2,0:0|0:0,0:0:0:0:
192,176,210402,1,8,0:0:0:0:
268,352,210584,1,0,0:0:0:0:
320,100,210766,1,2,0:0:0:0:
248,264,210948,1,2,0:0:0:0:
248,264,211039,1,0,0:0:0:0:
248,264,211130,1,8,0:0:0:0:
404,220,211312,1,0,0:0:0:0:
388,72,211493,6,0,P|325:34|248:56,1,127.5,4|0,0:0|0:0,0:0:0:0:
240,76,211857,2,2,P|232:112|226:163,1,85,8|0,0:0|0:0,0:1:0:0:
108,104,212221,1,2,0:0:0:0:
108,104,212312,1,0,0:0:0:0:
108,104,212402,1,2,0:0:0:0:
256,168,212584,1,8,0:0:0:0:
176,280,212766,6,2,P|232:264|352:232,1,170,4|2,0:0|0:0,0:1:0:0:
480,120,213312,1,8,0:0:0:0:
480,120,213402,1,0,0:0:0:0:
480,120,213493,1,0,0:0:0:0:
312,28,213675,2,2,P|352:104|372:132,1,85,2|2,0:0|0:0,0:1:0:0:
448,240,214039,2,2,L|360:216,1,85,8|0,0:0|0:0,0:1:0:0:
152,236,214402,6,2,L|104:256,2,42.5,4|0|0,0:0|0:0|0:0,0:1:0:0:
304,280,214766,1,8,0:0:0:0:
248,112,214948,1,0,0:0:0:0:
408,184,215130,1,2,0:0:0:0:
444,172,215221,1,0,0:0:0:0:
472,144,215312,1,2,0:0:0:0:
480,108,215402,1,0,0:0:0:0:
472,72,215493,2,2,L|456:28,2,42.5,8|0|4,0:0|0:0|0:0,0:1:0:0:
368,120,215857,6,2,L|300:104,1,42.5,0|0,0:0|0:0,0:1:0:0:
232,180,216039,2,2,L|216:124,1,42.5,2|0,0:0|0:0,0:1:0:0:
125,49,216221,2,0,L|96:146,1,85,8|0,0:0|0:0,0:0:0:0:
168,276,216584,6,2,P|195:283|221:294,3,55.2499974708558,2|0|2|0,0:0|0:0|0:0|0:1,0:1:0:0:
168,368,216948,1,8,0:0:0:0:
96,216,217130,1,8,0:3:0:0:
96,216,217221,1,4,0:3:0:0:
96,216,217312,6,0,P|140:196|196:180,1,85,4|0,0:0|0:0,0:0:0:0:
464,204,217675,1,8,0:0:0:0:
296,304,217857,1,0,0:0:0:0:
333,137,218039,2,0,P|341:95|356:56,2,85,2|2|8,0:0|0:0|0:0,0:0:0:0:
352,256,218584,6,2,P|280:260|220:188,1,170,4|2,0:0|0:0,0:1:0:0:
200,144,219039,1,2,0:0:0:0:
200,144,219130,2,2,P|140:164|88:172,1,85,8|4,0:0|0:0,0:1:0:0:
304,16,219493,2,2,P|328:60|332:104,1,85,8|2,0:0|0:0,0:1:0:0:
248,256,219857,2,2,L|236:308,2,42.5,8|8|2,0:0|0:0|0:0,0:1:0:0:
251,121,220221,5,4,0:0:0:0:
409,193,220402,1,8,0:0:0:0:
362,44,220584,1,0,0:0:0:0:
270,242,220766,5,4,0:0:0:0:
126,61,220948,1,8,0:0:0:0:
313,137,221130,1,0,0:0:0:0:
138,334,221312,5,4,0:0:0:0:
313,137,221493,1,8,0:0:0:0:
146,195,221675,1,0,0:0:0:0:
377,311,221857,5,4,0:0:0:0:
120,208,222039,1,8,0:0:0:0:
120,208,222130,1,8,0:0:0:0:
120,208,222221,1,8,0:3:0:0:
302,59,222402,1,4,0:0:0:0:
253,302,222766,5,6,0:1:0:0:
256,192,222857,12,0,224402,0:0:0:0:
326,104,224584,5,2,0:0:0:0:
272,290,224948,1,2,0:0:0:0:
470,185,225312,2,0,L|419:190,1,50.9999984436036,2|2,0:0|0:0,0:0:0:0:
373,301,225857,2,0,L|271:289,1,101.999996887207,2|2,0:0|0:0,0:0:0:0:
196,347,226402,5,2,0:0:0:0:
182,257,226766,1,2,0:0:0:0:
166,167,227130,1,2,0:0:0:0:
94,359,227493,6,0,L|196:347,1,101.999996887207,2|2,0:0|0:0,0:0:0:0:
271,289,228039,1,2,0:0:0:0:
182,257,228402,1,2,0:0:0:0:
166,167,228766,6,0,L|188:67,1,101.999996887207,2|2,0:0|0:0,0:0:0:0:
76,126,229312,1,2,0:0:0:0:
180,71,229493,1,2,0:0:0:0:
63,130,229675,2,0,L|85:229,1,101.999996887207,2|2,0:0|0:0,0:0:0:0:
254,196,230402,6,0,L|299:182,2,25.4999992218018,2|0|0,0:0|0:0|0:0,0:0:0:0:
256,205,230948,2,0,L|353:174,1,101.999996887207,2|2,0:0|0:0,0:0:0:0:
312,269,231493,2,0,L|361:254,1,50.9999984436036,2|2,0:0|0:0,0:0:0:0:
504,350,231857,6,0,L|459:336,2,25.4999992218018,2|0|0,0:0|0:0|0:0,0:0:0:0:
502,359,232402,2,0,L|405:328,1,101.999996887207,2|2,0:0|0:0,0:0:0:0:
496,265,232948,2,0,L|447:250,1,50.9999984436036,2|2,0:0|0:0,0:0:0:0:
365,97,233312,5,2,0:0:0:0:
427,146,233584,1,2,0:0:0:0:
441,73,233857,1,2,0:0:0:0:
382,99,234039,5,2,0:0:0:0:
421,131,234312,1,2,0:0:0:0:
429,85,234584,1,2,0:0:0:0:
407,109,234766,6,0,B|352:97|352:97|317:104|317:104|281:64|223:44,1,203.999993774414,2|2,0:0|0:0,0:0:0:0:
160,164,235675,2,2,P|144:166|124:172,5,34
63,96,236221,5,4,0:1:0:0:
62,95,237675,6,0,P|57:76|55:57,1,38.2499988327027
162,164,238039,6,0,L|179:38,1,127.500004863739,12|0,0:0|0:0,0:0:0:0:
10,292,238402,1,2,0:0:0:0:
10,292,238493,1,0,0:0:0:0:
10,292,238584,1,0,0:0:0:0:
246,191,238766,1,8,0:0:0:0:
147,327,238948,6,0,L|128:187,1,140.25000428009
124,164,239312,1,0,0:0:0:0:
324,256,239493,2,0,P|339:212|347:166,1,93.5000028533936,8|0,0:0|0:0,0:0:0:0:
263,96,239857,1,2,0:0:0:0:
263,96,239948,1,0,0:0:0:0:
263,96,240039,1,0,0:0:0:0:
441,210,240221,1,8,0:0:0:0:
258,306,240402,1,0,0:0:0:0:
347,165,240584,6,2,B|327:292|370:236|352:350,1,187.000005706787,2|8,0:0|0:0,0:1:0:0:
512,133,241130,2,2,P|465:128|425:105,1,93.5000028533936,0|2,0:0|0:0,0:1:0:0:
188,34,241493,2,2,P|228:10|274:5,1,93.5000028533936,0|8,0:0|0:0,0:1:0:0:
346,166,241857,6,2,B|278:148|278:148|239:166|239:166|167:148,1,187.000005706787,0|0,0:0|0:0,0:1:0:0:
341,65,242402,1,8,0:0:0:0:
208,250,242584,1,0,0:0:0:0:
346,166,242766,1,2,0:0:0:0:
346,166,242857,1,0,0:0:0:0:
346,166,242948,1,0,0:0:0:0:
165,61,243130,1,8,0:0:0:0:
208,250,243312,1,2,0:0:0:0:
8,84,243493,5,4,0:0:0:0:
5,107,243584,1,0,0:0:0:0:
2,130,243675,1,0,0:0:0:0:
160,38,243857,1,8,0:0:0:0:
81,200,244039,6,0,L|90:339,1,140.25000428009
90,339,244402,1,0,0:0:0:0:
285,246,244584,1,8,0:0:0:0:
165,156,244766,1,0,0:0:0:0:
375,313,244948,5,4,0:0:0:0:
372,290,245039,1,0,0:0:0:0:
369,267,245130,1,0,0:0:0:0:
202,375,245312,1,8,0:0:0:0:
285,246,245493,6,0,L|294:106,1,140.25000428009
294,106,245857,1,8,0:3:0:0:
195,269,246039,1,8,0:0:0:0:
373,181,246221,1,0,0:0:0:0:
245,12,246402,6,2,P|221:51|181:74,1,93.5000028533936,4|0,0:0|0:0,0:1:0:0:
151,104,246675,2,2,P|96:85|50:83,1,93.5000028533936,0|0,0:0|0:0,0:1:0:0:
19,90,246948,1,2,0:1:0:0:
195,269,247130,5,2,0:0:0:0:
294,106,247312,1,0,0:0:0:0:
294,106,247402,1,2,0:0:0:0:
294,106,247493,2,0,L|288:190,1,46.7500014266968,8|8,0:0|0:0,0:0:0:0:
191,222,247675,2,0,L|195:269,1,46.7500014266968,2|2,0:0|0:0,0:0:0:0:
346,358,247857,6,2,L|350:281,1,76.4999976654053,4|0,0:0|0:0,0:1:0:0:
317,261,248221,6,0,L|321:324,1,63.7500024318696,12|0,0:0|0:0,0:0:0:0:
446,237,248402,6,2,L|455:98,1,127.500004863739,4|4,0:0|0:3,0:1:0:0:
99,32,248948,1,8,0:0:0:0:
101,63,249039,1,8,0:0:0:0:
103,95,249130,1,2,0:0:0:0:
105,127,249221,1,2,0:0:0:0:
108,159,249312,6,0,P|153:147|197:131,1,93.5000028533936,6|0,0:0|0:0,0:0:0:0:
396,39,249675,2,0,P|352:23|306:10,1,93.5000028533936,8|0,0:0|0:0,0:0:0:0:
191,222,250039,1,2,0:0:0:0:
367,129,250221,1,0,0:0:0:0:
221,46,250402,1,8,0:0:0:0:
283,172,250584,6,0,L|483:198,1,187.000005706787
132,305,251130,2,0,L|39:317,1,93.5000028533936,8|0,0:0|0:0,0:0:0:0:
191,222,251493,1,2,0:0:0:0:
191,222,251584,1,0,0:0:0:0:
191,222,251675,1,0,0:0:0:0:
346,378,251857,1,8,0:0:0:0:
132,305,252039,1,0,0:0:0:0:
297,258,252221,6,2,B|295:223|284:182|284:182|298:145|298:145|286:111|283:75,1,187.000005706787,2|8,0:0|0:0,0:1:0:0:
132,305,252766,2,2,P|177:340|221:344,1,93.5000028533936,0|2,0:0|0:0,0:1:0:0:
498,193,253130,2,2,L|405:205,1,93.5000028533936,0|8,0:0|0:0,0:1:0:0:
283,76,253493,6,2,B|286:111|298:145|298:145|284:182|284:182|295:223|297:258,1,187.000005706787,0|0,0:0|0:0,0:1:0:0:
54,212,254039,1,8,0:0:0:0:
201,135,254221,1,0,0:0:0:0:
132,305,254402,1,2,0:0:0:0:
132,305,254493,1,0,0:0:0:0:
132,305,254584,1,0,0:0:0:0:
0,86,254766,1,8,0:0:0:0:
161,216,254948,1,2,0:0:0:0:
283,76,255130,5,4,0:0:0:0:
286,52,255221,1,0,0:0:0:0:
286,28,255312,1,0,0:0:0:0:
201,135,255493,1,8,0:0:0:0:
54,30,255675,6,0,L|193:40,1,140.25000428009
193,40,256039,1,0,0:0:0:0:
161,216,256221,1,8,0:0:0:0:
347,320,256402,1,0,0:0:0:0:
283,146,256584,5,4,0:0:0:0:
280,122,256675,1,0,0:0:0:0:
280,98,256766,1,0,0:0:0:0:
397,251,256948,1,8,0:0:0:0:
512,155,257130,6,0,L|372:165,1,140.25000428009
372,165,257493,1,8,0:3:0:0:
212,315,257675,2,0,L|225:254,2,46.7500014266968,8|8|2,0:0|0:0|0:0,0:0:0:0:
229,58,258039,5,4,0:0:0:0:
296,257,258402,5,4,0:0:0:0:
241,43,258584,1,4,0:0:0:0:
229,58,258948,5,4,0:0:0:0:
219,74,259312,6,0,B|275:66|275:66|301:78|301:78|355:70,1,140.25000428009,4|0,0:0|0:0,0:0:0:0:
438,126,259675,5,8,0:3:0:0:
469,97,259766,1,8,0:3:0:0:
471,54,259857,1,4,0:3:0:0:
446,20,259948,1,4,0:3:0:0:
404,10,260039,1,4,0:3:0:0:
366,29,260130,1,4,0:3:0:0:
355,70,260221,6,2,B|301:78|301:78|275:66|275:66|219:74,1,140.25000428009,4|0,0:0|0:0,0:1:0:0:
229,233,260493,2,2,B|251:261|251:261|259:156,1,140.250001337528,4|0,0:0|0:0,0:1:0:0:
125,19,260766,2,2,L|137:90,1,70.1250006687641,4|2,0:0|0:0,0:1:0:0:
152,172,260948,5,14,0:0:0:0:
499,239,261675,1,6,0:0:0:0:
52,339,262402,1,6,0:0:0:0:
222,369,262584,5,2,0:0:0:0:
228,374,262675,1,2,0:0:0:0:
235,378,262766,2,0,P|231:357|225:336,1,42.5,12|0,0:0|0:0,0:0:0:0:
345,175,262948,5,2,0:0:0:0:
351,170,263039,1,2,0:0:0:0:
358,166,263130,2,0,P|353:193|345:219,1,55.2499974708558,4|0,0:0|0:0,0:0:0:0:
125,35,263312,5,2,0:0:0:0:
119,30,263402,1,2,0:0:0:0:
112,26,263493,2,2,P|117:53|125:79,7,34,12|2|2|2|2|2|2|2,0:0|0:0|0:0|0:0|0:0|0:0|0:0|0:0,0:0:0:0:
204,104,263857,6,0,L|68:160,1,140.25000428009,4|0,0:0|0:0,0:0:0:0:
28,200,264221,2,0,P|84:208|136:232,1,93.5000028533936,8|0,0:0|0:0,0:0:0:0:
224,308,264584,1,2,0:0:0:0:
224,308,264675,1,0,0:0:0:0:
224,308,264766,1,0,0:0:0:0:
364,140,264948,1,8,0:0:0:0:
416,232,265130,6,0,P|332:240|256:164,1,187.000005706787
341,51,265675,2,0,P|358:95|365:141,1,93.5000028533936,8|0,0:0|0:0,0:0:0:0:
288,280,266039,1,2,0:0:0:0:
228,108,266221,1,0,0:0:0:0:
440,192,266402,1,8,0:0:0:0:
376,312,266584,5,8,3:3:0:0:
376,312,266675,1,0,3:0:0:0:
376,312,266766,2,2,L|336:196,1,93.5000028533936,4|0,0:0|0:0,0:1:0:0:
224,360,267130,1,8,0:0:0:0:
104,168,267312,2,2,P|176:188|200:208,1,93.5000028533936,0|2,0:0|0:0,0:1:0:0:
312,32,267675,2,2,P|292:112|288:144,1,93.5000028533936,0|8,0:0|0:0,0:1:0:0:
460,300,268039,6,2,P|376:228|292:252,1,187.000005706787,0|2,0:0|0:0,0:1:0:0:
416,144,268584,1,8,0:0:0:0:
352,324,268766,1,0,0:0:0:0:
464,236,268948,2,0,L|528:220,2,46.7500014266968,2|0|8,0:0|0:0|0:3,0:0:0:0:
228,304,269312,2,0,P|212:216|192:140,1,140.25000428009,12|0,0:0|0:0,0:0:0:0:
211,71,269675,6,0,L|223:9,2,55.2499974708558,4|0|0,0:0|0:0|0:0,0:0:0:0:
376,200,270039,1,8,3:2:0:0:
376,200,270130,1,0,3:2:0:0:
376,200,270221,2,0,P|424:220|504:228,1,93.5000028533936,0|2,0:0|0:0,0:0:0:0:
284,90,270584,1,0,0:0:0:0:
178,186,270766,1,8,0:0:0:0:
280,300,270948,1,0,0:0:0:0:
396,184,271130,6,0,L|472:144,2,55.2499974708558,4|0|0,0:0|0:0|0:0,0:0:0:0:
256,40,271493,1,8,3:2:0:0:
256,40,271584,1,0,3:2:0:0:
256,40,271675,2,0,P|164:76|152:100,1,93.5000028533936,0|2,0:0|0:0,0:0:0:0:
136,248,272039,1,0,0:0:0:0:
256,136,272221,1,8,0:0:0:0:
398,213,272402,1,4,0:3:0:0:
398,213,272493,1,4,0:3:0:0:
398,213,272584,6,0,P|344:212|272:292,1,140.25000428009,4|0,0:0|0:0,0:0:0:0:
280,265,272948,1,8,0:0:0:0:
208,152,273130,1,0,0:0:0:0:
372,336,273312,1,2,0:0:0:0:
400,128,273493,1,8,0:3:0:0:
392,124,273584,1,4,0:3:0:0:
384,120,273675,6,0,L|448:100,1,46.7500014266968,8|0,0:0|0:0,0:0:0:0:
512,224,273857,2,0,L|452:248,1,46.7500014266968,8|0,0:3|0:0,0:0:0:0:
271,279,274039,6,2,L|248:164,1,95.6250036478044,4|0,0:0|0:0,0:1:0:0:
116,176,274402,6,2,P|144:160|192:152,1,63.7500024318696,4|0,0:0|0:0,0:1:0:0:
424,224,274584,2,2,B|407:276|363:308|302:322|232:245,1,191.250007295609,4|0,0:0|0:0,0:1:0:0:
320,144,274948,1,8,0:0:0:0:
320,144,275039,1,8,0:3:0:0:
320,144,275130,6,0,L|340:212,1,63.7500024318696,12|8,0:0|0:0,0:0:0:0:
172,336,275312,2,0,L|192:244,1,63.7500024318696,4|0,0:3|0:0,0:0:0:0:
148,56,275493,6,0,P|212:136|176:192,1,140.25000428009,4|0,0:0|0:0,0:0:0:0:
156,196,275857,2,0,L|40:240,1,93.5000028533936,8|0,0:0|0:0,0:0:0:0:
320,108,276221,1,2,0:0:0:0:
320,108,276312,1,0,0:0:0:0:
320,108,276402,1,0,0:0:0:0:
228,240,276584,1,8,0:0:0:0:
368,316,276766,6,0,L|336:216,1,93.5000028533936,0|2,0:0|0:0,0:0:0:0:
240,92,277130,1,0,0:0:0:0:
472,180,277312,6,0,L|340:144,1,93.5000028533936,8|0,0:0|0:0,0:0:0:0:
152,56,277675,1,2,0:0:0:0:
272,224,277857,1,0,0:0:0:0:
112,288,278039,1,8,0:0:0:0:
272,224,278221,5,8,3:0:0:0:
272,224,278312,1,0,3:0:0:0:
272,224,278402,2,2,P|260:280|256:320,1,93.5000028533936,4|0,0:0|0:0,0:1:0:0:
400,264,278766,1,8,0:0:0:0:
364,136,278948,2,2,P|308:108|256:108,1,93.5000028533936,0|2,0:0|0:0,0:1:0:0:
92,248,279312,2,2,P|64:172|56:144,1,93.5000028533936,0|8,0:0|0:0,0:1:0:0:
224,296,279675,6,2,P|308:296|352:184,1,187.000005706787,0|0,0:0|0:0,0:1:0:0:
196,104,280221,1,8,0:0:0:0:
64,288,280402,1,0,0:0:0:0:
268,216,280584,1,2,0:0:0:0:
268,216,280675,1,0,0:0:0:0:
268,216,280766,1,8,0:3:0:0:
152,372,280948,2,0,P|168:280|192:200,1,140.25000428009,4|0,0:0|0:0,0:0:0:0:
136,140,281312,6,2,L|160:216,1,63.7500024318696,4|0,0:0|0:0,0:1:0:0:
232,336,281493,1,0,0:0:0:0:
380,196,281675,1,8,3:2:0:0:
380,196,281766,1,0,3:0:0:0:
380,196,281857,2,0,P|360:259|348:315,1,93.5000028533936,0|2,0:0|0:0,0:0:0:0:
472,360,282221,1,8,0:3:0:0:
472,360,282312,1,8,0:3:0:0:
472,360,282402,1,8,0:0:0:0:
512,160,282584,1,8,0:3:0:0:
280,228,282766,6,2,P|264:184|256:164,1,63.7500024318696,4|0,0:0|0:0,0:1:0:0:
104,128,282948,1,0,0:0:0:0:
224,12,283130,2,0,L|256:92,1,46.7500014266968,8|0,3:2|3:0,0:0:0:0:
380,272,283312,2,0,L|404:168,1,93.5000028533936,0|2,3:0|0:0,0:0:0:0:
208,220,283675,1,8,0:3:0:0:
404,100,283857,1,8,0:0:0:0:
452,120,283948,1,8,0:0:0:0:
476,168,284039,1,8,0:0:0:0:
460,220,284130,1,8,0:0:0:0:
416,248,284221,6,0,P|328:268|276:304,1,127.500004863739,4|0,0:0|0:0,0:0:0:0:
32,364,284584,1,4,0:0:0:0:
312,144,284766,1,4,0:0:0:0:
224,360,285130,1,4,0:0:0:0:
448,288,285493,6,2,B|451:246|483:190|483:190|403:254|343:254,1,255,4|0,0:0|0:0,0:1:0:0:
272,272,285857,1,4,0:0:0:0:
37,315,286039,6,2,P|21:267|13:211,1,85,4|0,0:0|0:0,0:1:0:0:
124,166,286402,5,0,0:0:0:0:
28,228,286584,1,0,0:0:0:0:
137,161,286766,2,0,P|128:202|114:243,1,85,0|0,3:0|3:0,0:0:0:0:
216,96,287130,6,0,P|132:112|48:119,1,170,4|8,0:0|0:0,0:0:0:0:
114,242,287675,1,0,0:0:0:0:
300,115,287857,1,2,0:0:0:0:
200,219,288039,1,2,0:0:0:0:
321,361,288221,1,8,0:0:0:0:
291,200,288402,6,2,L|278:284,1,85,0|2,0:0|0:0,0:1:0:0:
478,130,288766,2,2,L|491:214,1,85,0|8,0:0|0:0,0:1:0:0:
313,31,289130,2,2,L|300:115,1,85,0|2,0:0|0:0,0:1:0:0:
300,115,289402,1,2,0:0:0:0:
300,115,289493,1,2,0:0:0:0:
200,219,289675,1,8,0:0:0:0:
386,165,289857,1,2,0:0:0:0:
219,58,290039,6,0,B|188:38|141:40|141:40|99:67|56:54,1,170,4|8,0:0|0:0,0:0:0:0:
164,127,290584,1,0,0:0:0:0:
19,255,290766,1,2,0:0:0:0:
177,153,290948,1,2,0:0:0:0:
50,34,291130,1,8,0:0:0:0:
84,155,291312,6,2,L|-1:167,1,85,0|2,0:0|0:0,0:1:0:0:
213,280,291675,2,2,L|128:268,1,85,0|8,0:0|0:0,0:1:0:0:
413,371,292039,2,2,L|328:383,1,85,0|2,0:0|0:0,0:1:0:0:
329,383,292312,1,2,0:0:0:0:
329,383,292402,1,2,0:0:0:0:
438,189,292584,1,8,0:0:0:0:
309,281,292766,1,2,0:0:0:0:
511,237,292948,6,0,P|523:157|459:105,1,170,4|8,0:0|0:0,0:0:0:0:
309,281,293493,1,0,0:0:0:0:
438,189,293675,1,2,0:0:0:0:
248,74,293857,1,2,0:0:0:0:
339,186,294039,1,8,0:0:0:0:
374,9,294221,6,2,P|363:50|348:89,1,85,0|2,0:0|0:0,0:1:0:0:
135,58,294584,2,2,P|145:99|160:138,1,85,0|8,0:0|0:0,0:1:0:0:
309,281,294948,1,2,0:1:0:0:
339,186,295130,6,0,L|243:197,1,85,2|2,0:0|0:0,0:0:0:0:
226,227,295402,2,0,L|130:238,1,85
110,266,295675,1,4,0:3:0:0:
309,281,295857,5,4,0:0:0:0:
212,356,296039,1,2,0:0:0:0:
467,374,296221,1,8,0:0:0:0:
467,374,296312,1,2,0:0:0:0:
467,374,296402,1,2,0:0:0:0:
339,186,296584,5,2,0:0:0:0:
381,350,296766,1,2,0:0:0:0:
507,235,296948,1,8,0:0:0:0:
507,235,297039,1,2,0:0:0:0:
507,235,297130,1,2,0:0:0:0:
248,74,297312,5,4,0:0:0:0:
309,281,297493,1,2,0:0:0:0:
366,15,297675,1,12,0:0:0:0:
310,166,297857,5,2,0:0:0:0:
310,166,297948,1,2,0:0:0:0:
310,166,298039,1,6,0:0:0:0:
223,44,298221,1,2,0:0:0:0:
423,173,298402,1,12,0:0:0:0:
423,173,298493,1,8,0:0:0:0:
423,173,298584,2,0,P|444:167|465:163,1,42.5,2|2,0:0|0:0,0:0:0:0:
276,292,298766,6,0,P|184:236|132:252,1,127.5,4|0,0:0|0:0,0:0:0:0:
112,260,299130,2,0,P|128:220|142:180,1,85,8|0,0:0|0:0,0:0:0:0:
76,72,299493,1,2,0:0:0:0:
308,164,299675,1,2,0:0:0:0:
208,232,299857,1,8,0:0:0:0:
376,72,300039,6,2,P|432:84|476:116,1,85,0|2,0:0|0:0,0:1:0:0:
368,264,300402,2,2,P|368:212|388:152,1,85,0|8,0:0|0:0,0:1:0:0:
440,344,300766,2,2,P|348:372|280:320,1,170,0|0,0:0|0:0,0:1:0:0:
240,184,301312,1,8,0:0:0:0:
176,284,301493,6,2,L|72:320,1,85,0|2,0:0|0:0,0:1:0:0:
220,136,301857,1,0,0:0:0:0:
304,232,302039,1,8,0:0:0:0:
364,48,302221,1,0,0:0:0:0:
188,96,302402,5,2,0:0:0:0:
312,216,302584,2,0,L|424:240,1,85,2|8,0:0|0:0,0:0:0:0:
96,200,302948,6,2,L|76:100,1,85,0|2,0:0|0:0,0:1:0:0:
288,216,303312,2,2,L|188:260,1,85,0|8,0:0|0:0,0:1:0:0:
0,60,303675,2,2,L|200:104,1,170,0|2,0:0|0:0,0:1:0:0:
204,208,304221,1,12,0:0:0:0:
104,52,304402,1,0,0:0:0:0:
176,296,304584,6,0,P|212:144|224:112,1,170,4|8,0:0|0:0,0:0:0:0:
280,16,305130,1,0,0:0:0:0:
332,184,305312,1,2,0:0:0:0:
132,132,305493,1,2,0:0:0:0:
264,268,305675,1,8,0:0:0:0:
444,188,305857,6,2,P|444:224|432:272,1,85,0|2,0:0|0:0,0:1:0:0:
276,156,306221,2,2,P|336:124|388:124,1,85,0|8,0:0|0:0,0:1:0:0:
208,316,306584,1,0,0:0:0:0:
384,340,306766,2,0,L|332:188,2,127.5,2|0|4,0:0|0:0|0:3,0:0:0:0:
452,240,307493,6,0,L|264:304,1,170,4|8,0:0|0:0,0:0:0:0:
112,224,308039,1,0,0:0:0:0:
240,116,308221,2,0,P|228:156|216:228,1,85,2|2,0:0|0:0,0:0:0:0:
84,56,308584,1,8,0:0:0:0:
68,228,308766,1,4,0:3:0:0:
96,252,308857,1,4,0:3:0:0:
136,256,308948,6,0,L|208:236,3,50.9999984436036,12|8|8|8,0:0|0:0|0:0|0:0,0:0:0:0:
280,176,309312,2,0,L|330:186,3,50.9999984436036,12|8|8|8,0:0|0:0|0:0|0:0,0:0:0:0:
456,248,309675,1,12,0:0:0:0:
412,252,309766,1,8,0:0:0:0:
376,272,309857,1,8,0:0:0:0:
352,308,309948,1,8,0:0:0:0:
340,352,310039,2,0,P|316:304|304:284,3,63.7500024318696,12|8|8|8,0:0|0:0|0:0|0:0,0:0:0:0:
224,229,310402,5,4,0:0:0:0:
364,142,310584,1,8,0:0:0:0:
267,341,310766,1,0,0:0:0:0:
364,142,310948,5,4,0:0:0:0:
132,231,311130,1,8,0:0:0:0:
132,231,311221,1,8,0:0:0:0:
132,231,311312,1,8,0:3:0:0:
307,228,311493,5,4,0:0:0:0:
147,120,311675,1,8,0:0:0:0:
195,329,311857,1,0,0:0:0:0:
30,156,312039,5,4,0:0:0:0:
307,228,312221,1,8,0:0:0:0:
307,228,312312,1,8,0:0:0:0:
307,228,312402,1,8,0:3:0:0:
121,294,312584,5,4,0:0:0:0:
330,103,312766,1,8,0:0:0:0:
312,324,312948,2,0,L|335:380,2,50.9999984436036,4|8|0,0:0|0:0|0:0,0:0:0:0:
214,31,313312,5,4,0:0:0:0:
