osu file format v14

[General]
AudioFilename: audio.mp3
AudioLeadIn: 1300
PreviewTime: 232144
Countdown: 0
SampleSet: Soft
StackLeniency: 0.7
Mode: 0
LetterboxInBreaks: 0
WidescreenStoryboard: 0

[Editor]
Bookmarks: 11586,29116,39903,54736,76312,99236,110024,120811,135644,170199,181492,197674,208462,219249,220261,224643,232734,243522,255658,266446,277233,288021,298809,308248
DistanceSpacing: 1.1
BeatDivisor: 4
GridSize: 4
TimelineZoom: 3.199999

[Metadata]
Title:Walkuere Attack!
TitleUnicode:Walküre Attack!
Artist:WALKUERE
ArtistUnicode:ワルキューレ
Creator:ShiraKai
Version:Sigrdrifa
Source:マクロスΔ
Tags:macross delta walkure kacha nasya n_a_s_y_a Freyja Wion Mikumo Guynemer Kaname Buccaneer Makina Nakajima Reina Prowler Minori Suzuki Koshimizu Ami Nishida Nozomi Toyama Nao Yasuno Kiyono JUNNA
BeatmapID:1155619
BeatmapSetID:545461

[Difficulty]
HPDrainRate:6
CircleSize:3.8
OverallDifficulty:8.7
ApproachRate:9.2
SliderMultiplier:1.8
SliderTickRate:1

[Events]
//Background and Video events
0,0,"BG.jpg",0,0
//Break Periods
2,220261,224073
//Storyboard Layer 0 (Background)
//Storyboard Layer 1 (Fail)
//Storyboard Layer 2 (Pass)
//Storyboard Layer 3 (Foreground)
//Storyboard Sound Samples

[TimingPoints]
-550,337.116529947185,4,2,1,60,1,0
629,-111.111111111111,4,2,1,60,0,0
9394,-90.9090909090908,4,2,1,60,0,0
9900,-76.9230769230769,4,2,1,60,0,0
10743,-66.6666666666667,4,2,1,60,0,0
11586,-100,4,2,1,70,0,0
16980,-125,4,2,1,40,0,0
17485,-125,4,2,1,5,0,0
17570,-125,4,2,1,40,0,0
18328,-100,4,2,1,60,0,0
21531,-100,4,2,1,70,0,0
21699,-100,4,2,1,80,0,0
21868,-100,4,2,1,90,0,0
22036,-100,4,2,1,60,0,0
26924,-100,4,2,1,70,0,0
27093,-100,4,2,1,80,0,0
27262,-100,4,2,1,90,0,0
27430,-100,4,2,1,60,0,0
28273,-66.6666666666667,4,2,1,60,0,0
28779,-100,4,2,1,60,0,0
37544,-83.3333333333333,4,2,1,60,0,0
38892,-133.333333333333,4,2,1,60,0,0
39566,-100,4,2,1,60,0,0
42600,-125,4,2,1,60,0,0
43612,-100,4,2,1,60,0,0
47994,-142.857142857143,4,2,1,60,0,0
52882,-76.923076923077,4,2,1,60,0,0
53051,-200,4,2,1,60,0,0
53304,-200,4,2,1,5,0,0
53388,-333.333333333333,4,2,1,60,0,0
54399,-125,4,2,1,60,0,0
54737,-100,4,2,1,80,0,1
76144,-100,4,2,1,70,0,0
84234,-142.857142857143,4,2,1,70,0,0
87100,-111.111111111111,4,2,1,60,0,0
97045,-200,4,2,1,60,0,0
97466,-200,4,2,1,5,0,0
97550,-200,4,2,2,60,0,0
97888,-125,4,2,2,40,0,0
98393,-125,4,2,2,5,0,0
98477,-125,4,2,2,40,0,0
99236,-100,4,2,1,60,0,0
102439,-100,4,2,1,70,0,0
102607,-100,4,2,1,80,0,0
102776,-100,4,2,1,90,0,0
102944,-100,4,2,1,60,0,0
104124,-100,4,2,1,30,0,0
104630,-100,4,2,1,60,0,0
107832,-100,4,2,1,70,0,0
108001,-100,4,2,1,80,0,0
108170,-100,4,2,1,90,0,0
108338,-100,4,2,1,60,0,0
109181,-66.6666666666667,4,2,1,60,0,0
110024,-100,4,2,1,60,0,0
117946,-90.9090909090909,4,2,1,60,0,0
119632,-71.4285714285714,4,2,1,60,0,0
119800,-142.857142857143,4,2,1,60,0,0
120811,-100,4,2,1,60,0,0
124183,-133.333333333333,4,2,1,60,0,0
124520,-100,4,2,1,60,0,0
128902,-133.333333333333,4,2,1,60,0,0
133116,-100,4,2,1,60,0,0
135307,-100,4,2,1,70,0,0
135476,-100,4,2,1,80,0,0
135645,-100,4,2,1,80,0,1
144241,-90.9090909090909,4,2,1,80,0,1
144915,-62.5,4,2,1,80,0,1
145252,-83.3333333333333,4,2,1,80,0,1
146432,-100,4,2,1,80,0,1
155956,-100,4,2,1,5,0,1
156040,-111.111111111111,4,2,1,60,0,1
156293,-111.111111111111,4,2,1,5,0,1
156377,-142.857142857143,4,2,1,80,0,1
156630,-142.857142857143,4,2,1,5,0,1
156714,-100,4,2,1,80,0,1
157220,-100,4,2,1,60,0,0
159243,-100,4,2,2,60,0,0
159917,-100,4,2,1,60,0,0
165564,-100,4,2,2,40,0,0
165985,-100,4,2,1,60,0,0
168008,-200,4,2,1,60,0,0
168598,-200,4,2,1,5,0,0
168682,-125,4,2,1,60,0,0
169356,-166.666666666667,4,2,1,60,0,0
170199,-100,4,2,1,60,0,0
170536,-100,4,2,1,70,0,0
197674,-100,4,2,1,75,0,0
200371,-90.9090909090909,4,2,1,75,0,0
203068,-83.3333333333333,4,2,1,75,0,0
205765,-76.9230769230769,4,2,1,75,0,0
207956,-100,4,2,1,75,0,0
208125,-133.333333333333,4,2,1,75,0,0
208462,-90.9090909090909,4,2,1,85,0,1
209557,-90.9090909090909,4,2,1,85,0,0
209642,-90.9090909090909,4,2,1,85,0,1
210906,-90.9090909090909,4,2,1,85,0,0
210990,-90.9090909090909,4,2,1,85,0,1
211580,-90.9090909090909,4,2,1,85,0,0
211664,-90.9090909090909,4,2,1,85,0,1
212254,-90.9090909090909,4,2,1,85,0,0
212339,-90.9090909090909,4,2,1,85,0,1
213771,-90.9090909090909,4,2,1,85,0,0
213856,-90.9090909090909,4,2,1,85,0,1
214951,-90.9090909090909,4,2,1,85,0,0
215036,-90.9090909090909,4,2,1,85,0,1
216300,-90.9090909090909,4,2,1,85,0,0
216384,-90.9090909090909,4,2,1,85,0,1
217648,-90.9090909090909,4,2,1,85,0,0
217732,-90.9090909090909,4,2,1,85,0,1
217985,-90.9090909090909,4,2,1,85,0,0
218070,-90.9090909090909,4,2,1,85,0,1
218322,-90.9090909090909,4,2,1,85,0,0
218407,-90.9090909090909,4,2,1,85,0,1
218575,-111.111111111111,4,2,1,70,0,0
224643,-133.333333333333,4,2,1,50,0,0
232397,-142.857142857143,4,2,2,55,0,0
243522,-111.111111111111,4,2,1,60,0,0
248916,-100,4,2,1,65,0,0
250096,-100,4,2,1,70,0,0
251444,-100,4,2,1,75,0,0
252793,-153.846153846153,4,2,1,80,0,0
254310,-100,4,2,1,65,0,0
254647,-76.9230769230769,4,2,1,60,0,0
255658,-100,4,2,1,80,0,1
264255,-90.9090909090909,4,2,1,80,0,1
264929,-62.5,4,2,1,80,0,1
265266,-100,4,2,1,80,0,1
266362,-100,4,2,1,80,0,0
266446,-100,4,2,1,80,0,1
277065,-100,4,2,1,70,0,0
285156,-125,4,2,1,70,0,0
288021,-100,4,2,1,75,0,0
298640,-100,4,2,1,80,0,0
299315,-100,4,2,1,85,0,0
299989,-100,4,2,1,90,0,0
300663,-100,4,2,1,95,0,0
301169,-100,4,2,1,60,0,0
301843,-100,4,2,1,80,0,0
304203,-100,4,2,1,60,0,0
305551,-100,4,2,1,40,0,0
306900,-100,4,2,1,20,0,0
307574,-100,4,2,1,10,0,0
308248,-100,4,2,1,5,0,0

[Colours]
Combo1 : 0,242,121
Combo2 : 134,128,255
Combo3 : 255,165,74
Combo4 : 255,53,53
Combo5 : 255,81,168

[HitObjects]
335,107,629,6,0,L|347:159,1,40.4999987640381,8|8,0:3|0:3,0:0:0:0:
360,188,798,2,0,P|320:200|264:224,1,80.9999975280763,4|0,0:0|3:0,0:0:0:0:
192,304,1135,1,2,3:0:0:0:
96,120,1304,2,0,P|140:140|204:152,1,80.9999975280763,2|2,0:0|0:0,0:0:0:0:
304,280,1641,1,0,3:0:0:0:
456,136,1809,6,0,P|392:84|308:92,1,161.999995056153,0|0,3:0|0:0,0:0:0:0:
100,276,2315,2,0,P|168:228|248:227,1,161.999995056153,2|0,0:0|0:0,0:0:0:0:
368,272,2821,1,2,0:0:0:0:
264,128,3158,1,2,0:0:0:0:
480,232,3326,1,8,0:0:0:0:
480,232,3411,1,8,0:0:0:0:
480,232,3495,6,0,L|456:324,1,80.9999975280763,4|0,0:0|3:0,0:0:0:0:
320,132,3832,1,2,3:0:0:0:
196,260,4001,2,0,P|244:228|300:212,1,80.9999975280763,2|0,0:0|0:0,0:0:0:0:
300,36,4338,1,0,3:0:0:0:
512,132,4506,6,0,P|440:192|348:184,1,161.999995056153,4|0,0:3|0:0,0:0:0:0:
240,168,5012,1,2,0:0:0:0:
384,72,5181,1,8,0:3:0:0:
384,72,5265,1,8,0:3:0:0:
384,72,5349,1,0,0:0:0:0:
353,271,5518,2,0,P|365:223|377:187,1,80.9999975280763,4|0,0:3|0:0,0:0:0:0:
272,76,5855,1,2,0:0:0:0:
272,76,6192,6,0,L|296:168,1,80.9999975280763,4|0,0:0|0:0,0:0:0:0:
76,64,6529,1,8,0:0:0:0:
124,248,6698,2,0,L|144:148,1,80.9999975280763,0|2,0:0|0:0,0:0:0:0:
256,288,7035,1,0,0:0:0:0:
8,304,7203,2,8,L|40:404,1,80.9999975280763,2|0,0:0|0:0,0:0:0:0:
139,168,7540,5,8,0:0:0:0:
364,240,7878,2,0,L|308:224|280:216,1,80.9999975280763,2|0,0:0|0:0,0:0:0:0:
272,112,8215,1,8,0:0:0:0:
256,344,8552,1,2,0:0:0:0:
256,344,8720,1,2,0:0:0:0:
56,300,8889,6,0,L|160:272,1,80.9999975280763,12|2,0:0|0:0,0:0:0:0:
134,278,9226,1,2,0:0:0:0:
316,128,9395,6,0,L|208:152,1,99.0000030212403,8|2,0:0|0:0,0:0:0:0:
219,149,9732,1,8,0:0:0:0:
20,48,9900,6,2,L|136:20,1,116.999994644165,4|2,0:0|0:0,0:1:0:0:
133,20,10237,1,8,0:0:0:0:
408,168,10406,1,0,0:0:0:0:
408,168,10490,1,0,0:0:0:0:
408,168,10574,1,2,0:0:0:0:
284,376,10743,6,2,L|244:236,1,135.000005149842,12|0,0:0|0:0,0:1:0:0:
352,72,11080,1,2,0:0:0:0:
198,45,11249,1,8,0:0:0:0:
198,45,11333,1,8,0:0:0:0:
198,45,11417,1,8,0:0:0:0:
198,45,11502,1,8,0:0:0:0:
198,45,11586,5,12,0:0:0:0:
214,161,11754,1,0,3:0:0:0:
375,98,11923,5,8,0:0:0:0:
359,214,12091,1,0,3:0:0:0:
183,148,12260,5,8,0:0:0:0:
199,264,12428,1,0,3:0:0:0:
393,195,12597,5,8,0:0:0:0:
377,311,12765,1,0,3:0:0:0:
169,252,12934,5,8,0:0:0:0:
303,146,13103,1,0,3:0:0:0:
259,339,13271,5,8,0:0:0:0:
303,146,13440,1,0,3:0:0:0:
377,311,13608,5,8,0:0:0:0:
303,146,13777,1,0,3:0:0:0:
259,339,13945,5,8,0:0:0:0:
259,339,14030,1,8,0:0:0:0:
259,339,14114,1,8,0:0:0:0:
259,339,14198,1,8,0:0:0:0:
259,339,14282,5,8,0:0:0:0:
113,378,14451,1,0,0:0:0:0:
31,281,14620,5,8,0:0:0:0:
177,320,14789,1,0,3:0:0:0:
260,226,14957,5,8,0:0:0:0:
114,265,15126,1,0,3:0:0:0:
31,169,15294,5,8,0:0:0:0:
177,208,15463,1,0,3:0:0:0:
259,113,15631,5,8,0:0:0:0:
113,152,15800,1,0,3:0:0:0:
31,56,15968,5,8,0:0:0:0:
177,95,16137,1,0,3:0:0:0:
260,1,16305,5,8,0:0:0:0:
114,40,16474,1,0,3:0:0:0:
262,147,16642,5,8,0:0:0:0:
302,140,16727,1,8,0:0:0:0:
342,134,16811,1,8,0:0:0:0:
382,129,16895,1,8,0:0:0:0:
421,122,16979,5,0,3:0:0:0:
512,240,17148,1,0,3:0:0:0:
512,240,17232,1,0,3:0:0:0:
512,240,17316,2,0,L|437:226,1,72,2|0,3:0|0:0,0:0:0:0:
424,254,17569,2,0,L|349:240,1,72,2|0,3:0|0:0,0:0:0:0:
325,258,17822,1,0,3:0:0:0:
418,350,17991,1,2,3:0:0:0:
225,384,18159,1,0,3:0:0:0:
225,384,18244,1,0,3:0:0:0:
225,384,18328,6,0,P|214:341|210:296,1,90,4|0,0:0|0:0,0:0:0:0:
118,146,18665,1,8,0:0:0:0:
11,322,18834,2,0,P|54:309|98:302,1,90
246,197,19171,1,8,0:0:0:0:
7,131,19339,2,0,P|10:175|22:219,1,90,0|8,0:0|0:0,0:0:0:0:
62,211,19592,1,8,0:0:0:0:
62,211,19676,6,0,P|105:223|149:230,1,90,0|8,0:0|0:0,0:0:0:0:
408,95,20013,2,0,P|363:100|322:117,1,90,0|8,0:0|0:0,0:0:0:0:
176,35,20351,2,0,P|195:122|245:196,1,180,8|8,0:0|0:0,0:0:0:0:
394,309,20856,1,0,0:0:0:0:
394,309,20940,1,0,0:0:0:0:
394,309,21025,6,0,P|435:291|479:286,1,90,8|0,0:0|0:0,0:0:0:0:
327,199,21362,1,8,0:0:0:0:
211,344,21530,2,0,P|252:361|296:366,1,90,8|8,0:0|0:0,0:0:0:0:
149,230,21868,1,8,0:0:0:0:
2,353,22036,2,0,P|43:336|87:331,1,90,8|0,0:0|0:0,0:0:0:0:
122,308,22289,1,0,0:0:0:0:
122,308,22373,5,0,0:0:0:0:
297,365,22542,2,0,B|314:297|314:297|305:264|305:264|320:189,1,180,8|8,0:0|0:0,0:0:0:0:
127,142,23047,2,0,P|134:186|148:229,1,90,8|0,0:0|0:0,0:0:0:0:
387,114,23385,2,0,P|347:95|303:88,1,90,8|2,0:0|0:0,0:0:0:0:
274,58,23637,1,2,0:0:0:0:
274,58,23722,6,0,P|332:-5|416:11,1,180,8|8,0:0|0:0,0:0:0:0:
319,189,24227,2,0,P|279:170|235:163,1,90,8|0,0:0|0:0,0:0:0:0:
40,117,24564,1,8,0:0:0:0:
147,228,24733,1,8,0:0:0:0:
125,53,24902,6,0,B|142:121|142:121|133:154|133:154|148:229,1,180,8|8,0:0|0:0,0:0:0:0:
305,374,25407,2,0,L|325:279,1,90,0|8,0:0|0:0,0:0:0:0:
492,257,25744,2,0,L|472:162,1,90,8|0,0:0|0:0,0:0:0:0:
382,60,26082,1,8,0:0:0:0:
234,162,26250,1,0,0:0:0:0:
234,162,26334,1,0,0:0:0:0:
234,162,26419,6,0,P|278:168|318:188,1,90,8|0,0:0|0:0,0:0:0:0:
405,304,26756,1,8,0:0:0:0:
219,383,26924,2,0,L|199:288,1,90,8|8,0:0|0:0,0:0:0:0:
135,145,27261,1,8,0:0:0:0:
0,309,27430,2,0,P|44:302|84:282,1,90,8|2,0:0|0:1,0:0:0:0:
119,261,27683,1,2,0:1:0:0:
119,261,27767,5,2,0:0:0:0:
305,374,27936,2,2,B|356:386|356:386|388:373|388:373|436:369,1,135,12|0,0:0|0:0,0:1:0:0:
436,354,28273,6,0,B|387:357|387:357|355:370|355:370|304:358,1,135,4|0,0:0|0:0,0:0:0:0:
305,359,28610,5,4,0:0:0:0:
240,248,28778,1,8,0:0:0:0:
240,248,28863,1,8,0:0:0:0:
240,248,28947,1,8,0:0:0:0:
240,248,29031,1,8,0:0:0:0:
240,248,29116,6,0,P|248:196|260:144,1,90,4|0,0:0|0:0,0:0:0:0:
196,48,29453,1,8,0:0:0:0:
344,220,29621,1,2,0:0:0:0:
344,220,29706,1,8,0:0:0:0:
344,220,29790,2,0,L|460:192,1,90,2|2,0:0|0:0,0:0:0:0:
208,336,30127,1,8,0:0:0:0:
88,184,30295,6,0,P|194:113|256:140,1,180,4|2,0:0|0:0,0:0:0:0:
429,245,30801,2,0,P|365:229|325:209,1,90,8|0,0:0|0:0,0:0:0:0:
234,124,31138,1,2,0:0:0:0:
208,264,31307,2,2,L|220:320|232:376,1,90,2|8,0:0|0:0,0:1:0:0:
234,124,31644,1,0,0:1:0:0:
464,204,31812,6,2,P|384:220|296:152,1,180,2|8,0:0|0:0,0:1:0:0:
228,40,32318,1,0,0:0:0:0:
228,40,32402,1,8,0:0:0:0:
228,40,32487,1,0,0:0:0:0:
272,228,32655,1,2,0:0:0:0:
396,124,32824,1,8,0:0:0:0:
108,208,32992,6,2,P|156:192|216:180,1,90,4|0,0:0|0:0,0:1:0:0:
376,200,33330,1,2,0:0:0:0:
336,68,33498,1,8,0:0:0:0:
352,316,33667,2,2,P|304:300|264:292,1,90,2|2,0:0|0:0,0:1:0:0:
132,220,34004,1,8,0:0:0:0:
172,368,34172,1,8,0:0:0:0:
344,224,34341,5,8,0:0:0:0:
344,224,34425,1,8,0:0:0:0:
344,224,34509,2,0,P|328:152|320:124,1,90,4|0,0:0|0:0,0:0:0:0:
174,233,34847,2,0,L|162:353,1,90,2|0,0:0|0:0,0:0:0:0:
331,335,35184,1,2,0:0:0:0:
174,233,35352,1,0,0:0:0:0:
323,136,35521,1,2,0:0:0:0:
92,96,35689,6,0,P|148:44|252:56,1,180,12|2,0:0|0:0,0:0:0:0:
254,225,36195,2,0,P|249:264|243:314,1,90,8|2,0:3|0:0,0:0:0:0:
20,139,36532,1,8,0:0:0:0:
89,294,36701,1,2,0:0:0:0:
89,294,36785,1,2,0:0:0:0:
89,294,36869,1,2,0:0:0:0:
256,180,37038,6,2,L|358:148,1,90,12|0,0:0|0:0,0:1:0:0:
460,42,37375,1,2,0:0:0:0:
512,296,37544,6,2,L|391:269,1,107.999996704102,8|2,0:0|0:0,0:1:0:0:
292,76,37881,1,8,0:0:0:0:
208,280,38049,1,2,0:0:0:0:
297,58,38218,1,8,0:0:0:0:
396,304,38386,6,0,P|356:244|232:244,1,161.999995056153,4|0,0:0|0:0,0:0:0:0:
272,364,38723,2,2,L|300:297,1,53.9999983520508,2|0,3:1|3:0,0:1:0:0:
158,135,38892,6,0,L|179:224,1,67.5000025749208,2|0,3:0|0:0,0:0:0:0:
195,242,39145,2,0,P|153:250|103:271,1,67.5000025749208,0|0,3:0|0:0,0:0:0:0:
91,282,39398,1,0,3:0:0:0:
275,130,39566,2,0,L|294:8,1,90,2|0,3:0|0:0,0:0:0:0:
312,5,39819,1,0,0:0:0:0:
312,5,39903,6,0,L|334:92,1,90,12|0,0:0|0:0,0:0:0:0:
198,184,40240,2,0,L|175:271,1,90,8|0,0:0|0:0,0:0:0:0:
352,378,40578,1,8,0:0:0:0:
288,232,40746,1,0,0:0:0:0:
417,154,40915,1,8,0:0:0:0:
420,342,41083,6,0,P|345:299|276:353,1,180
60,193,41589,2,0,P|66:237|75:281,1,90,8|0,0:0|0:0,0:0:0:0:
287,230,41926,1,8,0:0:0:0:
189,379,42095,1,0,0:0:0:0:
416,197,42263,1,8,0:0:0:0:
379,170,42347,1,8,0:0:0:0:
333,171,42432,1,8,0:0:0:0:
295,195,42516,1,8,0:0:0:0:
287,230,42600,5,0,0:0:0:0:
129,76,42769,1,8,3:0:0:0:
134,66,42853,1,4,3:0:0:0:
141,57,42937,2,0,L|152:128,1,72,2|8,3:0|0:0,0:0:0:0:
287,230,43274,1,8,3:0:0:0:
295,194,43359,1,0,3:0:0:0:
301,158,43443,1,0,3:0:0:0:
308,122,43527,1,0,3:0:0:0:
315,86,43612,6,0,P|403:98|436:16,1,180,4|2,0:0|0:0,0:0:0:0:
438,28,44117,1,0,0:0:0:0:
217,10,44286,2,0,L|231:98,1,90,8|0,0:0|0:0,0:0:0:0:
415,196,44623,2,0,P|401:238|380:278,1,90,8|0,0:0|0:0,0:0:0:0:
151,240,44960,1,8,0:0:0:0:
301,158,45129,1,0,0:0:0:0:
210,331,45297,6,0,P|204:263|185:199,1,135,8|0,0:0|0:0,0:0:0:0:
144,198,45634,2,0,L|158:110,1,90,8|0,0:0|0:0,0:0:0:0:
211,14,45971,1,8,0:0:0:0:
37,63,46140,1,0,0:0:0:0:
265,167,46309,1,8,0:0:0:0:
65,68,46477,1,0,0:0:0:0:
323,4,46646,6,0,B|310:34|305:69|305:69|274:97|274:97|270:135|264:167,1,180,8|8,0:0|0:0,0:0:0:0:
57,195,47151,2,0,P|62:239|89:274,1,90,0|8,0:0|0:0,0:0:0:0:
310,244,47488,1,0,0:0:0:0:
144,198,47657,1,8,0:0:0:0:
108,363,47826,1,0,0:0:0:0:
108,363,47910,1,8,0:0:0:0:
107,363,47994,6,0,P|197:336|290:344,1,188.999994232178,4|2,0:0|0:0,0:0:0:0:
448,291,48668,1,2,0:0:0:0:
455,289,49174,5,2,0:0:0:0:
407,360,49343,2,0,P|366:280|423:212,1,188.999994232178,4|8,0:0|0:0,0:0:0:0:
500,148,50017,2,0,L|486:80,1,62.9999980773926,2|2,0:0|0:0,0:0:0:0:
393,43,50354,2,0,L|399:12,3,31.4999990386963,2|0|0|0,0:0|0:0|0:0|0:0,0:0:0:0:
366,70,50691,6,0,P|279:95|214:32,1,188.999994232178,4|8,0:0|0:0,0:0:0:0:
50,94,51365,1,2,0:0:0:0:
48,102,51702,2,0,L|110:93,1,62.9999980773926,2|2,0:0|0:0,0:0:0:0:
214,32,52039,5,12,0:0:0:0:
111,262,52208,1,0,0:0:0:0:
336,170,52377,1,8,0:0:0:0:
169,169,52545,1,12,0:0:0:0:
169,169,52629,1,0,0:0:0:0:
169,169,52714,1,0,0:0:0:0:
169,169,52798,1,0,0:0:0:0:
169,169,52882,6,0,P|177:198|181:240,1,58.4999973220826,8|0,0:0|0:0,0:0:0:0:
267,240,53051,6,0,P|261:274|250:306,1,67.5,12|0,0:0|0:0,0:0:0:0:
260,338,53388,6,0,B|177:320|207:359|127:335,1,134.999995880127
0,220,54399,6,0,P|46:228|88:239,1,72,4|4,0:3|0:3,0:0:0:0:
268,84,54737,6,0,P|224:108|164:144,1,90,4|0,0:0|0:0,0:0:0:0:
72,104,55074,1,8,0:0:0:0:
276,296,55242,2,0,P|256:232|252:184,1,90,2|8,0:0|0:0,0:0:0:0:
208,56,55579,1,2,0:0:0:0:
384,148,55748,1,8,0:0:0:0:
189,289,55916,6,0,P|252:213|339:240,1,180,4|2,0:0|0:0,0:0:0:0:
432,72,56422,2,0,P|356:56|312:40,1,90,8|2,0:0|0:0,0:0:0:0:
276,296,56759,1,8,0:0:0:0:
144,108,56928,1,2,0:0:0:0:
328,176,57096,1,8,0:0:0:0:
184,336,57265,1,2,0:0:0:0:
448,220,57433,6,0,P|436:272|424:328,1,90,8|2,0:0|0:0,0:0:0:0:
240,92,57770,1,8,0:0:0:0:
276,296,57939,1,2,0:0:0:0:
104,248,58108,2,0,P|168:236|232:216,1,90,8|2,0:0|0:0,0:0:0:0:
364,328,58445,1,8,0:0:0:0:
428,152,58613,6,0,P|356:84|264:104,1,180,4|2,0:0|0:0,0:0:0:0:
100,280,59119,2,0,P|128:200|136:160,1,90,8|2,0:0|0:0,0:0:0:0:
96,36,59456,1,2,0:0:0:0:
296,116,59625,2,0,L|312:164,1,45,8|8,0:0|0:0,0:0:0:0:
208,280,59793,2,0,L|188:224,1,45,8|8,0:0|0:0,0:0:0:0:
364,292,59962,1,8,0:0:0:0:
364,292,60046,1,8,0:0:0:0:
364,292,60130,6,0,P|420:272|476:256,1,90,12|2,0:0|0:0,0:0:0:0:
280,152,60467,2,0,P|224:140|180:128,1,90,8|0,0:0|0:0,0:0:0:0:
208,280,60805,1,8,0:0:0:0:
296,20,60973,1,2,0:0:0:0:
64,124,61142,1,8,0:0:0:0:
288,320,61310,6,0,L|305:232,1,90,2|0,0:0|3:0,0:0:0:0:
204,32,61647,1,2,0:0:0:0:
52,256,61816,2,0,P|104:244|168:212,1,90,8|0,0:0|0:0,0:0:0:0:
400,284,62153,1,8,0:0:0:0:
200,160,62322,1,2,0:0:0:0:
408,32,62490,1,8,0:0:0:0:
144,72,62659,6,0,P|256:76|300:140,1,180,4|2,0:0|0:0,0:0:0:0:
136,348,63164,1,8,0:0:0:0:
200,160,63333,1,4,0:0:0:0:
384,260,63501,6,0,L|493:271,1,90,0|2,0:0|0:0,0:0:0:0:
376,40,63839,1,8,0:0:0:0:
169,202,64007,6,0,P|173:258|189:322,1,90,4|0,0:0|0:0,0:0:0:0:
285,118,64344,1,8,0:0:0:0:
261,94,64429,1,8,0:0:0:0:
233,86,64513,1,8,0:0:0:0:
301,262,64681,1,8,0:0:0:0:
337,254,64766,1,8,0:0:0:0:
361,222,64850,1,8,0:0:0:0:
153,238,65018,1,8,0:3:0:0:
301,262,65187,6,0,L|348:244,1,45,8|8,0:0|0:0,0:0:0:0:
216,104,65356,2,0,L|169:122,1,45,8|8,0:0|0:0,0:0:0:0:
120,248,65524,6,0,L|96:368,1,90,4|8,0:0|0:0,0:0:0:0:
8,124,65861,1,2,0:0:0:0:
248,188,66030,2,0,L|240:140|232:92,1,90,8|2,0:0|0:0,0:0:0:0:
344,32,66367,1,8,0:0:0:0:
144,172,66535,1,2,0:0:0:0:
376,300,66704,6,0,P|288:293|227:355,1,180,8|8,0:0|0:0,0:0:0:0:
93,217,67210,2,0,L|121:105,1,90,2|8,0:0|0:0,0:0:0:0:
380,132,67547,1,2,0:0:0:0:
380,132,67631,1,2,0:0:0:0:
380,132,67715,1,8,0:0:0:0:
204,280,67884,1,2,0:0:0:0:
196,32,68053,1,8,0:0:0:0:
55,154,68221,6,0,L|149:173,1,90,2|8,0:0|0:0,0:0:0:0:
344,40,68558,1,2,0:0:0:0:
288,356,68727,2,0,P|276:312|269:269,1,90,8|0,0:0|0:0,0:0:0:0:
216,80,69064,1,8,0:0:0:0:
408,216,69232,1,2,0:0:0:0:
92,300,69401,6,2,P|144:272|204:256,1,90,4|0,0:0|0:0,0:1:0:0:
452,128,69738,1,2,0:0:0:0:
244,4,69907,1,12,0:0:0:0:
260,244,70075,5,8,0:0:0:0:
260,244,70159,1,8,0:0:0:0:
260,244,70244,2,0,L|280:316,1,45,8|8,0:0|0:0,0:0:0:0:
124,248,70412,2,2,L|100:168,1,45,8|8,0:0|0:0,0:1:0:0:
112,56,70581,1,8,0:0:0:0:
160,56,70665,1,8,0:0:0:0:
200,72,70749,1,8,0:0:0:0:
232,100,70834,1,8,0:0:0:0:
252,136,70918,5,4,0:0:0:0:
152,340,71087,2,0,L|120:212,1,90,8|2,0:0|0:0,0:0:0:0:
164,56,71424,1,8,0:0:0:0:
384,264,71592,2,0,P|324:244|280:232,1,90,2|8,0:0|0:0,0:0:0:0:
88,384,71929,1,4,0:3:0:0:
132,184,72098,6,0,P|196:124|312:152,1,180,4|8,0:0|0:0,0:0:0:0:
244,252,72604,1,2,0:0:0:0:
300,24,72772,1,8,0:0:0:0:
44,202,72941,2,0,L|132:183,1,90,2|8,0:0|0:0,0:0:0:0:
360,340,73278,1,4,0:3:0:0:
392,88,73446,6,0,P|332:32|232:40,1,180,4|8,0:0|0:0,0:0:0:0:
184,304,73952,1,2,0:0:0:0:
448,156,74121,1,8,0:0:0:0:
360,340,74289,2,0,L|339:253,1,90,2|8,0:0|0:0,0:0:0:0:
168,72,74626,1,2,0:0:0:0:
100,336,74795,6,2,P|152:312|204:300,1,90,2|0,3:1|0:0,0:1:0:0:
251,39,75132,2,2,P|199:63|147:75,1,90,2|0,3:1|0:0,0:1:0:0:
28,192,75469,1,10,3:1:0:0:
272,200,75638,5,8,0:3:0:0:
272,200,75722,1,8,0:3:0:0:
272,200,75806,1,10,3:1:0:0:
220,376,75975,1,0,0:0:0:0:
410,285,76144,6,2,P|358:213|272:201,1,180,4|2,0:0|0:0,0:1:0:0:
151,28,76649,2,0,P|156:72|177:111,1,90,0|2,0:0|0:0,0:0:0:0:
74,288,76986,2,0,P|95:248|99:204,1,90,8|0,0:0|0:0,0:0:0:0:
18,115,77323,1,2,0:0:0:0:
99,204,77492,6,0,B|154:212|154:212|178:203|178:203|231:207,1,135,2|0,0:0|0:0,0:0:0:0:
255,225,77829,2,0,L|357:209,1,90,2|0,0:0|0:0,0:0:0:0:
446,123,78166,2,0,P|479:137|510:144,2,45,2|2|8,0:0|0:0|0:0,0:0:0:0:
351,14,78503,6,0,P|311:66|247:61,1,135,4|0,0:0|0:0,0:0:0:0:
229,48,78840,2,0,B|236:120|236:120|247:141|247:141|254:224,1,180,4|2,0:0|0:0,0:0:0:0:
385,351,79346,1,0,0:0:0:0:
484,299,79515,1,2,0:0:0:0:
351,314,79684,1,8,0:0:0:0:
476,259,79852,1,2,0:0:0:0:
338,214,80020,1,2,0:0:0:0:
478,131,80189,6,0,B|512:197|512:197|484:299,1,180,4|2,0:0|0:0,0:0:0:0:
305,379,80694,1,8,0:0:0:0:
173,192,80863,1,2,0:0:0:0:
173,192,80947,1,2,0:0:0:0:
173,192,81032,1,8,0:0:0:0:
120,356,81200,6,0,P|159:304|223:309,1,135,4|0,0:0|0:0,0:0:0:0:
234,330,81537,2,0,B|241:247|241:247|252:226|252:226|259:154,1,180,4|8,0:0|0:0,0:0:0:0:
217,81,81959,1,8,0:0:0:0:
217,81,82043,2,0,L|223:177,1,90,8|8,0:0|0:0,0:0:0:0:
64,260,82380,6,0,L|69:170,1,90,8|8,0:0|0:0,0:0:0:0:
68,170,82633,1,8,0:0:0:0:
68,170,82717,1,8,0:0:0:0:
217,81,82886,5,8,0:0:0:0:
217,81,82970,1,8,0:0:0:0:
217,81,83054,1,8,0:0:0:0:
244,245,83223,5,8,0:0:0:0:
244,245,83307,1,8,0:0:0:0:
244,245,83391,1,8,0:0:0:0:
378,165,83560,5,8,0:0:0:0:
359,195,83644,1,8,0:0:0:0:
354,231,83728,1,8,0:0:0:0:
351,267,83813,1,8,0:0:0:0:
357,302,83897,1,8,0:0:0:0:
259,153,84066,1,10,0:0:0:0:
473,332,84234,6,0,P|465:238|489:147,1,188.999994232178,4|2,0:0|0:0,0:0:0:0:
500,142,85077,2,0,L|492:71,1,62.9999980773926
412,18,85414,1,2,0:0:0:0:
304,64,85583,6,0,P|365:59|411:18,1,125.999996154785,4|0,0:0|0:0,0:0:0:0:
144,145,86257,2,0,P|97:103|36:99,1,125.999996154785,2|0,0:0|0:0,0:0:0:0:
233,8,86931,1,0,0:0:0:0:
233,8,87100,6,0,L|219:169,1,161.999995056153,4|0,0:0|0:0,0:0:0:0:
64,179,87605,2,0,L|77:340,1,161.999995056153,2|0,0:0|0:0,0:0:0:0:
77,340,88111,6,0,P|154:326|242:329,1,161.999995056153,2|0,0:0|0:0,0:0:0:0:
333,212,88617,2,0,P|409:226|497:223,1,161.999995056153,2|0,0:0|0:0,0:0:0:0:
493,224,89122,6,0,P|480:285|471:315,1,80.9999975280763,2|0,0:0|0:0,0:0:0:0:
337,377,89459,2,0,P|326:337|319:297,1,80.9999975280763,2|0,0:0|1:0,0:0:0:0:
302,275,89712,1,0,1:0:0:0:
302,275,89797,6,0,P|319:197|325:116,1,161.999995056153,6|0,0:0|0:0,0:0:0:0:
476,194,90302,2,0,P|458:115|452:34,1,161.999995056153,2|0,0:0|0:0,0:0:0:0:
452,34,90808,6,0,B|401:49|401:49|353:33|353:33|296:42,1,161.999995056153,2|0,0:0|0:0,0:0:0:0:
195,136,91314,1,2,0:0:0:0:
113,57,91482,6,2,L|103:-2,2,53.9999983520508,8|4|4,0:3|0:3|0:3,0:0:0:0:
24,168,91819,2,0,L|34:109,2,53.9999983520508,4|4|4,0:3|0:3|0:3,0:0:0:0:
143,260,92156,2,0,L|133:201,2,53.9999983520508,4|4|4,0:3|0:3|0:3,0:0:0:0:
23,361,92493,6,0,L|40:270,1,80.9999975280763,6|0,0:0|0:0,0:0:0:0:
163,281,92831,2,0,L|148:201,1,80.9999975280763,2|0,0:0|0:0,0:0:0:0:
8,189,93168,2,0,L|22:109,1,80.9999975280763,2|0,0:0|0:0,0:0:0:0:
139,79,93505,2,0,L|124:0,1,80.9999975280763,2|0,0:0|0:0,0:0:0:0:
270,144,93842,5,8,0:0:0:0:
344,44,94010,1,0,0:0:0:0:
260,159,94179,2,0,L|245:79,1,80.9999975280763,2|0,0:0|0:0,0:0:0:0:
451,13,94516,2,0,L|436:93,1,80.9999975280763,8|0,0:0|0:0,0:0:0:0:
330,229,94853,1,2,0:0:0:0:
330,229,95022,1,2,0:0:0:0:
507,210,95190,6,0,P|470:195|431:184,1,80.9999975280763,12|2,0:0|0:0,0:0:0:0:
243,263,95528,1,2,0:0:0:0:
388,380,95696,2,0,P|401:341|408:302,1,80.9999975280763,12|2,0:0|0:0,0:0:0:0:
352,141,96033,1,8,0:0:0:0:
142,292,96202,2,0,P|199:303|242:264,1,121.499996292114,12|0,0:0|0:0,0:0:0:0:
282,254,96539,6,0,L|272:198,1,40.4999987640381,8|0,0:0|0:0,0:0:0:0:
184,185,96707,1,8,0:0:0:0:
184,185,96792,1,8,0:0:0:0:
184,185,96876,2,0,L|194:129,1,40.4999987640381,4|0,0:3|0:0,0:0:0:0:
275,114,97045,6,0,L|255:3,1,112.5,4|0,0:0|0:0,0:0:0:0:
230,0,97550,6,0,L|245:80,1,67.5,2|0,0:0|0:0,0:0:0:0:
242,66,97887,5,0,3:0:0:0:
101,70,98056,1,0,3:0:0:0:
101,70,98140,1,0,3:0:0:0:
101,70,98224,2,0,L|90:141,1,72,2|0,3:0|0:0,0:0:0:0:
61,156,98477,2,0,L|50:227,1,72,2|0,3:0|0:0,0:0:0:0:
32,254,98730,1,0,3:0:0:0:
145,335,98899,1,2,3:0:0:0:
200,168,99067,1,0,3:0:0:0:
200,168,99152,1,0,3:0:0:0:
200,168,99236,6,0,P|288:192|328:200,1,90,4|0,0:0|0:0,0:0:0:0:
416,112,99573,1,8,0:0:0:0:
408,316,99741,2,0,L|312:348,1,90,8|8,0:0|0:0,0:0:0:0:
176,220,100079,1,8,0:0:0:0:
322,344,100247,1,2,0:0:0:0:
304,116,100416,5,8,0:0:0:0:
304,116,100500,1,8,0:0:0:0:
304,116,100584,1,0,3:0:0:0:
240,280,100753,1,8,0:0:0:0:
104,148,100921,2,0,P|148:124|212:112,1,90,2|8,0:0|0:0,0:0:0:0:
352,196,101258,2,0,L|328:320,1,90,8|0,0:0|0:0,0:0:0:0:
232,24,101596,1,8,0:0:0:0:
72,296,101764,5,2,0:0:0:0:
72,296,101848,1,8,0:0:0:0:
72,296,101933,2,0,P|132:276|188:260,1,90,8|0,0:0|0:0,0:0:0:0:
308,336,102270,1,8,0:0:0:0:
316,132,102438,5,8,0:0:0:0:
192,272,102607,1,8,0:0:0:0:
144,76,102776,1,8,0:0:0:0:
432,183,102944,2,0,P|390:202|348:217,1,90,8|0,0:0|0:0,0:0:0:0:
348,217,103281,5,0,0:0:0:0:
160,44,103450,2,0,L|284:65,1,90,8|0,0:0|0:0,0:0:0:0:
335,332,103787,2,0,P|267:304|211:292,1,90,8|8,0:0|0:0,0:0:0:0:
316,132,104124,1,2,0:1:0:0:
251,299,104293,1,2,0:1:0:0:
492,196,104461,5,2,0:1:0:0:
492,196,104545,1,8,0:0:0:0:
492,196,104630,2,0,P|479:143|471:91,1,90,8|0,0:0|0:0,0:0:0:0:
292,20,104967,1,8,0:0:0:0:
224,220,105135,2,0,P|288:188|328:172,1,90,8|0,0:0|0:0,0:0:0:0:
492,196,105472,1,8,0:0:0:0:
332,352,105641,2,0,P|320:308|311:264,1,90,8|2,0:0|0:0,0:0:0:0:
292,104,105978,1,0,3:0:0:0:
160,208,106147,6,0,L|60:180,1,90,8|2,0:0|0:0,0:0:0:0:
140,32,106484,1,8,0:0:0:0:
292,192,106652,2,0,L|272:304,1,90,8|2,0:0|0:0,0:0:0:0:
428,76,106989,1,8,0:0:0:0:
496,292,107158,5,2,0:0:0:0:
496,292,107242,1,8,0:0:0:0:
496,292,107327,2,0,P|444:268|372:260,1,90,8|0,0:0|0:0,0:0:0:0:
276,116,107664,1,8,0:0:0:0:
208,256,107832,5,8,0:0:0:0:
380,140,108001,1,8,0:0:0:0:
184,44,108169,1,8,0:0:0:0:
284,332,108338,2,0,L|300:216,1,90,8|2,0:0|0:1,0:0:0:0:
288,200,108591,1,2,0:1:0:0:
288,200,108675,5,2,0:0:0:0:
152,256,108844,2,2,B|105:270|105:270|83:289|83:289|16:297,1,135,12|0,0:0|0:0,0:1:0:0:
0,280,109181,6,2,B|57:275|57:275|79:257|79:257|126:243,1,135.000005149842,12|0,0:0|0:0,0:1:0:0:
216,88,109518,1,4,0:0:0:0:
348,240,109687,1,2,0:0:0:0:
388,212,109771,1,8,0:0:0:0:
412,172,109855,1,8,0:0:0:0:
420,124,109939,1,8,0:0:0:0:
416,76,110024,6,0,L|518:61,1,90,4|0,0:0|0:0,0:0:0:0:
348,240,110361,1,8,0:0:0:0:
232,133,110529,1,0,0:0:0:0:
232,133,110613,1,8,0:0:0:0:
232,133,110698,2,0,L|334:148,1,90
446,232,111035,1,8,0:0:0:0:
352,338,111203,6,0,P|270:308|253:224,1,180,4|0,0:0|0:0,0:0:0:0:
253,224,111709,1,8,0:0:0:0:
460,144,111878,1,2,0:0:0:0:
460,144,111962,1,2,0:0:0:0:
460,143,112046,2,0,P|456:187|445:231,1,90,2|0,0:0|0:0,0:0:0:0:
289,62,112383,2,0,P|308:102|320:145,1,90,8|0,0:0|0:0,0:0:0:0:
485,25,112720,6,0,B|491:100|491:100|499:118|499:118|496:157|471:222,1,180,4|8,0:0|0:0,0:0:0:0:
347,242,113226,1,0,0:0:0:0:
347,242,113310,1,8,0:0:0:0:
347,242,113395,1,0,0:0:0:0:
465,314,113563,1,0,0:0:0:0:
219,366,113732,1,8,0:0:0:0:
253,224,113900,1,4,0:0:0:0:
385,329,114069,6,0,P|340:331|297:318,1,90
111,279,114406,1,8,0:0:0:0:
233,195,114575,2,0,P|218:283|193:370,1,180,4|2,0:0|0:0,0:0:0:0:
16,259,115080,2,0,P|38:220|74:193,1,90,8|0,0:0|0:0,0:0:0:0:
115,191,115333,1,8,0:0:0:0:
115,191,115417,6,0,L|125:91,1,90,6|0,0:0|0:0,0:0:0:0:
406,101,115755,2,0,P|373:70|332:52,1,90,2|0,0:0|0:0,0:0:0:0:
218,10,116092,2,0,L|226:99,1,90,2|0,0:0|0:0,0:0:0:0:
323,202,116429,1,2,0:0:0:0:
492,183,116597,6,0,B|443:176|443:176|413:203|413:203|373:196|323:202,1,180,4|0,0:0|0:0,0:0:0:0:
128,335,117103,1,8,0:0:0:0:
360,287,117272,1,2,0:0:0:0:
360,287,117356,1,8,0:0:0:0:
360,287,117440,2,0,P|302:251|237:237,1,135,2|0,0:0|0:0,0:0:0:0:
205,239,117777,1,2,0:0:0:0:
47,380,117946,6,0,B|38:326|38:326|51:296|51:296|36:244|42:182,1,198.000006042481,4|0,0:0|0:0,0:0:0:0:
100,11,118451,2,0,P|103:62|119:112,1,99.0000030212403,8|0,0:0|0:0,0:0:0:0:
205,239,118789,1,8,0:0:0:0:
344,142,118957,1,2,0:0:0:0:
288,353,119126,1,8,0:0:0:0:
124,252,119294,6,0,P|146:183|217:160,1,148.50000453186,4|0,0:0|0:0,0:0:0:0:
257,113,119632,6,2,L|264:175,1,62.9999980773926,2|0,3:0|3:0,0:1:0:0:
407,257,119800,6,0,L|414:194,1,62.9999980773926,2|0,3:0|0:0,0:0:0:0:
413,194,120053,1,0,3:0:0:0:
413,194,120137,1,0,0:0:0:0:
344,142,120306,1,0,3:0:0:0:
490,100,120474,2,0,L|497:162,1,62.9999980773926,2|0,3:0|0:0,0:0:0:0:
497,162,120727,1,0,3:0:0:0:
497,162,120811,6,0,P|452:180|389:198,1,90,12|0,0:0|0:0,0:0:0:0:
202,23,121148,2,0,P|242:55|287:98,1,90,8|0,0:0|0:0,0:0:0:0:
227,326,121485,2,0,P|236:272|249:214,1,90,8|0,0:0|0:0,0:0:0:0:
271,82,121823,1,8,0:0:0:0:
352,256,121991,1,0,0:0:0:0:
96,232,122160,6,0,L|207:198,1,90,8|0,0:0|0:0,0:0:0:0:
408,328,122497,2,0,L|304:304,1,90,8|0,0:0|0:0,0:0:0:0:
144,44,122834,2,0,L|256:76,1,90,8|0,0:0|0:0,0:0:0:0:
456,204,123171,1,8,0:0:0:0:
456,204,123255,1,8,0:0:0:0:
456,204,123340,2,8,L|428:136,1,45
440,24,123508,5,0,0:0:0:0:
308,152,123677,1,8,3:0:0:0:
308,152,123761,1,4,3:0:0:0:
308,152,123845,2,0,P|296:208|284:276,1,90,2|8,3:0|0:0,0:0:0:0:
440,112,124183,2,0,P|432:76|420:32,1,67.5000025749208,8|0,0:3|0:0,0:0:0:0:
212,60,124520,6,0,P|124:53|67:120,1,180,4|2,0:0|0:0,0:0:0:0:
67,117,125025,1,0,0:0:0:0:
172,312,125194,2,0,P|236:275|272:268,1,90,8|0,0:0|0:0,0:0:0:0:
448,176,125531,1,8,0:0:0:0:
448,176,125615,1,0,0:0:0:0:
448,176,125699,2,2,L|392:147,1,45,0|0,0:0|0:0,0:1:0:0:
149,136,125868,1,8,3:2:0:0:
206,264,126037,1,0,0:0:0:0:
308,164,126205,6,0,L|289:62,1,90,8|0,3:2|0:0,0:0:0:0:
108,239,126542,1,8,3:2:0:0:
160,32,126711,1,0,0:0:0:0:
310,261,126879,6,0,P|239:234|204:228,1,90,8|0,3:2|0:0,0:0:0:0:
50,107,127216,2,0,L|24:220,1,90,8|0,3:2|0:0,0:0:0:0:
222,344,127554,2,0,L|196:239,1,90,8|0,3:2|0:0,0:0:0:0:
200,256,127891,1,8,3:2:0:0:
402,173,128059,2,0,L|379:296,1,90,0|8,0:0|3:2,0:0:0:0:
385,261,128312,1,0,0:0:0:0:
385,261,128396,1,0,0:0:0:0:
248,140,128565,1,8,3:2:0:0:
165,340,128733,5,2,0:0:0:0:
165,340,128818,1,8,0:0:0:0:
165,340,128902,2,0,P|256:331|302:279,1,135.000005149842,4|0,0:0|0:0,0:0:0:0:
424,320,129408,1,8,0:3:0:0:
468,197,129576,1,2,0:0:0:0:
468,197,129745,2,0,P|427:279|426:339,1,135.000005149842,4|2,0:3|0:0,0:0:0:0:
299,196,130251,6,0,P|234:156|145:152,1,135.000005149842,4|0,0:0|0:0,0:0:0:0:
176,147,130756,1,8,0:0:0:0:
161,315,130925,2,0,P|194:265|206:239,1,67.5000025749208,0|2,0:0|0:0,0:0:0:0:
8,140,131262,1,2,0:1:0:0:
28,166,131346,1,0,0:0:0:0:
54,184,131430,1,2,0:1:0:0:
85,196,131515,1,0,0:0:0:0:
117,199,131599,6,0,P|180:156|260:160,1,135.000005149842,4|0,0:0|0:0,0:0:0:0:
332,60,132105,1,8,0:0:0:0:
376,276,132273,2,0,P|355:217|349:180,1,67.5000025749208,0|4,3:0|0:3,0:0:0:0:
200,60,132610,1,2,0:0:0:0:
240,304,132779,5,0,0:0:0:0:
240,304,132863,1,0,0:0:0:0:
240,304,132947,1,12,0:0:0:0:
408,128,133116,1,0,0:0:0:0:
240,152,133285,5,8,0:0:0:0:
240,152,133369,1,8,0:0:0:0:
240,152,133453,2,0,L|256:208,1,45,12|8,0:0|0:0,0:0:0:0:
344,336,133622,2,0,L|364:252,1,45,8|8,0:0|0:0,0:0:0:0:
176,352,133790,1,2,0:0:0:0:
256,36,133959,5,12,0:0:0:0:
268,320,134970,6,2,P|280:268|300:212,1,90,0|4,0:0|0:3,0:1:0:0:
292,188,135223,1,4,0:3:0:0:
260,220,135307,1,4,0:3:0:0:
220,240,135392,1,4,0:3:0:0:
176,252,135476,1,4,0:3:0:0:
132,252,135560,1,4,0:3:0:0:
89,237,135645,6,0,P|102:279|112:323,1,90,4|2,0:0|0:0,0:0:0:0:
377,294,135981,1,8,0:0:0:0:
191,366,136150,2,0,P|226:338|267:319,1,90,2|8,0:0|0:0,0:0:0:0:
492,247,136487,2,0,P|456:219|415:200,1,90,2|8,0:0|0:0,0:0:0:0:
267,54,136824,2,0,L|292:241,1,180,4|2,0:0|0:0,0:0:0:0:
504,138,137330,5,8,0:0:0:0:
363,96,137499,1,2,0:0:0:0:
157,360,137667,1,8,0:0:0:0:
290,232,137836,1,2,0:0:0:0:
80,61,138004,1,8,0:0:0:0:
179,246,138173,1,2,0:0:0:0:
362,95,138342,6,0,P|325:71|283:55,1,90,8|2,0:0|0:0,0:0:0:0:
15,142,138678,1,8,0:0:0:0:
179,246,138847,2,0,P|208:180|210:148,1,90,2|8,0:0|0:0,0:0:0:0:
362,95,139184,2,0,P|324:70|282:54,1,90,2|8,0:0|0:0,0:0:0:0:
85,3,139521,6,0,B|82:22|86:48|86:48|76:62|76:62|101:102|112:186,1,180,4|2,0:0|0:0,0:0:0:0:
46,339,140027,1,8,0:0:0:0:
289,231,140195,1,8,0:0:0:0:
193,55,140364,1,2,0:0:0:0:
155,301,140533,1,8,0:0:0:0:
168,303,140617,1,8,0:0:0:0:
180,298,140701,1,8,0:0:0:0:
186,286,140785,1,8,0:0:0:0:
189,272,140870,1,8,0:0:0:0:
184,259,140954,1,8,0:0:0:0:
179,246,141038,6,0,P|130:262|87:260,1,90,12|2,0:0|0:0,0:0:0:0:
357,373,141375,2,0,P|368:282|379:189,1,180,8|8,0:0|0:0,0:0:0:0:
194,165,141881,1,2,0:0:0:0:
406,105,142050,1,8,0:0:0:0:
268,53,142218,6,0,P|278:142|289:231,1,180,2|2,0:0|0:0,0:0:0:0:
490,135,142724,2,0,P|450:116|407:105,1,90,8|0,0:0|0:0,0:0:0:0:
194,165,143061,1,8,0:0:0:0:
378,194,143230,1,2,0:0:0:0:
136,261,143398,5,8,0:0:0:0:
26,148,143567,2,0,B|90:123|90:123|193:164,1,180,4|2,0:0|0:0,0:0:0:0:
131,276,144072,5,8,0:0:0:0:
17,137,144241,2,0,B|88:109|88:109|203:155,1,198.000006042481,4|2,0:0|0:0,0:0:0:0:
128,291,144747,5,8,0:0:0:0:
9,124,144915,2,0,B|94:90|94:90|232:146,1,216,4|0,0:0|0:0,0:0:0:0:
324,244,145252,6,0,P|334:213|340:182,1,53.9999983520508,8|0,0:0|0:0,0:0:0:0:
436,120,145421,2,8,P|426:89|420:58,3,53.9999983520508
357,7,145758,5,8,0:3:0:0:
319,1,145842,1,8,0:3:0:0:
286,20,145926,1,4,0:3:0:0:
274,56,146011,1,4,0:3:0:0:
278,93,146095,6,0,P|306:100|336:112,1,53.9999983520508,8|0,0:0|0:0,0:0:0:0:
489,209,146264,2,0,P|463:218|437:224,1,53.9999983520508,8|0,0:0|0:0,0:0:0:0:
330,333,146432,6,0,P|325:288|323:243,1,90,4|8,0:0|0:0,0:0:0:0:
62,188,146769,1,2,0:0:0:0:
194,114,146938,2,0,P|192:158|187:203,1,90,10|2,0:0|0:0,0:0:0:0:
112,350,147275,1,8,0:0:0:0:
249,261,147443,1,2,0:0:0:0:
86,171,147612,2,0,L|115:374,1,180,8|8,0:0|0:0,0:0:0:0:
6,254,148118,5,2,0:0:0:0:
185,313,148286,1,8,0:0:0:0:
340,66,148455,1,2,0:0:0:0:
186,203,148623,1,8,0:0:0:0:
396,374,148792,1,2,0:0:0:0:
297,189,148961,1,8,0:0:0:0:
495,44,149129,6,0,L|482:133,1,90,2|8,0:0|0:0,0:0:0:0:
411,276,149466,1,2,0:0:0:0:
227,131,149635,1,10,0:0:0:0:
227,131,149719,1,2,0:0:0:0:
227,131,149803,1,2,0:0:0:0:
282,340,149972,1,8,0:0:0:0:
386,190,150140,1,2,0:0:0:0:
290,366,150309,6,0,B|298:299|298:299|287:255|287:255|296:188,1,180,4|2,0:0|0:0,0:0:0:0:
0,151,150815,2,0,P|41:134|85:122,1,90,12|8,0:0|0:0,0:0:0:0:
110,97,151067,1,8,0:0:0:0:
110,96,151152,6,0,L|108:118|106:140,1,45,8|8,0:0|0:0,0:0:0:0:
181,221,151320,2,0,P|182:243|184:265,1,45,8|8,0:0|0:0,0:0:0:0:
93,351,151489,1,8,0:0:0:0:
93,351,151573,1,8,0:0:0:0:
93,351,151657,1,8,0:0:0:0:
93,351,151742,1,8,0:0:0:0:
93,351,151826,5,4,0:0:0:0:
291,262,151995,1,8,0:0:0:0:
184,138,152163,1,2,0:0:0:0:
181,346,152332,1,8,0:0:0:0:
340,184,152500,1,2,0:0:0:0:
265,374,152669,1,8,0:0:0:0:
452,328,152837,2,0,P|430:308|400:297,1,45,2|0,0:0|0:0,0:0:0:0:
291,262,153006,6,0,P|376:269|425:198,1,180,4|8,0:0|0:0,0:0:0:0:
196,121,153512,1,2,0:0:0:0:
350,353,153680,1,8,0:0:0:0:
454,85,153849,1,2,0:0:0:0:
239,195,154017,1,8,0:0:0:0:
452,328,154186,2,0,P|472:306|483:276,1,45,2|0,0:0|0:0,0:0:0:0:
509,161,154354,6,0,B|456:183|456:183|409:165|409:165|374:180|338:183,1,180,4|8,0:0|0:0,0:0:0:0:
121,36,154860,1,2,0:0:0:0:
239,195,155029,1,8,0:0:0:0:
12,278,155197,1,2,0:0:0:0:
91,156,155366,1,8,0:0:0:0:
91,156,155450,1,2,0:0:0:0:
91,156,155534,1,2,0:0:0:0:
94,369,155703,6,2,P|141:321|202:295,1,135,2|0,3:1|0:0,0:1:0:0:
239,195,156040,6,2,P|286:242|347:268,1,121.499996292114,0|0,3:0|0:0,1:0:0:0:
389,348,156377,6,2,P|436:338|483:333,1,94.499997116089,10|0,3:1|0:0,0:1:0:0:
505,305,156714,6,0,L|516:256,1,45,8|8,0:3|0:3,0:0:0:0:
401,176,156883,2,0,L|410:219,1,45,2|2,0:0|0:0,0:0:0:0:
512,90,157051,2,2,L|456:76,1,45,4|0,0:3|0:0,0:0:0:0:
385,12,157220,5,8,0:0:0:0:
234,203,157388,1,8,0:0:0:0:
496,170,157557,1,8,0:0:0:0:
291,54,157894,6,0,L|305:142,1,90,2|2,0:0|0:0,0:0:0:0:
145,239,158231,1,8,0:0:0:0:
85,163,158400,6,0,P|167:144|236:209,1,180,4|0,0:0|0:0,0:0:0:0:
89,325,158905,2,0,P|44:319|-10:312,1,90,2|0,0:0|0:0,0:0:0:0:
255,371,159243,1,2,0:0:0:0:
145,239,159411,1,2,0:0:0:0:
305,142,159580,1,2,0:0:0:0:
241,280,159748,1,0,0:0:0:0:
256,192,159917,12,2,162445,0:0:0:0:
179,105,162614,5,8,0:0:0:0:
134,251,162783,1,8,0:0:0:0:
280,212,162951,1,8,0:0:0:0:
59,187,163288,6,0,P|42:229|31:273,1,90,2|2,0:0|0:0,0:0:0:0:
97,366,163625,1,8,0:0:0:0:
218,261,163794,6,0,P|289:314|376:332,1,180,4|2,0:0|0:0,0:0:0:0:
376,332,164299,1,8,0:0:0:0:
508,230,164468,1,8,0:3:0:0:
508,230,164552,1,0,0:0:0:0:
508,230,164636,1,4,0:3:0:0:
418,239,164805,1,0,0:0:0:0:
293,174,164974,2,0,P|337:171|379:155,1,90,2|2,0:0|0:0,0:0:0:0:
470,87,165311,5,4,0:0:0:0:
298,22,165563,1,2,0:0:0:0:
288,22,165648,2,0,L|299:83,3,45,2|2|2|2,0:0|0:0|0:0|0:0,0:0:0:0:
270,4,165985,6,0,L|283:93,1,90,8|2,0:0|0:0,0:0:0:0:
293,174,166322,1,0,0:0:0:0:
105,115,166491,1,2,0:0:0:0:
184,17,166659,6,0,L|197:106,1,90,0|2,0:0|0:0,0:0:0:0:
209,188,166996,1,2,0:0:0:0:
21,129,167165,1,0,0:0:0:0:
98,70,167333,6,0,L|104:114,3,45,8|0|2|0,0:0|0:0|0:0|0:0,0:0:0:0:
130,151,167670,2,0,L|123:195,3,45,0|0|2|0,0:0|0:0|0:0|0:0,0:0:0:0:
82,213,168008,6,2,B|84:234|84:234|80:239|80:239|84:243|84:243|93:368,1,157.5,4|0,0:0|0:0,0:1:0:0:
113,376,168682,6,8,P|140:366|185:359,2,48
238,308,169019,2,8,P|265:317|310:324,2,48
370,373,169356,6,2,B|418:359|460:352|460:352|430:316|398:274|398:274|387:317|375:349,1,269.999991760254,4|0,0:0|0:0,0:1:0:0:
156,236,170536,6,0,L|276:272,1,90,4|0,0:0|0:0,0:0:0:0:
424,172,170873,1,2,0:0:0:0:
252,128,171042,1,8,0:0:0:0:
336,348,171210,2,0,P|352:272|364:236,1,90,2|8,0:0|0:0,0:0:0:0:
440,84,171547,1,2,0:0:0:0:
440,84,171632,1,2,0:0:0:0:
440,84,171716,1,8,0:0:0:0:
256,12,171884,1,2,0:0:0:0:
128,220,172053,6,0,P|183:200|236:188,1,90,8|2,0:0|0:0,0:0:0:0:
412,312,172390,2,0,L|376:188,1,90,8|0,0:0|0:0,0:0:0:0:
292,80,172727,1,8,0:0:0:0:
484,180,172896,1,2,0:0:0:0:
280,320,173064,1,8,0:0:0:0:
432,332,173233,6,2,L|388:144,1,180,4|2,0:0|0:0,0:1:0:0:
224,240,173739,1,8,0:0:0:0:
308,32,173907,1,0,0:0:0:0:
72,108,174076,6,0,P|127:122|176:136,1,90,8|2,0:0|0:0,0:0:0:0:
424,220,174413,2,0,P|382:232|332:252,1,90,8|2,0:0|0:0,0:0:0:0:
264,356,174750,1,0,0:0:0:0:
276,132,174918,1,2,0:0:0:0:
96,244,175087,6,0,P|116:168|120:148,1,90,8|8,0:0|0:0,0:0:0:0:
72,56,175424,1,2,0:0:0:0:
284,208,175593,2,0,L|348:192,1,45,8|8,0:0|0:0,0:0:0:0:
372,64,175761,2,0,L|316:84,1,45,8|8,0:0|0:0,0:0:0:0:
176,224,175930,1,8,0:0:0:0:
176,224,176014,1,8,0:0:0:0:
176,224,176098,6,0,P|200:300|208:336,1,90,4|2,0:0|0:0,0:0:0:0:
416,208,176435,2,0,P|432:136|440:108,1,90,8|0,0:0|0:0,0:0:0:0:
272,8,176773,1,8,0:0:0:0:
316,216,176941,1,2,0:0:0:0:
104,148,177110,2,0,L|192:120,1,90,8|2,0:0|0:0,0:0:0:0:
464,320,177447,6,0,L|348:288,1,90,8|2,0:0|0:0,0:0:0:0:
208,220,177784,2,0,P|224:160|232:104,1,90,8|2,0:0|0:0,0:0:0:0:
172,28,178121,1,8,0:0:0:0:
60,192,178290,1,2,0:0:0:0:
60,192,178374,1,8,0:0:0:0:
60,192,178458,1,8,0:0:0:0:
272,304,178627,6,0,P|172:312|124:396,1,180,4|2,0:0|0:0,0:0:0:0:
104,32,179132,1,8,0:0:0:0:
284,220,179301,2,0,L|308:124,1,90,4|0,0:0|0:0,0:0:0:0:
260,20,179638,1,2,0:0:0:0:
284,220,179807,1,8,0:0:0:0:
472,232,179975,6,0,P|408:208|372:192,1,90,4|0,0:0|0:0,0:0:0:0:
208,312,180312,1,8,0:0:0:0:
208,312,180397,1,8,0:0:0:0:
208,312,180481,2,8,L|188:380,1,45
328,264,180649,2,0,L|344:204,1,45,8|8,0:0|0:0,0:0:0:0:
232,112,180818,1,8,0:3:0:0:
96,268,180987,1,8,0:0:0:0:
284,360,181155,1,2,0:0:0:0:
428,208,181324,5,8,0:0:0:0:
428,208,181408,1,8,0:0:0:0:
428,208,181492,2,8,P|408:136|400:92,1,90,4|8,0:0|0:0,0:0:0:0:
373,337,181829,1,0,0:0:0:0:
499,155,181998,1,8,0:0:0:0:
321,18,182166,2,0,P|301:90|293:134,1,90,0|8,0:0|0:0,0:0:0:0:
124,236,182504,2,0,P|167:225|210:210,1,90,0|8,0:0|0:0,0:0:0:0:
400,137,182841,5,0,0:0:0:0:
207,63,183009,1,8,0:0:0:0:
339,220,183178,1,0,0:0:0:0:
165,341,183346,2,0,P|122:330|79:315,1,90,8|0,0:0|0:0,0:0:0:0:
207,63,183683,2,0,P|141:99|105:125,1,90,8|0,0:0|0:0,0:0:0:0:
339,220,184021,6,0,P|249:216|159:223,1,180,8|8,0:0|0:0,0:0:0:0:
0,118,184526,1,0,0:0:0:0:
78,314,184695,1,8,0:0:0:0:
128,107,184863,1,0,0:0:0:0:
0,216,185032,1,8,0:0:0:0:
0,216,185116,1,2,0:0:0:0:
0,216,185201,1,2,0:0:0:0:
14,381,185369,1,8,0:0:0:0:
86,182,185538,5,4,0:0:0:0:
168,304,185706,1,8,0:0:0:0:
168,304,185790,1,8,0:0:0:0:
168,304,185875,2,0,P|212:315|256:327,1,90,8|8,0:0|0:0,0:0:0:0:
289,316,186128,1,8,0:0:0:0:
289,316,186212,1,8,0:0:0:0:
449,187,186380,1,8,0:0:0:0:
449,187,186465,1,8,0:0:0:0:
449,187,186549,1,8,0:0:0:0:
449,187,186633,1,8,0:0:0:0:
449,187,186718,6,0,B|440:258|440:258|453:293|453:293|444:364,1,180,12|8,0:0|0:0,0:0:0:0:
205,223,187223,1,0,0:0:0:0:
374,310,187392,1,8,0:0:0:0:
146,337,187560,1,0,0:0:0:0:
351,211,187729,1,8,0:0:0:0:
146,127,187897,1,0,0:0:0:0:
270,365,188066,6,0,P|279:320|285:276,1,90,12|0,0:0|0:0,0:0:0:0:
12,171,188403,2,0,P|47:198|85:222,1,90,8|0,0:0|0:0,0:0:0:0:
318,25,188740,2,0,P|280:49|244:76,1,90,8|0,0:0|0:0,0:0:0:0:
146,337,189077,1,8,0:0:0:0:
351,211,189246,1,2,0:0:0:0:
146,44,189414,6,0,P|158:132|192:219,1,180,12|8,0:0|0:0,0:0:0:0:
454,146,189920,1,0,0:0:0:0:
243,76,190089,1,8,0:0:0:0:
146,337,190257,1,0,0:0:0:0:
351,211,190426,1,8,0:0:0:0:
146,44,190594,1,0,0:0:0:0:
270,365,190763,1,8,0:0:0:0:
378,127,190931,5,4,0:0:0:0:
216,287,191100,1,8,0:0:0:0:
146,44,191269,1,0,0:0:0:0:
271,207,191437,1,8,0:0:0:0:
64,352,191606,6,0,P|68:322|74:293,2,60,8|4|4,0:3|0:3|0:3,0:0:0:0:
143,225,191943,2,0,P|138:195|132:166,2,60,8|8|4,0:3|0:3|0:3,0:0:0:0:
6,120,192280,6,0,P|49:109|90:91,1,90,4|0,0:0|0:0,0:0:0:0:
186,8,192617,2,0,P|229:18|270:36,1,90
385,66,192954,2,0,P|394:109|408:152,1,90,8|0,0:0|0:0,0:0:0:0:
512,220,193291,2,0,P|502:263|488:306,1,90,2|2,0:0|0:0,0:0:0:0:
389,368,193628,5,0,0:0:0:0:
217,303,193797,2,0,P|299:281|392:264,1,180,2|0,0:0|0:0,0:0:0:0:
210,207,194303,2,0,P|215:296|235:384,1,180,8|0,0:0|0:0,0:0:0:0:
298,183,194808,6,0,P|211:206|122:221,1,180,4|2,0:0|0:0,0:0:0:0:
17,138,195314,1,8,0:0:0:0:
103,308,195483,2,0,P|122:220|128:130,1,180,4|2,0:0|0:0,0:0:0:0:
127,130,195904,1,8,0:0:0:0:
127,130,195988,1,8,0:0:0:0:
298,28,196157,1,8,0:0:0:0:
298,28,196241,1,8,0:0:0:0:
298,28,196325,6,0,P|303:72|312:116,1,90,4|0,0:0|0:0,0:0:0:0:
324,136,196831,2,0,L|502:109,1,180,4|0,0:0|0:0,0:0:0:0:
204,31,197337,2,0,P|209:75|218:119,1,90
256,284,197674,6,0,L|160:260,1,90,12|2,0:0|0:0,0:0:0:0:
92,64,198011,1,2,0:0:0:0:
348,128,198179,6,0,L|376:256,1,90,12|2,0:0|0:0,0:0:0:0:
242,376,198517,1,2,0:0:0:0:
100,228,198685,6,0,L|208:168,1,90,12|2,0:0|0:0,0:0:0:0:
440,256,199022,1,2,0:0:0:0:
412,32,199191,6,0,P|308:36|264:112,1,180,12|8,0:0|0:0,0:0:0:0:
120,132,199697,1,8,0:3:0:0:
216,304,199865,1,2,0:0:0:0:
216,304,199949,1,0,0:0:0:0:
216,304,200034,1,2,0:0:0:0:
308,172,200202,1,0,0:0:0:0:
28,260,200371,6,0,L|140:232,1,99.0000030212403,12|2,0:0|0:0,0:0:0:0:
300,48,200708,1,2,0:0:0:0:
409,300,200876,6,0,L|433:204,1,99.0000030212403,12|2,0:0|0:0,0:0:0:0:
174,57,201214,1,2,0:0:0:0:
168,276,201382,6,0,L|201:390,1,99.0000030212403,12|2,0:0|0:0,0:0:0:0:
380,176,201719,1,2,0:0:0:0:
228,28,201888,6,0,P|132:22|68:92,1,198.000006042481,12|0,0:0|0:0,0:0:0:0:
244,332,202393,2,0,P|228:276|216:212,1,99.0000030212403,2|2,0:0|0:0,0:0:0:0:
228,28,202731,1,8,0:0:0:0:
88,216,202899,1,2,0:0:0:0:
360,224,203068,6,0,L|472:188,1,107.999996704102,12|0,0:0|0:0,0:0:0:0:
200,136,203405,1,2,0:0:0:0:
393,367,203573,5,12,0:0:0:0:
428,95,203742,1,0,0:0:0:0:
236,240,203910,1,0,0:0:0:0:
511,222,204079,6,0,L|399:190,1,107.999996704102,12|0,0:0|0:0,0:0:0:0:
255,31,204416,1,8,0:0:0:0:
108,357,204585,5,8,0:3:0:0:
10,121,204753,1,8,0:0:0:0:
253,194,204922,1,8,0:0:0:0:
364,8,205090,6,0,L|336:140,1,107.999996704102,2|2,0:0|0:0,0:1:0:0:
144,208,205428,1,2,0:0:0:0:
348,304,205596,1,0,0:0:0:0:
341,113,205765,5,12,0:0:0:0:
244,252,205933,2,0,L|298:229,1,58.4999973220826,2|8,0:0|0:0,0:0:0:0:
452,316,206102,1,2,0:0:0:0:
448,152,206270,5,12,0:0:0:0:
268,364,206439,2,0,L|211:352,1,58.4999973220826,2|8,0:0|0:0,0:0:0:0:
64,152,206607,1,2,0:0:0:0:
44,320,206776,5,12,0:0:0:0:
248,140,206945,2,8,L|332:112,1,58.4999973220826
512,244,207113,1,8,0:0:0:0:
476,276,207197,1,8,0:0:0:0:
432,292,207282,6,10,P|346:294|284:204,1,175.499991966248,12|8,0:0|0:0,0:1:0:0:
368,140,207619,1,8,0:0:0:0:
368,140,207703,1,8,0:0:0:0:
368,140,207787,2,0,P|376:168|383:197,1,58.4999973220826,8|2,0:3|0:0,0:0:0:0:
168,276,207956,2,2,P|184:204|200:156,1,90,2|2,0:0|0:0,0:1:0:0:
288,16,208293,1,0,0:0:0:0:
491,231,208462,6,2,P|429:159|335:173,1,198.000006042481,4|2,0:0|0:0,0:1:0:0:
185,341,208967,1,8,0:0:0:0:
397,250,209136,1,2,0:0:0:0:
236,121,209304,1,8,0:0:0:0:
301,365,209473,1,2,0:0:0:0:
491,231,209641,6,2,P|429:159|335:173,1,198.000006042481,12|8,0:0|0:0,0:1:0:0:
85,363,210147,1,2,0:0:0:0:
284,276,210316,1,8,0:0:0:0:
49,140,210484,1,2,0:0:0:0:
49,140,210569,1,2,0:0:0:0:
49,140,210653,1,10,0:0:0:0:
261,199,210821,1,2,0:0:0:0:
0,359,210990,6,2,P|55:282|150:302,1,198.000006042481,12|8,0:0|0:0,0:1:0:0:
271,118,211496,1,2,0:0:0:0:
176,371,211664,6,2,B|175:303|175:303|186:260|186:260|177:174,1,198.000006042481,12|8,0:0|0:0,0:1:0:0:
85,363,212170,1,2,0:0:0:0:
361,113,212339,6,2,P|305:36|210:55,1,198.000006042481,12|8,0:0|0:0,0:1:0:0:
104,202,212844,1,2,0:0:0:0:
271,118,213013,1,8,0:0:0:0:
271,118,213097,1,8,0:0:0:0:
271,118,213181,1,8,0:0:0:0:
479,276,213350,1,8,0:0:0:0:
485,238,213434,1,8,0:0:0:0:
461,207,213518,1,8,0:0:0:0:
422,197,213603,1,8,0:0:0:0:
385,212,213687,1,8,0:0:0:0:
369,249,213771,1,8,0:0:0:0:
368,289,213855,6,2,P|417:295|465:303,1,99.0000030212403,4|8,0:0|0:0,0:1:0:0:
224,376,214193,1,2,0:0:0:0:
306,198,214361,1,10,0:0:0:0:
306,198,214445,1,2,0:0:0:0:
306,198,214530,1,2,0:0:0:0:
64,329,214698,1,8,0:0:0:0:
278,289,214867,1,2,0:0:0:0:
10,188,215035,6,2,P|25:285|48:382,1,198.000006042481,12|8,0:0|0:0,0:1:0:0:
385,212,215541,1,2,0:0:0:0:
159,294,215710,1,8,0:0:0:0:
416,382,215878,1,2,0:0:0:0:
416,382,215962,1,2,0:0:0:0:
416,382,216047,1,10,0:0:0:0:
212,211,216215,1,2,0:0:0:0:
469,273,216384,6,2,P|490:180|421:115,1,198.000006042481,12|8,0:0|0:0,0:1:0:0:
224,376,216889,1,2,0:0:0:0:
385,212,217058,1,8,0:0:0:0:
168,37,217227,1,2,0:0:0:0:
316,275,217395,1,8,0:0:0:0:
48,382,217564,1,2,0:0:0:0:
241,111,217732,6,2,P|233:184|226:258,1,148.50000453186,4|0,0:0|0:0,0:1:0:0:
123,312,218069,2,2,P|116:238|108:164,1,148.50000453186,12|0,0:0|0:0,0:1:0:0:
108,164,218406,1,12,0:0:0:0:
391,37,218575,6,0,P|376:84|355:128,1,80.9999975280763,4|0,0:3|0:0,0:0:0:0:
50,88,218912,2,0,P|87:74|127:64,1,80.9999975280763,8|4,0:3|0:3,0:0:0:0:
241,111,219249,5,0,0:0:0:0:
120,304,224643,6,0,P|156:272|256:252,1,135.000005149842,0|0,3:0|0:0,0:0:0:0:
238,250,225149,1,0,0:0:0:0:
364,124,225317,1,0,0:0:0:0:
364,124,225992,6,0,L|208:96,1,135.000005149842,0|0,3:0|0:0,0:0:0:0:
231,100,226497,1,0,0:0:0:0:
104,244,226666,1,0,0:0:0:0:
104,244,227172,1,0,0:0:0:0:
280,328,227340,6,0,L|244:172,1,135.000005149842,0|0,3:0|0:0,0:0:0:0:
284,44,227846,1,0,0:0:0:0:
128,156,228014,1,0,0:0:0:0:
128,156,228520,1,0,0:0:0:0:
295,246,228689,6,0,P|330:236|375:227,1,67.5000025749208,2|0,3:1|0:0,0:0:0:0:
283,129,229026,1,0,0:0:0:0:
187,199,229194,2,0,L|168:288,1,67.5000025749208,2|0,3:1|0:0,0:0:0:0:
280,344,229531,5,2,3:1:0:0:
232,40,229700,1,2,3:1:0:0:
256,192,229784,12,0,232228,0:0:0:0:
506,119,232397,6,0,P|477:106|447:95,1,62.9999980773926
367,25,232734,2,0,P|359:87|349:149,1,125.999996154785,2|0,0:0|0:0,0:0:0:0:
258,121,233240,2,0,P|265:183|275:245,1,125.999996154785
353,299,233745,1,0,0:0:0:0:
494,281,233914,6,0,P|468:226|409:221,1,125.999996154785
281,364,234420,2,0,P|250:356|219:352,1,62.9999980773926,2|0,0:0|0:0,0:0:0:0:
36,271,234757,2,0,P|66:263|97:259,1,62.9999980773926,2|0,0:0|0:0,0:0:0:0:
208,201,235094,2,0,P|201:231|194:262,1,62.9999980773926,2|0,0:0|0:0,0:0:0:0:
17,367,235431,6,0,P|74:342|137:333,1,125.999996154785
270,210,235937,2,0,P|239:207|208:201,1,62.9999980773926
41,142,236274,2,0,P|72:139|103:133,1,62.9999980773926
276,81,236611,6,0,P|235:35|174:30,1,125.999996154785
194,114,237116,2,0,L|319:101,1,125.999996154785,0|2,0:0|0:0,0:0:0:0:
483,28,237622,1,0,0:0:0:0:
384,12,237791,2,0,P|389:43|399:72,1,62.9999980773926
473,134,238128,6,0,P|466:180|460:227,1,94.499997116089
485,247,238465,2,0,P|494:276|500:307,1,62.9999980773926
376,368,238802,1,0,0:0:0:0:
396,284,238971,1,2,0:0:0:0:
344,360,239139,1,2,0:0:0:0:
305,225,239308,6,0,P|365:230|392:305,1,125.999996154785,2|0,0:0|0:0,0:0:0:0:
261,359,239813,2,0,P|259:328|255:297,1,62.9999980773926,2|0,0:0|0:0,0:0:0:0:
118,187,240151,1,2,0:0:0:0:
118,187,240319,1,2,0:0:0:0:
185,251,240487,1,2,0:0:0:0:
153,334,240656,1,0,0:0:0:0:
28,289,240825,6,0,P|57:277|87:269,1,62.9999980773926,4|0,0:3|0:0,0:0:0:0:
118,187,241162,2,0,P|88:176|58:168,1,62.9999980773926
16,86,241499,1,0,0:0:0:0:
104,26,241668,2,0,P|116:55|130:83,1,62.9999980773926
222,149,242005,6,0,B|278:165|289:140|347:151,1,125.999996154785,2|0,0:0|0:0,0:0:0:0:
343,40,242510,2,0,P|313:50|285:65,1,62.9999980773926
222,149,242847,6,0,P|212:167|205:187,2,41.9999987182618,8|4|4,0:3|0:3|0:3,0:0:0:0:
196,281,243185,2,0,P|202:301|211:319,2,41.9999987182618,4|4|4,0:3|0:3|0:3,0:0:0:0:
296,372,243522,6,0,P|344:344|384:328,1,80.9999975280763,4|0,0:0|0:0,0:0:0:0:
456,200,243859,1,0,0:0:0:0:
272,144,244027,2,0,L|296:248,1,80.9999975280763,2|8,0:0|0:0,0:0:0:0:
456,80,244364,1,2,0:0:0:0:
456,80,244702,6,0,P|352:16|288:40,1,161.999995056153,4|0,0:0|0:0,0:0:0:0:
208,224,245207,2,0,P|224:296|232:320,1,80.9999975280763,2|0,0:0|0:0,0:0:0:0:
312,116,245544,2,0,P|264:88|224:76,1,80.9999975280763,8|2,0:0|0:0,0:0:0:0:
76,144,245881,1,0,0:0:0:0:
140,224,246050,1,2,0:0:0:0:
248,240,246219,6,0,L|356:212,1,80.9999975280763,4|0,0:0|0:0,0:0:0:0:
204,128,246556,1,2,0:0:0:0:
136,264,246724,2,0,L|156:360,1,80.9999975280763,0|8,0:0|0:0,0:0:0:0:
16,184,247061,1,2,0:0:0:0:
16,184,247399,6,0,P|68:124|152:120,1,161.999995056153,4|2,0:0|0:0,0:0:0:0:
288,272,247904,2,0,L|380:244,1,80.9999975280763,4|0,0:0|0:0,0:0:0:0:
324,84,248241,1,0,0:0:0:0:
296,280,248410,1,8,0:0:0:0:
296,280,248494,1,8,0:0:0:0:
296,280,248578,2,8,L|276:324,1,40.4999987640381
160,208,248747,2,0,L|140:164,1,40.4999987640381,8|8,0:0|0:0,0:0:0:0:
228,16,248916,5,4,0:0:0:0:
228,16,249253,1,8,0:0:0:0:
34,137,249421,1,8,0:0:0:0:
264,141,249590,5,8,0:0:0:0:
195,298,249758,1,8,0:0:0:0:
253,109,249927,1,8,0:0:0:0:
371,258,250096,6,0,L|486:220,1,90,4|0,0:0|0:0,0:0:0:0:
76,236,250433,1,8,0:0:0:0:
276,112,250601,1,8,0:0:0:0:
240,312,250770,1,8,0:0:0:0:
133,100,250938,5,8,0:0:0:0:
351,285,251107,1,8,0:0:0:0:
128,77,251275,1,8,0:0:0:0:
162,358,251444,6,0,L|182:247,1,90,4|0,0:0|0:0,0:0:0:0:
440,144,251781,1,8,0:0:0:0:
183,47,251950,1,8,0:0:0:0:
307,312,252118,1,8,0:0:0:0:
420,44,252287,5,8,0:0:0:0:
84,312,252455,1,8,0:0:0:0:
420,12,252624,1,8,0:0:0:0:
291,279,252793,6,2,B|153:185|153:185|361:97|361:97|293:213,1,526.499975898744,4|2,2:0|0:0,0:1:0:0:
299,216,254394,1,2,0:0:0:0:
299,216,254478,6,0,L|239:240,1,45,2|8,3:0|0:0,0:0:0:0:
132,324,254647,2,0,P|212:344|272:388,1,116.999994644165,2|6,3:0|0:3,0:0:0:0:
359,284,254984,1,6,0:3:0:0:
172,126,255152,1,8,0:0:0:0:
312,112,255321,5,4,0:3:0:0:
293,173,255405,1,4,0:3:0:0:
248,220,255490,1,4,0:3:0:0:
192,252,255574,1,4,0:3:0:0:
133,271,255658,6,0,L|140:315|147:359,1,90,4|2,0:0|0:0,0:0:0:0:
400,236,255995,1,8,0:0:0:0:
264,56,256164,2,0,L|254:158,1,90,2|8,0:0|0:0,0:0:0:0:
49,220,256501,2,0,P|83:191|124:174,1,90,2|8,0:0|0:0,0:0:0:0:
495,221,256838,2,0,P|444:150|357:150,1,180,4|2,0:0|0:0,0:0:0:0:
147,359,257343,5,8,0:0:0:0:
400,236,257512,1,2,0:0:0:0:
199,137,257681,1,8,0:0:0:0:
279,344,257849,1,2,0:0:0:0:
307,10,258018,1,8,0:0:0:0:
35,155,258186,1,2,0:0:0:0:
287,264,258355,6,0,L|278:174,1,90,4|2,0:0|0:0,0:0:0:0:
141,38,258692,1,8,0:0:0:0:
13,303,258860,2,0,P|53:284|97:272,1,90,2|8,0:0|0:0,0:0:0:0:
422,21,259198,2,0,P|416:65|408:109,1,90,2|8,0:0|0:0,0:0:0:0:
190,356,259535,6,0,P|177:289|168:222,1,135,4|0,0:0|0:0,0:0:0:0:
168,222,259872,1,8,0:0:0:0:
89,371,260040,1,8,0:0:0:0:
287,264,260209,1,2,0:0:0:0:
69,171,260377,1,8,0:0:0:0:
314,63,260546,1,8,0:0:0:0:
325,70,260630,1,8,0:0:0:0:
330,82,260715,1,8,0:0:0:0:
332,95,260799,1,8,0:0:0:0:
330,108,260883,1,8,0:0:0:0:
324,120,260967,1,8,0:0:0:0:
313,128,261052,6,0,P|253:117|219:106,1,90,4|2,0:0|0:0,0:0:0:0:
512,8,261389,2,0,P|500:97|483:185,1,180,8|8,0:0|0:0,0:0:0:0:
225,108,261895,1,2,0:0:0:0:
351,297,262063,1,8,0:0:0:0:
277,32,262232,6,0,P|192:19|133:82,1,180,2|2,0:0|0:0,0:0:0:0:
223,372,262737,2,0,P|236:329|244:284,1,90,8|2,0:0|0:0,0:0:0:0:
401,150,263074,1,8,0:0:0:0:
145,226,263243,1,2,0:0:0:0:
462,278,263412,5,8,0:0:0:0:
225,108,263580,2,0,B|222:167|222:167|234:204|234:204|236:250|246:289,1,180,4|2,0:0|0:0,0:0:0:0:
469,251,264086,5,8,0:0:0:0:
239,93,264255,2,0,B|235:157|235:157|248:198|248:198|251:249|261:287,1,198.000006042481,4|2,0:0|0:0,0:0:0:0:
475,222,264760,5,8,0:0:0:0:
258,82,264929,2,0,B|254:153|254:153|268:198|268:198|271:253|281:294,1,216,4|0,0:0|0:0,0:0:0:0:
140,380,265266,6,0,P|142:357|148:335,1,45,8|0,0:0|0:0,0:0:0:0:
36,258,265434,1,8,0:0:0:0:
36,258,265519,1,8,0:0:0:0:
36,258,265603,2,8,P|33:235|27:213,1,45
120,146,265771,5,8,0:3:0:0:
142,123,265856,1,8,0:3:0:0:
155,94,265940,1,4,0:3:0:0:
163,63,266024,1,4,0:3:0:0:
118,32,266108,6,0,L|122:54|126:76,1,45,8|0,0:0|0:0,0:0:0:0:
121,230,266277,2,0,P|139:242|158:255,1,45,8|0,0:0|0:0,0:0:0:0:
280,376,266446,6,0,P|365:340|391:331,1,90,4|8,0:0|0:0,0:0:0:0:
512,195,266783,1,2,0:0:0:0:
318,110,266951,2,0,P|305:206|302:228,1,90,8|0,0:0|0:0,0:0:0:0:
361,342,267288,1,8,0:0:0:0:
192,200,267457,1,2,0:0:0:0:
412,72,267626,6,0,P|341:19|252:33,1,180,12|8,0:0|0:0,0:0:0:0:
140,340,268131,1,2,0:0:0:0:
318,110,268300,1,8,0:0:0:0:
432,295,268468,2,0,P|354:272|306:257,1,90,2|8,0:0|0:0,0:0:0:0:
144,104,268805,1,2,0:0:0:0:
212,348,268974,1,8,0:0:0:0:
397,191,269143,6,0,L|414:92,1,90,2|8,0:0|0:0,0:0:0:0:
260,0,269480,1,2,0:0:0:0:
76,192,269648,2,0,P|153:210|193:232,1,90,8|0,0:0|0:0,0:0:0:0:
336,312,269985,1,8,0:0:0:0:
244,108,270154,1,2,0:0:0:0:
64,324,270322,6,2,L|188:280,1,90,12|0,0:0|0:0,0:1:0:0:
400,192,270660,1,2,0:0:0:0:
176,36,270828,1,12,0:0:0:0:
244,236,270997,5,2,0:0:0:0:
244,236,271081,1,8,0:0:0:0:
244,236,271165,2,10,L|268:311,1,45,8|8,0:0|0:0,0:1:0:0:
328,88,271334,2,2,L|272:60,1,45,8|8,0:0|0:0,0:1:0:0:
152,264,271502,1,8,0:0:0:0:
177,300,271587,1,8,0:0:0:0:
213,318,271671,1,8,0:0:0:0:
257,319,271755,1,8,0:0:0:0:
301,306,271839,5,4,0:0:0:0:
382,79,272008,1,8,0:0:0:0:
131,351,272177,2,0,P|153:259|157:242,1,90,0|8,0:0|0:0,0:0:0:0:
117,53,272514,1,2,0:0:0:0:
288,182,272682,1,8,0:0:0:0:
65,268,272851,1,2,0:0:0:0:
458,264,273019,6,0,P|366:260|294:344,1,180,4|8,0:0|0:0,0:0:0:0:
79,159,273525,1,0,0:0:0:0:
201,331,273694,1,8,0:0:0:0:
352,48,273862,2,0,P|340:104|332:166,1,90,2|8,0:0|0:0,0:0:0:0:
400,344,274199,1,2,0:0:0:0:
120,343,274368,6,0,P|108:231|96:151,1,180,4|8,0:0|0:0,0:0:0:0:
412,28,274874,1,0,0:0:0:0:
256,192,275042,1,8,0:0:0:0:
448,192,275211,5,2,0:0:0:0:
128,32,275379,1,8,0:0:0:0:
212,380,275548,1,2,0:0:0:0:
0,244,275716,6,2,P|79:223|127:203,1,90,10|0,3:1|0:0,0:1:0:0:
508,180,276053,2,2,P|457:166|402:147,1,90,10|0,3:1|0:0,0:1:0:0:
255,0,276391,1,10,3:1:0:0:
188,336,276559,1,4,0:3:0:0:
188,336,276643,1,4,0:3:0:0:
188,336,276728,1,10,3:1:0:0:
16,160,276896,1,0,0:0:0:0:
325,244,277065,6,2,P|372:251|388:139,1,180,4|2,0:0|0:0,0:1:0:0:
182,77,277570,2,0,P|186:121|193:166,1,90,0|2,0:0|0:0,0:0:0:0:
313,333,277908,2,0,P|319:288|324:243,1,90,8|0,0:0|0:0,0:0:0:0:
295,141,278245,1,2,0:0:0:0:
92,270,278413,6,0,L|198:254,1,90,2|0,0:0|0:0,0:0:0:0:
269,45,278750,2,0,P|312:55|357:61,1,90,2|0,0:0|0:0,0:0:0:0:
193,166,279087,1,2,0:0:0:0:
193,166,279172,1,2,0:0:0:0:
193,166,279256,1,8,0:0:0:0:
73,57,279425,6,0,P|25:102|30:167,1,135,4|0,0:0|0:0,0:0:0:0:
14,190,279762,2,0,L|192:165,1,180,4|2,0:0|0:0,0:0:0:0:
313,53,280267,1,0,0:0:0:0:
192,165,280436,1,2,0:0:0:0:
344,224,280604,1,8,0:0:0:0:
287,143,280773,1,2,0:0:0:0:
312,314,280942,1,2,0:0:0:0:
460,127,281110,6,0,B|429:134|398:149|398:149|353:135|353:135|286:142,1,180,4|2,0:0|0:0,0:0:0:0:
236,371,281616,1,8,0:0:0:0:
106,212,281784,1,2,0:0:0:0:
106,212,281869,1,2,0:0:0:0:
106,212,281953,1,8,0:0:0:0:
144,371,282122,6,0,P|163:308|224:284,1,135,4|0,0:0|0:0,0:0:0:0:
249,295,282459,2,0,L|259:115,1,180,4|8,0:0|0:0,0:0:0:0:
220,41,282880,1,8,0:0:0:0:
220,41,282964,2,0,L|226:137,1,90,8|8,0:0|0:0,0:0:0:0:
417,263,283301,6,0,L|422:173,1,90,8|8,0:0|0:0,0:0:0:0:
422,173,283554,1,8,0:0:0:0:
421,173,283639,1,8,0:0:0:0:
98,125,283807,5,8,0:0:0:0:
98,125,283891,1,8,0:0:0:0:
98,125,283976,1,8,0:0:0:0:
341,30,284144,5,8,0:0:0:0:
337,61,284228,1,8,0:0:0:0:
332,92,284313,1,8,0:0:0:0:
328,123,284397,1,8,0:0:0:0:
351,161,284481,5,8,0:0:0:0:
308,144,284566,1,8,0:0:0:0:
265,157,284650,1,8,0:0:0:0:
242,195,284734,1,8,0:0:0:0:
242,239,284818,1,8,0:0:0:0:
268,275,284903,1,8,0:0:0:0:
311,287,284987,2,0,P|343:279|367:268,1,45,8|0,0:0|0:0,0:0:0:0:
145,383,285156,6,0,P|158:275|165:168,1,216,4|2,0:0|0:0,0:0:0:0:
177,160,285998,2,0,P|172:124|169:88,1,72,2|0,0:0|0:0,0:0:0:0:
226,15,286335,1,2,0:0:0:0:
22,27,286504,6,0,P|23:95|84:125,1,144
160,270,287178,2,0,L|303:254,1,144,2|0,0:0|0:0,0:0:0:0:
409,384,287852,1,0,0:0:0:0:
244,340,288021,6,0,L|272:136,1,180,4|0,0:0|0:0,0:0:0:0:
284,24,288527,1,2,0:0:0:0:
456,204,288695,2,0,P|388:184|352:176,1,90,8|2,0:0|0:0,0:0:0:0:
180,64,289032,1,0,0:0:0:0:
116,248,289201,6,2,L|144:352,1,90,4|0,0:0|0:0,0:1:0:0:
344,116,289538,1,2,0:0:0:0:
272,284,289707,1,12,0:0:0:0:
188,136,289875,1,2,0:0:0:0:
188,136,289959,1,8,0:0:0:0:
188,136,290044,1,8,0:0:0:0:
400,296,290212,2,0,P|404:251|411:206,1,90,12|2,0:0|0:0,0:0:0:0:
396,24,290549,1,4,0:0:0:0:
160,224,290718,6,0,P|202:208|245:196,1,90,0|2,0:0|0:0,0:0:0:0:
292,72,291055,1,8,0:0:0:0:
184,308,291224,1,2,0:0:0:0:
184,308,291308,1,2,0:0:0:0:
184,308,291392,1,8,0:0:0:0:
344,168,291561,1,2,0:0:0:0:
344,168,291645,1,2,0:0:0:0:
344,168,291729,1,8,0:0:0:0:
172,72,291898,1,2,0:0:0:0:
172,72,291982,1,2,0:0:0:0:
172,72,292066,1,8,0:0:0:0:
344,168,292235,6,0,L|336:232,1,45,8|8,0:0|0:0,0:0:0:0:
184,308,292404,2,8,L|200:392,1,45
428,360,292572,2,2,P|416:304|408:256,1,90,4|0,0:0|0:0,0:1:0:0:
192,144,292909,1,2,0:0:0:0:
320,272,293078,1,12,0:0:0:0:
316,32,293246,5,2,0:0:0:0:
316,32,293331,1,8,0:0:0:0:
316,32,293415,2,0,L|292:128,1,90,4|0,0:0|0:0,0:0:0:0:
160,224,293752,2,0,P|100:200|56:192,1,90,8|0,0:0|0:0,0:0:0:0:
294,119,294089,1,2,0:0:0:0:
276,344,294258,2,2,L|256:232,1,90,0|8,0:0|0:0,0:1:0:0:
444,88,294595,6,2,P|431:132|422:176,1,90,0|2,0:0|0:0,0:1:0:0:
184,152,294932,1,8,0:0:0:0:
344,272,295101,1,2,0:0:0:0:
316,80,295269,1,0,0:0:0:0:
316,80,295353,1,8,0:0:0:0:
316,80,295438,1,2,0:0:0:0:
176,320,295606,1,8,0:0:0:0:
280,192,295775,1,0,0:0:0:0:
76,116,295943,6,2,P|132:56|252:68,1,180,12|2,0:0|0:0,0:1:0:0:
368,152,296449,1,8,0:0:0:0:
260,288,296618,2,0,L|245:199,1,90,4|0,0:0|0:0,0:0:0:0:
308,44,296955,1,2,0:0:0:0:
245,199,297123,1,8,0:0:0:0:
56,228,297292,6,2,P|112:208|176:188,1,90,4|0,0:0|0:0,0:1:0:0:
420,136,297629,1,2,0:0:0:0:
276,260,297797,1,8,0:0:0:0:
248,72,297966,1,2,0:0:0:0:
368,232,298135,5,8,0:0:0:0:
244,164,298303,1,2,0:0:0:0:
364,92,298472,1,8,0:0:0:0:
320,285,298640,6,0,B|316:236|316:236|335:205|335:205|319:163|315:112,1,180,4|0,0:0|0:0,0:0:0:0:
215,349,299146,1,8,0:0:0:0:
492,273,299315,6,0,P|487:189|407:159,1,180,4|2,0:0|0:0,0:0:0:0:
163,13,299820,1,8,0:0:0:0:
215,267,299989,6,0,B|219:218|219:218|200:187|200:187|216:145|220:94,1,180,4|2,0:0|0:0,0:0:0:0:
324,369,300494,1,8,0:0:0:0:
31,260,300663,6,0,P|36:176|116:146,1,180,4|2,0:0|0:0,0:0:0:0:
283,35,301169,6,0,P|287:21|292:7,5,30,0|0|0|0|0|0,0:1|0:1|0:1|0:1|0:1|0:1,0:1:0:0:
238,68,301506,6,2,L|245:120,2,30
307,197,301674,2,2,L|300:249,2,30
256,326,301843,1,4,0:0:0:0:
256,192,301927,12,0,308248,0:0:0:0:
