osu file format v14

[General]
AudioFilename: audio.mp3
AudioLeadIn: 0
PreviewTime: 54003
Countdown: 0
SampleSet: Normal
StackLeniency: 0.7
Mode: 1
LetterboxInBreaks: 0
WidescreenStoryboard: 0

[Editor]
Bookmarks: 43891,97823,124874,161700
DistanceSpacing: 0.8
BeatDivisor: 4
GridSize: 32
TimelineZoom: 2.999999

[Metadata]
Title:Walkuere Attack!
TitleUnicode:Walküre Attack!
Artist:WALKUERE
ArtistUnicode:ワルキューレ
Creator:Aloda
Version:Inner Oni
Source:マクロスΔ
Tags:walkure macross delta デルタ 美雲 ギンヌメール Mikumo Guynemer JUNNA カナメ バッカニア Kaname Buccaneer 安野希世乃 Yasuno Kiyono フレイア ヴィオン Freyja Wion 鈴木みのり Suzuki Minori マキナ 中島 Makina Nakajima 西田望見 Nishida Nozomi レイナ プラウラー Reina Prowler 東山奈央 Touyama Nao
BeatmapID:1401343
BeatmapSetID:661966

[Difficulty]
HPDrainRate:4
CircleSize:2
OverallDifficulty:7
ApproachRate:7
SliderMultiplier:1.4
SliderTickRate:1

[Events]
//Background and Video events
0,0,"attack.png",0,43
//Break Periods
//Storyboard Layer 0 (Background)
//Storyboard Layer 1 (Fail)
//Storyboard Layer 2 (Pass)
//Storyboard Layer 3 (Foreground)
//Storyboard Sound Samples

[TimingPoints]
-603,337.116529947185,4,1,0,80,1,0
576,-106.382978723404,4,1,0,80,0,0
661,-103.092783505155,4,1,0,80,0,0
745,-100,4,1,0,80,0,0
11279,-98.0392156862745,4,1,0,80,0,0
11363,-95.2380952380952,4,1,0,80,0,0
11447,-93.4579439252336,4,1,0,80,0,0
11531,-90.9090909090909,4,1,0,80,0,0
16503,-91.743119266055,4,1,0,80,0,0
16588,-93.4579439252336,4,1,0,80,0,0
16672,-95.2380952380952,4,1,0,80,0,0
16756,-96.1538461538461,4,1,0,80,0,0
16840,-98.0392156862745,4,1,0,80,0,0
16925,-100,4,1,0,80,0,0
17093,-102.040816326531,4,1,0,80,0,0
17177,-103.092783505155,4,1,0,80,0,0
17262,-104.166666666667,4,1,0,80,0,0
17430,-106.382978723404,4,1,0,80,0,0
17514,-107.52688172043,4,1,0,80,0,0
17599,-108.695652173913,4,1,0,80,0,0
17767,-106.382978723404,4,1,0,80,0,0
17936,-104.166666666667,4,1,0,80,0,0
18104,-102.040816326531,4,1,0,80,0,0
18273,-100,4,1,0,80,0,0
27711,-83.3333333333333,4,1,0,80,0,0
28554,-89.2857142857143,4,1,0,80,0,0
28638,-90.9090909090909,4,1,0,80,0,0
28722,-92.5925925925926,4,1,0,80,0,0
28807,-94.3396226415094,4,1,0,80,0,0
28891,-96.1538461538461,4,1,0,80,0,0
28975,-98.0392156862745,4,1,0,80,0,0
29059,-100,4,1,0,80,0,0
38750,-101.010101010101,4,1,0,80,0,0
38835,-102.040816326531,4,1,0,80,0,0
39003,-104.166666666667,4,1,0,80,0,0
39172,-106.382978723404,4,1,0,80,0,0
39340,-108.695652173913,4,1,0,80,0,0
39509,-111.111111111111,4,1,0,80,0,0
39593,-112.359550561798,4,1,0,80,0,0
39677,-113.636363636364,4,1,0,80,0,0
39846,-100,4,1,0,80,0,0
42543,-103.092783505155,4,1,0,80,0,0
42711,-106.382978723404,4,1,0,80,0,0
42795,-107.52688172043,4,1,0,80,0,0
42880,-108.695652173913,4,1,0,80,0,0
43048,-112.359550561798,4,1,0,80,0,0
43217,-116.279069767442,4,1,0,80,0,0
43385,-120.481927710843,4,1,0,80,0,0
43554,-125,4,1,0,80,0,0
43891,-111.111111111111,4,1,0,80,0,0
48441,-125,4,1,0,80,0,0
51981,-100,4,1,0,80,0,0
54684,-83.3333333333333,4,1,0,100,0,1
76091,-83.3333333333333,4,1,0,80,0,0
86531,-100,4,1,0,80,0,0
97992,-102.040816326531,4,1,0,80,0,0
98076,-103.092783505155,4,1,0,80,0,0
98161,-104.166666666667,4,1,0,80,0,0
98329,-106.382978723404,4,1,0,80,0,0
98413,-107.52688172043,4,1,0,80,0,0
98498,-108.695652173913,4,1,0,80,0,0
98666,-106.382978723404,4,1,0,80,0,0
98835,-104.166666666667,4,1,0,80,0,0
99003,-102.040816326531,4,1,0,80,0,0
99172,-100,4,1,0,80,0,0
108610,-83.3333333333333,4,1,0,80,0,0
109451,-89.2857142857143,4,1,0,80,0,0
109535,-90.9090909090909,4,1,0,80,0,0
109619,-92.5925925925926,4,1,0,80,0,0
109704,-94.3396226415094,4,1,0,80,0,0
109788,-96.1538461538461,4,1,0,80,0,0
109872,-98.0392156862745,4,1,0,80,0,0
109958,-100,4,1,0,80,0,0
119649,-101.010101010101,4,1,0,80,0,0
119734,-102.040816326531,4,1,0,80,0,0
119902,-104.166666666667,4,1,0,80,0,0
120071,-106.382978723404,4,1,0,80,0,0
120239,-108.695652173913,4,1,0,80,0,0
120408,-111.111111111111,4,1,0,80,0,0
120492,-112.359550561798,4,1,0,80,0,0
120576,-113.636363636364,4,1,0,80,0,0
120745,-100,4,1,0,80,0,0
123441,-103.092783505155,4,1,0,80,0,0
123609,-106.382978723404,4,1,0,80,0,0
123693,-107.52688172043,4,1,0,80,0,0
123778,-108.695652173913,4,1,0,80,0,0
123946,-112.359550561798,4,1,0,80,0,0
124115,-116.279069767442,4,1,0,80,0,0
124283,-120.481927710843,4,1,0,80,0,0
124452,-125,4,1,0,80,0,0
124790,-111.111111111111,4,1,0,80,0,0
129340,-125,4,1,0,80,0,0
132880,-100,4,1,0,80,0,0
135592,-83.3333333333333,4,1,0,100,0,1
156644,-90.9090909090909,4,1,0,100,0,1
156812,-95.2380952380952,4,1,0,100,0,1
156998,-100,4,1,0,60,0,0
170464,-83.3333333333333,4,1,0,90,0,0
192543,-100,4,1,0,90,0,0
194734,-90.9090909090909,4,1,0,90,0,0
197093,-86.9565217391304,4,1,0,90,0,0
197262,-86.2068965517241,4,1,0,90,0,0
197430,-84.7457627118644,4,1,0,90,0,0
197599,-83.3333333333333,4,1,0,90,0,0
219172,-83.3333333333333,4,1,0,10,0,0
220183,-133.333333333333,4,1,0,20,0,0
228441,-117.647058823529,4,1,0,50,0,0
240745,-100,4,1,0,60,0,0
243441,-100,4,1,0,80,0,0
249003,-97.0873786407767,4,1,0,90,0,0
249340,-94.3396226415094,4,1,0,90,0,0
249677,-91.743119266055,4,1,0,90,0,0
250352,-89.2857142857143,4,1,0,90,0,0
250689,-86.9565217391304,4,1,0,90,0,0
251026,-84.7457627118644,4,1,0,90,0,0
251700,-82.6446280991736,4,1,0,90,0,0
252037,-80.6451612903226,4,1,0,90,0,0
252374,-78.7401574803149,4,1,0,90,0,0
254228,-96.1538461538461,4,1,0,80,0,0
254312,-95.2380952380952,4,1,0,80,0,0
254396,-94.3396226415094,4,1,0,80,0,0
254565,-92.5925925925926,4,1,0,80,0,0
254649,-91.743119266055,4,1,0,80,0,0
254734,-90.9090909090909,4,1,0,80,0,0
254818,-90.0900900900901,4,1,0,80,0,0
254902,-89.2857142857143,4,1,0,80,0,0
254986,-88.4955752212389,4,1,0,80,0,0
255071,-87.719298245614,4,1,0,80,0,0
255155,-86.9565217391304,4,1,0,80,0,0
255239,-86.2068965517241,4,1,0,80,0,0
255408,-84.7457627118644,4,1,0,80,0,0
255605,-83.3333333333333,4,1,0,100,0,1
277012,-83.3333333333333,4,1,0,100,0,0
287936,-100,4,1,0,100,0,0

[HitObjects]
256,192,576,5,8,0:0:0:0:
256,192,661,1,8,0:0:0:0:
256,192,745,1,4,0:0:0:0:
256,192,1082,1,8,0:0:0:0:
256,192,1251,1,8,0:0:0:0:
256,192,1419,1,0,0:0:0:0:
256,192,1756,1,8,0:0:0:0:
256,192,2262,1,0,0:0:0:0:
256,192,2599,1,0,0:0:0:0:
256,192,2768,1,0,0:0:0:0:
256,192,3105,1,8,0:0:0:0:
256,192,3273,1,8,0:0:0:0:
256,192,3442,1,4,0:0:0:0:
256,192,3948,1,0,0:0:0:0:
256,192,4285,1,8,0:0:0:0:
256,192,4453,1,0,0:0:0:0:
256,192,4959,1,8,0:0:0:0:
256,192,5127,1,0,0:0:0:0:
256,192,5240,1,0,0:0:0:0:
256,192,5352,1,8,0:0:0:0:
256,192,5465,1,0,0:0:0:0:
256,192,5577,1,0,0:0:0:0:
256,192,5689,1,8,0:0:0:0:
256,192,5802,1,0,0:0:0:0:
256,192,5914,1,0,0:0:0:0:
256,192,6026,1,0,0:0:0:0:
256,192,6139,1,12,0:0:0:0:
256,192,6476,1,0,0:0:0:0:
256,192,6645,1,0,0:0:0:0:
256,192,6813,1,8,0:0:0:0:
256,192,7150,1,8,0:0:0:0:
256,192,7487,1,8,0:0:0:0:
256,192,7656,1,0,0:0:0:0:
256,192,7824,1,0,0:0:0:0:
256,192,7993,1,8,0:0:0:0:
256,192,8162,1,0,0:0:0:0:
256,192,8499,1,0,0:0:0:0:
256,192,8667,1,0,0:0:0:0:
256,192,8836,1,12,0:0:0:0:
256,192,9004,1,0,0:0:0:0:
256,192,9173,1,0,0:0:0:0:
256,192,9341,1,12,0:0:0:0:
256,192,9510,1,0,0:0:0:0:
256,192,9594,1,0,0:0:0:0:
256,192,9679,1,0,0:0:0:0:
256,192,9847,1,12,0:0:0:0:
256,192,10016,1,0,0:0:0:0:
256,192,10184,1,8,0:0:0:0:
256,192,10269,1,8,0:0:0:0:
256,192,10353,1,0,0:0:0:0:
256,192,10437,1,0,0:0:0:0:
256,192,10521,1,0,0:0:0:0:
256,192,10690,1,12,0:0:0:0:
256,192,11027,1,0,0:0:0:0:
256,192,11196,1,8,0:0:0:0:
256,192,11280,1,8,0:0:0:0:
256,192,11364,1,8,0:0:0:0:
256,192,11448,1,8,0:0:0:0:
256,192,11533,1,4,0:0:0:0:
256,192,11701,1,0,0:0:0:0:
256,192,11786,1,0,0:0:0:0:
256,192,11870,1,0,0:0:0:0:
256,192,12038,1,8,0:0:0:0:
256,192,12207,1,0,0:0:0:0:
256,192,12291,1,0,0:0:0:0:
256,192,12375,1,8,0:0:0:0:
256,192,12544,1,8,0:0:0:0:
256,192,12713,1,8,0:0:0:0:
256,192,12797,1,0,0:0:0:0:
256,192,12881,1,0,0:0:0:0:
256,192,13050,1,0,0:0:0:0:
256,192,13218,1,8,0:0:0:0:
256,192,13387,1,0,0:0:0:0:
256,192,13471,1,0,0:0:0:0:
256,192,13555,1,8,0:0:0:0:
256,192,13724,1,0,0:0:0:0:
256,192,13808,1,0,0:0:0:0:
256,192,13893,1,8,0:0:0:0:
256,192,13977,1,8,0:0:0:0:
256,192,14061,1,0,0:0:0:0:
256,192,14145,1,8,0:0:0:0:
256,192,14230,1,8,0:0:0:0:
256,192,14398,1,0,0:0:0:0:
256,192,14482,1,0,0:0:0:0:
256,192,14567,1,0,0:0:0:0:
256,192,14735,1,8,0:0:0:0:
256,192,14904,1,0,0:0:0:0:
256,192,14988,1,0,0:0:0:0:
256,192,15072,1,8,0:0:0:0:
256,192,15241,1,8,0:0:0:0:
256,192,15410,1,8,0:0:0:0:
256,192,15494,1,0,0:0:0:0:
256,192,15578,1,0,0:0:0:0:
256,192,15747,1,8,0:0:0:0:
256,192,15915,1,0,0:0:0:0:
256,192,16084,1,0,0:0:0:0:
256,192,16168,1,8,0:0:0:0:
256,192,16252,1,8,0:0:0:0:
256,192,16421,1,0,0:0:0:0:
256,192,16505,1,8,0:0:0:0:
256,192,16589,1,0,0:0:0:0:
256,192,16674,1,0,0:0:0:0:
256,192,16758,1,8,0:0:0:0:
256,192,16842,1,8,0:0:0:0:
256,192,16927,1,0,0:0:0:0:
256,192,17095,1,8,0:0:0:0:
256,192,17179,1,0,0:0:0:0:
256,192,17264,1,8,0:0:0:0:
256,192,17432,1,0,0:0:0:0:
256,192,17517,1,0,0:0:0:0:
256,192,17601,1,8,0:0:0:0:
256,192,17769,1,0,0:0:0:0:
256,192,17938,1,8,0:0:0:0:
256,192,18106,1,8,0:0:0:0:
256,192,18275,5,4,0:0:0:0:
256,192,18612,1,0,0:0:0:0:
256,192,18781,1,0,0:0:0:0:
256,192,19034,1,0,0:0:0:0:
256,192,19118,1,0,0:0:0:0:
256,192,19286,1,0,0:0:0:0:
256,192,19455,1,0,0:0:0:0:
256,192,19539,1,0,0:0:0:0:
256,192,19792,1,0,0:0:0:0:
256,192,19961,1,0,0:0:0:0:
256,192,20129,1,0,0:0:0:0:
256,192,20298,1,0,0:0:0:0:
256,192,20635,1,0,0:0:0:0:
256,192,20803,1,0,0:0:0:0:
256,192,20888,1,0,0:0:0:0:
256,192,20972,1,0,0:0:0:0:
256,192,21141,1,0,0:0:0:0:
256,192,21309,1,0,0:0:0:0:
256,192,21478,1,0,0:0:0:0:
256,192,21562,1,0,0:0:0:0:
0,192,21646,1,0,0:0:0:0:
256,192,21815,1,0,0:0:0:0:
256,192,21983,1,0,0:0:0:0:
256,192,22152,1,0,0:0:0:0:
256,192,22236,1,0,0:0:0:0:
256,192,22489,1,0,0:0:0:0:
256,192,22826,1,0,0:0:0:0:
256,192,22995,1,0,0:0:0:0:
256,192,23163,1,0,0:0:0:0:
256,192,23332,1,0,0:0:0:0:
256,192,23500,1,0,0:0:0:0:
256,192,23585,1,0,0:0:0:0:
256,192,23669,1,0,0:0:0:0:
256,192,23922,1,0,0:0:0:0:
256,192,24006,1,0,0:0:0:0:
256,192,24175,1,0,0:0:0:0:
256,192,24343,1,0,0:0:0:0:
256,192,24512,1,0,0:0:0:0:
256,192,24680,1,0,0:0:0:0:
256,192,24849,1,0,0:0:0:0:
256,192,24933,1,0,0:0:0:0:
256,192,25186,1,0,0:0:0:0:
256,192,25354,1,0,0:0:0:0:
256,192,25523,1,0,0:0:0:0:
256,192,25692,1,0,0:0:0:0:
256,192,26029,1,0,0:0:0:0:
256,192,26197,1,0,0:0:0:0:
256,192,26282,1,0,0:0:0:0:
256,192,26366,1,0,0:0:0:0:
256,192,26534,1,0,0:0:0:0:
256,192,26703,1,0,0:0:0:0:
256,192,26871,1,0,0:0:0:0:
256,192,27040,1,0,0:0:0:0:
256,192,27124,1,0,0:0:0:0:
256,192,27293,1,0,0:0:0:0:
256,192,27377,1,0,0:0:0:0:
256,192,27546,1,0,0:0:0:0:
256,192,27714,1,12,0:0:0:0:
256,192,27883,1,12,0:0:0:0:
256,192,28051,1,0,0:0:0:0:
256,192,28220,1,12,0:0:0:0:
256,192,28557,1,8,0:0:0:0:
256,192,28641,1,8,0:0:0:0:
256,192,28726,1,8,0:0:0:0:
256,192,28810,1,8,0:0:0:0:
256,192,28894,1,8,0:0:0:0:
32,192,28978,1,8,0:0:0:0:
256,192,29063,1,4,0:0:0:0:
256,192,29231,1,0,0:0:0:0:
256,192,29316,1,0,0:0:0:0:
256,192,29400,1,8,0:0:0:0:
256,192,29568,1,8,0:0:0:0:
256,192,29653,1,0,0:0:0:0:
256,192,29737,1,0,0:0:0:0:
256,192,29906,1,8,0:0:0:0:
256,192,30074,1,8,0:0:0:0:
256,192,30243,1,4,0:0:0:0:
256,192,30580,1,0,0:0:0:0:
256,192,30664,1,0,0:0:0:0:
256,192,30748,1,8,0:0:0:0:
256,192,30917,1,8,0:0:0:0:
256,192,31001,1,8,0:0:0:0:
256,192,31085,1,0,0:0:0:0:
256,192,31170,1,0,0:0:0:0:
256,192,31254,1,8,0:0:0:0:
256,192,31423,1,0,0:0:0:0:
256,192,31591,1,8,0:0:0:0:
256,192,31760,1,8,0:0:0:0:
256,192,31844,1,0,0:0:0:0:
256,192,31928,1,0,0:0:0:0:
256,192,32097,1,0,0:0:0:0:
256,192,32265,1,8,0:0:0:0:
256,192,32350,1,0,0:0:0:0:
256,192,32434,1,8,0:0:0:0:
256,192,32602,1,0,0:0:0:0:
256,192,32687,1,0,0:0:0:0:
256,192,32771,1,8,0:0:0:0:
256,192,32940,1,4,0:0:0:0:
256,192,33277,1,8,0:0:0:0:
256,192,33361,1,8,0:0:0:0:
256,192,33445,1,0,0:0:0:0:
256,192,33614,1,0,0:0:0:0:
256,192,33698,1,8,0:0:0:0:
256,192,33782,1,8,0:0:0:0:
256,192,33867,1,0,0:0:0:0:
256,192,33951,1,8,0:0:0:0:
256,192,34035,1,8,0:0:0:0:
256,192,34120,1,0,0:0:0:0:
256,192,34288,1,8,0:0:0:0:
256,192,34372,1,8,0:0:0:0:
256,192,34457,1,4,0:0:0:0:
256,192,34794,1,0,0:0:0:0:
256,192,34962,1,8,0:0:0:0:
256,192,35047,1,8,0:0:0:0:
256,192,35131,1,0,0:0:0:0:
256,192,35299,1,0,0:0:0:0:
256,192,35468,1,0,0:0:0:0:
256,192,35637,1,12,0:0:0:0:
256,192,35974,1,0,0:0:0:0:
256,192,36058,1,8,0:0:0:0:
256,192,36142,1,0,0:0:0:0:
256,192,36311,1,8,0:0:0:0:
256,192,36395,1,8,0:0:0:0:
256,192,36479,1,0,0:0:0:0:
256,192,36648,1,0,0:0:0:0:
256,192,36732,1,0,0:0:0:0:
256,192,36816,1,8,0:0:0:0:
256,192,36985,1,4,0:0:0:0:
256,192,37322,1,0,0:0:0:0:
256,192,37406,1,0,0:0:0:0:
256,192,37491,1,8,0:0:0:0:
256,192,37659,1,0,0:0:0:0:
256,192,37744,1,8,0:0:0:0:
256,192,37828,1,8,0:0:0:0:
256,192,37912,1,0,0:0:0:0:
256,192,37996,1,8,0:0:0:0:
256,192,38081,1,0,0:0:0:0:
256,192,38165,1,0,0:0:0:0:
256,192,38333,1,12,0:0:0:0:
256,192,38671,1,8,0:0:0:0:
256,192,38755,1,8,0:0:0:0:
256,192,38839,1,0,0:0:0:0:
256,192,39008,1,0,0:0:0:0:
256,192,39176,1,8,0:0:0:0:
256,192,39345,1,8,0:0:0:0:
256,192,39513,1,0,0:0:0:0:
256,192,39598,1,0,0:0:0:0:
256,192,39682,1,0,0:0:0:0:
256,192,39850,1,4,0:0:0:0:
256,192,40019,1,8,0:0:0:0:
256,192,40103,1,8,0:0:0:0:
256,192,40188,1,0,0:0:0:0:
256,192,40356,1,0,0:0:0:0:
256,192,40525,1,0,0:0:0:0:
256,192,40609,1,8,0:0:0:0:
256,192,40693,1,8,0:0:0:0:
256,192,40862,1,0,0:0:0:0:
256,192,41030,1,0,0:0:0:0:
256,192,41199,1,8,0:0:0:0:
256,192,41283,1,8,0:0:0:0:
256,192,41368,1,0,0:0:0:0:
256,192,41536,1,0,0:0:0:0:
256,192,41705,1,8,0:0:0:0:
256,192,41873,1,0,0:0:0:0:
256,192,42042,1,8,0:0:0:0:
256,192,42210,1,0,0:0:0:0:
32,192,42295,1,0,0:0:0:0:
256,192,42379,1,0,0:0:0:0:
256,192,42547,1,8,0:0:0:0:
256,192,42716,1,8,0:0:0:0:
32,192,42800,1,8,0:0:0:0:
256,192,42885,1,0,0:0:0:0:
256,192,43053,1,0,0:0:0:0:
256,192,43222,1,8,0:0:0:0:
256,192,43390,1,8,0:0:0:0:
256,192,43559,1,4,0:0:0:0:
256,192,43896,1,0,0:0:0:0:
256,192,43980,1,0,0:0:0:0:
256,192,44064,1,8,0:0:0:0:
256,192,44233,1,0,0:0:0:0:
256,192,44402,1,8,0:0:0:0:
256,192,44486,1,8,0:0:0:0:
256,192,44570,1,0,0:0:0:0:
256,192,44739,1,8,0:0:0:0:
256,192,44907,1,0,0:0:0:0:
256,192,44992,1,0,0:0:0:0:
256,192,45076,1,8,0:0:0:0:
256,192,45160,1,8,0:0:0:0:
256,192,45244,1,0,0:0:0:0:
256,192,45413,1,8,0:0:0:0:
256,192,45497,1,8,0:0:0:0:
256,192,45581,1,0,0:0:0:0:
256,192,45750,1,0,0:0:0:0:
256,192,45919,1,0,0:0:0:0:
256,192,46087,1,8,0:0:0:0:
256,192,46171,1,0,0:0:0:0:
256,192,46256,1,0,0:0:0:0:
256,192,46424,1,0,0:0:0:0:
256,192,46593,1,8,0:0:0:0:
256,192,46761,1,8,0:0:0:0:
256,192,46846,1,8,0:0:0:0:
256,192,46930,1,0,0:0:0:0:
256,192,47098,1,0,0:0:0:0:
256,192,47267,1,8,0:0:0:0:
256,192,47436,1,0,0:0:0:0:
256,192,47604,1,0,0:0:0:0:
256,192,47688,1,8,0:0:0:0:
256,192,47773,1,0,0:0:0:0:
256,192,47857,1,0,0:0:0:0:
256,192,47941,1,12,0:0:0:0:
256,192,48447,1,0,0:0:0:0:
256,192,48616,1,8,0:0:0:0:
256,192,48953,1,8,0:0:0:0:
256,192,49121,1,8,0:0:0:0:
256,192,49290,1,4,0:0:0:0:
256,192,49795,1,0,0:0:0:0:
256,192,49964,1,8,0:0:0:0:
256,192,50133,1,0,0:0:0:0:
256,192,50301,1,0,0:0:0:0:
256,192,50470,1,0,0:0:0:0:
256,192,50638,1,12,0:0:0:0:
256,192,50975,1,8,0:0:0:0:
256,192,51144,1,0,0:0:0:0:
256,192,51312,1,0,0:0:0:0:
256,192,51481,1,0,0:0:0:0:
256,192,51650,1,8,0:0:0:0:
256,192,51818,1,0,0:0:0:0:
256,192,51987,5,12,0:0:0:0:
256,192,52155,1,0,0:0:0:0:
256,192,52240,1,0,0:0:0:0:
256,192,52324,1,0,0:0:0:0:
256,192,52492,1,12,0:0:0:0:
256,192,52661,1,0,0:0:0:0:
256,192,52829,1,12,0:0:0:0:
256,192,52998,1,12,0:0:0:0:
256,192,54684,5,12,0:0:0:0:
256,192,54852,1,0,0:0:0:0:
256,192,54936,1,0,0:0:0:0:
256,192,55021,1,8,0:0:0:0:
256,192,55189,1,0,0:0:0:0:
256,192,55274,1,8,0:0:0:0:
256,192,55358,1,8,0:0:0:0:
256,192,55442,1,8,0:0:0:0:
256,192,55526,1,0,0:0:0:0:
256,192,55611,1,0,0:0:0:0:
256,192,55695,1,8,0:0:0:0:
256,192,55864,1,12,0:0:0:0:
256,192,56201,1,0,0:0:0:0:
256,192,56285,1,0,0:0:0:0:
256,192,56369,1,8,0:0:0:0:
256,192,56453,1,8,0:0:0:0:
256,192,56538,1,0,0:0:0:0:
256,192,56622,1,8,0:0:0:0:
256,192,56706,1,8,0:0:0:0:
256,192,56875,1,0,0:0:0:0:
256,192,56959,1,0,0:0:0:0:
256,192,57043,1,8,0:0:0:0:
256,192,57128,1,8,0:0:0:0:
256,192,57212,1,0,0:0:0:0:
256,192,57381,1,4,0:0:0:0:
256,192,57549,1,8,0:0:0:0:
256,192,57633,1,8,0:0:0:0:
256,192,57718,1,0,0:0:0:0:
256,192,57886,1,8,0:0:0:0:
256,192,57970,1,0,0:0:0:0:
256,192,58055,1,0,0:0:0:0:
256,192,58139,1,8,0:0:0:0:
256,192,58223,1,8,0:0:0:0:
256,192,58308,1,0,0:0:0:0:
256,192,58392,1,8,0:0:0:0:
256,192,58560,1,4,0:0:0:0:
256,192,58898,1,8,0:0:0:0:
256,192,58982,1,0,0:0:0:0:
256,192,59066,1,0,0:0:0:0:
256,192,59235,1,8,0:0:0:0:
256,192,59319,1,0,0:0:0:0:
256,192,59403,1,8,0:0:0:0:
256,192,59488,1,8,0:0:0:0:
256,192,59572,1,0,0:0:0:0:
256,192,59656,1,8,0:0:0:0:
256,192,59740,1,0,0:0:0:0:
256,192,59825,1,0,0:0:0:0:
256,192,59909,1,8,0:0:0:0:
256,192,60077,1,4,0:0:0:0:
256,192,60246,1,8,0:0:0:0:
256,192,60330,1,0,0:0:0:0:
256,192,60415,1,8,0:0:0:0:
256,192,60583,1,0,0:0:0:0:
256,192,60667,1,0,0:0:0:0:
256,192,60752,1,8,0:0:0:0:
256,192,60836,1,0,0:0:0:0:
256,192,60920,1,8,0:0:0:0:
256,192,61005,1,8,0:0:0:0:
256,192,61089,1,0,0:0:0:0:
256,192,61257,1,0,0:0:0:0:
256,192,61342,1,0,0:0:0:0:
256,192,61426,1,8,0:0:0:0:
256,192,61510,1,0,0:0:0:0:
256,192,61594,1,0,0:0:0:0:
256,192,61679,1,8,0:0:0:0:
256,192,61763,1,8,0:0:0:0:
256,192,61932,1,8,0:0:0:0:
256,192,62016,1,0,0:0:0:0:
256,192,62100,1,8,0:0:0:0:
256,192,62184,1,8,0:0:0:0:
256,192,62269,1,0,0:0:0:0:
256,192,62353,1,0,0:0:0:0:
256,192,62437,1,8,0:0:0:0:
256,192,62606,1,4,0:0:0:0:
256,192,62943,1,0,0:0:0:0:
256,192,63027,1,0,0:0:0:0:
256,192,63112,1,8,0:0:0:0:
256,192,63280,1,4,0:0:0:0:
256,192,63617,1,8,0:0:0:0:
256,192,63701,1,0,0:0:0:0:
256,192,63786,1,8,0:0:0:0:
256,192,63954,1,4,0:0:0:0:
256,192,64291,1,0,0:0:0:0:
256,192,64376,1,0,0:0:0:0:
256,192,64460,1,8,0:0:0:0:
256,192,64629,1,0,0:0:0:0:
256,192,64713,1,0,0:0:0:0:
256,192,64797,1,8,0:0:0:0:
256,192,64881,1,8,0:0:0:0:
256,192,64966,1,0,0:0:0:0:
256,192,65050,1,8,0:0:0:0:
256,192,65134,1,0,0:0:0:0:
256,192,65219,1,0,0:0:0:0:
256,192,65303,1,8,0:0:0:0:
256,192,65387,1,0,0:0:0:0:
256,192,65471,1,8,0:0:0:0:
256,192,65556,1,8,0:0:0:0:
256,192,65640,1,0,0:0:0:0:
256,192,65724,1,0,0:0:0:0:
256,192,65808,1,8,0:0:0:0:
256,192,65893,1,0,0:0:0:0:
256,192,65977,1,0,0:0:0:0:
256,192,66061,1,0,0:0:0:0:
256,192,66146,1,8,0:0:0:0:
256,192,66230,1,0,0:0:0:0:
256,192,66314,1,8,0:0:0:0:
256,192,66398,1,0,0:0:0:0:
256,192,66483,1,8,0:0:0:0:
256,192,66567,1,8,0:0:0:0:
256,192,66651,1,0,0:0:0:0:
256,192,66736,1,8,0:0:0:0:
256,192,66820,1,0,0:0:0:0:
256,192,66904,1,8,0:0:0:0:
256,192,66988,1,0,0:0:0:0:
256,192,67073,1,0,0:0:0:0:
256,192,67157,1,8,0:0:0:0:
256,192,67241,1,8,0:0:0:0:
256,192,67325,1,0,0:0:0:0:
256,192,67410,1,0,0:0:0:0:
256,192,67494,1,8,0:0:0:0:
256,192,67578,1,0,0:0:0:0:
256,192,67663,1,8,0:0:0:0:
256,192,67747,1,8,0:0:0:0:
256,192,67831,1,0,0:0:0:0:
256,192,67915,1,8,0:0:0:0:
256,192,68000,1,0,0:0:0:0:
256,192,68084,1,8,0:0:0:0:
256,192,68168,1,0,0:0:0:0:
256,192,68253,1,0,0:0:0:0:
256,192,68337,1,8,0:0:0:0:
256,192,68421,1,8,0:0:0:0:
256,192,68505,1,0,0:0:0:0:
256,192,68590,1,8,0:0:0:0:
256,192,68674,1,0,0:0:0:0:
256,192,68758,1,0,0:0:0:0:
256,192,68843,1,8,0:0:0:0:
256,192,68927,1,0,0:0:0:0:
256,192,69011,1,0,0:0:0:0:
256,192,69095,1,0,0:0:0:0:
256,192,69180,1,8,0:0:0:0:
256,192,69264,1,8,0:0:0:0:
256,192,69348,1,4,0:0:0:0:
256,192,69685,1,8,0:0:0:0:
256,192,69770,1,8,0:0:0:0:
256,192,69854,1,4,0:0:0:0:
256,192,70022,1,8,0:0:0:0:
256,192,70107,1,0,0:0:0:0:
256,192,70191,1,8,0:0:0:0:
256,192,70275,1,0,0:0:0:0:
256,192,70360,1,8,0:0:0:0:
256,192,70444,1,8,0:0:0:0:
256,192,70528,1,0,0:0:0:0:
256,192,70612,1,0,0:0:0:0:
256,192,70697,1,8,0:0:0:0:
256,192,70781,1,8,0:0:0:0:
256,192,70865,1,4,0:0:0:0:
256,192,71202,1,8,0:0:0:0:
256,192,71287,1,0,0:0:0:0:
256,192,71371,1,8,0:0:0:0:
256,192,71455,1,8,0:0:0:0:
256,192,71539,1,0,0:0:0:0:
256,192,71624,1,8,0:0:0:0:
256,192,71708,1,0,0:0:0:0:
256,192,71792,1,8,0:0:0:0:
256,192,71877,1,0,0:0:0:0:
256,192,71961,1,0,0:0:0:0:
256,192,72045,1,12,0:0:0:0:
256,192,72382,1,0,0:0:0:0:
256,192,72467,1,8,0:0:0:0:
256,192,72551,1,0,0:0:0:0:
256,192,72635,1,0,0:0:0:0:
256,192,72719,1,8,0:0:0:0:
256,192,72804,1,0,0:0:0:0:
256,192,72888,1,8,0:0:0:0:
256,192,72972,1,8,0:0:0:0:
256,192,73056,1,8,0:0:0:0:
256,192,73141,1,8,0:0:0:0:
256,192,73225,1,0,0:0:0:0:
256,192,73309,1,0,0:0:0:0:
256,192,73394,1,12,0:0:0:0:
256,192,73731,1,0,0:0:0:0:
256,192,73815,1,0,0:0:0:0:
256,192,73899,1,8,0:0:0:0:
256,192,73984,1,0,0:0:0:0:
256,192,74068,1,8,0:0:0:0:
256,192,74152,1,8,0:0:0:0:
256,192,74236,1,0,0:0:0:0:
256,192,74321,1,8,0:0:0:0:
256,192,74405,1,0,0:0:0:0:
256,192,74489,1,0,0:0:0:0:
256,192,74573,1,8,0:0:0:0:
256,192,74658,1,8,0:0:0:0:
256,192,74742,1,4,0:0:0:0:
256,192,75079,1,4,0:0:0:0:
256,192,75416,1,12,0:0:0:0:
256,192,75753,1,12,0:0:0:0:
256,192,75922,1,0,0:0:0:0:
256,192,76091,1,4,0:0:0:0:
256,192,76428,1,8,0:0:0:0:
256,192,76596,1,8,0:0:0:0:
256,192,76765,1,0,0:0:0:0:
256,192,76933,1,8,0:0:0:0:
256,192,77270,1,0,0:0:0:0:
256,192,77439,1,0,0:0:0:0:
256,192,77608,1,8,0:0:0:0:
256,192,77776,1,0,0:0:0:0:
256,192,77945,1,0,0:0:0:0:
256,192,78113,1,8,0:0:0:0:
256,192,78450,1,12,0:0:0:0:
256,192,78619,1,0,0:0:0:0:
256,192,78787,1,12,0:0:0:0:
256,192,79125,1,0,0:0:0:0:
256,192,79293,1,8,0:0:0:0:
256,192,79462,1,8,0:0:0:0:
256,192,79630,1,0,0:0:0:0:
256,192,79799,1,0,0:0:0:0:
256,192,79967,1,8,0:0:0:0:
256,192,80136,1,4,0:0:0:0:
256,192,80473,1,0,0:0:0:0:
256,192,80642,1,0,0:0:0:0:
256,192,80810,1,12,0:0:0:0:
256,192,81147,1,4,0:0:0:0:
256,192,81316,1,8,0:0:0:0:
256,192,81484,1,4,0:0:0:0:
256,192,81821,1,8,0:0:0:0:
32,192,81906,1,8,0:0:0:0:
256,192,81990,1,8,0:0:0:0:
256,192,82159,1,0,0:0:0:0:
256,192,82327,1,0,0:0:0:0:
32,192,82496,1,8,0:0:0:0:
32,192,82580,1,8,0:0:0:0:
256,192,82664,1,0,0:0:0:0:
256,192,82833,1,0,0:0:0:0:
256,192,83001,1,8,0:0:0:0:
32,192,83086,1,0,0:0:0:0:
256,192,83170,1,8,0:0:0:0:
32,192,83254,1,8,0:0:0:0:
256,192,83339,1,0,0:0:0:0:
256,192,83507,1,0,0:0:0:0:
32,192,83591,1,0,0:0:0:0:
32,192,83676,1,8,0:0:0:0:
32,192,83760,1,0,0:0:0:0:
256,192,83844,1,8,0:0:0:0:
32,192,83928,1,8,0:0:0:0:
256,192,84013,1,0,0:0:0:0:
256,192,84181,1,12,0:0:0:0:
256,192,84687,1,0,0:0:0:0:
256,192,85024,1,8,0:0:0:0:
256,192,85193,1,8,0:0:0:0:
256,192,85361,1,0,0:0:0:0:
256,192,85530,1,12,0:0:0:0:
256,192,86541,1,8,0:0:0:0:
256,192,86710,1,8,0:0:0:0:
256,192,86878,1,8,0:0:0:0:
256,192,87047,1,4,0:0:0:0:
256,192,87384,1,8,0:0:0:0:
256,192,87552,1,8,0:0:0:0:
256,192,87721,1,0,0:0:0:0:
256,192,88058,1,8,0:0:0:0:
256,192,88564,1,0,0:0:0:0:
256,192,88901,1,0,0:0:0:0:
256,192,89069,1,0,0:0:0:0:
256,192,89407,1,8,0:0:0:0:
256,192,89575,1,8,0:0:0:0:
256,192,89744,1,4,0:0:0:0:
256,192,90249,1,0,0:0:0:0:
256,192,90587,1,8,0:0:0:0:
256,192,90755,1,0,0:0:0:0:
256,192,91261,1,8,0:0:0:0:
256,192,91429,1,0,0:0:0:0:
256,192,91542,1,0,0:0:0:0:
256,192,91654,1,8,0:0:0:0:
256,192,91766,1,0,0:0:0:0:
256,192,91879,1,0,0:0:0:0:
256,192,91991,1,8,0:0:0:0:
256,192,92104,1,0,0:0:0:0:
256,192,92216,1,0,0:0:0:0:
256,192,92328,1,0,0:0:0:0:
256,192,92441,1,12,0:0:0:0:
256,192,92778,1,0,0:0:0:0:
256,192,92946,1,0,0:0:0:0:
256,192,93115,1,8,0:0:0:0:
256,192,93452,1,8,0:0:0:0:
256,192,93789,1,8,0:0:0:0:
256,192,93958,1,0,0:0:0:0:
256,192,94126,1,8,0:0:0:0:
256,192,94295,1,8,0:0:0:0:
256,192,94463,1,0,0:0:0:0:
256,192,94800,1,0,0:0:0:0:
256,192,94969,1,0,0:0:0:0:
256,192,95138,1,12,0:0:0:0:
256,192,95306,1,0,0:0:0:0:
256,192,95475,1,0,0:0:0:0:
256,192,95643,1,12,0:0:0:0:
256,192,95812,1,0,0:0:0:0:
256,192,95896,1,8,0:0:0:0:
256,192,95980,1,0,0:0:0:0:
256,192,96149,1,12,0:0:0:0:
256,192,96318,1,0,0:0:0:0:
256,192,96486,1,8,0:0:0:0:
256,192,96570,1,0,0:0:0:0:
256,192,96655,1,0,0:0:0:0:
256,192,96739,1,8,0:0:0:0:
256,192,96823,1,0,0:0:0:0:
256,192,96992,1,12,0:0:0:0:
256,192,97835,1,0,0:0:0:0:
256,192,98003,1,8,0:0:0:0:
256,192,98087,1,8,0:0:0:0:
256,192,98172,1,0,0:0:0:0:
256,192,98340,1,0,0:0:0:0:
256,192,98424,1,0,0:0:0:0:
256,192,98509,1,8,0:0:0:0:
256,192,98677,1,0,0:0:0:0:
256,192,98846,1,8,0:0:0:0:
256,192,99014,1,8,0:0:0:0:
256,192,99183,1,4,0:0:0:0:
256,192,99520,1,0,0:0:0:0:
256,192,99689,1,0,0:0:0:0:
256,192,99942,1,0,0:0:0:0:
256,192,100026,1,0,0:0:0:0:
256,192,100194,1,0,0:0:0:0:
256,192,100363,1,0,0:0:0:0:
256,192,100447,1,0,0:0:0:0:
256,192,100700,1,0,0:0:0:0:
256,192,100869,1,0,0:0:0:0:
256,192,101037,1,0,0:0:0:0:
256,192,101206,1,0,0:0:0:0:
256,192,101543,1,0,0:0:0:0:
256,192,101711,1,0,0:0:0:0:
256,192,101796,1,0,0:0:0:0:
256,192,101880,1,0,0:0:0:0:
256,192,102048,1,0,0:0:0:0:
256,192,102217,1,0,0:0:0:0:
256,192,102386,1,0,0:0:0:0:
256,192,102470,1,0,0:0:0:0:
256,192,102554,1,0,0:0:0:0:
256,192,102723,1,0,0:0:0:0:
256,192,102891,1,0,0:0:0:0:
256,192,103060,1,0,0:0:0:0:
256,192,103144,1,0,0:0:0:0:
256,192,103397,1,0,0:0:0:0:
256,192,103734,1,0,0:0:0:0:
256,192,103903,1,0,0:0:0:0:
256,192,104071,1,0,0:0:0:0:
256,192,104240,1,0,0:0:0:0:
256,192,104408,1,0,0:0:0:0:
256,192,104493,1,0,0:0:0:0:
256,192,104577,1,0,0:0:0:0:
256,192,104830,1,0,0:0:0:0:
256,192,104914,1,0,0:0:0:0:
256,192,105083,1,0,0:0:0:0:
256,192,105251,1,0,0:0:0:0:
256,192,105420,1,0,0:0:0:0:
256,192,105588,1,0,0:0:0:0:
256,192,105757,1,0,0:0:0:0:
256,192,105841,1,0,0:0:0:0:
256,192,106094,1,0,0:0:0:0:
256,192,106262,1,0,0:0:0:0:
256,192,106431,1,0,0:0:0:0:
256,192,106600,1,0,0:0:0:0:
256,192,106937,1,0,0:0:0:0:
256,192,107105,1,0,0:0:0:0:
256,192,107190,1,0,0:0:0:0:
256,192,107274,1,0,0:0:0:0:
256,192,107442,1,0,0:0:0:0:
256,192,107611,1,0,0:0:0:0:
256,192,107779,5,0,0:0:0:0:
256,192,107948,1,0,0:0:0:0:
256,192,108032,1,0,0:0:0:0:
256,192,108201,1,0,0:0:0:0:
256,192,108285,1,0,0:0:0:0:
256,192,108454,1,0,0:0:0:0:
256,192,108622,1,12,0:0:0:0:
256,192,108791,1,12,0:0:0:0:
256,192,108959,1,0,0:0:0:0:
256,192,109128,1,12,0:0:0:0:
256,192,109465,1,8,0:0:0:0:
256,192,109549,1,8,0:0:0:0:
256,192,109634,1,8,0:0:0:0:
256,192,109718,1,8,0:0:0:0:
256,192,109802,1,8,0:0:0:0:
256,192,109886,1,8,0:0:0:0:
256,192,109971,1,4,0:0:0:0:
256,192,110139,1,8,0:0:0:0:
256,192,110224,1,0,0:0:0:0:
256,192,110308,1,0,0:0:0:0:
256,192,110476,1,0,0:0:0:0:
256,192,110561,1,0,0:0:0:0:
256,192,110645,1,8,0:0:0:0:
256,192,110814,1,8,0:0:0:0:
256,192,110982,1,8,0:0:0:0:
256,192,111151,1,4,0:0:0:0:
256,192,111488,1,8,0:0:0:0:
256,192,111572,1,0,0:0:0:0:
256,192,111656,1,0,0:0:0:0:
256,192,111825,1,8,0:0:0:0:
256,192,111909,1,0,0:0:0:0:
256,192,111993,1,0,0:0:0:0:
256,192,112078,1,8,0:0:0:0:
256,192,112162,1,8,0:0:0:0:
256,192,112331,1,0,0:0:0:0:
256,192,112499,1,8,0:0:0:0:
256,192,112668,1,0,0:0:0:0:
256,192,112752,1,0,0:0:0:0:
256,192,112836,1,8,0:0:0:0:
256,192,113005,1,0,0:0:0:0:
256,192,113173,1,8,0:0:0:0:
256,192,113258,1,0,0:0:0:0:
256,192,113342,1,8,0:0:0:0:
256,192,113510,1,0,0:0:0:0:
256,192,113595,1,0,0:0:0:0:
256,192,113679,1,8,0:0:0:0:
256,192,113848,1,12,0:0:0:0:
256,192,114185,1,0,0:0:0:0:
256,192,114269,1,8,0:0:0:0:
256,192,114353,1,8,0:0:0:0:
256,192,114522,1,8,0:0:0:0:
256,192,114606,1,0,0:0:0:0:
256,192,114690,1,0,0:0:0:0:
256,192,114775,1,8,0:0:0:0:
256,192,114859,1,0,0:0:0:0:
256,192,114943,1,0,0:0:0:0:
256,192,115027,1,8,0:0:0:0:
256,192,115196,1,8,0:0:0:0:
256,192,115280,1,8,0:0:0:0:
256,192,115365,1,4,0:0:0:0:
256,192,115702,1,0,0:0:0:0:
256,192,115870,1,0,0:0:0:0:
256,192,115955,1,8,0:0:0:0:
256,192,116039,1,8,0:0:0:0:
256,192,116207,1,0,0:0:0:0:
256,192,116376,1,0,0:0:0:0:
256,192,116544,1,12,0:0:0:0:
256,192,116882,1,0,0:0:0:0:
256,192,116966,1,8,0:0:0:0:
256,192,117050,1,0,0:0:0:0:
256,192,117219,1,0,0:0:0:0:
256,192,117303,1,8,0:0:0:0:
256,192,117387,1,8,0:0:0:0:
256,192,117556,1,8,0:0:0:0:
256,192,117640,1,0,0:0:0:0:
256,192,117724,1,0,0:0:0:0:
256,192,117893,1,12,0:0:0:0:
256,192,118230,1,8,0:0:0:0:
256,192,118314,1,0,0:0:0:0:
256,192,118399,1,0,0:0:0:0:
256,192,118567,1,0,0:0:0:0:
256,192,118651,1,0,0:0:0:0:
256,192,118736,1,8,0:0:0:0:
256,192,118820,1,0,0:0:0:0:
256,192,118904,1,8,0:0:0:0:
256,192,118989,1,8,0:0:0:0:
256,192,119073,1,0,0:0:0:0:
256,192,119241,1,12,0:0:0:0:
256,192,119579,1,8,0:0:0:0:
256,192,119663,1,8,0:0:0:0:
256,192,119747,1,0,0:0:0:0:
256,192,119916,1,0,0:0:0:0:
256,192,120084,1,8,0:0:0:0:
256,192,120253,1,8,0:0:0:0:
256,192,120421,1,0,0:0:0:0:
256,192,120506,1,0,0:0:0:0:
256,192,120590,1,0,0:0:0:0:
256,192,120758,1,4,0:0:0:0:
256,192,120927,1,0,0:0:0:0:
256,192,121011,1,8,0:0:0:0:
256,192,121096,1,8,0:0:0:0:
256,192,121264,1,0,0:0:0:0:
256,192,121433,1,8,0:0:0:0:
256,192,121517,1,8,0:0:0:0:
256,192,121601,1,0,0:0:0:0:
256,192,121770,1,0,0:0:0:0:
256,192,121938,1,0,0:0:0:0:
256,192,122107,1,8,0:0:0:0:
256,192,122191,1,8,0:0:0:0:
256,192,122275,1,0,0:0:0:0:
256,192,122444,1,0,0:0:0:0:
256,192,122612,1,8,0:0:0:0:
256,192,122781,1,0,0:0:0:0:
256,192,122950,1,8,0:0:0:0:
256,192,123118,1,0,0:0:0:0:
32,192,123203,1,0,0:0:0:0:
256,192,123287,1,0,0:0:0:0:
256,192,123455,1,8,0:0:0:0:
256,192,123624,1,8,0:0:0:0:
32,192,123708,1,8,0:0:0:0:
256,192,123792,1,0,0:0:0:0:
256,192,123961,1,0,0:0:0:0:
256,192,124130,1,8,0:0:0:0:
256,192,124298,1,8,0:0:0:0:
256,192,124467,1,4,0:0:0:0:
256,192,124804,1,8,0:0:0:0:
256,192,124888,1,0,0:0:0:0:
256,192,124972,1,0,0:0:0:0:
256,192,125141,1,8,0:0:0:0:
256,192,125309,1,0,0:0:0:0:
256,192,125394,1,8,0:0:0:0:
256,192,125478,1,8,0:0:0:0:
256,192,125647,1,8,0:0:0:0:
256,192,125815,1,0,0:0:0:0:
256,192,125899,1,8,0:0:0:0:
256,192,125984,1,8,0:0:0:0:
256,192,126068,1,0,0:0:0:0:
256,192,126152,1,0,0:0:0:0:
256,192,126321,1,0,0:0:0:0:
256,192,126405,1,8,0:0:0:0:
256,192,126489,1,8,0:0:0:0:
256,192,126658,1,0,0:0:0:0:
256,192,126826,1,0,0:0:0:0:
256,192,126995,1,0,0:0:0:0:
256,192,127079,1,0,0:0:0:0:
256,192,127164,1,8,0:0:0:0:
256,192,127332,1,0,0:0:0:0:
256,192,127501,1,8,0:0:0:0:
256,192,127669,1,0,0:0:0:0:
256,192,127754,1,8,0:0:0:0:
256,192,127838,1,8,0:0:0:0:
256,192,128006,1,0,0:0:0:0:
256,192,128175,1,8,0:0:0:0:
256,192,128343,1,0,0:0:0:0:
256,192,128512,1,8,0:0:0:0:
256,192,128596,1,0,0:0:0:0:
256,192,128681,1,8,0:0:0:0:
256,192,128765,1,8,0:0:0:0:
256,192,128849,1,4,0:0:0:0:
256,192,129355,1,0,0:0:0:0:
256,192,129523,1,8,0:0:0:0:
256,192,129861,1,8,0:0:0:0:
256,192,130029,1,8,0:0:0:0:
256,192,130198,1,4,0:0:0:0:
256,192,130703,1,0,0:0:0:0:
256,192,130872,1,8,0:0:0:0:
256,192,131040,1,0,0:0:0:0:
256,192,131209,1,0,0:0:0:0:
256,192,131378,1,0,0:0:0:0:
256,192,131546,1,12,0:0:0:0:
256,192,131883,1,8,0:0:0:0:
256,192,132052,1,0,0:0:0:0:
256,192,132220,1,0,0:0:0:0:
256,192,132389,1,0,0:0:0:0:
256,192,132557,1,8,0:0:0:0:
256,192,132726,1,0,0:0:0:0:
256,192,132895,5,12,0:0:0:0:
256,192,133063,1,0,0:0:0:0:
256,192,133147,1,0,0:0:0:0:
256,192,133232,1,0,0:0:0:0:
256,192,133400,1,12,0:0:0:0:
256,192,133569,1,0,0:0:0:0:
256,192,133737,1,12,0:0:0:0:
256,192,133906,1,12,0:0:0:0:
256,192,135592,5,12,0:0:0:0:
256,192,135760,1,8,0:0:0:0:
256,192,135844,1,0,0:0:0:0:
256,192,135929,1,0,0:0:0:0:
256,192,136097,1,8,0:0:0:0:
256,192,136181,1,0,0:0:0:0:
256,192,136266,1,0,0:0:0:0:
256,192,136350,1,0,0:0:0:0:
256,192,136434,1,8,0:0:0:0:
256,192,136519,1,8,0:0:0:0:
256,192,136603,1,0,0:0:0:0:
256,192,136771,1,12,0:0:0:0:
256,192,137109,1,8,0:0:0:0:
256,192,137193,1,8,0:0:0:0:
256,192,137277,1,0,0:0:0:0:
256,192,137361,1,8,0:0:0:0:
256,192,137446,1,8,0:0:0:0:
256,192,137530,1,0,0:0:0:0:
256,192,137614,1,0,0:0:0:0:
256,192,137783,1,0,0:0:0:0:
256,192,137867,1,8,0:0:0:0:
256,192,137951,1,8,0:0:0:0:
256,192,138036,1,0,0:0:0:0:
256,192,138120,1,0,0:0:0:0:
256,192,138288,1,4,0:0:0:0:
256,192,138457,1,0,0:0:0:0:
256,192,138541,1,8,0:0:0:0:
256,192,138626,1,8,0:0:0:0:
256,192,138794,1,8,0:0:0:0:
256,192,138878,1,0,0:0:0:0:
256,192,138963,1,8,0:0:0:0:
256,192,139047,1,8,0:0:0:0:
256,192,139131,1,0,0:0:0:0:
256,192,139215,1,0,0:0:0:0:
256,192,139300,1,8,0:0:0:0:
256,192,139468,1,4,0:0:0:0:
256,192,139805,1,0,0:0:0:0:
256,192,139890,1,0,0:0:0:0:
256,192,139974,1,8,0:0:0:0:
256,192,140143,1,8,0:0:0:0:
256,192,140227,1,0,0:0:0:0:
256,192,140311,1,0,0:0:0:0:
256,192,140395,1,8,0:0:0:0:
256,192,140480,1,0,0:0:0:0:
256,192,140564,1,8,0:0:0:0:
256,192,140648,1,8,0:0:0:0:
256,192,140733,1,0,0:0:0:0:
256,192,140817,1,8,0:0:0:0:
256,192,140985,1,4,0:0:0:0:
256,192,141154,1,8,0:0:0:0:
256,192,141238,1,0,0:0:0:0:
256,192,141322,1,8,0:0:0:0:
256,192,141491,1,0,0:0:0:0:
256,192,141575,1,8,0:0:0:0:
256,192,141660,1,8,0:0:0:0:
256,192,141744,1,0,0:0:0:0:
256,192,141828,1,8,0:0:0:0:
256,192,141912,1,0,0:0:0:0:
256,192,141997,1,0,0:0:0:0:
256,192,142165,1,8,0:0:0:0:
256,192,142250,1,8,0:0:0:0:
256,192,142334,1,0,0:0:0:0:
256,192,142418,1,0,0:0:0:0:
256,192,142502,1,8,0:0:0:0:
256,192,142587,1,0,0:0:0:0:
256,192,142671,1,0,0:0:0:0:
256,192,142839,1,8,0:0:0:0:
256,192,142924,1,0,0:0:0:0:
256,192,143008,1,0,0:0:0:0:
256,192,143092,1,8,0:0:0:0:
256,192,143177,1,8,0:0:0:0:
256,192,143261,1,0,0:0:0:0:
256,192,143345,1,8,0:0:0:0:
256,192,143514,1,4,0:0:0:0:
256,192,143851,1,8,0:0:0:0:
256,192,143935,1,0,0:0:0:0:
256,192,144019,1,8,0:0:0:0:
256,192,144188,1,4,0:0:0:0:
256,192,144525,1,0,0:0:0:0:
256,192,144609,1,0,0:0:0:0:
256,192,144694,1,8,0:0:0:0:
256,192,144862,1,4,0:0:0:0:
256,192,145199,1,8,0:0:0:0:
256,192,145284,1,0,0:0:0:0:
256,192,145368,1,0,0:0:0:0:
256,192,145536,1,8,0:0:0:0:
256,192,145621,1,8,0:0:0:0:
256,192,145705,1,0,0:0:0:0:
256,192,145789,1,8,0:0:0:0:
256,192,145874,1,0,0:0:0:0:
256,192,145958,1,0,0:0:0:0:
256,192,146042,1,8,0:0:0:0:
256,192,146126,1,0,0:0:0:0:
256,192,146211,1,8,0:0:0:0:
256,192,146295,1,8,0:0:0:0:
256,192,146379,1,0,0:0:0:0:
256,192,146463,1,0,0:0:0:0:
256,192,146548,1,8,0:0:0:0:
256,192,146632,1,8,0:0:0:0:
256,192,146716,1,0,0:0:0:0:
256,192,146801,1,8,0:0:0:0:
256,192,146885,1,8,0:0:0:0:
256,192,146969,1,8,0:0:0:0:
256,192,147053,1,0,0:0:0:0:
256,192,147138,1,8,0:0:0:0:
256,192,147222,1,0,0:0:0:0:
256,192,147306,1,8,0:0:0:0:
256,192,147391,1,0,0:0:0:0:
256,192,147475,1,0,0:0:0:0:
256,192,147559,1,8,0:0:0:0:
256,192,147643,1,0,0:0:0:0:
256,192,147728,1,8,0:0:0:0:
256,192,147812,1,0,0:0:0:0:
256,192,147896,1,8,0:0:0:0:
256,192,147981,1,8,0:0:0:0:
256,192,148065,1,0,0:0:0:0:
256,192,148149,1,0,0:0:0:0:
256,192,148233,1,8,0:0:0:0:
256,192,148318,1,8,0:0:0:0:
256,192,148402,1,0,0:0:0:0:
256,192,148486,1,8,0:0:0:0:
256,192,148570,1,0,0:0:0:0:
256,192,148655,1,0,0:0:0:0:
256,192,148739,1,8,0:0:0:0:
256,192,148823,1,0,0:0:0:0:
256,192,148908,1,8,0:0:0:0:
256,192,148992,1,0,0:0:0:0:
256,192,149076,1,8,0:0:0:0:
256,192,149160,1,8,0:0:0:0:
256,192,149245,1,0,0:0:0:0:
256,192,149329,1,0,0:0:0:0:
256,192,149413,1,8,0:0:0:0:
256,192,149498,1,0,0:0:0:0:
256,192,149582,1,8,0:0:0:0:
256,192,149666,1,8,0:0:0:0:
256,192,149750,5,0,0:0:0:0:
256,192,149835,1,8,0:0:0:0:
256,192,149919,1,8,0:0:0:0:
256,192,150003,1,8,0:0:0:0:
256,192,150087,1,0,0:0:0:0:
256,192,150172,1,0,0:0:0:0:
256,192,150256,1,12,0:0:0:0:
256,192,150593,1,8,0:0:0:0:
256,192,150677,1,8,0:0:0:0:
256,192,150762,1,4,0:0:0:0:
256,192,150930,1,8,0:0:0:0:
256,192,151015,1,8,0:0:0:0:
256,192,151099,1,0,0:0:0:0:
256,192,151183,1,8,0:0:0:0:
256,192,151267,1,0,0:0:0:0:
256,192,151352,1,0,0:0:0:0:
256,192,151436,1,0,0:0:0:0:
256,192,151520,1,0,0:0:0:0:
256,192,151605,1,8,0:0:0:0:
256,192,151689,1,8,0:0:0:0:
256,192,151773,1,4,0:0:0:0:
256,192,152110,1,8,0:0:0:0:
256,192,152194,1,0,0:0:0:0:
256,192,152279,1,0,0:0:0:0:
256,192,152363,1,8,0:0:0:0:
256,192,152447,1,0,0:0:0:0:
256,192,152532,1,8,0:0:0:0:
256,192,152616,1,8,0:0:0:0:
256,192,152700,1,0,0:0:0:0:
256,192,152784,1,0,0:0:0:0:
256,192,152869,1,0,0:0:0:0:
256,192,152953,1,12,0:0:0:0:
256,192,153290,1,8,0:0:0:0:
256,192,153374,1,0,0:0:0:0:
256,192,153459,1,0,0:0:0:0:
256,192,153543,1,8,0:0:0:0:
256,192,153627,1,8,0:0:0:0:
256,192,153711,1,8,0:0:0:0:
256,192,153796,1,0,0:0:0:0:
256,192,153880,1,0,0:0:0:0:
256,192,153964,1,8,0:0:0:0:
256,192,154049,1,0,0:0:0:0:
256,192,154133,1,8,0:0:0:0:
256,192,154217,1,8,0:0:0:0:
256,192,154301,1,4,0:0:0:0:
256,192,154639,1,0,0:0:0:0:
256,192,154723,1,8,0:0:0:0:
256,192,154807,1,8,0:0:0:0:
256,192,154891,1,0,0:0:0:0:
256,192,154976,1,0,0:0:0:0:
256,192,155060,1,8,0:0:0:0:
256,192,155144,1,0,0:0:0:0:
256,192,155229,1,8,0:0:0:0:
256,192,155313,1,8,0:0:0:0:
256,192,155397,1,0,0:0:0:0:
256,192,155481,1,8,0:0:0:0:
256,192,155566,1,8,0:0:0:0:
256,192,155650,1,4,0:0:0:0:
256,192,155987,1,4,0:0:0:0:
256,192,156324,1,12,0:0:0:0:
256,192,156661,1,12,0:0:0:0:
256,192,156830,1,0,0:0:0:0:
256,192,156998,1,4,0:0:0:0:
256,192,157167,1,0,0:0:0:0:
256,192,157336,1,0,0:0:0:0:
256,192,157504,1,0,0:0:0:0:
256,192,157841,1,8,0:0:0:0:
256,192,158010,1,8,0:0:0:0:
256,192,158178,1,0,0:0:0:0:
256,192,158347,1,12,0:0:0:0:
256,192,158684,1,0,0:0:0:0:
256,192,158853,1,0,0:0:0:0:
256,192,159021,1,0,0:0:0:0:
256,192,159190,1,8,0:0:0:0:
256,192,159358,1,8,0:0:0:0:
256,192,159527,1,0,0:0:0:0:
256,192,159695,1,8,0:0:0:0:
256,192,160032,1,0,0:0:0:0:
256,192,160117,1,8,0:0:0:0:
256,192,160201,1,0,0:0:0:0:
256,192,160285,1,0,0:0:0:0:
256,192,160370,1,8,0:0:0:0:
256,192,160454,1,8,0:0:0:0:
256,192,160538,1,0,0:0:0:0:
256,192,160622,1,8,0:0:0:0:
256,192,160707,1,8,0:0:0:0:
256,192,160791,1,0,0:0:0:0:
256,192,160875,1,8,0:0:0:0:
256,192,160960,1,0,0:0:0:0:
256,192,161044,1,0,0:0:0:0:
256,192,161128,1,8,0:0:0:0:
256,192,161212,1,8,0:0:0:0:
256,192,161381,1,0,0:0:0:0:
256,192,161549,1,0,0:0:0:0:
256,192,161718,1,0,0:0:0:0:
256,192,161887,1,8,0:0:0:0:
256,192,162055,1,8,0:0:0:0:
256,192,162224,1,0,0:0:0:0:
256,192,162392,1,0,0:0:0:0:
256,192,162561,1,12,0:0:0:0:
256,192,162729,1,12,0:0:0:0:
256,192,162898,1,12,0:0:0:0:
256,192,163066,1,0,0:0:0:0:
256,192,163235,1,0,0:0:0:0:
256,192,163404,1,8,0:0:0:0:
256,192,163572,1,0,0:0:0:0:
256,192,163741,1,12,0:0:0:0:
256,192,164078,1,0,0:0:0:0:
256,192,164246,1,8,0:0:0:0:
256,192,164415,1,8,0:0:0:0:
256,192,164499,1,8,0:0:0:0:
256,192,164584,1,8,0:0:0:0:
256,192,164752,1,8,0:0:0:0:
256,192,164921,1,0,0:0:0:0:
256,192,165089,1,0,0:0:0:0:
256,192,165258,1,4,0:0:0:0:
256,192,165426,1,8,0:0:0:0:
256,192,165511,1,8,0:0:0:0:
256,192,165595,1,0,0:0:0:0:
256,192,165763,1,8,0:0:0:0:
256,192,165932,1,0,0:0:0:0:
256,192,166101,1,0,0:0:0:0:
256,192,166438,1,0,0:0:0:0:
256,192,166775,1,0,0:0:0:0:
256,192,166943,1,8,0:0:0:0:
256,192,167112,1,8,0:0:0:0:
256,192,167280,1,8,0:0:0:0:
256,192,167449,1,0,0:0:0:0:
256,192,167618,1,0,0:0:0:0:
256,192,167786,1,8,0:0:0:0:
256,192,167955,1,4,0:0:0:0:
256,192,168123,1,8,0:0:0:0:
256,192,168208,1,8,0:0:0:0:
256,192,168292,1,8,0:0:0:0:
256,192,168460,1,0,0:0:0:0:
256,192,168629,1,8,0:0:0:0:
256,192,168741,1,0,0:0:0:0:
256,192,168854,1,0,0:0:0:0:
256,192,168966,1,8,0:0:0:0:
256,192,169078,1,0,0:0:0:0:
256,192,169191,1,0,0:0:0:0:
256,192,169303,1,12,0:0:0:0:
256,192,170483,1,12,0:0:0:0:
256,192,170820,1,0,0:0:0:0:
256,192,170904,1,0,0:0:0:0:
256,192,170989,1,8,0:0:0:0:
256,192,171157,1,0,0:0:0:0:
256,192,171242,1,0,0:0:0:0:
256,192,171326,1,8,0:0:0:0:
256,192,171494,1,8,0:0:0:0:
256,192,171579,1,0,0:0:0:0:
256,192,171663,1,8,0:0:0:0:
256,192,171832,1,8,0:0:0:0:
256,192,171916,1,8,0:0:0:0:
256,192,172000,1,0,0:0:0:0:
256,192,172169,1,0,0:0:0:0:
256,192,172253,1,0,0:0:0:0:
256,192,172337,1,8,0:0:0:0:
256,192,172506,1,0,0:0:0:0:
256,192,172590,1,8,0:0:0:0:
256,192,172674,1,8,0:0:0:0:
256,192,172759,1,0,0:0:0:0:
256,192,172843,1,0,0:0:0:0:
256,192,172927,1,0,0:0:0:0:
256,192,173011,1,8,0:0:0:0:
256,192,173096,1,8,0:0:0:0:
256,192,173180,1,4,0:0:0:0:
256,192,173517,1,0,0:0:0:0:
256,192,173601,1,0,0:0:0:0:
256,192,173686,1,8,0:0:0:0:
256,192,173854,1,0,0:0:0:0:
256,192,173938,1,0,0:0:0:0:
256,192,174023,1,8,0:0:0:0:
256,192,174191,1,0,0:0:0:0:
256,192,174276,1,8,0:0:0:0:
256,192,174360,1,8,0:0:0:0:
256,192,174528,1,8,0:0:0:0:
256,192,174613,1,0,0:0:0:0:
256,192,174697,1,8,0:0:0:0:
256,192,174866,1,8,0:0:0:0:
256,192,174950,1,0,0:0:0:0:
256,192,175034,1,0,0:0:0:0:
256,192,175203,1,8,0:0:0:0:
256,192,175287,1,0,0:0:0:0:
256,192,175371,1,0,0:0:0:0:
256,192,175456,1,0,0:0:0:0:
256,192,175540,1,8,0:0:0:0:
256,192,175624,1,0,0:0:0:0:
256,192,175708,5,8,0:0:0:0:
256,192,175793,1,8,0:0:0:0:
256,192,175877,1,8,0:0:0:0:
256,192,175961,1,8,0:0:0:0:
256,192,176045,1,4,0:0:0:0:
256,192,176383,1,8,0:0:0:0:
256,192,176551,1,0,0:0:0:0:
256,192,176635,1,0,0:0:0:0:
256,192,176720,1,8,0:0:0:0:
256,192,176888,1,8,0:0:0:0:
256,192,176973,1,8,0:0:0:0:
256,192,177057,1,0,0:0:0:0:
256,192,177225,1,0,0:0:0:0:
256,192,177310,1,8,0:0:0:0:
256,192,177394,1,8,0:0:0:0:
256,192,177562,1,8,0:0:0:0:
256,192,177647,1,0,0:0:0:0:
256,192,177731,1,0,0:0:0:0:
256,192,177900,1,0,0:0:0:0:
256,192,177984,1,0,0:0:0:0:
256,192,178068,1,8,0:0:0:0:
256,192,178152,1,0,0:0:0:0:
256,192,178237,1,8,0:0:0:0:
256,192,178321,1,0,0:0:0:0:
256,192,178405,1,0,0:0:0:0:
256,192,178490,1,0,0:0:0:0:
256,192,178574,1,12,0:0:0:0:
256,192,178911,1,0,0:0:0:0:
256,192,179080,1,0,0:0:0:0:
256,192,179248,1,12,0:0:0:0:
256,192,179417,1,8,0:0:0:0:
256,192,179501,1,8,0:0:0:0:
256,192,179585,1,0,0:0:0:0:
256,192,179669,1,0,0:0:0:0:
256,192,179754,1,0,0:0:0:0:
256,192,179838,1,0,0:0:0:0:
256,192,179922,1,12,0:0:0:0:
256,192,180091,1,0,0:0:0:0:
256,192,180259,1,8,0:0:0:0:
256,192,180344,1,8,0:0:0:0:
256,192,180428,1,0,0:0:0:0:
256,192,180512,1,8,0:0:0:0:
256,192,180597,1,0,0:0:0:0:
256,192,180681,1,0,0:0:0:0:
256,192,180765,1,8,0:0:0:0:
256,192,180849,1,0,0:0:0:0:
256,192,180934,1,0,0:0:0:0:
256,192,181018,1,8,0:0:0:0:
256,192,181102,1,8,0:0:0:0:
256,192,181186,1,0,0:0:0:0:
256,192,181271,1,8,0:0:0:0:
256,192,181355,1,8,0:0:0:0:
256,192,181439,1,4,0:0:0:0:
256,192,181608,1,0,0:0:0:0:
256,192,181692,1,8,0:0:0:0:
256,192,181776,1,8,0:0:0:0:
256,192,181861,1,8,0:0:0:0:
256,192,181945,1,0,0:0:0:0:
256,192,182029,1,8,0:0:0:0:
256,192,182114,1,0,0:0:0:0:
256,192,182198,1,0,0:0:0:0:
256,192,182282,1,8,0:0:0:0:
256,192,182366,1,0,0:0:0:0:
256,192,182451,1,0,0:0:0:0:
256,192,182535,1,8,0:0:0:0:
256,192,182619,1,8,0:0:0:0:
256,192,182704,1,0,0:0:0:0:
256,192,182788,1,0,0:0:0:0:
256,192,182872,1,8,0:0:0:0:
256,192,182956,1,0,0:0:0:0:
256,192,183041,1,8,0:0:0:0:
256,192,183125,1,8,0:0:0:0:
256,192,183209,1,0,0:0:0:0:
256,192,183293,1,8,0:0:0:0:
256,192,183378,1,0,0:0:0:0:
256,192,183462,1,0,0:0:0:0:
256,192,183546,1,8,0:0:0:0:
256,192,183631,1,8,0:0:0:0:
256,192,183715,1,0,0:0:0:0:
256,192,183799,1,8,0:0:0:0:
256,192,183883,1,8,0:0:0:0:
256,192,183968,1,8,0:0:0:0:
256,192,184052,1,0,0:0:0:0:
256,192,184136,1,0,0:0:0:0:
256,192,184221,1,8,0:0:0:0:
256,192,184305,1,0,0:0:0:0:
256,192,184389,1,0,0:0:0:0:
256,192,184473,1,8,0:0:0:0:
256,192,184558,1,0,0:0:0:0:
256,192,184642,1,8,0:0:0:0:
256,192,184726,1,8,0:0:0:0:
256,192,184810,1,0,0:0:0:0:
256,192,184895,1,8,0:0:0:0:
256,192,184979,1,8,0:0:0:0:
256,192,185063,1,0,0:0:0:0:
256,192,185148,1,0,0:0:0:0:
256,192,185232,1,8,0:0:0:0:
256,192,185316,1,0,0:0:0:0:
256,192,185400,1,0,0:0:0:0:
256,192,185485,1,12,0:1:0:0:
256,192,185653,1,0,0:0:0:0:
256,192,185738,1,8,0:0:0:0:
256,192,185822,1,8,0:0:0:0:
256,192,185906,1,0,0:0:0:0:
256,192,185990,1,8,0:0:0:0:
256,192,186075,1,8,0:0:0:0:
256,192,186159,1,0,0:0:0:0:
256,192,186243,1,0,0:0:0:0:
256,192,186328,1,8,0:0:0:0:
256,192,186412,1,8,0:0:0:0:
256,192,186496,1,0,0:0:0:0:
256,192,186580,1,0,0:0:0:0:
256,192,186665,1,12,0:0:0:0:
256,192,187002,1,0,0:0:0:0:
256,192,187086,1,0,0:0:0:0:
256,192,187170,1,8,0:0:0:0:
256,192,187255,1,0,0:0:0:0:
256,192,187339,1,8,0:0:0:0:
256,192,187423,1,8,0:0:0:0:
256,192,187507,1,0,0:0:0:0:
256,192,187592,1,0,0:0:0:0:
256,192,187676,1,8,0:0:0:0:
256,192,187760,1,8,0:0:0:0:
256,192,187845,1,0,0:0:0:0:
256,192,187929,1,0,0:0:0:0:
256,192,188013,1,12,0:0:0:0:
256,192,188350,1,8,0:0:0:0:
256,192,188435,1,0,0:0:0:0:
256,192,188519,1,8,0:0:0:0:
256,192,188603,1,8,0:0:0:0:
256,192,188687,1,0,0:0:0:0:
256,192,188772,1,8,0:0:0:0:
256,192,188856,1,8,0:0:0:0:
256,192,188940,1,0,0:0:0:0:
256,192,189024,1,8,0:0:0:0:
256,192,189109,1,0,0:0:0:0:
256,192,189193,1,8,0:0:0:0:
256,192,189277,1,8,0:0:0:0:
256,192,189362,1,4,0:0:0:0:
256,192,189699,1,8,0:0:0:0:
256,192,189783,1,0,0:0:0:0:
256,192,189867,1,8,0:0:0:0:
256,192,189952,1,0,0:0:0:0:
256,192,190036,1,0,0:0:0:0:
256,192,190120,1,8,0:0:0:0:
256,192,190204,1,0,0:0:0:0:
256,192,190289,1,0,0:0:0:0:
256,192,190373,1,8,0:0:0:0:
256,192,190457,1,0,0:0:0:0:
256,192,190541,1,8,0:0:0:0:
256,192,190626,1,8,0:0:0:0:
256,192,190710,1,4,0:0:0:0:
256,192,190879,1,8,0:0:0:0:
256,192,191047,1,0,0:0:0:0:
256,192,191131,1,0,0:0:0:0:
256,192,191216,1,8,0:0:0:0:
256,192,191384,1,0,0:0:0:0:
256,192,191553,1,0,0:0:0:0:
256,192,191665,1,8,0:0:0:0:
256,192,191778,1,8,0:0:0:0:
256,192,191890,1,0,0:0:0:0:
256,192,192002,1,8,0:0:0:0:
256,192,192115,1,8,0:0:0:0:
256,192,192227,1,4,0:0:0:0:
256,192,192564,1,0,0:0:0:0:
256,192,192901,1,8,0:0:0:0:
256,192,193070,1,0,0:0:0:0:
256,192,193407,1,0,0:0:0:0:
256,192,193744,1,0,0:0:0:0:
256,192,194081,1,0,0:0:0:0:
256,192,194250,1,8,0:0:0:0:
256,192,194587,1,0,0:0:0:0:
256,192,194755,1,12,0:0:0:0:
256,192,195093,1,8,0:0:0:0:
256,192,195261,1,0,0:0:0:0:
256,192,195430,1,4,0:0:0:0:
256,192,195598,1,0,0:0:0:0:
256,192,195767,1,8,0:0:0:0:
256,192,195851,1,8,0:0:0:0:
256,192,195935,1,0,0:0:0:0:
256,192,196104,1,8,0:0:0:0:
256,192,196272,1,4,0:0:0:0:
256,192,196441,1,8,0:0:0:0:
256,192,196525,1,8,0:0:0:0:
256,192,196610,1,8,0:0:0:0:
256,192,196778,1,4,0:0:0:0:
256,192,197115,1,0,0:0:0:0:
256,192,197284,1,8,0:0:0:0:
256,192,197452,1,8,0:0:0:0:
256,192,197621,1,4,0:0:0:0:
256,192,197789,1,8,0:0:0:0:
256,192,197874,1,8,0:0:0:0:
256,192,197958,1,0,0:0:0:0:
256,192,198127,1,8,0:0:0:0:
256,192,198211,1,8,0:0:0:0:
256,192,198295,1,0,0:0:0:0:
256,192,198380,1,0,0:0:0:0:
256,192,198464,1,8,0:0:0:0:
256,192,198632,1,8,0:0:0:0:
256,192,198717,1,0,0:0:0:0:
256,192,198801,1,8,0:0:0:0:
256,192,198885,1,8,0:0:0:0:
256,192,198969,1,0,0:0:0:0:
256,192,199054,1,8,0:0:0:0:
256,192,199138,1,0,0:0:0:0:
256,192,199222,1,0,0:0:0:0:
256,192,199307,1,8,0:0:0:0:
256,192,199391,1,8,0:0:0:0:
256,192,199475,1,0,0:0:0:0:
256,192,199559,1,8,0:0:0:0:
256,192,199644,1,8,0:0:0:0:
256,192,199728,1,0,0:0:0:0:
256,192,199812,1,8,0:0:0:0:
256,192,199896,1,0,0:0:0:0:
256,192,199981,1,0,0:0:0:0:
256,192,200065,1,0,0:0:0:0:
256,192,200149,1,8,0:0:0:0:
256,192,200234,1,8,0:0:0:0:
256,192,200318,1,4,0:0:0:0:
256,192,200486,1,8,0:0:0:0:
256,192,200571,1,8,0:0:0:0:
256,192,200655,1,0,0:0:0:0:
256,192,200824,1,8,0:0:0:0:
256,192,200908,1,8,0:0:0:0:
256,192,200992,1,0,0:0:0:0:
256,192,201076,1,0,0:0:0:0:
256,192,201161,1,8,0:0:0:0:
256,192,201329,1,8,0:0:0:0:
256,192,201413,1,8,0:0:0:0:
256,192,201498,1,0,0:0:0:0:
256,192,201582,1,8,0:0:0:0:
256,192,201666,1,0,0:0:0:0:
256,192,201751,1,0,0:0:0:0:
256,192,201835,1,8,0:0:0:0:
256,192,201919,1,0,0:0:0:0:
256,192,202003,1,8,0:0:0:0:
256,192,202088,1,8,0:0:0:0:
256,192,202172,1,8,0:0:0:0:
256,192,202256,1,0,0:0:0:0:
256,192,202341,1,8,0:0:0:0:
256,192,202425,1,8,0:0:0:0:
256,192,202509,1,0,0:0:0:0:
256,192,202593,1,8,0:0:0:0:
256,192,202678,1,0,0:0:0:0:
256,192,202762,1,0,0:0:0:0:
256,192,202846,1,8,0:0:0:0:
256,192,202931,1,8,0:0:0:0:
256,192,203015,1,4,0:0:0:0:
256,192,203183,1,8,0:0:0:0:
256,192,203268,1,8,0:0:0:0:
256,192,203352,1,0,0:0:0:0:
256,192,203520,1,8,0:0:0:0:
256,192,203605,1,0,0:0:0:0:
256,192,203689,1,0,0:0:0:0:
256,192,203773,1,8,0:0:0:0:
256,192,203858,1,0,0:0:0:0:
256,192,204026,1,0,0:0:0:0:
256,192,204110,1,0,0:0:0:0:
256,192,204195,1,8,0:0:0:0:
256,192,204279,1,0,0:0:0:0:
256,192,204363,1,8,0:0:0:0:
256,192,204448,1,0,0:0:0:0:
256,192,204532,1,8,0:0:0:0:
256,192,204616,1,8,0:0:0:0:
256,192,204700,1,0,0:0:0:0:
256,192,204785,1,8,0:0:0:0:
256,192,204869,1,8,0:0:0:0:
256,192,204953,1,0,0:0:0:0:
256,192,205037,1,8,0:0:0:0:
256,192,205122,1,0,0:0:0:0:
256,192,205206,1,0,0:0:0:0:
256,192,205290,1,0,0:0:0:0:
256,192,205375,1,8,0:0:0:0:
256,192,205459,1,0,0:0:0:0:
256,192,205543,1,8,0:0:0:0:
256,192,205627,1,8,0:0:0:0:
256,192,205712,1,4,0:0:0:0:
256,192,205880,1,8,0:0:0:0:
256,192,205965,1,8,0:0:0:0:
256,192,206049,1,0,0:0:0:0:
256,192,206217,1,0,0:0:0:0:
256,192,206302,1,8,0:0:0:0:
256,192,206386,1,8,0:0:0:0:
256,192,206470,1,0,0:0:0:0:
256,192,206555,1,8,0:0:0:0:
256,192,206723,1,0,0:0:0:0:
256,192,206807,1,0,0:0:0:0:
256,192,206892,1,8,0:0:0:0:
256,192,206976,1,0,0:0:0:0:
256,192,207060,1,0,0:0:0:0:
256,192,207144,1,8,0:0:0:0:
256,192,207229,1,0,0:0:0:0:
256,192,207313,1,8,0:0:0:0:
256,192,207397,1,8,0:0:0:0:
256,192,207482,1,0,0:0:0:0:
256,192,207566,1,0,0:0:0:0:
256,192,207650,1,0,0:0:0:0:
256,192,207734,1,8,0:0:0:0:
256,192,207819,1,0,0:0:0:0:
256,192,207903,1,8,0:0:0:0:
256,192,207987,1,0,0:0:0:0:
256,192,208072,1,0,0:0:0:0:
256,192,208156,1,8,0:0:0:0:
256,192,208240,1,0,0:0:0:0:
256,192,208324,1,0,0:0:0:0:
256,192,208409,1,12,0:0:0:0:
256,192,208746,1,8,0:0:0:0:
256,192,208914,1,0,0:0:0:0:
256,192,208999,1,0,0:0:0:0:
256,192,209083,1,8,0:0:0:0:
256,192,209167,1,0,0:0:0:0:
256,192,209251,1,0,0:0:0:0:
256,192,209336,1,8,0:0:0:0:
256,192,209420,1,8,0:0:0:0:
256,192,209504,1,8,0:0:0:0:
256,192,209589,1,4,0:0:0:0:
256,192,209926,1,8,0:0:0:0:
256,192,210010,1,0,0:0:0:0:
256,192,210094,1,0,0:0:0:0:
256,192,210263,1,8,0:0:0:0:
256,192,210347,1,0,0:0:0:0:
256,192,210431,1,8,0:0:0:0:
256,192,210516,1,8,0:0:0:0:
256,192,210600,1,0,0:0:0:0:
256,192,210684,1,8,0:0:0:0:
256,192,210768,1,0,0:0:0:0:
256,192,210853,1,0,0:0:0:0:
256,192,210937,1,12,0:0:0:0:
256,192,211274,1,8,0:0:0:0:
256,192,211358,1,0,0:0:0:0:
256,192,211443,1,8,0:0:0:0:
256,192,211611,1,0,0:0:0:0:
256,192,211696,1,0,0:0:0:0:
256,192,211780,1,8,0:0:0:0:
256,192,211864,1,0,0:0:0:0:
256,192,211948,1,0,0:0:0:0:
256,192,212033,1,8,0:0:0:0:
256,192,212117,1,8,0:0:0:0:
256,192,212201,1,8,0:0:0:0:
256,192,212285,1,4,0:0:0:0:
256,192,212623,1,0,0:0:0:0:
256,192,212791,1,4,0:0:0:0:
256,192,212960,1,8,0:0:0:0:
256,192,213044,1,8,0:0:0:0:
256,192,213128,1,8,0:0:0:0:
256,192,213297,1,0,0:0:0:0:
256,192,213381,1,8,0:0:0:0:
256,192,213465,1,0,0:0:0:0:
256,192,213550,1,0,0:0:0:0:
256,192,213634,1,8,0:0:0:0:
256,192,213718,1,8,0:0:0:0:
256,192,213803,1,4,0:0:0:0:
256,192,214140,1,0,0:0:0:0:
256,192,214308,1,8,0:0:0:0:
256,192,214392,1,0,0:0:0:0:
256,192,214477,1,0,0:0:0:0:
256,192,214561,1,0,0:0:0:0:
256,192,214645,1,8,0:0:0:0:
256,192,214730,1,8,0:0:0:0:
256,192,214814,1,0,0:0:0:0:
256,192,214898,1,0,0:0:0:0:
256,192,214982,1,12,0:0:0:0:
256,192,215320,1,8,0:0:0:0:
256,192,215404,1,8,0:0:0:0:
256,192,215488,1,8,0:0:0:0:
256,192,215657,1,0,0:0:0:0:
256,192,215741,1,0,0:0:0:0:
256,192,215825,1,8,0:0:0:0:
256,192,215909,1,0,0:0:0:0:
256,192,215994,1,8,0:0:0:0:
256,192,216078,1,0,0:0:0:0:
256,192,216162,1,8,0:0:0:0:
256,192,216247,1,8,0:0:0:0:
256,192,216331,1,4,0:0:0:0:
256,192,216668,1,8,0:0:0:0:
256,192,216752,1,8,0:0:0:0:
256,192,216837,1,0,0:0:0:0:
256,192,217005,1,8,0:0:0:0:
256,192,217089,1,8,0:0:0:0:
256,192,217174,1,0,0:0:0:0:
256,192,217342,1,0,0:0:0:0:
256,192,217511,1,8,0:0:0:0:
256,192,217679,1,4,0:0:0:0:
256,192,218016,1,12,0:0:0:0:
256,192,218354,1,4,0:0:0:0:
256,192,218522,1,0,0:0:0:0:
256,192,218635,1,8,0:0:0:0:
256,192,218747,1,8,0:0:0:0:
256,192,218859,1,8,0:0:0:0:
256,192,218972,1,8,0:0:0:0:
256,192,219084,1,8,0:0:0:0:
256,192,220208,1,8,0:0:0:0:
256,192,220882,1,0,0:0:0:0:
256,192,221219,1,8,0:0:0:0:
256,192,221556,1,8,0:0:0:0:
256,192,221725,1,8,0:0:0:0:
256,192,221893,1,0,0:0:0:0:
256,192,222230,1,0,0:0:0:0:
256,192,222399,1,8,0:0:0:0:
256,192,222568,1,8,0:0:0:0:
256,192,222905,1,0,0:0:0:0:
256,192,223242,1,0,0:0:0:0:
256,192,223579,1,8,0:0:0:0:
256,192,223747,1,0,0:0:0:0:
256,192,224085,1,0,0:0:0:0:
256,192,224422,1,8,0:0:0:0:
256,192,224590,1,0,0:0:0:0:
256,192,225096,1,0,0:0:0:0:
256,192,225264,1,8,0:0:0:0:
256,192,225939,1,0,0:0:0:0:
256,192,226444,1,0,0:0:0:0:
256,192,226613,1,8,0:0:0:0:
256,192,227287,1,8,0:0:0:0:
256,192,227793,1,8,0:0:0:0:
256,192,227961,1,8,0:0:0:0:
256,192,228467,5,12,0:0:0:0:
256,192,228804,1,0,0:0:0:0:
256,192,228973,1,0,0:0:0:0:
256,192,229141,1,12,0:0:0:0:
256,192,229478,1,12,0:0:0:0:
256,192,229647,1,12,0:0:0:0:
256,192,232175,1,8,0:0:0:0:
256,192,232344,1,8,0:0:0:0:
256,192,232512,1,0,0:0:0:0:
256,192,233018,1,8,0:0:0:0:
256,192,233187,1,8,0:0:0:0:
256,192,233524,1,0,0:0:0:0:
256,192,233692,1,0,0:0:0:0:
256,192,233861,1,8,0:0:0:0:
256,192,234198,1,0,0:0:0:0:
256,192,234367,1,8,0:0:0:0:
256,192,234535,1,8,0:0:0:0:
256,192,234704,1,8,0:0:0:0:
256,192,234872,1,0,0:0:0:0:
256,192,235041,1,0,0:0:0:0:
256,192,235209,1,8,0:0:0:0:
256,192,235378,1,8,0:0:0:0:
256,192,235715,1,0,0:0:0:0:
256,192,235884,1,0,0:0:0:0:
256,192,236052,1,8,0:0:0:0:
256,192,236221,1,8,0:0:0:0:
256,192,236389,1,8,0:0:0:0:
256,192,236558,1,0,0:0:0:0:
256,192,236895,1,0,0:0:0:0:
256,192,237064,1,8,0:0:0:0:
256,192,237232,1,8,0:0:0:0:
256,192,237401,1,0,0:0:0:0:
256,192,237569,1,0,0:0:0:0:
256,192,237738,1,8,0:0:0:0:
256,192,237906,1,0,0:0:0:0:
256,192,238075,1,0,0:0:0:0:
256,192,238412,1,8,0:0:0:0:
256,192,238749,1,0,0:0:0:0:
256,192,238918,1,0,0:0:0:0:
256,192,239086,1,0,0:0:0:0:
256,192,239255,1,8,0:0:0:0:
256,192,239592,1,0,0:0:0:0:
256,192,239760,1,0,0:0:0:0:
256,192,239929,1,0,0:0:0:0:
256,192,240772,1,12,0:0:0:0:
256,192,240940,1,0,0:0:0:0:
256,192,241109,1,0,0:0:0:0:
256,192,241278,1,0,0:0:0:0:
256,192,241446,1,12,0:0:0:0:
256,192,241615,1,0,0:0:0:0:
256,192,241783,1,0,0:0:0:0:
256,192,241952,1,12,0:0:0:0:
256,192,242289,1,0,0:0:0:0:
256,192,242457,1,0,0:0:0:0:
256,192,242626,1,0,0:0:0:0:
256,192,242795,1,8,0:0:0:0:
256,192,242907,1,0,0:0:0:0:
256,192,243019,1,0,0:0:0:0:
256,192,243132,1,8,0:0:0:0:
256,192,243244,1,0,0:0:0:0:
256,192,243356,1,0,0:0:0:0:
256,192,243469,1,12,0:0:0:0:
256,192,243806,1,0,0:0:0:0:
256,192,243974,1,0,0:0:0:0:
256,192,244143,1,8,0:0:0:0:
256,192,244312,1,0,0:0:0:0:
256,192,244396,1,0,0:0:0:0:
256,192,244480,1,0,0:0:0:0:
256,192,244649,1,4,0:0:0:0:
256,192,244986,1,8,0:0:0:0:
256,192,245154,1,0,0:0:0:0:
256,192,245323,1,0,0:0:0:0:
256,192,245491,1,8,0:0:0:0:
256,192,245660,1,0,0:0:0:0:
256,192,245744,1,0,0:0:0:0:
256,192,245829,1,8,0:0:0:0:
256,192,245997,1,0,0:0:0:0:
256,192,246166,1,12,0:0:0:0:
256,192,246503,1,0,0:0:0:0:
256,192,246671,1,8,0:0:0:0:
256,192,246840,1,0,0:0:0:0:
256,192,247008,1,8,0:0:0:0:
256,192,247093,1,8,0:0:0:0:
256,192,247177,1,8,0:0:0:0:
256,192,247346,1,4,0:0:0:0:
256,192,247683,1,8,0:0:0:0:
256,192,247851,1,4,0:0:0:0:
256,192,248188,1,0,0:0:0:0:
256,192,248357,1,8,0:0:0:0:
256,192,248441,1,8,0:0:0:0:
256,192,248526,1,0,0:0:0:0:
256,192,248610,1,0,0:0:0:0:
256,192,248694,1,0,0:0:0:0:
256,192,248778,1,0,0:0:0:0:
256,192,248863,1,12,0:0:0:0:
256,192,249031,1,8,0:0:0:0:
256,192,249115,1,8,0:0:0:0:
256,192,249200,1,0,0:0:0:0:
256,192,249368,1,8,0:0:0:0:
256,192,249453,1,8,0:0:0:0:
256,192,249537,1,0,0:0:0:0:
256,192,249705,1,8,0:0:0:0:
256,192,249790,1,8,0:0:0:0:
256,192,249874,1,0,0:0:0:0:
256,192,250043,1,4,0:0:0:0:
256,192,250380,1,8,0:0:0:0:
256,192,250464,1,0,0:0:0:0:
256,192,250548,1,0,0:0:0:0:
256,192,250717,1,8,0:0:0:0:
256,192,250801,1,0,0:0:0:0:
256,192,250885,1,0,0:0:0:0:
256,192,251054,1,8,0:0:0:0:
256,192,251138,1,0,0:0:0:0:
256,192,251222,1,0,0:0:0:0:
256,192,251391,1,12,0:0:0:0:
256,192,251728,1,8,0:0:0:0:
256,192,251812,1,0,0:0:0:0:
256,192,251897,1,8,0:0:0:0:
256,192,252065,1,8,0:0:0:0:
256,192,252150,1,0,0:0:0:0:
256,192,252234,1,8,0:0:0:0:
256,192,252402,1,8,0:0:0:0:
256,192,252487,1,0,0:0:0:0:
256,192,252571,1,8,0:0:0:0:
256,192,252739,1,12,0:0:0:0:
256,192,254257,5,8,0:0:0:0:
256,192,254341,1,8,0:0:0:0:
256,192,254425,1,0,0:0:0:0:
256,192,254594,1,0,0:0:0:0:
256,192,254678,1,0,0:0:0:0:
256,192,254762,1,8,0:0:0:0:
256,192,254846,1,8,0:0:0:0:
256,192,254931,1,0,0:0:0:0:
256,192,255015,1,8,0:0:0:0:
256,192,255099,1,8,0:0:0:0:
256,192,255184,1,0,0:0:0:0:
256,192,255268,1,8,0:0:0:0:
256,192,255436,1,0,0:0:0:0:
256,192,255605,5,12,0:0:0:0:
256,192,255774,1,0,0:0:0:0:
256,192,255858,1,0,0:0:0:0:
256,192,255942,1,8,0:0:0:0:
256,192,256026,1,8,0:0:0:0:
256,192,256111,1,0,0:0:0:0:
256,192,256195,1,8,0:0:0:0:
256,192,256279,1,8,0:0:0:0:
256,192,256363,1,8,0:0:0:0:
256,192,256448,1,0,0:0:0:0:
256,192,256532,1,0,0:0:0:0:
256,192,256616,1,8,0:0:0:0:
256,192,256785,1,12,0:0:0:0:
256,192,257122,1,0,0:0:0:0:
256,192,257206,1,0,0:0:0:0:
256,192,257291,1,8,0:0:0:0:
256,192,257375,1,8,0:0:0:0:
256,192,257459,1,0,0:0:0:0:
256,192,257543,1,8,0:0:0:0:
256,192,257628,1,8,0:0:0:0:
256,192,257712,1,0,0:0:0:0:
256,192,257796,1,0,0:0:0:0:
256,192,257881,1,0,0:0:0:0:
256,192,257965,1,8,0:0:0:0:
256,192,258049,1,8,0:0:0:0:
256,192,258133,1,0,0:0:0:0:
256,192,258302,1,4,0:0:0:0:
256,192,258470,1,8,0:0:0:0:
256,192,258555,1,8,0:0:0:0:
256,192,258639,1,0,0:0:0:0:
256,192,258723,1,0,0:0:0:0:
256,192,258808,1,8,0:0:0:0:
256,192,258892,1,0,0:0:0:0:
256,192,258976,1,0,0:0:0:0:
256,192,259060,1,8,0:0:0:0:
256,192,259145,1,8,0:0:0:0:
256,192,259229,1,0,0:0:0:0:
256,192,259313,1,8,0:0:0:0:
256,192,259482,1,4,0:0:0:0:
256,192,259819,1,8,0:0:0:0:
256,192,259903,1,0,0:0:0:0:
256,192,259987,1,0,0:0:0:0:
256,192,260072,1,0,0:0:0:0:
256,192,260156,1,8,0:0:0:0:
256,192,260240,1,0,0:0:0:0:
256,192,260325,1,8,0:0:0:0:
256,192,260409,1,8,0:0:0:0:
256,192,260493,1,0,0:0:0:0:
256,192,260577,1,8,0:0:0:0:
256,192,260662,1,0,0:0:0:0:
256,192,260746,1,0,0:0:0:0:
256,192,260830,1,8,0:0:0:0:
256,192,260999,1,4,0:0:0:0:
256,192,261167,1,8,0:0:0:0:
256,192,261252,1,0,0:0:0:0:
256,192,261336,1,8,0:0:0:0:
256,192,261420,1,8,0:0:0:0:
256,192,261505,1,0,0:0:0:0:
256,192,261589,1,0,0:0:0:0:
256,192,261673,1,8,0:0:0:0:
256,192,261757,1,0,0:0:0:0:
256,192,261842,1,8,0:0:0:0:
256,192,261926,1,8,0:0:0:0:
256,192,262010,1,0,0:0:0:0:
256,192,262094,1,8,0:0:0:0:
256,192,262179,1,0,0:0:0:0:
256,192,262263,1,0,0:0:0:0:
256,192,262347,1,8,0:0:0:0:
256,192,262432,1,0,0:0:0:0:
256,192,262516,1,0,0:0:0:0:
256,192,262600,1,8,0:0:0:0:
256,192,262684,1,8,0:0:0:0:
256,192,262769,1,0,0:0:0:0:
256,192,262853,1,8,0:0:0:0:
256,192,262937,1,0,0:0:0:0:
256,192,263022,1,8,0:0:0:0:
256,192,263106,1,8,0:0:0:0:
256,192,263190,1,0,0:0:0:0:
256,192,263274,1,0,0:0:0:0:
256,192,263359,1,8,0:0:0:0:
256,192,263527,1,4,0:0:0:0:
256,192,263864,1,0,0:0:0:0:
256,192,263949,1,0,0:0:0:0:
256,192,264033,1,8,0:0:0:0:
256,192,264201,1,4,0:0:0:0:
256,192,264539,1,8,0:0:0:0:
256,192,264623,1,0,0:0:0:0:
256,192,264707,1,8,0:0:0:0:
256,192,264876,1,4,0:0:0:0:
256,192,265213,1,0,0:0:0:0:
256,192,265297,1,0,0:0:0:0:
256,192,265381,1,8,0:0:0:0:
256,192,265550,1,0,0:0:0:0:
256,192,265634,1,0,0:0:0:0:
256,192,265718,1,8,0:0:0:0:
256,192,265803,1,0,0:0:0:0:
256,192,265887,1,8,0:0:0:0:
256,192,265971,1,8,0:0:0:0:
256,192,266056,1,0,0:0:0:0:
256,192,266140,1,8,0:0:0:0:
256,192,266224,1,0,0:0:0:0:
256,192,266308,1,0,0:0:0:0:
256,192,266393,1,8,0:0:0:0:
256,192,266477,1,8,0:0:0:0:
256,192,266561,1,0,0:0:0:0:
256,192,266646,1,0,0:0:0:0:
256,192,266730,1,8,0:0:0:0:
256,192,266814,1,0,0:0:0:0:
256,192,266898,1,0,0:0:0:0:
256,192,266983,1,0,0:0:0:0:
256,192,267067,1,8,0:0:0:0:
256,192,267151,1,0,0:0:0:0:
256,192,267235,1,8,0:0:0:0:
256,192,267320,1,0,0:0:0:0:
256,192,267404,1,8,0:0:0:0:
256,192,267488,1,8,0:0:0:0:
256,192,267573,1,0,0:0:0:0:
256,192,267657,1,8,0:0:0:0:
256,192,267741,1,0,0:0:0:0:
256,192,267825,1,8,0:0:0:0:
256,192,267910,1,0,0:0:0:0:
256,192,267994,1,0,0:0:0:0:
256,192,268078,1,8,0:0:0:0:
256,192,268163,1,8,0:0:0:0:
256,192,268247,1,0,0:0:0:0:
256,192,268331,1,0,0:0:0:0:
256,192,268415,1,8,0:0:0:0:
256,192,268500,1,0,0:0:0:0:
256,192,268584,1,8,0:0:0:0:
256,192,268668,1,8,0:0:0:0:
256,192,268753,1,0,0:0:0:0:
256,192,268837,1,8,0:0:0:0:
256,192,268921,1,0,0:0:0:0:
256,192,269005,1,8,0:0:0:0:
256,192,269090,1,0,0:0:0:0:
256,192,269174,1,0,0:0:0:0:
256,192,269258,1,8,0:0:0:0:
256,192,269342,1,8,0:0:0:0:
256,192,269427,1,0,0:0:0:0:
256,192,269511,1,8,0:0:0:0:
256,192,269595,1,0,0:0:0:0:
256,192,269680,1,0,0:0:0:0:
256,192,269764,5,8,0:0:0:0:
256,192,269848,1,0,0:0:0:0:
256,192,269932,1,0,0:0:0:0:
256,192,270017,1,0,0:0:0:0:
256,192,270101,1,8,0:0:0:0:
256,192,270185,1,8,0:0:0:0:
256,192,270270,1,4,0:0:0:0:
256,192,270607,1,8,0:0:0:0:
256,192,270691,1,8,0:0:0:0:
256,192,270775,1,4,0:0:0:0:
256,192,270944,1,8,0:0:0:0:
256,192,271028,1,0,0:0:0:0:
256,192,271112,1,8,0:0:0:0:
256,192,271197,1,0,0:0:0:0:
256,192,271281,1,8,0:0:0:0:
256,192,271365,1,8,0:0:0:0:
256,192,271449,1,0,0:0:0:0:
256,192,271534,1,0,0:0:0:0:
256,192,271618,1,8,0:0:0:0:
256,192,271702,1,8,0:0:0:0:
256,192,271787,1,4,0:0:0:0:
256,192,272124,1,8,0:0:0:0:
256,192,272208,1,0,0:0:0:0:
256,192,272292,1,8,0:0:0:0:
256,192,272377,1,8,0:0:0:0:
256,192,272461,1,0,0:0:0:0:
256,192,272545,1,8,0:0:0:0:
256,192,272629,1,0,0:0:0:0:
256,192,272714,1,8,0:0:0:0:
256,192,272798,1,0,0:0:0:0:
256,192,272882,1,0,0:0:0:0:
256,192,272966,1,12,0:0:0:0:
256,192,273304,1,0,0:0:0:0:
256,192,273388,1,8,0:0:0:0:
256,192,273472,1,0,0:0:0:0:
256,192,273556,1,0,0:0:0:0:
256,192,273641,1,8,0:0:0:0:
256,192,273725,1,0,0:0:0:0:
256,192,273809,1,8,0:0:0:0:
256,192,273894,1,8,0:0:0:0:
256,192,273978,1,8,0:0:0:0:
256,192,274062,1,8,0:0:0:0:
256,192,274146,1,0,0:0:0:0:
256,192,274231,1,0,0:0:0:0:
256,192,274315,1,12,0:0:0:0:
256,192,274652,1,0,0:0:0:0:
256,192,274736,1,0,0:0:0:0:
256,192,274821,1,8,0:0:0:0:
256,192,274905,1,0,0:0:0:0:
256,192,274989,1,8,0:0:0:0:
256,192,275073,1,8,0:0:0:0:
256,192,275158,1,0,0:0:0:0:
256,192,275242,1,8,0:0:0:0:
256,192,275326,1,0,0:0:0:0:
256,192,275411,1,0,0:0:0:0:
256,192,275495,1,8,0:0:0:0:
256,192,275579,1,8,0:0:0:0:
256,192,275663,1,4,0:0:0:0:
256,192,276001,1,4,0:0:0:0:
256,192,276338,1,12,0:0:0:0:
256,192,276675,1,12,0:0:0:0:
256,192,276843,1,0,0:0:0:0:
256,192,277012,1,4,0:0:0:0:
256,192,277349,1,8,0:0:0:0:
256,192,277518,1,8,0:0:0:0:
256,192,277686,1,0,0:0:0:0:
256,192,277855,1,8,0:0:0:0:
256,192,278192,1,0,0:0:0:0:
256,192,278360,1,0,0:0:0:0:
256,192,278529,1,8,0:0:0:0:
256,192,278697,1,0,0:0:0:0:
256,192,278866,1,0,0:0:0:0:
256,192,279035,1,8,0:0:0:0:
256,192,279372,1,12,0:0:0:0:
256,192,279540,1,0,0:0:0:0:
256,192,279709,1,12,0:0:0:0:
256,192,280046,1,0,0:0:0:0:
256,192,280214,1,8,0:0:0:0:
256,192,280383,1,8,0:0:0:0:
256,192,280552,1,0,0:0:0:0:
256,192,280720,1,0,0:0:0:0:
256,192,280889,1,8,0:0:0:0:
256,192,281057,1,4,0:0:0:0:
256,192,281394,1,0,0:0:0:0:
256,192,281563,1,0,0:0:0:0:
256,192,281732,1,12,0:0:0:0:
256,192,282069,1,4,0:0:0:0:
256,192,282237,1,8,0:0:0:0:
256,192,282406,1,4,0:0:0:0:
256,192,282743,1,8,0:0:0:0:
32,192,282828,1,8,0:0:0:0:
256,192,282912,1,8,0:0:0:0:
256,192,283081,1,0,0:0:0:0:
256,192,283249,1,0,0:0:0:0:
32,192,283418,1,8,0:0:0:0:
32,192,283502,1,8,0:0:0:0:
256,192,283586,1,0,0:0:0:0:
256,192,283755,1,0,0:0:0:0:
256,192,283923,1,8,0:0:0:0:
32,192,284008,1,0,0:0:0:0:
256,192,284092,1,8,0:0:0:0:
32,192,284176,1,8,0:0:0:0:
256,192,284261,1,0,0:0:0:0:
256,192,284429,1,0,0:0:0:0:
32,192,284513,1,0,0:0:0:0:
32,192,284598,1,8,0:0:0:0:
32,192,284682,1,0,0:0:0:0:
256,192,284766,1,8,0:0:0:0:
32,192,284850,1,8,0:0:0:0:
256,192,284935,1,0,0:0:0:0:
256,192,285103,1,12,0:0:0:0:
256,192,285608,1,0,0:0:0:0:
256,192,285945,1,8,0:0:0:0:
256,192,286114,1,8,0:0:0:0:
256,192,286283,1,0,0:0:0:0:
256,192,286451,1,8,0:0:0:0:
256,192,287968,1,4,0:0:0:0:
256,192,288305,1,8,0:0:0:0:
256,192,288474,1,0,0:0:0:0:
256,192,288558,1,0,0:0:0:0:
256,192,288642,1,0,0:0:0:0:
256,192,288811,1,8,0:0:0:0:
256,192,288980,1,8,0:0:0:0:
256,192,289148,1,4,0:0:0:0:
256,192,289485,1,0,0:0:0:0:
256,192,289654,1,8,0:0:0:0:
256,192,289822,1,4,0:0:0:0:
256,192,290159,1,8,0:0:0:0:
256,192,290244,1,8,0:0:0:0:
256,192,290328,1,0,0:0:0:0:
256,192,290412,1,0,0:0:0:0:
256,192,290497,1,8,0:0:0:0:
256,192,290581,1,8,0:0:0:0:
256,192,290665,1,4,0:0:0:0:
256,192,290834,1,8,0:0:0:0:
256,192,290918,1,8,0:0:0:0:
256,192,291002,1,0,0:0:0:0:
256,192,291171,1,0,0:0:0:0:
256,192,291339,1,8,0:0:0:0:
256,192,291508,1,0,0:0:0:0:
256,192,291592,1,8,0:0:0:0:
256,192,291676,1,0,0:0:0:0:
256,192,291845,1,0,0:0:0:0:
256,192,291929,1,8,0:0:0:0:
256,192,292014,1,8,0:0:0:0:
256,192,292182,1,8,0:0:0:0:
256,192,292266,1,8,0:0:0:0:
256,192,292351,1,8,0:0:0:0:
256,192,292435,1,8,0:0:0:0:
256,192,292519,1,4,0:0:0:0:
256,192,292856,1,0,0:0:0:0:
256,192,292941,1,8,0:0:0:0:
256,192,293025,1,0,0:0:0:0:
256,192,293109,1,8,0:0:0:0:
256,192,293193,1,8,0:0:0:0:
256,192,293278,1,8,0:0:0:0:
256,192,293362,1,4,0:0:0:0:
256,192,293531,1,8,0:0:0:0:
256,192,293615,1,8,0:0:0:0:
256,192,293699,1,8,0:0:0:0:
256,192,293868,1,0,0:0:0:0:
256,192,294036,1,8,0:0:0:0:
256,192,294205,1,0,0:0:0:0:
256,192,294289,1,0,0:0:0:0:
256,192,294373,1,8,0:0:0:0:
256,192,294542,1,0,0:0:0:0:
256,192,294710,1,8,0:0:0:0:
256,192,294795,1,8,0:0:0:0:
256,192,294879,1,0,0:0:0:0:
256,192,295048,1,0,0:0:0:0:
256,192,295216,1,0,0:0:0:0:
256,192,295300,1,8,0:0:0:0:
256,192,295385,1,0,0:0:0:0:
256,192,295469,1,0,0:0:0:0:
256,192,295553,1,8,0:0:0:0:
256,192,295638,1,8,0:0:0:0:
256,192,295722,1,0,0:0:0:0:
256,192,295890,5,4,0:0:0:0:
256,192,296059,1,8,0:0:0:0:
256,192,296143,1,8,0:0:0:0:
256,192,296228,1,8,0:0:0:0:
256,192,296396,1,0,0:0:0:0:
256,192,296565,1,12,0:0:0:0:
256,192,296733,1,8,0:0:0:0:
256,192,296817,1,0,0:0:0:0:
256,192,296902,1,8,0:0:0:0:
256,192,297070,1,0,0:0:0:0:
256,192,297239,1,4,0:0:0:0:
256,192,297576,1,8,0:0:0:0:
256,192,297745,1,8,0:0:0:0:
256,192,297913,1,8,0:0:0:0:
256,192,298082,1,0,0:0:0:0:
256,192,298250,1,0,0:0:0:0:
256,192,298419,1,8,0:0:0:0:
256,192,298587,5,4,0:0:0:0:
256,192,298756,1,8,0:0:0:0:
256,192,298840,1,8,0:0:0:0:
256,192,298924,1,0,0:0:0:0:
256,192,299009,1,0,0:0:0:0:
256,192,299093,1,0,0:0:0:0:
256,192,299262,1,12,0:0:0:0:
256,192,299430,1,0,0:0:0:0:
256,192,299514,1,8,0:0:0:0:
256,192,299599,1,8,0:0:0:0:
256,192,299683,1,8,0:0:0:0:
256,192,299767,1,0,0:0:0:0:
256,192,299936,1,4,0:0:0:0:
256,192,300104,1,8,0:0:0:0:
256,192,300189,1,8,0:0:0:0:
256,192,300273,1,8,0:0:0:0:
256,192,300357,1,0,0:0:0:0:
256,192,300441,1,8,0:0:0:0:
256,192,300610,1,12,0:0:0:0:
256,192,300779,1,0,0:0:0:0:
256,192,300863,1,0,0:0:0:0:
256,192,300947,1,0,0:0:0:0:
256,192,301031,1,0,0:0:0:0:
256,192,301116,5,8,0:0:0:0:
256,192,301172,1,0,0:0:0:0:
256,192,301228,1,0,0:0:0:0:
256,192,301284,1,8,0:0:0:0:
256,192,301340,1,0,0:0:0:0:
256,192,301397,1,0,0:0:0:0:
256,192,301453,1,8,0:0:0:0:
256,192,301537,1,8,0:0:0:0:
256,192,301621,1,0,0:0:0:0:
256,192,301790,1,12,0:0:0:0:
256,192,301959,12,12,308195,0:0:0:0:
