osu file format v14

[General]
AudioFilename: audio.mp3
AudioLeadIn: 0
PreviewTime: 65216
Countdown: 0
SampleSet: Soft
StackLeniency: 0.7
Mode: 0
LetterboxInBreaks: 0
WidescreenStoryboard: 1

[Editor]
DistanceSpacing: 0.8
BeatDivisor: 4
GridSize: 32
TimelineZoom: 2.08

[Metadata]
Title:Namidame Bakuhatsuon
TitleUnicode:涙目爆発音
Artist:WALKUERE
ArtistUnicode:ワルキューレ
Creator:Pentori
Version:Normal
Source:マクロスΔ
Tags:macross delta walkure dakinibrave komore schoolboy doormat
BeatmapID:1505854
BeatmapSetID:709030

[Difficulty]
HPDrainRate:4
CircleSize:3.4
OverallDifficulty:4
ApproachRate:5
SliderMultiplier:1.2
SliderTickRate:1

[Events]
//Background and Video events
0,0,"bg.jpg",0,0
//Break Periods
//Storyboard Layer 0 (Background)
//Storyboard Layer 1 (Fail)
//Storyboard Layer 2 (Pass)
//Storyboard Layer 3 (Foreground)
//Storyboard Sound Samples

[TimingPoints]
205,319.148936170213,4,2,1,60,1,0
2758,-100,4,2,1,50,0,0
6409,319.148936170213,4,2,1,50,1,0
7066,319.148936170213,4,2,1,50,1,0
7863,-100,4,2,1,40,0,0
9597,319.148936170213,4,2,1,60,1,0
10394,319.148936170213,4,2,1,60,1,0
12605,322.58064516129,4,2,2,60,1,0
12927,-100,4,2,1,60,0,0
13594,319.148936170213,4,2,1,60,1,0
14232,319.148936170213,4,2,1,60,1,0
23168,-100,4,2,1,40,0,0
27955,-100,4,2,1,50,0,0
33380,-100,4,2,1,40,0,0
37211,-100,4,2,1,50,0,0
57317,-100,4,2,1,60,0,0
58912,-100,4,2,1,50,0,0
62742,-100,4,2,1,60,0,0
65295,-100,4,2,1,40,0,0
65614,-100,4,2,1,60,0,1
75508,-100,4,2,1,40,0,0
75827,-100,4,2,1,60,0,1
83168,-100,4,2,1,60,0,0
83343,319.148936170213,4,2,1,60,1,0
85736,319.148936170213,4,2,1,60,1,0
87972,-100,4,2,2,60,0,0
88289,-100,4,2,1,60,0,0
98501,-100,4,2,1,70,0,0
108714,-100,4,2,1,50,0,0
109672,-100,4,2,1,40,0,0

[Colours]
Combo1 : 174,61,211
Combo2 : 0,128,192
Combo3 : 255,128,0

[HitObjects]
391,28,2758,5,12,0:1:0:0:
89,176,3875,1,12,0:1:0:0:
251,278,4513,1,8,0:0:0:0:
289,249,4673,2,0,P|318:191|304:130,1,120,10|8,0:0|0:1,0:0:0:0:
229,85,5311,5,12,0:1:0:0:
398,368,6409,1,12,0:1:0:0:
471,184,7066,1,8,0:1:0:0:
426,202,7225,2,0,L|294:183,1,120,10|10,0:1|0:1,0:0:0:0:
226,236,7863,6,0,P|156:159|24:189,2,240,14|8|10,0:1|0:1|0:1,0:0:0:0:
290,114,9597,1,8,0:0:0:0:
260,76,9756,2,0,L|270:0,2,60,8|8|8,0:0|0:1|0:1,0:0:0:0:
173,118,10394,5,8,0:0:0:0:
109,246,10872,1,8,0:0:0:0:
210,346,11351,1,8,0:0:0:0:
336,280,11830,1,8,0:0:0:0:
312,139,12308,2,0,L|426:155,1,112.3,8|8,0:0|1:2,0:0:0:0:
453,245,12927,6,0,P|395:274|334:260,1,120,14|8,0:1|0:0,0:0:0:0:
258,325,13594,2,0,P|200:296|139:310,1,120,10|8,0:0|0:0,0:0:0:0:
80,236,14232,2,0,L|99:104,1,120,10|8,0:0|0:0,0:0:0:0:
169,53,14870,1,10,0:0:0:0:
256,93,15189,1,10,0:0:0:0:
327,29,15508,6,0,B|357:83|357:83|332:160,1,120,10|8,0:0|0:0,0:0:0:0:
420,189,16146,2,0,B|282:144|311:265|165:220,1,240,10|10,0:0|0:0,0:0:0:0:
120,164,17104,1,8,0:0:0:0:
28,193,17423,2,0,L|45:311,1,120,10|10,0:0|0:0,0:0:0:0:
111,380,18061,6,0,P|169:351|230:365,1,120,14|8,0:0|0:0,0:0:0:0:
281,285,18700,2,0,L|399:302,1,120,10|8,0:0|0:0,0:0:0:0:
495,312,19338,2,0,L|477:193,1,120,10|8,0:0|0:0,0:0:0:0:
509,102,19976,1,10,0:0:0:0:
431,43,20295,1,10,0:0:0:0:
350,98,20614,6,0,B|284:86|253:34|253:34|200:85|112:70,1,240,12|8,0:0|0:0,0:0:0:0:
51,43,21572,1,8,0:1:0:0:
1,125,21891,1,14,0:0:0:0:
464,247,23168,6,0,B|326:202|355:323|209:278,1,240,14|10,0:1|0:1,0:0:0:0:
164,347,24125,1,8,0:1:0:0:
73,314,24444,2,0,P|64:255|92:203,1,120,10|8,0:1|0:1,0:0:0:0:
71,109,25083,2,0,P|122:80|181:89,1,120,10|10,0:1|0:1,0:0:0:0:
227,173,25721,6,0,B|321:159|321:159|366:188|366:188|464:174,1,240,10|10,0:1|0:1,0:0:0:0:
508,94,26678,1,8,0:1:0:0:
462,9,26997,2,0,P|410:37|351:28,2,120,8|8|10,1:0|1:0|0:0,0:0:0:0:
508,94,27955,6,0,L|483:282,1,180,12|10,0:1|0:1,0:0:0:0:
508,313,28593,1,10,0:0:0:0:
425,362,28912,2,0,P|373:334|314:343,1,120,10|10,0:1|0:0,0:0:0:0:
247,274,29551,2,0,L|255:212,2,60,10|8|8,0:1|0:1|0:0,0:0:0:0:
152,288,30189,2,0,P|124:236|133:177,1,120,10|8,0:1|0:0,0:0:0:0:
94,89,30827,6,0,L|212:72,1,120,10|8,0:1|0:0,0:0:0:0:
291,17,31466,1,10,0:1:0:0:
378,57,31785,2,0,L|369:116,1,60,8|8,0:0|0:0,0:0:0:0:
386,161,32104,2,0,P|334:133|275:141,1,120,12|8,0:1|0:0,0:0:0:0:
266,237,32742,2,0,L|206:245,2,60,8|8|8,0:1|0:0|0:0,0:0:0:0:
258,332,33380,6,0,P|188:255|56:285,1,240,14|10,0:1|0:1,0:0:0:0:
2,202,34338,1,8,0:1:0:0:
56,122,34657,2,0,L|39:4,1,120,10|8,0:1|0:1,0:0:0:0:
134,14,35295,2,0,L|151:132,1,120,10|10,0:1|0:1,0:0:0:0:
236,176,35934,6,0,B|302:164|333:112|333:112|386:163|474:148,1,240,10|10,0:1|0:1,0:0:0:0:
483,240,36891,1,8,0:1:0:0:
419,312,37210,2,0,L|301:295,2,120,8|8|8,0:0|0:0|0:0,0:0:0:0:
483,240,38168,6,0,P|534:163|491:62,1,180,12|10,0:1|0:1,0:0:0:0:
466,70,38806,1,10,0:0:0:0:
395,135,39125,2,0,L|277:152,1,120,10|10,0:1|0:0,0:0:0:0:
197,97,39763,2,0,L|205:37,2,60,10|8|8,0:1|0:1|0:0,0:0:0:0:
106,129,40402,2,0,P|78:181|87:240,1,120,10|8,0:1|0:0,0:0:0:0:
154,306,41040,6,0,P|102:333|43:325,2,120,10|10|10,0:1|0:0|0:1,0:0:0:0:
232,360,41997,1,10,0:0:0:0:
322,328,42317,2,0,L|339:210,1,120,10|10,0:1|0:0,0:0:0:0:
248,178,42955,2,0,L|231:60,1,120,10|8,0:1|0:0,0:0:0:0:
325,77,43593,5,14,0:1:0:0:
391,7,43912,1,10,0:0:0:0:
485,25,44232,2,0,P|512:77|504:136,1,120,8|10,0:1|0:0,0:0:0:0:
426,192,44870,1,10,0:1:0:0:
471,276,45189,1,10,0:0:0:0:
393,332,45508,2,0,L|275:315,1,120,8|10,0:1|0:0,0:0:0:0:
188,357,46146,6,0,B|170:301|170:301|200:247,1,120,10|10,0:1|0:0,0:0:0:0:
258,171,46785,2,0,L|250:111,2,60,8|8|10,0:1|0:1|0:0,0:0:0:0:
296,198,47263,2,0,P|348:225|407:217,1,120,12|8,0:1|0:1,0:0:0:0:
442,184,47742,1,10,0:0:0:0:
442,184,47902,2,0,L|418:5,1,180,12|10,0:1|0:0,0:0:0:0:
332,48,48700,6,0,L|214:31,1,120,12|10,0:1|0:0,0:0:0:0:
145,98,49338,2,0,L|85:106,2,60,8|10|8,0:1|0:1|0:0,0:0:0:0:
202,175,49976,2,0,P|229:227|221:286,1,120,8|10,0:1|0:0,0:0:0:0:
147,348,50614,2,0,P|94:320|35:328,1,120,10|10,0:1|0:0,0:0:0:0:
47,233,51253,6,0,L|30:115,1,120,10|10,0:1|0:0,0:0:0:0:
17,19,51891,2,0,L|135:36,1,120,8|10,0:1|0:0,0:0:0:0:
208,98,52529,1,8,0:1:0:0:
289,47,52849,1,8,0:0:0:0:
378,81,53168,2,0,L|386:21,2,60,8|8|8,0:0|0:1|0:1,0:0:0:0:
349,119,53646,1,10,0:0:0:0:
349,119,53806,6,0,P|376:171|368:230,1,120,12|10,0:1|0:0,0:0:0:0:
413,314,54444,2,0,L|295:331,1,120,10|10,0:1|0:0,0:0:0:0:
234,255,55083,1,10,0:1:0:0:
266,164,55402,1,10,0:0:0:0:
197,96,55721,2,0,L|189:36,2,60,10|8|10,0:1|0:1|0:0,0:0:0:0:
114,144,56359,6,0,P|61:116|2:125,1,120,10|10,0:1|0:0,0:0:0:0:
44,211,56997,2,0,L|36:271,1,60,10|8,0:1|0:1,0:0:0:0:
9,310,57317,2,0,B|147:265|118:386|264:341,1,240,12|10,0:0|0:0,0:0:0:0:
282,264,58274,1,8,0:1:0:0:
374,291,58593,1,8,0:1:0:0:
441,222,58912,6,0,L|424:104,1,120,14|8,0:1|0:0,0:0:0:0:
331,75,59551,2,0,L|348:193,1,120,10|8,0:1|0:0,0:0:0:0:
282,264,60189,2,0,P|229:236|170:245,1,120,10|8,0:1|0:0,0:0:0:0:
120,163,60827,2,0,P|67:191|8:182,1,120,10|10,0:1|0:0,0:0:0:0:
51,95,61466,5,8,0:1:0:0:
143,70,61785,1,8,0:0:0:0:
212,137,62104,1,10,0:1:0:0:
304,112,62423,1,10,0:0:0:0:
373,179,62742,6,0,L|365:239,2,60,8|8|8,0:0|0:0|0:0,0:0:0:0:
408,146,63221,1,8,0:0:0:0:
293,58,63700,2,0,L|301:-2,2,60,10|10|10,0:0|0:0|0:0,0:0:0:0:
258,91,64179,1,10,0:0:0:0:
93,315,65295,5,4,0:0:0:0:
39,232,65614,2,0,B|177:187|148:308|294:263,1,240,14|8,0:0|0:0,0:0:0:0:
307,293,66412,2,0,L|324:175,1,120,14|10,0:1|0:1,0:0:0:0:
359,141,66891,1,8,0:0:0:0:
286,77,67210,2,0,L|278:17,2,60,8|8|10,0:1|0:1|0:0,0:0:0:0:
194,105,67849,6,0,P|141:77|82:86,1,120,10|8,0:1|0:0,0:0:0:0:
78,181,68487,2,0,L|18:189,2,60,8|10|8,0:1|0:1|0:0,0:0:0:0:
125,176,68966,2,0,L|108:294,1,120,14|10,0:1|0:1,0:0:0:0:
142,327,69444,1,8,0:0:0:0:
224,278,69763,1,8,0:1:0:0:
310,320,70083,1,10,0:0:0:0:
392,271,70402,6,0,P|420:218|411:159,1,120,14|8,0:1|0:0,0:0:0:0:
451,73,71040,2,0,L|333:56,1,120,8|8,0:1|0:0,0:0:0:0:
302,93,71519,2,0,P|225:42|124:85,1,180,10|8,0:1|0:0,0:0:0:0:
56,99,72317,2,0,L|48:39,2,60,10|8|10,0:1|0:1|0:0,0:0:0:0:
76,192,72955,6,0,L|59:310,1,120,12|8,0:1|0:0,0:0:0:0:
37,354,73434,2,0,L|225:326,1,180,12|10,0:1|0:0,0:0:0:0:
244,290,74072,1,12,0:1:0:0:
313,356,74391,1,8,0:1:0:0:
403,322,74710,2,0,P|454:245|411:144,1,180,12|10,0:1|0:0,0:0:0:0:
349,117,75508,5,12,0:1:0:0:
270,172,75827,2,0,B|204:160|173:108|173:108|120:159|32:144,1,240,14|8,0:0|0:0,0:0:0:0:
18,130,76625,2,0,P|46:183|37:242,1,120,14|10,0:1|0:1,0:0:0:0:
7,277,77104,1,8,0:0:0:0:
81,336,77423,2,0,L|199:319,1,120,8|8,0:1|0:0,0:0:0:0:
284,273,78061,5,10,0:1:0:0:
351,340,78380,1,8,0:0:0:0:
444,315,78700,2,0,L|436:375,2,60,10|8|10,0:1|0:1|0:0,0:0:0:0:
485,290,79178,2,0,L|457:102,1,180,12|8,0:1|0:0,0:0:0:0:
390,44,79976,1,8,0:1:0:0:
303,85,80295,1,10,0:0:0:0:
237,15,80614,6,0,P|209:68|218:127,1,120,14|8,0:1|0:0,0:0:0:0:
296,180,81253,2,0,L|356:172,2,60,8|10|8,0:1|0:1|0:0,0:0:0:0:
268,219,81732,2,0,L|150:202,1,120,10|10,0:1|0:1,0:0:0:0:
111,171,82210,1,8,0:0:0:0:
23,209,82529,2,0,P|-5:262|4:321,1,120,10|8,0:1|0:0,0:0:0:0:
90,279,83168,5,8,0:0:0:0:
218,343,83662,1,8,0:0:0:0:
318,242,84140,1,8,0:0:0:0:
252,116,84619,1,8,0:0:0:0:
111,140,85098,2,0,L|128:22,1,120,8|8,0:0|0:0,0:0:0:0:
221,0,85736,5,12,0:0:0:0:
354,53,86214,1,12,0:0:0:0:
487,106,86693,1,12,0:0:0:0:
354,159,87172,2,0,P|326:212|335:271,1,120,14|8,0:0|0:0,0:0:0:0:
369,301,87650,2,0,L|251:284,1,120,8|8,0:0|1:2,0:0:0:0:
177,220,88289,6,0,P|124:248|65:239,1,120,12|8,0:1|0:0,0:0:0:0:
0,169,88927,2,0,P|-8:110|19:58,1,120,10|8,0:1|0:0,0:0:0:0:
109,92,89565,2,0,L|227:75,1,120,10|8,0:1|0:0,0:0:0:0:
291,2,90204,1,10,0:1:0:0:
379,39,90523,1,10,0:0:0:0:
371,134,90842,6,0,L|354:252,1,120,10|8,0:1|0:0,0:0:0:0:
275,307,91480,2,0,B|369:293|369:293|414:322|414:322|512:308,1,240,10|10,0:1|0:1,0:0:0:0:
457,225,92438,1,8,0:0:0:0:
505,142,92757,2,0,P|513:83|485:31,1,120,10|10,0:1|0:0,0:0:0:0:
396,67,93395,6,0,L|278:50,1,120,14|8,0:1|0:0,0:0:0:0:
204,111,94033,2,0,L|86:128,1,120,10|8,0:1|0:0,0:0:0:0:
31,207,94672,2,0,P|58:259|50:317,1,120,10|8,0:1|0:0,0:0:0:0:
128,373,95310,1,10,0:1:0:0:
215,333,95629,1,8,0:0:0:0:
297,381,95948,6,0,B|314:325|314:325|284:271,1,120,10|8,0:1|0:0,0:0:0:0:
353,203,96587,2,0,L|361:143,2,60,8|8|10,0:1|0:1|0:0,0:0:0:0:
443,235,97225,2,0,P|470:183|462:125,1,120,8|8,0:1|0:0,0:0:0:0:
497,35,97863,2,0,L|379:18,1,120,8|8,0:1|0:1,0:0:0:0:
335,40,98342,1,10,0:0:0:0:
335,40,98501,6,0,P|283:13|225:21,1,120,14|8,0:1|0:0,0:0:0:0:
148,81,99140,2,0,L|88:89,2,60,10|10|8,0:0|0:1|0:0,0:0:0:0:
200,161,99778,2,0,L|183:279,1,120,10|8,0:0|0:0,0:0:0:0:
260,336,100416,1,10,0:0:0:0:
350,302,100736,1,10,0:0:0:0:
416,370,101055,6,0,P|443:318|435:260,1,120,10|8,0:0|0:0,0:0:0:0:
504,193,101693,2,0,L|512:133,2,60,10|8|8,0:0|0:1|0:0,0:0:0:0:
422,142,102331,2,0,L|304:159,1,120,10|8,0:0|0:0,0:0:0:0:
234,226,102970,2,0,P|182:199|124:207,1,120,10|8,0:0|0:0,0:0:0:0:
34,244,103608,6,0,L|17:126,1,120,10|8,0:0|0:0,0:0:0:0:
89,62,104246,2,0,L|97:2,2,60,10|10|8,0:0|0:1|0:0,0:0:0:0:
171,111,104884,2,0,P|229:119|281:92,1,120,10|8,0:0|0:0,0:0:0:0:
358,150,105523,1,10,0:0:0:0:
445,111,105842,1,10,0:0:0:0:
508,182,106161,6,0,L|491:300,1,120,10|10,0:0|0:0,0:0:0:0:
400,269,106799,2,0,L|282:286,1,120,10|8,0:0|0:0,0:0:0:0:
186,302,107438,2,0,L|178:362,2,60,10|8|8,0:0|0:0|0:0,0:0:0:0:
155,265,107916,1,8,0:1:0:0:
155,265,108076,2,0,P|127:212|135:154,1,120,8|10,0:1|0:0,0:0:0:0:
211,96,108714,5,14,0:1:0:0:
256,192,108874,12,0,111587,0:0:0:0:
