osu file format v14

[General]
AudioFilename: audio.mp3
AudioLeadIn: 0
PreviewTime: 65216
Countdown: 0
SampleSet: Soft
StackLeniency: 0.7
Mode: 0
LetterboxInBreaks: 0
WidescreenStoryboard: 0

[Editor]
DistanceSpacing: 1.4
BeatDivisor: 4
GridSize: 32
TimelineZoom: 2.08

[Metadata]
Title:Namidame Bakuhatsuon
TitleUnicode:涙目爆発音
Artist:WALKUERE
ArtistUnicode:ワルキューレ
Creator:Pentori
Version:Extra
Source:マクロスΔ
Tags:macross delta walkure dakinibrave komore schoolboy doormat
BeatmapID:1498916
BeatmapSetID:709030

[Difficulty]
HPDrainRate:6.6
CircleSize:4
OverallDifficulty:8.7
ApproachRate:9.2
SliderMultiplier:1.8
SliderTickRate:1

[Events]
//Background and Video events
0,0,"bg.jpg",0,0
//Break Periods
//Storyboard Layer 0 (Background)
//Storyboard Layer 1 (Fail)
//Storyboard Layer 2 (Pass)
//Storyboard Layer 3 (Foreground)
//Storyboard Sound Samples

[TimingPoints]
205,319.148936170213,4,2,1,60,1,0
2678,-100,4,2,1,5,0,0
2758,-125,4,2,1,50,0,0
3875,-111.111111111111,4,2,1,50,0,0
4673,-90.9090909090908,4,2,1,50,0,0
4992,-166.666666666667,4,2,1,50,0,0
5311,-125,4,2,1,50,0,0
6409,319.148936170213,4,2,1,50,1,0
6409,-111.111111111111,4,2,1,50,0,0
7066,319.148936170213,4,2,1,50,1,0
7225,-90.9090909090909,4,2,1,50,0,0
7544,-111.111111111111,4,2,1,50,0,0
7863,-111.111111111111,4,2,1,40,0,0
9597,319.148936170213,4,2,1,60,1,0
10075,-125,4,2,1,60,0,0
10394,319.148936170213,4,2,1,60,1,0
12605,322.58064516129,4,2,2,60,1,0
12927,-100,4,2,1,60,0,0
13594,319.148936170213,4,2,1,60,1,0
14232,319.148936170213,4,2,1,60,1,0
23168,-142.857142857143,4,2,1,40,0,0
26998,-71.4285714285714,4,2,1,40,0,0
27955,-111.111111111111,4,2,1,50,0,0
33380,-142.857142857143,4,2,1,40,0,0
37211,-142.857142857143,4,2,1,50,0,0
38168,-111.111111111111,4,2,1,50,0,0
57317,-99.9999999999999,4,2,1,60,0,0
58912,-111.111111111111,4,2,1,50,0,0
62742,-111.111111111111,4,2,1,60,0,0
64976,-66.6666666666667,4,2,2,70,0,0
65056,-66.6666666666667,4,2,1,5,0,0
65295,-200,4,2,1,40,0,0
65614,-76.9230769230769,4,2,1,60,0,1
65933,-100,4,2,1,60,0,1
72954,-83.3333333333333,4,2,1,60,0,1
75508,-200,4,2,1,40,0,0
75827,-83.3333333333333,4,2,1,60,0,1
76146,-100,4,2,1,60,0,1
83168,-100,4,2,1,60,0,0
83343,319.148936170213,4,2,1,60,1,0
85736,319.148936170213,4,2,1,60,1,0
87972,-100,4,2,2,60,0,0
88289,-111.111111111111,4,2,1,60,0,0
98501,-100,4,2,1,70,0,0
106161,-71.4285714285714,4,2,1,70,0,0
107918,-100,4,2,1,70,0,0
108714,-142.857142857143,4,2,1,50,0,0
109672,-142.857142857143,4,2,1,40,0,0
117650,-142.857142857143,4,2,1,5,0,0

[Colours]
Combo1 : 174,61,211
Combo2 : 0,128,192
Combo3 : 255,128,0

[HitObjects]
256,192,843,12,0,2678,0:0:0:0:
273,117,2758,6,0,B|299:88|300:50|300:50|333:101|330:151|292:199|292:199|237:183|198:209|198:209|153:241|85:221,1,432,12|0,0:1|0:0,0:0:0:0:
329,326,3875,6,0,P|362:268|254:285,1,242.999992584229,12|0,0:1|0:0,0:0:0:0:
452,248,4513,5,8,0:0:0:0:
153,349,4673,2,0,L|168:192,1,148.50000453186,10|0,0:0|0:0,0:0:0:0:
189,169,4992,2,0,P|144:189|94:176,1,80.9999975280763,8|0,0:1|0:0,0:0:0:0:
27,69,5311,6,0,B|95:48|137:105|137:105|125:38|182:-9|251:-3|284:52|284:52|231:58|212:94,1,432,12|0,0:1|0:0,0:0:0:0:
303,309,6409,6,0,B|286:139|286:139|338:211,1,242.999992584229,12|0,0:1|0:0,0:0:0:0:
201,262,7066,5,8,0:1:0:0:
408,136,7225,2,0,P|456:191|441:266,1,148.50000453186,10|0,0:1|0:0,0:0:0:0:
466,293,7544,2,0,L|366:280,1,80.9999975280763,10|8,0:1|0:1,0:0:0:0:
283,100,7863,5,14,0:1:0:0:
284,113,8502,1,8,0:1:0:0:
285,126,9140,1,10,0:1:0:0:
287,139,9597,5,8,0:0:0:0:
49,90,9756,1,8,0:0:0:0:
208,89,9916,5,8,0:1:0:0:
128,140,10075,2,0,P|102:195|120:255,1,108,8|0,0:1|0:0,0:0:0:0:
132,259,10394,5,8,0:0:0:0:
431,197,10553,1,8,0:0:0:0:
444,201,10872,5,8,0:0:0:0:
128,140,11032,1,8,0:0:0:0:
399,31,11351,5,8,0:0:0:0:
337,326,11511,1,8,0:0:0:0:
341,339,11830,5,8,0:0:0:0:
345,352,12149,5,8,0:0:0:0:
261,72,12308,1,8,0:0:0:0:
65,299,12605,5,8,1:2:0:0:
65,299,12685,1,0,1:0:0:0:
65,299,12766,1,0,1:0:0:0:
65,299,12846,1,0,1:0:0:0:
65,299,12927,6,0,B|104:280|104:280|159:291,1,90,14|2,0:1|0:0,0:0:0:0:
310,144,13250,2,0,B|270:162|270:162|215:151,1,90,8|2,0:0|0:0,0:0:0:0:
98,124,13594,1,10,0:0:0:0:
247,311,13753,1,10,0:1:0:0:
411,92,13913,2,0,L|400:193,1,90,8|10,0:0|0:1,0:0:0:0:
451,378,14232,6,0,P|470:337|465:293,1,90,10|2,0:0|0:0,0:0:0:0:
306,192,14551,1,8,0:0:0:0:
495,131,14710,1,2,0:0:0:0:
378,322,14870,2,0,L|288:312,1,90,10|8,0:0|0:1,0:0:0:0:
185,231,15189,2,0,L|95:241,1,90,10|8,0:0|0:1,0:0:0:0:
265,40,15508,6,0,P|320:100|297:201,1,180,10|8,0:0|0:0,0:0:0:0:
110,112,15987,1,2,0:0:0:0:
175,320,16146,2,0,L|184:230,1,90,10|8,0:0|0:1,0:0:0:0:
41,57,16466,2,0,P|22:98|27:142,1,90,10|8,0:0|0:1,0:0:0:0:
229,132,16785,5,10,0:0:0:0:
65,275,16944,1,0,0:0:0:0:
271,346,17104,2,0,L|360:336,1,90,8|2,0:0|0:0,0:0:0:0:
110,112,17423,5,10,0:0:0:0:
175,320,17583,1,8,0:1:0:0:
349,105,17742,2,0,P|294:141|214:122,1,135,10|0,0:0|0:0,0:0:0:0:
200,108,18061,6,0,P|218:148|214:192,1,90,14|2,0:0|0:0,0:0:0:0:
360,336,18380,2,0,P|355:291|374:251,1,90,8|2,0:0|0:0,0:0:0:0:
272,384,18700,1,10,0:0:0:0:
447,307,18859,1,10,0:1:0:0:
214,193,19019,2,0,L|304:184,1,90,8|10,0:0|0:1,0:0:0:0:
397,32,19338,6,0,L|388:122,1,90,10|2,0:0|0:0,0:0:0:0:
373,251,19657,1,8,0:0:0:0:
287,88,19817,1,2,0:0:0:0:
480,159,19976,2,0,P|498:199|494:243,1,90,10|8,0:0|0:1,0:0:0:0:
403,337,20295,2,0,P|358:341|318:323,1,90,10|8,0:0|0:1,0:0:0:0:
144,157,20614,6,0,B|242:134|222:207|337:177,1,180,12|8,0:0|0:0,0:0:0:0:
283,44,21093,1,8,0:0:0:0:
285,66,21173,1,8,0:0:0:0:
287,88,21253,1,8,0:0:0:0:
375,0,21412,1,8,0:1:0:0:
317,181,21572,1,8,0:1:0:0:
185,40,21732,1,8,0:1:0:0:
475,182,21891,5,14,0:0:0:0:
57,56,23168,6,0,P|70:98|64:137,1,62.9999980773926,14|0,0:1|0:0,0:0:0:0:
203,106,23487,2,0,P|190:148|196:187,1,62.9999980773926,8|2,0:1|0:0,0:0:0:0:
315,37,23806,2,0,P|328:79|322:118,1,62.9999980773926,10|0,0:1|0:0,0:0:0:0:
461,87,24125,2,0,P|448:129|454:168,1,62.9999980773926,8|2,0:1|0:0,0:0:0:0:
467,314,24444,6,0,P|423:304|389:303,1,62.9999980773926,10|0,0:1|0:0,0:0:0:0:
345,224,24763,2,0,P|301:234|267:235,1,62.9999980773926,8|2,0:1|0:0,0:0:0:0:
203,337,25083,2,0,P|159:327|125:326,1,62.9999980773926,10|0,0:1|0:0,0:0:0:0:
81,247,25402,2,0,P|37:257|3:258,1,62.9999980773926,10|0,0:1|0:0,0:0:0:0:
184,111,25721,6,0,P|175:141|172:172,1,62.9999980773926,10|0,0:1|0:0,0:0:0:0:
294,88,26040,2,0,P|285:57|282:26,1,62.9999980773926,8|2,0:1|0:0,0:0:0:0:
351,186,26359,2,0,P|342:216|339:247,1,62.9999980773926,10|0,0:1|0:0,0:0:0:0:
461,163,26678,2,0,P|452:132|449:101,1,62.9999980773926,8|2,0:1|0:0,0:0:0:0:
180,180,26997,5,8,1:0:0:0:
180,180,27077,1,0,1:0:0:0:
180,180,27157,2,0,P|211:178|239:165,1,62.9999980773926,0|0,1:0|1:0,1:0:0:0:
346,255,27317,1,8,1:0:0:0:
346,255,27396,1,0,1:0:0:0:
346,255,27476,2,0,P|377:256|405:269,1,62.9999980773926,0|8,1:0|1:2,1:0:0:0:
224,384,27636,1,10,0:0:0:0:
259,139,27955,6,0,B|265:203|265:203|249:234|249:234|255:303,1,161.999995056153,12|0,0:1|0:0,0:0:0:0:
169,177,28434,1,10,0:1:0:0:
380,63,28593,2,0,L|298:53,1,80.9999975280763,10|0,0:0|0:0,0:0:0:0:
173,39,28912,1,10,0:1:0:0:
259,139,29072,1,8,0:1:0:0:
91,228,29232,2,0,P|76:180|93:130,1,80.9999975280763,10|0,0:0|0:0,0:0:0:0:
254,270,29551,5,10,0:1:0:0:
169,177,29710,1,8,0:1:0:0:
53,331,29870,2,0,L|135:321,1,80.9999975280763,8|0,0:0|0:0,0:0:0:0:
230,365,30189,1,10,0:1:0:0:
177,196,30349,1,8,0:1:0:0:
360,259,30508,2,0,P|400:261|436:243,1,80.9999975280763,8|0,0:0|0:0,0:0:0:0:
312,89,30827,5,10,0:1:0:0:
273,215,30987,1,8,0:1:0:0:
438,138,31146,2,0,L|428:56,1,80.9999975280763,8|2,0:0|0:0,0:0:0:0:
189,36,31466,2,0,L|198:116,1,80.9999975280763,10|8,0:1|0:1,0:0:0:0:
311,299,31785,1,8,0:0:0:0:
288,265,31864,1,8,0:0:0:0:
252,245,31944,1,8,0:0:0:0:
212,244,32024,1,8,0:0:0:0:
177,262,32104,6,0,P|139:280|94:275,1,80.9999975280763,12|8,0:1|0:1,0:0:0:0:
6,126,32423,2,0,P|46:123|82:141,1,80.9999975280763,8|0,0:0|0:0,0:0:0:0:
6,269,32742,1,8,0:1:0:0:
202,120,32902,1,8,0:0:0:0:
202,120,33061,1,8,0:0:0:0:
449,344,33380,6,0,P|417:343|388:331,1,62.9999980773926,14|0,0:1|0:0,0:0:0:0:
412,221,33700,2,0,P|382:232|351:233,1,62.9999980773926,8|2,0:1|0:0,0:0:0:0:
492,128,34019,2,0,P|460:127|431:115,1,62.9999980773926,10|0,0:1|0:0,0:0:0:0:
455,5,34338,2,0,P|425:16|394:17,1,62.9999980773926,8|2,0:1|0:0,0:0:0:0:
283,85,34657,6,0,P|239:75|205:74,1,62.9999980773926,10|0,0:1|0:0,0:0:0:0:
95,165,34976,2,0,P|139:155|173:154,1,62.9999980773926,8|2,0:1|0:0,0:0:0:0:
302,232,35295,2,0,P|258:222|224:221,1,62.9999980773926,10|0,0:1|0:0,0:0:0:0:
114,312,35614,2,0,P|158:302|192:301,1,62.9999980773926,10|0,0:1|0:0,0:0:0:0:
391,177,35934,6,0,P|402:207|403:238,1,62.9999980773926,10|0,0:1|0:0,0:0:0:0:
290,293,36253,2,0,P|301:263|302:232,1,62.9999980773926,8|2,0:1|0:0,0:0:0:0:
187,177,36572,2,0,P|198:207|199:238,1,62.9999980773926,10|0,0:1|0:0,0:0:0:0:
85,292,36891,2,0,P|96:262|97:231,1,62.9999980773926,8|2,0:1|0:0,0:0:0:0:
34,144,37210,5,8,0:0:0:0:
144,377,37370,1,8,0:1:0:0:
189,85,37529,5,8,0:0:0:0:
85,292,37689,1,8,0:1:0:0:
41,27,37849,5,8,0:0:0:0:
324,149,38168,6,0,B|239:129|247:197|155:176,1,161.999995056153,12|0,0:1|0:0,0:0:0:0:
298,238,38646,1,10,0:1:0:0:
439,92,38806,2,0,P|421:136|426:180,1,80.9999975280763,10|0,0:0|0:0,0:0:0:0:
493,239,39125,1,10,0:1:0:0:
324,149,39285,1,8,0:1:0:0:
390,360,39444,2,0,L|400:278,1,80.9999975280763,10|0,0:0|0:0,0:0:0:0:
423,169,39763,5,10,0:1:0:0:
307,267,39923,1,8,0:1:0:0:
220,67,40083,2,0,L|302:57,1,80.9999975280763,8|0,0:0|0:0,0:0:0:0:
411,0,40402,1,10,0:1:0:0:
324,149,40561,1,8,0:1:0:0:
144,19,40721,2,0,P|129:67|146:117,1,80.9999975280763,8|2,0:0|0:0,0:0:0:0:
247,227,41040,6,0,P|196:196|115:220,1,121.499996292114,10|0,0:1|0:0,0:0:0:0:
102,192,41359,2,0,L|111:272,1,80.9999975280763,10|0,0:0|0:0,0:0:0:0:
122,372,41678,1,10,0:1:0:0:
13,259,41838,1,8,0:1:0:0:
223,317,41997,2,0,P|263:319|299:301,1,80.9999975280763,10|0,0:0|0:0,0:0:0:0:
362,129,42317,6,0,P|340:162|337:202,1,80.9999975280763,10|8,0:1|0:1,0:0:0:0:
455,343,42636,2,0,P|436:307|403:285,1,80.9999975280763,10|0,0:0|0:0,0:0:0:0:
247,227,42955,1,10,0:1:0:0:
427,194,43114,1,8,0:1:0:0:
366,367,43274,1,8,0:0:0:0:
333,183,43434,1,8,0:0:0:0:
333,183,43513,1,8,0:0:0:0:
333,183,43593,6,0,L|348:48,1,121.499996292114,14|0,0:1|0:0,0:0:0:0:
367,32,43912,2,0,P|331:49|291:47,1,80.9999975280763,10|0,0:0|0:0,0:0:0:0:
189,1,44232,1,8,0:1:0:0:
252,139,44391,1,8,0:1:0:0:
75,107,44551,2,0,L|155:98,1,80.9999975280763,10|0,0:0|0:0,0:0:0:0:
293,220,44870,6,0,P|233:227|183:197,1,121.499996292114,10|0,0:1|0:0,0:0:0:0:
147,187,45189,2,0,P|165:231|160:275,1,80.9999975280763,10|0,0:0|0:0,0:0:0:0:
103,384,45508,1,8,0:1:0:0:
219,347,45668,1,8,0:1:0:0:
0,259,45827,2,0,P|40:261|76:244,1,80.9999975280763,10|0,0:0|0:0,0:0:0:0:
175,44,46146,6,0,L|161:164,1,121.499996292114,10|0,0:1|0:0,0:0:0:0:
147,187,46466,2,0,L|227:178,1,80.9999975280763,10|0,0:0|0:0,0:0:0:0:
42,140,46785,1,8,0:1:0:0:
151,286,46944,1,8,0:1:0:0:
262,79,47104,1,10,0:0:0:0:
23,226,47263,6,0,B|104:240|96:179|177:200,1,161.999995056153,12|8,0:1|0:1,0:0:0:0:
177,200,47742,1,10,0:0:0:0:
74,0,47902,2,0,P|27:61|43:142,1,161.999995056153,12|8,0:1|0:1,0:0:0:0:
169,46,48380,1,10,0:0:0:0:
270,245,48540,1,8,0:0:0:0:
270,245,48620,1,8,0:0:0:0:
270,245,48700,6,0,B|276:181|276:181|260:150|260:150|266:81,2,161.999995056153,12|10|8,0:1|0:0|0:1,0:0:0:0:
181,204,49497,1,10,0:1:0:0:
355,125,49657,2,0,P|372:160|370:200,1,80.9999975280763,8|2,0:0|0:0,0:0:0:0:
315,337,49976,6,0,L|395:346,1,80.9999975280763,8|0,0:1|0:0,0:0:0:0:
181,204,50295,2,0,L|101:213,1,80.9999975280763,10|0,0:0|0:0,0:0:0:0:
260,134,50614,1,10,0:1:0:0:
211,296,50774,1,8,0:1:0:0:
31,160,50934,2,0,P|13:195|15:235,1,80.9999975280763,10|0,0:0|0:0,0:0:0:0:
179,50,51253,6,0,P|142:67|102:64,1,80.9999975280763,10|0,0:1|0:0,0:0:0:0:
260,134,51572,1,10,0:0:0:0:
371,73,51732,2,0,L|362:153,1,80.9999975280763,2|8,0:0|0:1,0:0:0:0:
437,270,52051,1,10,0:1:0:0:
270,225,52210,2,0,L|279:305,1,80.9999975280763,10|0,0:0|0:0,0:0:0:0:
451,180,52529,5,8,0:1:0:0:
366,349,52689,1,8,0:1:0:0:
260,134,52849,1,8,0:0:0:0:
367,213,53008,1,8,0:0:0:0:
367,213,53088,1,8,0:0:0:0:
367,213,53168,5,8,0:0:0:0:
436,16,53327,1,8,0:1:0:0:
368,73,53487,5,8,0:1:0:0:
437,270,53646,1,10,0:0:0:0:
215,208,53806,6,0,L|350:193,1,121.499996292114,12|0,0:1|0:0,0:0:0:0:
367,213,54125,2,0,P|349:257|354:301,1,80.9999975280763,10|0,0:0|0:0,0:0:0:0:
256,92,54444,1,10,0:1:0:0:
215,208,54604,1,8,0:1:0:0:
351,111,54763,2,0,P|351:70|334:34,1,80.9999975280763,10|0,0:0|0:0,0:0:0:0:
118,93,55083,6,0,P|169:124|250:100,1,121.499996292114,10|0,0:1|0:0,0:0:0:0:
256,92,55402,2,0,L|247:172,1,80.9999975280763,10|0,0:0|0:0,0:0:0:0:
189,30,55721,1,10,0:1:0:0:
351,111,55880,1,8,0:1:0:0:
179,270,56040,2,0,L|259:261,1,80.9999975280763,10|0,0:0|0:0,0:0:0:0:
417,194,56359,6,0,P|448:245|424:326,1,121.499996292114,10|0,0:1|0:0,0:0:0:0:
446,339,56678,2,0,P|409:322|369:322,1,80.9999975280763,10|0,0:0|0:0,0:0:0:0:
258,384,56997,1,10,0:1:0:0:
318,190,57157,1,8,0:1:0:0:
60,244,57317,6,0,B|154:221|144:296|247:273,1,180,12|0,0:0|0:0,0:0:0:0:
209,182,57795,1,8,0:1:0:0:
90,331,57955,1,10,0:0:0:0:
326,303,58114,1,8,0:0:0:0:
326,303,58194,1,8,0:0:0:0:
326,303,58274,5,8,0:1:0:0:
119,227,58434,1,10,0:1:0:0:
302,190,58593,1,8,0:1:0:0:
242,366,58753,1,8,0:1:0:0:
208,34,58912,6,0,L|194:154,1,121.499996292114,14|0,0:1|0:0,0:0:0:0:
209,182,59232,2,0,L|128:191,1,80.9999975280763,8|0,0:0|0:0,0:0:0:0:
368,135,59551,2,0,P|386:179|381:223,1,80.9999975280763,10|2,0:1|0:0,0:0:0:0:
200,322,59870,2,0,P|192:262|222:212,1,121.499996292114,8|0,0:0|0:0,0:0:0:0:
209,182,60189,6,0,L|290:191,1,80.9999975280763,10|0,0:1|0:0,0:0:0:0:
424,313,60508,2,0,L|343:304,1,80.9999975280763,8|0,0:0|0:0,0:0:0:0:
210,382,60827,2,0,P|228:338|223:294,1,80.9999975280763,10|0,0:1|0:0,0:0:0:0:
120,182,61146,2,0,L|129:263,1,80.9999975280763,10|0,0:0|0:0,0:0:0:0:
200,125,61466,5,8,0:1:0:0:
19,232,61625,1,2,0:0:0:0:
226,305,61785,1,8,0:0:0:0:
62,113,61944,1,2,0:0:0:0:
16,364,62104,6,0,P|60:346|104:351,1,80.9999975280763,10|0,0:1|0:0,0:0:0:0:
313,225,62423,2,0,P|272:225|236:208,1,80.9999975280763,10|0,0:0|0:0,0:0:0:0:
148,145,62742,5,8,0:0:0:0:
194,384,62902,1,8,0:0:0:0:
295,134,63061,5,8,0:0:0:0:
58,273,63221,1,8,0:0:0:0:
400,43,63700,5,10,0:0:0:0:
354,282,63859,1,10,0:0:0:0:
253,32,64019,5,10,0:0:0:0:
490,171,64178,1,10,0:0:0:0:
48,105,64976,6,0,P|86:103|120:84,1,67.5000025749208,8|0,1:2|0:0,0:0:0:0:
340,244,65295,6,0,P|309:230|275:229,1,67.5000025749208,4|0,0:0|0:0,0:0:0:0:
123,286,65614,6,0,B|217:263|207:338|310:315,1,175.499991966248,14|0,0:0|0:0,0:0:0:0:
319,339,65934,1,8,0:1:0:0:
270,134,66093,1,10,0:1:0:0:
155,373,66253,1,8,0:0:0:0:
425,230,66412,6,0,P|384:249|340:244,1,90,14|0,0:1|0:0,0:0:0:0:
270,134,66732,1,10,0:1:0:0:
486,34,66891,2,0,L|476:124,1,90,8|2,0:0|0:0,0:0:0:0:
286,16,67210,1,8,0:1:0:0:
370,160,67370,1,8,0:1:0:0:
176,232,67529,2,0,L|86:222,1,90,10|0,0:0|0:0,0:0:0:0:
270,134,67849,6,0,B|265:186|265:186|278:216|278:216|269:291,1,135,10|0,0:1|0:0,0:0:0:0:
257,298,68168,2,0,P|297:280|341:284,1,90,8|2,0:0|0:0,0:0:0:0:
176,232,68487,1,8,0:1:0:0:
315,379,68646,1,10,0:1:0:0:
370,160,68806,1,8,0:0:0:0:
181,370,68966,6,0,B|109:363|109:363|74:382|74:382|2:375,1,180,14|10,0:1|0:1,0:0:0:0:
176,232,69444,1,8,0:0:0:0:
0,102,69604,1,2,0:0:0:0:
58,295,69763,1,8,0:1:0:0:
124,134,69923,1,8,0:1:0:0:
181,370,70083,1,10,0:0:0:0:
48,188,70242,1,8,0:0:0:0:
48,188,70322,1,8,0:0:0:0:
48,188,70402,6,0,P|103:224|183:205,1,135,14|0,0:1|0:0,0:0:0:0:
197,191,70721,2,0,P|179:231|183:275,1,90,8|2,0:0|0:0,0:0:0:0:
396,230,71040,1,8,0:1:0:0:
320,336,71200,1,10,0:1:0:0:
258,109,71359,1,8,0:0:0:0:
486,240,71519,6,0,L|396:230,1,90,10|0,0:1|0:0,0:0:0:0:
263,245,71838,1,8,0:1:0:0:
324,55,71997,2,0,P|342:95|338:139,1,90,8|0,0:0|0:0,0:0:0:0:
113,74,72317,1,10,0:1:0:0:
223,0,72476,1,8,0:1:0:0:
263,245,72636,2,0,P|208:209|128:228,1,135,10|0,0:0|0:0,0:0:0:0:
34,304,72955,6,0,B|98:297|98:297|129:314|129:314|193:308,1,161.999995056153,12|0,0:1|0:0,0:0:0:0:
190,308,73274,2,0,L|185:361,1,53.9999983520508,8|0,0:0|0:0,0:0:0:0:
408,261,73434,6,0,B|366:260|338:224|338:224|302:254|238:242,1,161.999995056153,12|0,0:1|0:0,0:0:0:0:
186,182,73753,1,8,0:1:0:0:
326,328,73912,1,10,0:0:0:0:
220,15,74072,6,0,B|240:51|222:94|222:94|266:110|288:171,1,161.999995056153,12|0,0:1|0:0,0:0:0:0:
263,245,74391,1,8,0:1:0:0:
319,52,74551,1,10,0:0:0:0:
100,300,74710,6,0,B|121:264|167:257|167:257|159:211|201:162,1,161.999995056153,12|0,0:1|0:0,0:0:0:0:
279,148,75029,1,8,0:1:0:0:
83,196,75189,1,10,0:0:0:0:
338,329,75349,5,8,0:0:0:0:
338,329,75428,1,8,0:0:0:0:
338,329,75508,2,0,L|259:320,1,67.5,12|0,0:1|0:0,0:0:0:0:
177,347,75827,6,0,L|343:328,1,161.999995056153,14|0,0:0|0:0,0:0:0:0:
366,349,76146,1,8,0:1:0:0:
259,218,76306,1,10,0:1:0:0:
481,144,76466,1,8,0:0:0:0:
371,242,76625,6,0,L|381:152,1,90,14|0,0:1|0:0,0:0:0:0:
453,331,76944,1,10,0:1:0:0:
174,233,77104,2,0,P|218:237|258:218,1,90,8|2,0:0|0:0,0:0:0:0:
395,135,77423,1,8,0:1:0:0:
286,317,77583,1,8,0:1:0:0:
187,64,77742,2,0,P|206:104|202:148,1,90,8|2,0:0|0:0,0:0:0:0:
82,281,78061,6,0,L|97:146,1,135,10|0,0:1|0:0,0:0:0:0:
114,120,78380,2,0,L|24:130,1,90,8|2,0:0|0:0,0:0:0:0:
174,233,78700,1,10,0:1:0:0:
270,17,78859,1,8,0:1:0:0:
114,120,79019,1,10,0:0:0:0:
413,88,79178,6,0,B|315:65|335:138|220:108,1,180,12|10,0:1|0:1,0:0:0:0:
104,20,79657,1,8,0:0:0:0:
174,233,79817,1,2,0:0:0:0:
270,17,79976,1,8,0:1:0:0:
114,120,80136,1,8,0:1:0:0:
352,187,80295,1,10,0:0:0:0:
247,120,80455,1,8,0:0:0:0:
247,120,80535,1,8,0:0:0:0:
247,120,80614,6,0,P|211:175|230:255,1,135,14|0,0:1|0:0,0:0:0:0:
205,273,80934,2,0,L|295:263,1,90,8|2,0:0|0:0,0:0:0:0:
504,294,81253,1,8,0:1:0:0:
352,187,81412,1,10,0:1:0:0:
397,368,81572,1,8,0:0:0:0:
424,133,81732,6,0,P|443:173|439:217,1,90,10|0,0:1|0:0,0:0:0:0:
294,263,82051,1,10,0:1:0:0:
486,377,82210,2,0,L|396:367,1,90,8|0,0:0|0:0,0:0:0:0:
352,187,82529,1,10,0:1:0:0:
504,294,82689,1,8,0:1:0:0:
291,384,82849,2,0,P|236:348|156:367,1,135,8|0,0:0|0:0,0:0:0:0:
148,337,83168,5,8,0:0:0:0:
223,59,83343,1,8,0:0:0:0:
219,46,83662,5,8,0:0:0:0:
291,384,83821,1,8,0:0:0:0:
67,122,84140,5,8,0:0:0:0:
373,198,84300,1,8,0:0:0:0:
386,194,84619,5,8,0:0:0:0:
399,190,84938,5,8,0:0:0:0:
48,266,85098,1,8,0:0:0:0:
231,145,85417,5,8,0:0:0:0:
227,176,85497,1,8,0:0:0:0:
223,207,85577,1,8,0:1:0:0:
219,238,85656,1,8,0:1:0:0:
216,270,85736,5,12,0:0:0:0:
324,66,85895,1,12,0:0:0:0:
320,53,86214,5,12,0:0:0:0:
370,327,86374,1,12,0:0:0:0:
366,340,86693,5,12,0:0:0:0:
490,32,86853,1,12,0:0:0:0:
486,19,87172,5,14,0:0:0:0:
456,292,87491,5,8,0:0:0:0:
433,258,87571,1,8,0:0:0:0:
398,238,87650,1,8,0:0:0:0:
358,234,87730,1,8,0:0:0:0:
321,248,87810,1,8,0:0:0:0:
195,114,87970,5,8,1:2:0:0:
195,114,88049,1,0,1:0:0:0:
195,114,88129,1,0,1:0:0:0:
195,114,88209,1,0,1:0:0:0:
195,114,88289,6,0,P|230:131|270:129,1,80.9999975280763,12|2,0:1|0:0,0:0:0:0:
50,181,88608,2,0,P|32:217|35:257,1,80.9999975280763,8|2,0:0|0:0,0:0:0:0:
0,90,88927,1,10,0:1:0:0:
145,195,89087,1,10,0:1:0:0:
1,352,89246,2,0,L|83:342,1,80.9999975280763,8|2,0:0|0:0,0:0:0:0:
222,363,89565,6,0,L|231:282,1,80.9999975280763,10|2,0:1|0:0,0:0:0:0:
311,92,89884,1,8,0:0:0:0:
145,195,90044,1,2,0:0:0:0:
334,270,90204,2,0,P|351:306|348:346,1,80.9999975280763,10|8,0:1|0:1,0:0:0:0:
265,164,90523,2,0,P|301:181|341:178,1,80.9999975280763,10|2,0:0|0:0,0:0:0:0:
341,178,90762,1,2,0:0:0:0:
341,178,90842,6,0,L|326:43,1,121.499996292114,10|0,0:1|0:0,0:0:0:0:
347,30,91161,2,0,L|356:110,1,80.9999975280763,8|2,0:0|0:0,0:0:0:0:
242,56,91480,1,10,0:1:0:0:
460,137,91640,1,8,0:1:0:0:
295,273,91799,2,0,P|331:256|371:259,1,80.9999975280763,8|0,0:0|0:0,0:0:0:0:
512,384,92118,6,0,P|472:387|435:370,1,80.9999975280763,10|0,0:1|0:0,0:0:0:0:
480,220,92438,2,0,L|489:300,1,80.9999975280763,8|0,0:0|0:0,0:0:0:0:
229,160,92757,1,10,0:1:0:0:
346,336,92916,1,8,0:1:0:0:
460,137,93076,2,0,P|409:168|328:144,1,121.499996292114,10|0,0:0|0:0,0:0:0:0:
315,172,93395,6,0,L|324:92,1,80.9999975280763,14|2,0:1|0:0,0:0:0:0:
346,336,93714,2,0,P|310:319|270:322,1,80.9999975280763,8|2,0:0|0:0,0:0:0:0:
79,263,94033,1,10,0:1:0:0:
214,189,94193,1,10,0:1:0:0:
185,375,94353,2,0,L|176:295,1,80.9999975280763,8|2,0:0|0:0,0:0:0:0:
108,66,94672,6,0,P|91:102|94:142,1,80.9999975280763,10|2,0:1|0:0,0:0:0:0:
327,205,94991,1,8,0:0:0:0:
250,1,95150,1,10,0:1:0:0:
176,118,95310,2,0,L|311:103,1,121.499996292114,10|2,0:1|0:0,0:0:0:0:
323,85,95629,1,8,0:0:0:0:
197,222,95789,1,2,0:0:0:0:
86,6,95948,6,0,L|77:86,1,80.9999975280763,10|0,0:1|0:0,0:0:0:0:
206,302,96267,2,0,L|197:222,1,80.9999975280763,8|0,0:0|0:0,0:0:0:0:
14,292,96587,1,8,0:1:0:0:
83,182,96746,1,8,0:1:0:0:
248,376,96906,2,0,P|197:345|116:369,1,121.499996292114,10|0,0:0|0:0,0:0:0:0:
113,332,97225,5,8,0:1:0:0:
355,183,97384,1,8,0:0:0:0:
353,205,97464,1,8,0:0:0:0:
351,227,97544,1,8,0:0:0:0:
121,79,97704,1,8,0:0:0:0:
123,101,97783,1,8,0:0:0:0:
125,123,97863,5,8,0:1:0:0:
229,37,98023,1,8,0:1:0:0:
143,231,98182,1,8,0:1:0:0:
26,11,98342,1,10,0:0:0:0:
355,183,98501,6,0,B|315:165|315:165|269:174,1,90,14|2,0:1|0:0,0:0:0:0:
107,319,98821,2,0,B|152:328|152:328|192:310,1,90,8|2,0:0|0:0,0:0:0:0:
229,37,99140,5,10,0:0:0:0:
305,261,99299,1,10,0:1:0:0:
408,78,99459,1,8,0:0:0:0:
180,183,99618,1,10,0:1:0:0:
180,183,99698,1,2,0:0:0:0:
180,183,99778,6,0,L|270:173,1,90,10|2,0:0|0:0,0:0:0:0:
490,287,100097,1,8,0:0:0:0:
408,78,100257,1,2,0:0:0:0:
273,343,100416,2,0,P|317:347|357:329,1,90,10|8,0:0|0:1,0:0:0:0:
490,287,100736,2,0,P|508:246|503:202,1,90,10|8,0:0|0:1,0:0:0:0:
255,39,101055,6,0,L|270:174,1,135,10|0,0:0|0:0,0:0:0:0:
287,200,101374,2,0,L|197:190,1,90,8|2,0:0|0:0,0:0:0:0:
408,78,101693,1,10,0:0:0:0:
306,308,101853,1,8,0:1:0:0:
146,78,102012,1,8,0:0:0:0:
418,216,102172,1,8,0:1:0:0:
418,216,102251,1,2,0:0:0:0:
418,216,102331,6,0,P|462:219|502:201,1,90,10|0,0:0|0:0,0:0:0:0:
236,252,102650,2,0,P|217:292|221:336,1,90,8|2,0:0|0:0,0:0:0:0:
146,78,102970,1,10,0:0:0:0:
315,181,103129,1,8,0:1:0:0:
104,286,103289,1,8,0:0:0:0:
105,272,103368,1,2,0:0:0:0:
106,259,103448,1,8,0:1:0:0:
108,245,103528,1,2,0:0:0:0:
109,232,103608,6,0,L|19:242,1,90,10|2,0:0|0:0,0:0:0:0:
306,308,103927,2,0,L|396:298,1,90,8|2,0:0|0:0,0:0:0:0:
177,383,104246,1,10,0:0:0:0:
233,160,104406,1,10,0:1:0:0:
470,355,104565,2,0,P|489:315|485:271,1,90,8|10,0:0|0:1,0:0:0:0:
369,78,104884,6,0,L|379:168,1,90,10|2,0:0|0:0,0:0:0:0:
396,298,105204,1,8,0:0:0:0:
489,133,105363,1,2,0:0:0:0:
272,216,105523,2,0,P|252:256|257:300,1,90,10|8,0:0|0:1,0:0:0:0:
367,381,105842,2,0,P|411:385|451:366,1,90,10|8,0:0|0:1,0:0:0:0:
391,107,106161,6,0,P|378:149|384:188,2,62.9999980773926,10|0|2,0:0|0:0|0:0,0:0:0:0:
198,319,106480,2,0,P|229:315|257:300,2,62.9999980773926,10|0|2,0:0|0:0|0:0,0:0:0:0:
479,380,106799,2,0,P|459:355|432:339,2,62.9999980773926,10|0|10,0:0|0:0|0:1,0:0:0:0:
356,269,107118,5,8,0:0:0:0:
489,133,107278,1,8,0:0:0:0:
487,155,107358,1,8,0:0:0:0:
485,177,107438,1,10,0:0:0:0:
287,0,107597,1,8,0:0:0:0:
256,300,107757,1,8,0:0:0:0:
334,126,107916,5,8,0:1:0:0:
140,196,108076,1,8,0:1:0:0:
356,269,108236,1,8,0:1:0:0:
230,68,108395,2,0,L|245:203,1,135,10|0,0:0|0:0,0:0:0:0:
256,300,108714,6,0,P|214:287|175:293,1,62.9999980773926,14|0,0:1|0:0,0:0:0:0:
63,375,109033,2,0,P|95:345|109:308,1,62.9999980773926,2|0,0:0|0:0,0:0:0:0:
94,170,109353,2,0,P|103:212|128:243,1,62.9999980773926,2|0,0:0|0:0,0:0:0:0:
418,170,109672,6,0,P|376:183|337:177,1,62.9999980773926,2|0,0:0|0:0,0:0:0:0:
225,95,109991,2,0,P|257:125|271:162,1,62.9999980773926,2|0,0:0|0:0,0:0:0:0:
256,300,110310,2,0,P|265:258|290:227,1,62.9999980773926,2|0,0:0|0:0,0:0:0:0:
346,81,110629,5,2,0:0:0:0:
183,201,110789,1,0,0:0:0:0:
369,282,110948,1,2,0:0:0:0:
225,95,111108,1,0,0:0:0:0:
256,192,111587,12,0,117650,0:0:0:0:
