osu file format v14

[General]
AudioFilename: audio.mp3
AudioLeadIn: 0
PreviewTime: 65216
Countdown: 0
SampleSet: Soft
StackLeniency: 0.7
Mode: 0
LetterboxInBreaks: 0
WidescreenStoryboard: 1

[Editor]
Bookmarks: 23168,43593,65316
DistanceSpacing: 1
BeatDivisor: 4
GridSize: 4
TimelineZoom: 2.08

[Metadata]
Title:Namidame Bakuhatsuon
TitleUnicode:涙目爆発音
Artist:WALKUERE
ArtistUnicode:ワルキューレ
Creator:Pentori
Version:Doormat's Insane
Source:マクロスΔ
Tags:macross delta walkure dakinibrave komore schoolboy doormat
BeatmapID:1508826
BeatmapSetID:709030

[Difficulty]
HPDrainRate:6
CircleSize:4
OverallDifficulty:7.5
ApproachRate:9
SliderMultiplier:1.6
SliderTickRate:1

[Events]
//Background and Video events
0,0,"bg.jpg",0,0
//Break Periods
//Storyboard Layer 0 (Background)
//Storyboard Layer 1 (Fail)
//Storyboard Layer 2 (Pass)
//Storyboard Layer 3 (Foreground)
//Storyboard Sound Samples

[TimingPoints]
205,319.148936170213,4,2,1,60,1,0
2758,-166.666666666667,4,2,1,50,0,0
6409,319.148936170213,4,2,1,50,1,0
7066,319.148936170213,4,2,1,50,1,0
7066,-166.666666666667,4,2,1,50,0,0
7863,-125,4,2,1,40,0,0
9597,319.148936170213,4,2,1,60,1,0
9597,-166.666666666667,4,2,1,60,0,0
10394,319.148936170213,4,2,1,60,1,0
12605,322.58064516129,4,2,2,60,1,0
12927,-100,4,2,1,60,0,0
13594,319.148936170213,4,2,1,60,1,0
14232,319.148936170213,4,2,1,60,1,0
23168,-133.333333333333,4,2,1,40,0,0
26997,-100,4,2,1,40,0,0
27955,-111.111111111111,4,2,1,50,0,0
33380,-133.333333333333,4,2,1,40,0,0
37211,-133.333333333333,4,2,1,50,0,0
38168,-111.111111111111,4,2,1,50,0,0
43593,-133.333333333333,4,2,1,50,0,0
43912,-100,4,2,1,50,0,0
44870,-133.333333333333,4,2,1,50,0,0
45189,-100,4,2,1,50,0,0
53809,-100,4,2,1,50,0,0
57317,-133.333333333333,4,2,1,60,0,0
58912,-111.111111111111,4,2,1,50,0,0
62742,-111.111111111111,4,2,1,60,0,0
64976,-66.6666666666667,4,2,2,70,0,0
65295,-133.333333333333,4,2,1,40,0,1
65614,-74.0740740740741,4,2,1,60,0,1
65934,-100,4,2,1,60,0,1
72955,-100,4,2,1,60,0,1
75508,-133.333333333333,4,2,1,40,0,0
75827,-74.0740740740741,4,2,1,60,0,1
76146,-100,4,2,1,60,0,1
83168,-100,4,2,1,60,0,0
83343,319.148936170213,4,2,1,60,1,0
85736,319.148936170213,4,2,1,60,1,0
87972,-100,4,2,2,60,0,0
88289,-100,4,2,1,60,0,0
97225,-90.9090909090909,4,2,1,60,0,0
98501,-90.9090909090909,4,2,1,70,0,1
107438,-166.666666666667,4,2,1,70,0,1
108714,-166.666666666667,4,2,1,50,0,0
109672,-166.666666666667,4,2,1,40,0,0
117650,-100,4,2,1,5,0,0

[Colours]
Combo1 : 174,61,211
Combo2 : 0,128,192
Combo3 : 255,128,0

[HitObjects]
256,192,843,12,12,2758,0:1:0:0:
108,120,3875,5,12,0:1:0:0:
376,245,4513,5,8,0:0:0:0:
376,245,4673,2,0,L|386:138,1,95.9999970703126,10|8,0:0|0:1,0:0:0:0:
152,252,5311,5,12,0:1:0:0:
448,336,6409,5,12,0:1:0:0:
384,68,7066,5,8,0:1:0:0:
384,68,7225,2,0,L|272:80,1,95.9999970703126,10|10,0:1|0:1,0:0:0:0:
220,112,7704,1,8,0:1:0:0:
283,154,7864,5,14,0:1:0:0:
283,154,8501,1,8,0:1:0:0:
283,154,9140,1,10,0:1:0:0:
283,154,9597,5,8,0:0:0:0:
100,108,9756,1,8,0:0:0:0:
127,199,9916,1,8,0:1:0:0:
192,131,10075,2,0,L|188:68,1,47.9999985351563,8|0,0:1|0:0,0:0:0:0:
100,108,10394,5,8,0:0:0:0:
283,154,10553,1,8,0:0:0:0:
295,142,10872,5,8,0:0:0:0:
244,324,11031,1,8,0:0:0:0:
256,336,11351,5,8,0:0:0:0:
92,240,11511,1,8,0:0:0:0:
88,256,11830,1,8,0:0:0:0:
84,272,12149,1,8,0:0:0:0:
276,236,12308,1,8,0:0:0:0:
276,236,12605,5,8,1:2:0:0:
282,254,12685,1,0,1:0:0:0:
284,274,12766,1,0,1:0:0:0:
280,294,12846,1,0,1:0:0:0:
271,311,12927,5,14,0:1:0:0:
84,272,13088,2,0,L|92:184,1,80,2|8,0:0|0:0,0:0:0:0:
16,84,13411,5,2,0:0:0:0:
203,123,13594,1,10,0:0:0:0:
203,123,13753,2,0,L|195:211,1,80,10|8,0:1|0:0,0:0:0:0:
84,272,14072,5,10,0:1:0:0:
271,311,14232,1,10,0:0:0:0:
271,311,14391,2,0,L|279:223,1,80,2|8,0:0|0:0,0:0:0:0:
203,123,14710,5,2,0:0:0:0:
390,162,14870,2,0,P|429:168|467:160,1,80,10|8,0:0|0:1,0:0:0:0:
452,324,15189,2,0,P|412:316|373:325,1,80,10|8,0:0|0:1,0:0:0:0:
208,336,15508,6,0,P|169:267|188:192,1,160,10|8,0:0|0:0,0:0:0:0:
288,116,15987,1,2,0:0:0:0:
355,241,16146,2,0,L|275:251,1,80,10|8,0:0|0:1,0:0:0:0:
208,105,16466,2,0,L|287:115,1,80,10|8,0:0|0:1,0:0:0:0:
152,224,16785,6,0,P|81:254|13:217,1,160,10|8,0:0|0:0,0:0:0:0:
104,128,17263,1,2,0:0:0:0:
248,216,17423,2,0,L|232:384,1,160,10|10,0:0|0:0,0:0:0:0:
120,276,17902,1,0,0:0:0:0:
212,116,18061,5,14,0:0:0:0:
396,156,18221,2,0,L|388:244,1,80,2|8,0:0|0:0,0:0:0:0:
468,316,18540,5,2,0:0:0:0:
284,276,18700,1,10,0:0:0:0:
284,276,18859,2,0,L|292:188,1,80,10|8,0:1|0:0,0:0:0:0:
396,156,19178,5,10,0:1:0:0:
212,116,19338,1,10,0:0:0:0:
212,116,19497,2,0,L|204:204,1,80,2|8,0:0|0:0,0:0:0:0:
284,276,19817,5,2,0:0:0:0:
99,235,19976,2,0,P|60:229|22:237,1,80,10|8,0:0|0:1,0:0:0:0:
37,73,20295,2,0,P|77:81|116:72,1,80,10|8,0:0|0:1,0:0:0:0:
272,16,20614,6,0,L|286:175,1,160,12|8,0:0|0:0,0:0:0:0:
164,292,21093,1,8,0:0:0:0:
164,292,21173,1,8,0:0:0:0:
164,292,21253,1,8,0:0:0:0:
166,172,21412,1,8,0:1:0:0:
283,294,21572,2,0,L|275:382,1,80,8|8,0:1|0:1,0:0:0:0:
56,343,21891,5,14,0:0:0:0:
56,343,23168,6,0,P|116:351|168:323,1,120.000004577637,14|8,0:1|0:1,0:0:0:0:
213,260,23646,1,2,0:0:0:0:
213,260,23806,2,0,P|185:207|194:149,1,120.000004577637,10|8,0:1|0:1,0:0:0:0:
248,91,24285,1,2,0:0:0:0:
248,91,24444,6,0,L|380:99,1,120.000004577637,10|8,0:1|0:1,0:0:0:0:
439,146,24923,1,2,0:0:0:0:
439,145,25083,2,0,P|428:172|427:202,1,60.0000022888184,10|0,0:1|0:0,0:0:0:0:
461,276,25402,2,0,P|460:305|449:333,1,60.0000022888184,10|0,0:1|0:0,0:0:0:0:
371,355,25721,6,0,P|319:328|262:340,1,120.000004577637,10|8,0:1|0:1,0:0:0:0:
192,376,26200,1,2,0:0:0:0:
192,376,26359,2,0,P|139:348|82:360,1,120.000004577637,10|8,0:1|0:1,0:0:0:0:
8,384,26838,1,2,0:0:0:0:
8,384,26997,6,0,L|0:336,3,40,8|0|0|0,1:0|1:0|1:0|1:0,0:0:0:0:
60,292,27317,2,0,L|66:252,3,40,8|0|0|8,1:0|1:0|1:0|1:2,0:0:0:0:
16,196,27636,1,10,0:0:0:0:
16,196,27955,6,0,P|74:234|143:219,1,143.999995605469,12|0,0:1|0:0,0:0:0:0:
176,116,28434,1,10,0:1:0:0:
246,251,28593,1,10,0:0:0:0:
278,148,28753,1,0,0:0:0:0:
147,222,28912,1,10,0:1:0:0:
147,222,29072,1,8,0:1:0:0:
246,251,29232,2,0,L|320:250,1,71.9999978027344,10|0,0:0|0:0,0:0:0:0:
384,156,29551,5,10,0:1:0:0:
460,232,29710,1,8,0:1:0:0:
512,136,29870,2,0,L|500:48,1,71.9999978027344,8|0,0:0|0:0,0:0:0:0:
384,156,30189,2,0,P|347:215|364:283,1,143.999995605469,10|8,0:1|0:0,0:0:0:0:
460,232,30668,1,0,0:0:0:0:
368,64,30827,6,0,L|224:77,1,143.999995605469,10|8,0:1|0:0,0:0:0:0:
128,160,31306,1,2,0:0:0:0:
256,251,31466,2,0,P|265:217|257:182,1,71.9999978027344,10|8,0:1|0:1,0:0:0:0:
88,244,31785,1,8,0:0:0:0:
81,260,31864,1,8,0:0:0:0:
78,278,31944,1,8,0:0:0:0:
80,296,32024,1,8,0:0:0:0:
86,313,32104,6,0,L|-10:293,1,71.9999978027344,12|8,0:1|0:1,0:0:0:0:
52,160,32423,2,0,L|148:140,1,71.9999978027344,8|0,0:0|0:0,0:0:0:0:
300,143,32742,1,8,0:1:0:0:
156,40,32902,1,8,0:0:0:0:
210,208,33061,1,8,0:0:0:0:
300,143,33221,1,0,0:0:0:0:
389,208,33380,6,0,L|376:332,1,120.000004577637,14|8,0:1|0:1,0:0:0:0:
304,356,33859,1,2,0:0:0:0:
304,356,34019,2,0,L|279:238,1,120.000004577637,10|8,0:1|0:1,0:0:0:0:
210,208,34497,1,2,0:0:0:0:
210,208,34657,6,0,P|176:232|96:216,1,120.000004577637,10|8,0:1|0:1,0:0:0:0:
48,168,35136,1,2,0:0:0:0:
48,168,35295,2,0,L|52:103,1,60.0000022888184,10|0,0:1|0:0,0:0:0:0:
128,83,35614,2,0,L|163:138,1,60.0000022888184,10|0,0:1|0:0,0:0:0:0:
236,163,35934,6,0,P|288:135|324:88,1,120.000004577637,10|8,0:1|0:1,0:0:0:0:
400,128,36412,1,2,0:0:0:0:
400,128,36571,2,0,P|398:187|421:242,1,120.000004577637,10|8,0:1|0:1,0:0:0:0:
494,288,37051,1,2,0:0:0:0:
494,288,37210,5,8,0:0:0:0:
324,329,37370,1,8,0:1:0:0:
512,206,37529,5,8,0:0:0:0:
471,376,37689,1,8,0:1:0:0:
317,189,37849,5,8,0:0:0:0:
316,189,38168,6,0,P|385:196|439:151,1,143.999995605469,12|0,0:1|0:0,0:0:0:0:
507,68,38646,1,10,0:1:0:0:
357,82,38805,1,10,0:0:0:0:
423,1,38965,1,0,0:0:0:0:
443,155,39125,1,10,0:1:0:0:
443,155,39285,1,8,0:1:0:0:
357,82,39444,2,0,L|267:86,1,71.9999978027344,10|0,0:0|0:0,0:0:0:0:
188,20,39763,5,10,0:1:0:0:
104,88,39923,1,8,0:1:0:0:
176,168,40083,2,0,L|265:163,1,71.9999978027344,8|0,0:0|0:0,0:0:0:0:
164,284,40402,2,0,P|96:263|31:291,1,143.999995605469,10|8,0:1|0:0,0:0:0:0:
128,376,40880,1,2,0:0:0:0:
264,296,41040,6,0,L|249:225,1,71.9999978027344,10|0,0:1|0:0,0:0:0:0:
152,120,41359,2,0,L|137:190,1,71.9999978027344,10|0,0:0|0:0,0:0:0:0:
280,296,41678,6,0,L|265:225,1,71.9999978027344,10|8,0:1|0:1,0:0:0:0:
136,120,41997,2,0,L|121:190,1,71.9999978027344,10|0,0:0|0:0,0:0:0:0:
48,280,42317,5,10,0:1:0:0:
188,272,42476,1,8,0:1:0:0:
36,300,42636,5,10,0:0:0:0:
176,292,42795,1,0,0:0:0:0:
24,320,42955,5,10,0:1:0:0:
164,312,43114,1,8,0:1:0:0:
12,340,43274,5,8,0:0:0:0:
92,224,43434,1,8,0:0:0:0:
92,224,43513,1,8,0:0:0:0:
92,224,43593,6,0,L|208:236,1,90.0000034332277,14|0,0:1|0:0,0:0:0:0:
208,232,43912,2,0,P|216:184|204:152,1,80,10|0,0:0|0:0,0:0:0:0:
112,100,44232,5,8,0:1:0:0:
236,64,44391,1,8,0:1:0:0:
96,83,44551,5,10,0:0:0:0:
251,80,44710,1,0,0:0:0:0:
96,64,44870,6,0,P|77:104|82:148,1,90.0000034332277,10|0,0:1|0:0,0:0:0:0:
96,172,45189,2,0,P|140:168|168:144,1,80,10|0,0:0|0:0,0:0:0:0:
208,40,45508,5,8,0:1:0:0:
274,150,45667,1,8,0:1:0:0:
219,20,45827,5,10,0:0:0:0:
262,169,45986,1,0,0:0:0:0:
244,16,46146,6,0,P|199:4|154:23,1,80,10|0,0:1|0:0,0:0:0:0:
56,96,46466,1,10,0:0:0:0:
176,208,46625,2,0,L|184:116,1,80,0|8,0:0|0:1,0:0:0:0:
24,192,46944,2,0,L|30:271,1,80,8|10,0:1|0:0,0:0:0:0:
176,372,47263,6,0,P|233:319|309:331,1,160,12|8,0:1|0:1,0:0:0:0:
428,240,47742,1,10,0:0:0:0:
328,96,47902,2,0,P|286:161|311:234,1,160,12|8,0:1|0:1,0:0:0:0:
428,104,48380,1,10,0:0:0:0:
312,0,48540,1,8,0:0:0:0:
312,0,48620,1,8,0:0:0:0:
312,0,48700,6,0,L|224:8,1,80,12|0,0:1|0:0,0:0:0:0:
104,84,49019,1,10,0:0:0:0:
244,180,49178,2,0,P|252:132|236:96,1,80,0|8,0:0|0:1,0:0:0:0:
100,172,49497,2,0,P|92:220|108:256,1,80,10|8,0:1|0:0,0:0:0:0:
216,368,49817,6,0,L|380:336,1,160,2|0,0:0|0:0,0:0:0:0:
456,240,50295,1,10,0:0:0:0:
456,240,50455,1,0,0:0:0:0:
328,168,50614,2,0,L|324:264,1,80,10|8,0:1|0:1,0:0:0:0:
460,144,50934,2,0,L|456:64,1,80,10|0,0:0|0:0,0:0:0:0:
232,56,51253,6,0,P|212:92|216:136,1,80,10|0,0:1|0:0,0:0:0:0:
292,248,51572,1,10,0:0:0:0:
124,316,51732,2,0,L|132:224,1,80,2|8,0:0|0:1,0:0:0:0:
296,252,52051,1,10,0:1:0:0:
296,252,52210,2,0,L|302:331,1,80,10|0,0:0|0:0,0:0:0:0:
356,172,52529,5,8,0:1:0:0:
356,172,52688,2,0,P|296:148|216:188,1,160,8|8,0:1|0:0,0:0:0:0:
208,216,53088,1,8,0:0:0:0:
208,216,53168,5,8,0:0:0:0:
296,252,53327,1,8,0:1:0:0:
260,340,53487,1,8,0:1:0:0:
208,216,53646,1,10,0:0:0:0:
171,304,53806,6,0,P|163:342|173:381,1,80,12|0,0:1|0:0,0:0:0:0:
48,324,54125,2,0,P|56:285|46:246,1,80,10|0,0:0|0:0,0:0:0:0:
168,148,54444,2,0,P|159:186|169:225,1,80,10|8,0:1|0:1,0:0:0:0:
44,167,54763,2,0,P|52:128|42:89,1,80,10|0,0:0|0:0,0:0:0:0:
160,16,55083,6,0,L|248:32,1,80,10|0,0:1|0:0,0:0:0:0:
380,92,55402,2,0,L|292:108,1,80,10|0,0:0|0:0,0:0:0:0:
160,160,55721,2,0,L|248:176,1,80,10|8,0:1|0:1,0:0:0:0:
380,236,56040,2,0,L|292:252,1,80,10|0,0:0|0:0,0:0:0:0:
164,351,56359,6,0,P|130:330|91:323,1,80,10|0,0:1|0:0,0:0:0:0:
0,220,56678,2,0,P|39:212|72:191,1,80,10|0,0:0|0:0,0:0:0:0:
164,92,56997,2,0,P|130:70|91:63,1,80,10|8,0:1|0:1,0:0:0:0:
228,196,57317,6,0,P|268:176|360:184,1,120.000004577637,12|0,0:0|0:0,0:0:0:0:
424,248,57795,1,8,0:1:0:0:
440,136,57955,1,10,0:0:0:0:
304,304,58114,1,8,0:0:0:0:
304,296,58193,1,8,0:0:0:0:
305,289,58273,5,8,0:1:0:0:
392,340,58434,1,10,0:1:0:0:
337,197,58593,1,8,0:1:0:0:
424,248,58754,1,8,0:1:0:0:
304,288,58912,6,0,P|252:304|188:276,2,107.999996704102,14|0|0,0:1|0:0|0:0,0:0:0:0:
424,248,59551,2,0,L|433:333,1,71.9999978027344,10|2,0:1|0:0,0:0:0:0:
337,197,59870,2,0,L|328:112,1,71.9999978027344,8|0,0:0|0:0,0:0:0:0:
194,133,60189,6,0,P|158:193|178:264,1,143.999995605469,10|8,0:1|0:0,0:0:0:0:
262,333,60668,1,0,0:0:0:0:
337,197,60827,2,0,L|265:208,1,71.9999978027344,10|0,0:1|0:0,0:0:0:0:
262,333,61146,2,0,L|333:344,1,71.9999978027344,10|0,0:0|0:0,0:0:0:0:
476,232,61466,5,8,0:1:0:0:
472,379,61626,1,2,0:0:0:0:
337,197,61785,1,8,0:0:0:0:
333,344,61945,1,2,0:0:0:0:
476,231,62104,2,0,P|481:196|475:161,1,71.9999978027344,10|0,0:1|0:0,0:0:0:0:
292,64,62423,2,0,P|286:99|292:134,1,71.9999978027344,10|0,0:0|0:0,0:0:0:0:
381,176,62742,5,8,0:0:0:0:
211,192,62902,1,8,0:0:0:0:
397,195,63061,5,8,0:0:0:0:
194,172,63221,1,8,0:0:0:0:
284,84,63700,5,10,0:0:0:0:
300,253,63860,1,10,0:0:0:0:
303,67,64019,5,10,0:0:0:0:
280,269,64179,1,10,0:0:0:0:
56,140,64976,6,0,P|107:193|125:121,1,180.000006866455,8|0,1:2|0:0,0:0:0:0:
88,56,65295,6,0,L|176:41,1,90.0000034332277,4|0,0:0|0:0,0:0:0:0:
248,76,65614,6,0,L|88:56,1,162.000000617981,14|0,0:0|0:0,0:0:0:0:
64,68,65934,1,8,0:1:0:0:
88,231,66093,2,0,P|111:200|118:161,1,80,10|8,0:1|0:0,0:0:0:0:
296,244,66412,6,0,P|302:283|326:314,1,80,14|0,0:1|0:0,0:0:0:0:
188,384,66732,2,0,P|181:344|157:313,1,80,10|8,0:1|0:0,0:0:0:0:
0,240,67051,2,0,L|12:319,1,80,2|8,0:0|0:1,0:0:0:0:
113,198,67370,1,8,0:1:0:0:
113,198,67529,2,0,L|100:115,1,80,10|0,0:0|0:0,0:0:0:0:
284,212,67849,6,0,L|265:330,1,120,10|0,0:1|0:0,0:0:0:0:
248,352,68168,1,8,0:0:0:0:
113,198,68327,2,0,P|151:190|190:198,1,80,2|8,0:0|0:1,0:0:0:0:
360,252,68646,1,10,0:1:0:0:
304,124,68806,1,8,0:0:0:0:
152,284,68966,6,0,L|164:368,1,80,14|0,0:1|0:0,0:0:0:0:
371,331,69285,2,0,L|360:252,1,80,10|8,0:1|0:0,0:0:0:0:
268,104,69604,1,2,0:0:0:0:
430,207,69763,1,8,0:1:0:0:
417,75,69923,1,8,0:1:0:0:
281,234,70083,1,10,0:0:0:0:
500,260,70242,1,8,0:0:0:0:
500,260,70322,1,8,0:0:0:0:
500,260,70402,6,0,P|516:212|504:168,1,80,14|0,0:1|0:0,0:0:0:0:
380,88,70721,1,8,0:0:0:0:
281,234,70880,2,0,L|368:224,1,80,2|8,0:0|0:1,0:0:0:0:
216,376,71200,2,0,L|129:366,1,80,10|8,0:1|0:0,0:0:0:0:
16,220,71519,6,0,P|64:184|168:212,1,160,10|8,0:1|0:1,0:0:0:0:
308,284,71997,1,8,0:0:0:0:
252,144,72157,1,0,0:0:0:0:
96,284,72317,2,0,L|104:372,1,80,10|8,0:1|0:1,0:0:0:0:
228,164,72636,2,0,L|220:76,1,80,10|0,0:0|0:0,0:0:0:0:
228,296,72955,6,0,B|268:272|308:296|308:296|356:276|408:296,1,160,12|8,0:1|0:0,0:0:0:0:
220,84,73434,2,0,B|180:108|140:84|140:84|92:104|40:84,1,160,12|8,0:1|0:1,0:0:0:0:
184,0,73912,1,10,0:0:0:0:
328,96,74072,6,0,B|316:160|316:160|340:188|340:188|329:244,1,160,12|8,0:1|0:1,0:0:0:0:
192,312,74551,1,10,0:0:0:0:
56,160,74710,2,0,B|120:172|120:172|148:148|148:148|204:158,1,160,12|8,0:1|0:1,0:0:0:0:
329,244,75189,1,10,0:0:0:0:
392,72,75349,1,8,0:0:0:0:
392,72,75428,1,8,0:0:0:0:
392,72,75508,6,0,P|352:52|309:63,1,90.0000034332277,12|0,0:1|0:0,0:0:0:0:
268,132,75827,6,0,P|347:136|391:72,1,162.000000617981,14|0,0:0|0:0,0:0:0:0:
398,46,76146,1,8,0:1:0:0:
500,204,76306,2,0,L|408:216,1,80,10|8,0:1|0:0,0:0:0:0:
280,340,76625,6,0,P|279:300|264:263,1,80,14|0,0:1|0:0,0:0:0:0:
136,192,76944,2,0,P|120:228|120:268,1,80,10|8,0:1|0:0,0:0:0:0:
224,120,77263,2,0,P|160:74|84:88,1,160,2|8,0:0|0:1,0:0:0:0:
16,224,77742,1,8,0:0:0:0:
136,192,77902,1,2,0:0:0:0:
200,348,78061,6,0,L|60:336,1,120,10|0,0:1|0:0,0:0:0:0:
56,348,78380,1,8,0:0:0:0:
140,212,78540,1,2,0:0:0:0:
284,300,78700,2,0,P|296:360|276:404,1,80,10|8,0:1|0:1,0:0:0:0:
432,264,79019,1,10,0:0:0:0:
260,124,79178,6,0,P|332:151|399:114,1,160,12|10,0:1|0:1,0:0:0:0:
284,20,79657,1,8,0:0:0:0:
148,124,79817,1,2,0:0:0:0:
148,124,79976,2,0,P|158:172|162:206,1,80,8|8,0:1|0:1,0:0:0:0:
28,128,80295,1,10,0:0:0:0:
140,16,80455,1,8,0:0:0:0:
140,16,80535,1,8,0:0:0:0:
140,16,80614,6,0,L|268:32,1,120,14|0,0:1|0:0,0:0:0:0:
284,20,80934,1,8,0:0:0:0:
168,208,81093,2,0,P|160:170|167:131,1,80,2|8,0:0|0:1,0:0:0:0:
336,176,81412,2,0,P|344:214|337:253,1,80,10|8,0:1|0:0,0:0:0:0:
196,367,81732,6,0,P|144:319|44:335,1,160,10|10,0:1|0:1,0:0:0:0:
88,143,82210,2,0,L|180:127,1,80,8|0,0:0|0:0,0:0:0:0:
328,155,82529,1,10,0:1:0:0:
260,61,82689,1,8,0:1:0:0:
234,222,82849,2,0,L|250:314,1,80,8|0,0:0|0:0,0:0:0:0:
352,332,83168,5,8,0:0:0:0:
152,344,83343,1,8,0:0:0:0:
164,356,83662,5,8,0:0:0:0:
120,160,83821,1,8,0:0:0:0:
132,148,84140,5,8,0:0:0:0:
0,300,84300,1,8,0:0:0:0:
16,304,84619,1,8,0:0:0:0:
32,308,84938,1,8,0:0:0:0:
4,112,85098,1,8,0:0:0:0:
4,112,85417,2,0,L|52:100,3,40,8|8|8|8,0:0|0:0|0:1|0:1,0:0:0:0:
96,44,85736,5,12,0:0:0:0:
60,240,85895,1,12,0:0:0:0:
48,228,86214,5,12,0:0:0:0:
244,188,86374,1,12,0:0:0:0:
256,200,86693,5,12,0:0:0:0:
72,120,86853,1,12,0:0:0:0:
56,124,87172,1,14,0:0:0:0:
40,128,87492,5,8,0:0:0:0:
48,126,87571,1,8,0:0:0:0:
56,124,87650,1,8,0:0:0:0:
64,122,87730,1,8,0:0:0:0:
72,120,87810,1,8,0:0:0:0:
256,200,87970,5,8,1:2:0:0:
248,198,88049,1,0,1:0:0:0:
240,196,88128,1,0,1:0:0:0:
232,194,88208,1,0,1:0:0:0:
224,192,88289,5,12,0:1:0:0:
271,13,88448,2,0,L|359:21,1,80,2|8,0:0|0:0,0:0:0:0:
420,132,88767,5,2,0:0:0:0:
381,319,88927,1,10,0:1:0:0:
381,319,89087,2,0,L|293:311,1,80,10|8,0:1|0:0,0:0:0:0:
185,379,89406,5,2,0:0:0:0:
224,192,89565,1,10,0:1:0:0:
224,192,89725,2,0,L|312:200,1,80,2|8,0:0|0:0,0:0:0:0:
381,319,90044,5,2,0:0:0:0:
420,131,90204,2,0,P|428:93|422:53,1,80,10|8,0:1|0:1,0:0:0:0:
226,113,90523,2,0,P|217:152|224:192,1,80,10|2,0:0|0:0,0:0:0:0:
244,216,90762,1,2,0:0:0:0:
244,216,90842,6,0,L|164:222,1,80,10|0,0:1|0:0,0:0:0:0:
340,124,91161,2,0,L|420:131,1,80,8|2,0:0|0:0,0:0:0:0:
232,228,91480,6,0,L|152:234,1,80,10|8,0:1|0:1,0:0:0:0:
352,112,91799,2,0,L|431:118,1,80,8|0,0:0|0:0,0:0:0:0:
476,296,92118,6,0,P|398:286|335:333,1,160,10|8,0:1|0:0,0:0:0:0:
232,228,92597,1,0,0:0:0:0:
352,112,92757,2,0,P|429:121|492:74,1,160,10|10,0:1|0:0,0:0:0:0:
280,4,93236,1,0,0:0:0:0:
280,4,93315,1,0,0:0:0:0:
280,4,93395,5,14,0:1:0:0:
233,183,93555,2,0,L|321:191,1,80,2|8,0:0|0:0,0:0:0:0:
429,123,93875,5,2,0:0:0:0:
390,310,94034,1,10,0:1:0:0:
390,310,94194,2,0,L|310:302,1,80,10|8,0:1|0:0,0:0:0:0:
233,183,94513,5,2,0:0:0:0:
194,370,94672,1,10,0:1:0:0:
122,306,94831,5,2,0:0:0:0:
142,212,94991,1,8,0:0:0:0:
233,183,95150,1,10,0:1:0:0:
304,246,95310,2,0,P|356:264|424:224,1,120,10|2,0:1|0:0,0:0:0:0:
436,224,95629,2,0,L|432:320,1,80,8|2,0:0|0:0,0:0:0:0:
207,311,95948,6,0,P|183:238|218:168,2,160,10|8|8,0:1|0:0|0:1,0:0:0:0:
328,368,96746,1,8,0:1:0:0:
383,236,96906,2,0,L|304:246,1,80,10|0,0:0|0:0,0:0:0:0:
94,62,97225,6,0,L|146:70,3,44.0000013427735,8|0|8|8,0:1|0:0|0:0|0:0,0:0:0:0:
206,110,97544,2,0,L|249:103,3,44.0000013427735,8|0|8|8,0:0|0:0|0:0|0:0,0:0:0:0:
304,44,97863,5,8,0:1:0:0:
406,205,98023,1,8,0:1:0:0:
410,2,98182,1,8,0:1:0:0:
302,160,98342,1,10,0:0:0:0:
504,132,98501,6,0,L|417:117,1,88.000002685547,14|2,0:1|0:0,0:0:0:0:
215,175,98821,2,0,L|302:160,1,88.000002685547,8|2,0:0|0:0,0:0:0:0:
141,106,99140,5,10,0:0:0:0:
139,246,99299,1,10,0:1:0:0:
50,89,99459,1,8,0:0:0:0:
48,229,99618,1,10,0:1:0:0:
232,292,99778,6,0,P|243:250|233:207,1,88.000002685547,10|2,0:0|0:0,0:0:0:0:
141,106,100097,1,8,0:0:0:0:
139,246,100256,1,2,0:0:0:0:
316,128,100416,2,0,L|228:120,1,88.000002685547,10|8,0:0|0:1,0:0:0:0:
232,292,100736,2,0,L|319:284,1,88.000002685547,10|8,0:0|0:1,0:0:0:0:
412,96,101055,6,0,P|358:34|260:44,1,176.000005371094,10|8,0:0|0:0,0:0:0:0:
160,148,101533,1,2,0:0:0:0:
312,215,101693,2,0,L|316:128,1,88.000002685547,10|8,0:0|0:1,0:0:0:0:
176,264,102012,1,8,0:0:0:0:
60,112,102172,1,8,0:1:0:0:
60,112,102251,1,2,0:0:0:0:
60,112,102331,6,0,P|114:50|212:60,1,176.000005371094,10|8,0:0|0:0,0:0:0:0:
295,94,102810,1,2,0:0:0:0:
160,148,102970,1,10,0:0:0:0:
201,53,103129,1,8,0:1:0:0:
253,188,103289,1,8,0:0:0:0:
252,198,103368,1,2,0:0:0:0:
251,209,103448,1,8,0:1:0:0:
250,220,103528,1,2,0:0:0:0:
249,231,103608,6,0,L|163:212,1,88.000002685547,10|2,0:0|0:0,0:0:0:0:
320,340,103927,2,0,L|405:321,1,88.000002685547,8|2,0:0|0:0,0:0:0:0:
472,220,104246,5,10,0:0:0:0:
337,181,104405,1,10,0:1:0:0:
511,136,104565,1,8,0:0:0:0:
377,98,104724,1,10,0:1:0:0:
284,260,104884,6,0,P|324:275|367:269,1,88.000002685547,10|2,0:0|0:0,0:0:0:0:
472,220,105204,1,8,0:0:0:0:
337,181,105363,1,2,0:0:0:0:
440,380,105523,2,0,L|443:292,1,88.000002685547,10|8,0:0|0:1,0:0:0:0:
284,260,105842,2,0,L|287:347,1,88.000002685547,10|8,0:0|0:1,0:0:0:0:
112,224,106161,6,0,P|93:237|72:241,2,44.0000013427735,10|0|2,0:0|0:0|0:0,0:0:0:0:
120,113,106480,2,0,P|98:108|80:96,2,44.0000013427735,10|0|2,0:0|0:0|0:0,0:0:0:0:
204,39,106799,2,0,P|191:20|187:-1,2,44.0000013427735,10|0|10,0:0|0:0|0:1,0:0:0:0:
316,46,107118,1,8,0:0:0:0:
128,121,107278,1,8,0:0:0:0:
128,121,107358,1,8,0:0:0:0:
128,121,107438,5,10,0:0:0:0:
204,39,107597,1,8,0:0:0:0:
164,210,107757,1,8,0:0:0:0:
240,128,107916,1,8,0:1:0:0:
52,203,108076,5,8,0:1:0:0:
128,121,108236,1,8,0:1:0:0:
88,292,108395,2,0,P|80:337|96:369,1,71.9999978027344,10|0,0:0|0:0,0:0:0:0:
116,373,108714,6,0,L|163:369,1,47.9999985351563,14|0,0:1|0:0,0:0:0:0:
243,381,109033,2,0,L|239:333,1,47.9999985351563,2|0,0:0|0:0,0:0:0:0:
204,261,109353,2,0,L|251:257,1,47.9999985351563,2|0,0:0|0:0,0:0:0:0:
331,269,109672,2,0,L|327:221,1,47.9999985351563,2|0,0:0|0:0,0:0:0:0:
352,145,109991,5,2,0:0:0:0:
420,189,110150,1,0,0:0:0:0:
492,152,110310,1,2,0:0:0:0:
495,72,110470,1,0,0:0:0:0:
423,109,110629,5,2,0:0:0:0:
420,189,110789,1,0,0:0:0:0:
348,226,110948,1,2,0:0:0:0:
280,182,111108,1,0,0:0:0:0:
256,192,111587,12,0,117650,0:0:0:0:
