osu file format v14

[General]
AudioFilename: audio.mp3
AudioLeadIn: 0
PreviewTime: 65216
Countdown: 0
SampleSet: Soft
StackLeniency: 0.7
Mode: 0
LetterboxInBreaks: 0
WidescreenStoryboard: 1

[Editor]
Bookmarks: 23168,43593,65316
DistanceSpacing: 0.9
BeatDivisor: 4
GridSize: 8
TimelineZoom: 2.08

[Metadata]
Title:Namidame Bakuhatsuon
TitleUnicode:涙目爆発音
Artist:WALKUERE
ArtistUnicode:ワルキューレ
Creator:Pentori
Version:Dakini's Insane
Source:マクロスΔ
Tags:macross delta walkure dakinibrave komore schoolboy doormat
BeatmapID:1498914
BeatmapSetID:709030

[Difficulty]
HPDrainRate:6
CircleSize:4
OverallDifficulty:8
ApproachRate:9
SliderMultiplier:1.7
SliderTickRate:1

[Events]
//Background and Video events
0,0,"bg.jpg",0,0
//Break Periods
//Storyboard Layer 0 (Background)
//Storyboard Layer 1 (Fail)
//Storyboard Layer 2 (Pass)
//Storyboard Layer 3 (Foreground)
//Storyboard Sound Samples

[TimingPoints]
205,319.148936170213,4,2,1,60,1,0
2678,-100,4,2,1,5,0,0
2758,-125,4,2,1,50,0,0
6409,319.148936170213,4,2,1,50,1,0
7066,319.148936170213,4,2,1,50,1,0
7863,-125,4,2,1,40,0,0
9597,319.148936170213,4,2,1,60,1,0
10394,319.148936170213,4,2,1,60,1,0
12605,322.58064516129,4,2,2,60,1,0
12927,-100,4,2,1,60,0,0
13594,319.148936170213,4,2,1,60,1,0
14232,319.148936170213,4,2,1,60,1,0
23168,-125,4,2,1,40,0,0
26997,-100,4,2,1,40,0,0
27636,-125,4,2,1,40,0,0
27955,-111.111111111111,4,2,1,50,0,0
33380,-125,4,2,1,40,0,0
37211,-125,4,2,1,50,0,0
38168,-111.111111111111,4,2,1,50,0,0
43593,-125,4,2,1,50,0,0
43912,-111.111111111111,4,2,1,50,0,0
44870,-125,4,2,1,50,0,0
45189,-111.111111111111,4,2,1,50,0,0
57317,-111.111111111111,4,2,1,60,0,0
58912,-111.111111111111,4,2,1,50,0,0
62742,-111.111111111111,4,2,1,60,0,0
65295,-90.9090909090909,4,2,1,40,0,1
65614,-90.9090909090909,4,2,1,60,0,1
75508,-90.9090909090909,4,2,1,40,0,1
75827,-90.9090909090909,4,2,1,60,0,1
83168,-90.9090909090909,4,2,1,60,0,0
83343,319.148936170213,4,2,1,60,1,0
85736,319.148936170213,4,2,1,60,1,0
87972,-100,4,2,2,60,0,0
88289,-100,4,2,1,60,0,1
97225,-90.9090909090909,4,2,1,60,0,0
98501,-90.9090909090909,4,2,1,70,0,1
108714,-100,4,2,1,50,0,0
109672,-100,4,2,1,40,0,0
117650,-100,4,2,1,5,0,0

[Colours]
Combo1 : 174,61,211
Combo2 : 0,128,192
Combo3 : 255,128,0

[HitObjects]
256,192,843,12,0,2678,0:0:0:0:
169,239,2758,5,12,0:1:0:0:
172,254,3875,1,12,0:1:0:0:
324,204,4513,5,8,0:0:0:0:
291,360,4673,1,10,0:0:0:0:
242,126,4992,1,8,0:1:0:0:
468,200,5311,5,12,0:1:0:0:
465,215,6409,1,12,0:1:0:0:
304,268,7066,5,8,0:1:0:0:
337,112,7225,1,10,0:1:0:0:
385,346,7544,1,10,0:1:0:0:
420,238,7704,1,8,0:1:0:0:
455,130,7863,6,0,B|422:114|388:127|388:127|348:143|304:117,1,136,14|0,0:1|0:0,0:0:0:0:
114,58,8502,2,0,P|181:78|249:27,1,136,8|0,0:1|0:0,0:0:0:0:
328,273,9140,2,0,L|334:137,1,136,10|0,0:1|0:0,0:0:0:0:
250,31,9597,5,8,0:0:0:0:
214,235,9756,1,8,0:0:0:0:
180,125,9916,1,8,0:1:0:0:
143,309,10075,2,0,P|204:292|259:327,1,127.5,8|0,0:1|0:0,0:0:0:0:
286,359,10394,5,8,0:0:0:0:
338,175,10553,1,8,0:0:0:0:
338,175,10872,5,8,0:0:0:0:
152,221,11032,1,8,0:0:0:0:
152,221,11351,5,8,0:0:0:0:
205,36,11511,1,8,0:0:0:0:
205,36,11830,5,8,0:0:0:0:
205,36,12149,5,8,0:0:0:0:
257,238,12308,1,8,0:0:0:0:
88,150,12605,5,8,1:2:0:0:
113,132,12685,1,0,1:0:0:0:
145,125,12766,1,0,1:0:0:0:
176,132,12846,1,0,1:0:0:0:
202,148,12927,6,0,P|241:164|283:157,1,85,14|2,0:1|0:0,0:0:0:0:
485,240,13250,2,0,P|443:232|404:248,1,85,8|2,0:0|0:0,0:0:0:0:
290,339,13594,1,10,0:0:0:0:
293,176,13753,1,10,0:1:0:0:
157,309,13913,2,0,L|149:215,1,85,8|10,0:0|0:1,0:0:0:0:
7,148,14232,6,0,P|47:136|87:149,1,85,10|2,0:0|0:0,0:0:0:0:
163,237,14551,1,8,0:0:0:0:
140,35,14710,1,2,0:0:0:0:
273,193,14870,2,0,L|265:297,1,85,10|8,0:0|0:1,0:0:0:0:
262,204,15189,2,0,L|254:308,1,85,10|8,0:0|0:1,0:0:0:0:
442,365,15508,6,0,B|447:302|447:302|432:263|432:263|440:179,1,170,10|8,0:0|0:0,0:0:0:0:
498,87,15987,1,2,0:0:0:0:
321,169,16146,2,0,P|315:211|346:269,1,85,10|8,0:0|0:1,0:0:0:0:
400,88,16466,2,0,P|405:45|374:-12,1,85,10|8,0:0|0:1,0:0:0:0:
218,60,16785,6,0,P|260:52|321:89,1,85,10|0,0:0|0:0,0:0:0:0:
158,134,17104,2,0,P|130:101|131:30,1,85,8|2,0:0|0:0,0:0:0:0:
253,146,17423,2,0,L|246:244,1,85,10|8,0:0|0:1,0:0:0:0:
113,348,17742,2,0,P|158:342|215:379,1,85,10|0,0:0|0:0,0:0:0:0:
412,281,18061,6,0,P|451:265|492:272,2,85,14|2|8,0:0|0:0|0:0,0:0:0:0:
325,354,18540,1,2,0:0:0:0:
239,165,18700,2,0,L|232:263,1,85,10|10,0:0|0:1,0:0:0:0:
370,167,19019,2,0,L|363:82,1,85,8|10,0:0|0:1,0:0:0:0:
240,25,19338,6,0,P|197:41|141:29,1,85,10|2,0:0|0:0,0:0:0:0:
31,126,19657,2,0,L|17:22,1,85,8|2,0:0|0:0,0:0:0:0:
151,155,19976,2,0,L|143:259,1,85,10|8,0:0|0:1,0:0:0:0:
140,166,20295,2,0,L|132:270,1,85,10|8,0:0|0:1,0:0:0:0:
269,347,20614,6,0,B|225:328|182:346|182:346|136:366|89:346,1,170,12|8,0:0|0:0,0:0:0:0:
8,180,21093,1,8,0:0:0:0:
8,180,21173,1,8,0:0:0:0:
8,180,21253,2,0,L|2:275,1,85,8|8,0:0|0:1,0:0:0:0:
160,198,21572,2,0,L|154:103,1,85,8|8,0:1|0:1,0:0:0:0:
13,19,21891,5,14,0:0:0:0:
161,56,23168,6,0,L|171:214,1,136,14|8,0:1|0:1,0:0:0:0:
68,295,23646,1,2,0:0:0:0:
68,295,23806,2,0,B|122:290|122:290|148:300|148:300|203:295,1,136,10|8,0:1|0:1,0:0:0:0:
293,215,24285,1,2,0:0:0:0:
293,215,24444,6,0,P|325:282|298:354,1,136,10|8,0:1|0:1,0:0:0:0:
201,295,24923,1,2,0:0:0:0:
94,335,25083,2,0,P|84:302|102:245,1,68,10|0,0:1|0:0,0:0:0:0:
161,132,25402,2,0,P|171:165|153:222,1,68,10|0,0:1|0:0,0:0:0:0:
28,132,25721,6,0,B|100:105|89:157|174:127,1,136,10|8,0:1|0:1,0:0:0:0:
260,66,26200,1,2,0:0:0:0:
260,66,26359,2,0,L|255:218,1,136,10|8,0:1|0:1,0:0:0:0:
248,306,26838,1,2,0:0:0:0:
362,254,26997,5,8,1:0:0:0:
362,254,27077,1,0,1:0:0:0:
362,254,27157,2,0,L|369:194,1,42.5,0|0,1:0|1:0,0:0:0:0:
248,306,27317,1,8,1:0:0:0:
248,306,27396,1,0,1:0:0:0:
248,306,27476,2,0,L|255:366,1,42.5,0|8,1:0|1:2,0:0:0:0:
357,356,27636,6,0,P|407:339|474:365,1,102,10|0,0:0|0:0,0:0:0:0:
486,369,27955,6,0,L|497:213,1,152.999995330811,12|0,0:1|0:0,0:0:0:0:
507,115,28434,1,10,0:1:0:0:
390,5,28593,2,0,L|397:98,1,76.4999976654053,10|0,0:0|0:0,0:0:0:0:
379,197,28912,1,10,0:1:0:0:
290,132,29072,1,8,0:1:0:0:
254,233,29232,2,0,P|248:275|260:313,1,76.4999976654053,10|0,0:0|0:0,0:0:0:0:
417,341,29551,6,0,P|376:328|316:350,1,76.4999976654053,10|8,0:1|0:1,0:0:0:0:
171,384,29870,2,0,L|163:292,1,76.4999976654053,8|0,0:0|0:0,0:0:0:0:
164,178,30189,1,10,0:1:0:0:
67,231,30349,1,8,0:1:0:0:
255,242,30508,2,0,P|271:203|256:142,1,76.4999976654053,8|0,0:0|0:0,0:0:0:0:
209,80,30827,5,10,0:1:0:0:
164,178,30987,1,8,0:1:0:0:
92,39,31146,2,0,L|81:130,1,76.4999976654053,8|2,0:0|0:0,0:0:0:0:
39,274,31466,2,0,P|78:258|139:273,1,76.4999976654053,10|8,0:1|0:1,0:0:0:0:
247,357,31785,1,8,0:0:0:0:
249,328,31864,1,8,0:0:0:0:
251,299,31944,1,8,0:0:0:0:
253,271,32024,1,8,0:0:0:0:
255,242,32104,6,0,P|293:257|346:235,1,76.4999976654053,12|8,0:1|0:1,0:0:0:0:
446,296,32423,2,0,L|440:219,1,76.4999976654053,8|0,0:0|0:0,0:0:0:0:
342,64,32742,1,8,0:1:0:0:
256,224,32902,1,8,0:0:0:0:
440,219,33061,1,8,0:0:0:0:
344,149,33221,1,0,0:0:0:0:
209,175,33380,6,0,L|217:310,1,136,14|8,0:1|0:1,0:0:0:0:
274,384,33858,1,0,0:0:0:0:
274,384,34018,2,0,P|208:354|139:384,1,136,10|8,0:1|0:1,0:0:0:0:
34,340,34497,1,2,0:0:0:0:
34,340,34657,6,0,B|12:268|51:279|29:205,1,136,10|8,0:1|0:1,0:0:0:0:
0,85,35136,1,2,0:0:0:0:
188,61,35295,2,0,P|192:94|182:126,1,68,10|0,0:1|0:0,0:0:0:0:
108,248,35614,2,0,P|103:214|113:182,1,68,10|0,0:1|0:0,0:0:0:0:
217,228,35933,6,0,B|289:201|278:253|363:223,1,136,10|8,0:1|0:1,0:0:0:0:
449,128,36412,1,2,0:0:0:0:
449,128,36571,2,0,B|444:183|444:183|454:212|454:212|449:272,1,136,10|8,0:1|0:1,0:0:0:0:
355,335,37050,1,2,0:0:0:0:
178,174,37210,5,8,0:0:0:0:
343,216,37370,1,8,0:1:0:0:
123,240,37529,1,8,0:0:0:0:
242,119,37689,1,8,0:1:0:0:
208,366,37849,2,0,L|202:281,1,68,8|0,0:0|0:0,0:0:0:0:
464,226,38168,6,0,B|389:204|389:204|308:236,1,152.999995330811,12|0,0:1|0:0,0:0:0:0:
386,38,38646,1,10,0:1:0:0:
512,138,38806,2,0,P|475:126|419:138,1,76.4999976654053,10|0,0:0|0:0,0:0:0:0:
248,180,39125,1,10,0:1:0:0:
338,244,39285,1,8,0:1:0:0:
224,360,39444,2,0,L|216:249,1,76.4999976654053,10|0,0:0|0:0,0:0:0:0:
176,122,39763,5,10,0:1:0:0:
121,283,39923,1,8,0:1:0:0:
14,156,40083,2,0,P|46:141|106:158,1,76.4999976654053,8|0,0:0|0:0,0:0:0:0:
256,54,40402,2,0,P|281:124|252:193,1,152.999995330811,10|8,0:1|0:0,0:0:0:0:
149,202,40880,1,2,0:0:0:0:
340,364,41040,6,0,L|349:276,1,76.4999976654053,10|0,0:1|0:0,0:0:0:0:
252,193,41359,2,0,L|259:269,1,76.4999976654053,10|0,0:0|0:0,0:0:0:0:
441,283,41678,2,0,L|450:195,1,76.4999976654053,10|8,0:1|0:1,0:0:0:0:
353,112,41997,2,0,L|360:188,1,76.4999976654053,10|0,0:0|0:0,0:0:0:0:
451,78,42317,5,10,0:1:0:0:
342,17,42476,1,8,0:1:0:0:
244,173,42636,5,10,0:0:0:0:
353,112,42795,1,0,0:0:0:0:
471,267,42955,5,10,0:1:0:0:
362,206,43114,1,8,0:1:0:0:
264,362,43274,5,8,0:0:0:0:
373,301,43434,2,0,L|332:293,1,38.2499988327027,8|8,0:0|0:0,0:0:0:0:
239,162,43593,6,0,P|227:209|256:287,1,102,14|0,0:1|0:0,0:0:0:0:
249,278,43912,2,0,L|163:283,1,76.4999976654053,10|0,0:0|0:0,0:0:0:0:
32,200,44232,2,0,P|70:183|128:192,1,76.4999976654053,8|8,0:1|0:1,0:0:0:0:
188,366,44551,2,0,P|150:365|115:349,1,76.4999976654053,10|0,0:0|0:0,0:0:0:0:
330,225,44870,6,0,P|342:272|313:350,1,102,10|0,0:1|0:0,0:0:0:0:
320,341,45189,2,0,L|406:346,1,76.4999976654053,10|0,0:0|0:0,0:0:0:0:
386,155,45508,2,0,P|353:137|287:151,1,76.4999976654053,8|8,0:1|0:1,0:0:0:0:
424,271,45827,2,0,P|461:271|495:253,1,76.4999976654053,10|0,0:0|0:0,0:0:0:0:
313,49,46146,6,0,L|305:153,1,76.4999976654053,10|0,0:1|0:0,0:0:0:0:
213,276,46466,2,0,L|207:199,1,76.4999976654053,10|0,0:0|0:0,0:0:0:0:
140,121,46785,1,8,0:1:0:0:
106,247,46944,1,8,0:1:0:0:
68,43,47104,1,10,0:0:0:0:
37,308,47263,6,0,B|107:276|107:276|200:302,1,152.999995330811,12|8,0:1|0:1,0:0:0:0:
180,296,47742,1,10,0:0:0:0:
409,230,47902,2,0,B|339:198|339:198|246:224,1,152.999995330811,12|8,0:1|0:1,0:0:0:0:
180,127,48380,1,10,0:0:0:0:
348,34,48540,1,8,0:0:0:0:
348,34,48620,1,8,0:0:0:0:
348,34,48700,6,0,L|343:136,1,76.4999976654053,12|0,0:1|0:0,0:0:0:0:
114,73,49019,2,0,P|147:49|203:52,1,76.4999976654053,10|0,0:0|0:0,0:0:0:0:
300,230,49338,2,0,P|262:225|232:202,1,76.4999976654053,8|10,0:1|0:1,0:0:0:0:
181,45,49657,1,8,0:0:0:0:
122,181,49817,1,2,0:0:0:0:
11,85,49976,6,0,L|16:-13,1,76.4999976654053,8|0,0:1|0:0,0:0:0:0:
132,195,50295,2,0,L|135:271,1,76.4999976654053,10|0,0:0|0:0,0:0:0:0:
71,384,50614,1,10,0:1:0:0:
29,229,50774,1,8,0:1:0:0:
249,361,50934,2,0,L|170:372,1,76.4999976654053,10|0,0:0|0:0,0:0:0:0:
145,214,51253,6,0,B|230:194|213:239|294:224,1,152.999995330811,10|10,0:1|0:0,0:0:0:0:
376,136,51732,1,2,0:0:0:0:
256,50,51891,2,0,L|264:154,1,76.4999976654053,8|10,0:1|0:1,0:0:0:0:
430,244,52210,2,0,L|422:140,1,76.4999976654053,10|0,0:0|0:0,0:0:0:0:
419,49,52529,6,0,B|334:29|351:74|270:59,1,152.999995330811,8|8,0:1|0:0,0:0:0:0:
150,27,53008,1,8,0:0:0:0:
150,27,53088,1,8,0:0:0:0:
150,27,53168,1,8,0:0:0:0:
115,185,53327,1,8,0:1:0:0:
64,104,53487,1,8,0:1:0:0:
220,193,53646,1,10,0:0:0:0:
44,292,53806,6,0,L|40:215,1,76.4999976654053,12|0,0:1|0:0,0:0:0:0:
239,105,54125,2,0,L|235:181,1,76.4999976654053,10|0,0:0|0:0,0:0:0:0:
197,306,54444,1,10,0:1:0:0:
152,220,54604,1,8,0:1:0:0:
324,152,54763,2,0,L|320:228,1,76.4999976654053,10|0,0:0|0:0,0:0:0:0:
278,364,55083,6,0,P|319:350|372:365,1,76.4999976654053,10|0,0:1|0:0,0:0:0:0:
449,238,55402,2,0,L|445:314,1,76.4999976654053,10|0,0:0|0:0,0:0:0:0:
288,226,55721,2,0,L|284:150,1,76.4999976654053,10|8,0:1|0:1,0:0:0:0:
419,51,56040,2,0,L|415:127,1,76.4999976654053,10|0,0:0|0:0,0:0:0:0:
213,77,56359,6,0,P|243:57|315:62,1,76.4999976654053,10|0,0:1|0:0,0:0:0:0:
421,224,56678,2,0,P|383:219|351:198,1,76.4999976654053,10|0,0:0|0:0,0:0:0:0:
507,109,56997,1,10,0:1:0:0:
485,305,57157,1,8,0:1:0:0:
284,134,57317,6,0,B|338:112|338:112|433:131,1,152.999995330811,12|0,0:0|0:0,0:0:0:0:
362,28,57795,1,8,0:1:0:0:
294,232,57955,1,10,0:0:0:0:
231,67,58115,1,8,0:0:0:0:
231,67,58195,1,8,0:0:0:0:
231,67,58274,1,8,0:1:0:0:
380,202,58434,1,10,0:1:0:0:
203,257,58593,1,8,0:1:0:0:
216,159,58753,1,8,0:1:0:0:
33,95,58912,6,0,L|44:239,1,114.749996498108,14|0,0:1|0:0,0:0:0:0:
44,248,59232,1,8,0:0:0:0:
132,319,59391,1,0,0:0:0:0:
233,138,59551,2,0,L|137:125,1,76.4999976654053,10|2,0:1|0:0,0:0:0:0:
235,362,59870,1,8,0:0:0:0:
273,248,60029,1,0,0:0:0:0:
397,384,60189,6,0,L|406:281,1,76.4999976654053,10|0,0:1|0:0,0:0:0:0:
318,102,60508,1,8,0:0:0:0:
273,248,60668,1,0,0:0:0:0:
426,137,60827,2,0,P|433:93|400:37,1,76.4999976654053,10|0,0:1|0:0,0:0:0:0:
201,216,61146,2,0,P|194:260|227:316,1,76.4999976654053,10|0,0:0|0:0,0:0:0:0:
426,137,61466,5,8,0:1:0:0:
220,135,61625,1,2,0:0:0:0:
312,330,61785,1,8,0:0:0:0:
319,214,61944,1,2,0:0:0:0:
205,306,62104,2,0,P|202:345|223:396,1,76.4999976654053,10|0,0:1|0:0,0:0:0:0:
319,214,62423,2,0,P|322:176|311:139,1,76.4999976654053,10|0,0:0|0:0,0:0:0:0:
18,161,62742,5,8,0:0:0:0:
217,199,62902,1,8,0:0:0:0:
137,83,63061,1,8,0:0:0:0:
99,282,63221,1,8,0:0:0:0:
425,182,63700,5,10,0:0:0:0:
226,220,63860,1,10,0:0:0:0:
306,104,64019,1,10,0:0:0:0:
344,303,64179,1,10,0:0:0:0:
216,200,65295,6,0,P|275:184|341:221,1,140.25000428009,4|0,0:0|0:0,0:0:0:0:
366,259,65614,2,0,L|380:129,1,93.5000028533936,14|0,0:0|0:0,0:0:0:0:
324,26,65934,1,8,0:1:0:0:
433,63,66093,1,10,0:1:0:0:
247,111,66253,1,8,0:0:0:0:
450,168,66412,6,0,B|442:240|442:240|459:278|459:278|451:350,1,187.000005706787,14|10,0:1|0:1,0:0:0:0:
276,384,66891,1,8,0:0:0:0:
326,270,67051,1,2,0:0:0:0:
194,212,67210,2,0,B|203:313,1,93.5000028533936,8|8,0:1|0:1,0:0:0:0:
351,135,67529,2,0,B|342:41,1,93.5000028533936,10|0,0:0|0:0,0:0:0:0:
85,80,67849,6,0,P|128:59|196:75,1,93.5000028533936,10|0,0:1|0:0,0:0:0:0:
272,208,68168,1,8,0:0:0:0:
335,55,68327,1,2,0:0:0:0:
155,164,68487,2,0,P|140:207|162:269,1,93.5000028533936,8|10,0:1|0:1,0:0:0:0:
379,286,68806,1,8,0:0:0:0:
241,371,68966,6,0,B|283:343|333:365|333:365|381:387|439:357,1,187.000005706787,14|10,0:1|0:1,0:0:0:0:
382,179,69444,2,0,L|366:288,1,93.5000028533936,8|2,0:0|0:0,0:0:0:0:
478,98,69763,1,8,0:1:0:0:
301,131,69923,1,8,0:1:0:0:
471,191,70083,1,10,0:0:0:0:
438,14,70242,1,8,0:0:0:0:
438,14,70322,1,8,0:0:0:0:
438,14,70402,6,0,B|364:7|364:7|328:26|328:26|237:18,1,187.000005706787,14|8,0:1|0:0,0:0:0:0:
132,6,70880,1,2,0:0:0:0:
226,190,71040,1,8,0:1:0:0:
241,103,71200,1,10,0:1:0:0:
97,246,71359,1,8,0:0:0:0:
359,285,71519,6,0,B|317:257|267:279|267:279|219:301|161:271,1,187.000005706787,10|8,0:1|0:1,0:0:0:0:
378,179,71997,2,0,L|371:281,1,93.5000028533936,8|0,0:0|0:0,0:0:0:0:
303,368,72317,1,10,0:1:0:0:
224,197,72476,1,8,0:1:0:0:
379,75,72636,2,0,L|385:168,1,93.5000028533936,10|0,0:0|0:0,0:0:0:0:
108,240,72955,6,0,B|198:213|198:213|290:257,1,187.000005706787,12|8,0:1|0:0,0:0:0:0:
104,333,73434,2,0,L|112:127,1,187.000005706787,12|8,0:1|0:1,0:0:0:0:
19,72,73912,1,10,0:0:0:0:
207,55,74072,6,0,P|244:139|198:249,1,187.000005706787,12|8,0:1|0:1,0:0:0:0:
111,146,74551,1,10,0:0:0:0:
87,321,74710,2,0,B|160:314|160:314|192:333|192:333|268:325,1,187.000005706787,12|8,0:1|0:1,0:0:0:0:
364,176,75189,1,10,0:0:0:0:
480,368,75349,1,8,0:0:0:0:
480,368,75428,1,8,0:0:0:0:
480,368,75508,6,0,L|487:219,1,140.25000428009,12|0,0:1|0:0,0:0:0:0:
507,186,75827,2,0,P|464:196|390:157,1,93.5000028533936,14|0,0:0|0:0,0:0:0:0:
257,67,76146,1,8,0:1:0:0:
288,224,76306,1,10,0:1:0:0:
361,0,76466,1,8,0:0:0:0:
384,133,76625,6,0,B|312:126|312:126|271:147|271:147|171:139,1,187.000005706787,14|10,0:1|0:1,0:0:0:0:
13,207,77104,1,8,0:0:0:0:
161,258,77263,1,2,0:0:0:0:
79,52,77423,2,0,L|87:163,1,93.5000028533936,8|8,0:1|0:1,0:0:0:0:
270,276,77742,2,0,L|276:182,1,93.5000028533936,8|2,0:0|0:0,0:0:0:0:
14,353,78061,6,0,P|56:326|114:331,1,93.5000028533936,10|0,0:1|0:0,0:0:0:0:
241,371,78380,1,8,0:0:0:0:
190,226,78540,1,2,0:0:0:0:
335,119,78700,2,0,P|344:165|319:228,1,93.5000028533936,10|8,0:1|0:1,0:0:0:0:
236,383,79019,1,10,0:0:0:0:
460,300,79178,6,0,B|416:278|371:298|371:298|325:318|281:292,1,187.000005706787,12|10,0:1|0:1,0:0:0:0:
236,117,79657,1,8,0:0:0:0:
203,220,79817,1,2,0:0:0:0:
117,31,79976,2,0,L|126:147,1,93.5000028533936,8|8,0:1|0:1,0:0:0:0:
147,313,80295,1,10,0:0:0:0:
311,89,80455,1,8,0:0:0:0:
311,89,80535,1,8,0:0:0:0:
311,89,80614,6,0,L|316:199,1,93.5000028533936,14|0,0:1|0:0,0:0:0:0:
253,318,80934,2,0,P|294:294|366:312,1,93.5000028533936,8|2,0:0|0:0,0:0:0:0:
452,344,81253,1,8,0:1:0:0:
408,167,81412,1,10,0:1:0:0:
314,378,81572,1,8,0:0:0:0:
512,198,81732,6,0,B|437:204|437:204|400:187|400:187|320:194,1,187.000005706787,10|10,0:1|0:1,0:0:0:0:
177,53,82210,2,0,P|160:99|189:171,1,93.5000028533936,8|0,0:0|0:0,0:0:0:0:
247,257,82529,1,10,0:1:0:0:
265,108,82689,1,8,0:1:0:0:
72,239,82849,2,0,P|118:221|179:251,1,93.5000028533936,8|0,0:0|0:0,0:0:0:0:
279,347,83168,5,8,0:0:0:0:
227,163,83343,1,8,0:0:0:0:
187,146,83662,5,8,0:0:0:0:
373,192,83821,1,8,0:0:0:0:
384,236,84140,5,8,0:0:0:0:
334,56,84300,1,8,0:0:0:0:
339,32,84619,5,8,0:0:0:0:
346,7,84938,5,8,0:0:0:0:
294,209,85098,1,8,0:0:0:0:
161,26,85417,5,8,0:0:0:0:
161,26,85497,1,8,0:0:0:0:
161,26,85577,1,8,0:1:0:0:
74,154,85736,5,12,0:0:0:0:
283,71,85895,1,12,0:0:0:0:
287,251,86214,5,12,0:0:0:0:
78,168,86373,1,12,0:0:0:0:
324,150,86693,5,12,0:0:0:0:
241,359,86852,1,12,0:0:0:0:
179,114,87172,5,14,0:0:0:0:
383,218,87491,5,8,0:0:0:0:
390,238,87571,1,8,0:0:0:0:
391,259,87651,1,8,0:0:0:0:
387,280,87731,1,8,0:0:0:0:
379,300,87810,1,8,0:0:0:0:
170,384,87970,6,0,L|164:322,1,42.5,8|0,1:2|1:0,0:0:0:0:
265,184,88129,2,0,L|260:226,1,42.5,0|0,1:0|1:0,0:0:0:0:
109,257,88289,6,0,L|98:141,1,85,12|2,0:1|0:0,0:0:0:0:
53,41,88608,1,8,0:0:0:0:
2,224,88767,1,2,0:0:0:0:
225,40,88927,2,0,P|186:22|111:40,1,85,10|10,0:1|0:1,0:0:0:0:
236,260,89246,2,0,P|278:261|316:243,1,85,8|2,0:0|0:0,0:0:0:0:
455,103,89565,5,10,0:1:0:0:
442,273,89725,1,2,0:0:0:0:
258,133,89884,2,0,P|297:116|367:136,1,85,8|2,0:0|0:0,0:0:0:0:
318,345,90204,2,0,L|307:245,1,85,10|8,0:1|0:1,0:0:0:0:
300,336,90523,2,0,L|289:236,1,85,10|2,0:0|0:0,0:0:0:0:
255,143,90762,1,2,0:0:0:0:
255,143,90842,6,0,P|211:149|162:121,1,85,10|0,0:1|0:0,0:0:0:0:
22,24,91161,2,0,P|60:8|102:14,1,85,8|2,0:0|0:0,0:0:0:0:
124,221,91480,1,10,0:1:0:0:
74,103,91640,1,8,0:1:0:0:
11,319,91799,2,0,P|52:311|96:324,1,85,8|0,0:0|0:0,0:0:0:0:
219,384,92118,6,0,L|226:276,1,85,10|0,0:1|0:0,0:0:0:0:
174,133,92438,2,0,P|215:141|259:128,1,85,8|0,0:0|0:0,0:0:0:0:
419,55,92757,2,0,P|434:101|415:161,1,85,10|8,0:1|0:1,0:0:0:0:
363,321,93076,2,0,P|367:279|353:239,1,85,10|0,0:0|0:0,0:0:0:0:
207,57,93395,6,0,L|97:68,2,85,14|2|8,0:1|0:0|0:0,0:0:0:0:
288,154,93874,1,2,0:0:0:0:
153,277,94033,2,0,L|141:160,1,85,10|10,0:1|0:1,0:0:0:0:
333,300,94353,2,0,L|324:384,1,85,8|2,0:0|0:0,0:0:0:0:
61,317,94672,5,10,0:1:0:0:
247,251,94831,1,2,0:0:0:0:
69,111,94991,2,0,L|64:195,1,85,8|10,0:0|0:1,0:0:0:0:
265,121,95310,2,0,P|220:115|169:153,1,85,10|0,0:1|0:0,0:0:0:0:
255,106,95629,2,0,P|210:100|159:138,1,85,8|2,0:0|0:0,0:0:0:0:
65,272,95948,6,0,B|103:250|147:268|147:268|192:289|236:266,1,170,10|8,0:1|0:0,0:0:0:0:
274,134,96427,1,0,0:0:0:0:
375,308,96587,2,0,L|385:193,1,85,8|8,0:1|0:1,0:0:0:0:
223,285,96906,2,0,L|230:369,1,85,10|0,0:0|0:0,0:0:0:0:
470,326,97225,5,8,0:1:0:0:
480,201,97384,1,8,0:0:0:0:
481,180,97464,1,8,0:0:0:0:
482,160,97544,1,8,0:0:0:0:
483,140,97623,1,8,0:0:0:0:
484,120,97703,1,8,0:0:0:0:
485,100,97783,1,8,0:0:0:0:
486,82,97863,6,0,P|441:95|397:83,1,93.5000028533936,8|8,0:1|0:1,0:0:0:0:
319,17,98182,1,8,0:1:0:0:
284,218,98342,1,10,0:0:0:0:
146,64,98501,6,0,L|155:162,1,93.5000028533936,14|2,0:1|0:0,0:0:0:0:
177,356,98821,1,8,0:0:0:0:
279,200,98980,1,2,0:0:0:0:
63,122,99140,2,0,L|72:220,1,93.5000028533936,10|10,0:0|0:1,0:0:0:0:
15,367,99459,2,0,P|60:348|119:360,1,93.5000028533936,8|10,0:0|0:1,0:0:0:0:
248,384,99778,5,10,0:0:0:0:
146,233,99938,1,2,0:0:0:0:
361,149,100097,2,0,P|373:206|352:263,1,93.5000028533936,8|2,0:0|0:0,0:0:0:0:
196,169,100416,2,0,L|204:52,1,93.5000028533936,10|8,0:0|0:1,0:0:0:0:
184,154,100736,2,0,L|192:37,1,93.5000028533936,10|8,0:0|0:1,0:0:0:0:
479,126,101055,6,0,B|434:105|387:126|387:126|339:149|298:123,1,187.000005706787,10|8,0:0|0:0,0:0:0:0:
180,47,101533,1,2,0:0:0:0:
113,234,101693,2,0,L|106:133,1,93.5000028533936,10|8,0:0|0:1,0:0:0:0:
290,108,102012,2,0,L|283:201,1,93.5000028533936,8|8,0:0|0:1,0:0:0:0:
269,384,102331,5,10,0:0:0:0:
199,213,102491,1,0,0:0:0:0:
404,295,102650,2,0,P|344:311|311:298,1,93.5000028533936,8|2,0:0|0:0,0:0:0:0:
200,103,102970,2,0,L|192:219,1,93.5000028533936,10|8,0:0|0:1,0:0:0:0:
61,384,103289,2,0,L|54:290,1,93.5000028533936,8|8,0:0|0:1,0:0:0:0:
88,91,103608,6,0,P|38:109|-22:86,2,93.5000028533936,10|2|8,0:0|0:0|0:0,0:0:0:0:
200,0,104087,1,2,0:0:0:0:
310,155,104246,2,0,P|330:111|316:51,1,93.5000028533936,10|10,0:0|0:1,0:0:0:0:
122,171,104565,2,0,P|117:216|136:258,1,93.5000028533936,8|10,0:0|0:1,0:0:0:0:
368,278,104884,5,10,0:0:0:0:
222,191,105044,1,2,0:0:0:0:
424,60,105204,2,0,L|418:168,1,93.5000028533936,8|2,0:0|0:0,0:0:0:0:
286,307,105523,2,0,P|333:287|395:303,1,93.5000028533936,10|8,0:0|0:1,0:0:0:0:
291,320,105842,2,0,P|338:300|400:316,1,93.5000028533936,10|8,0:0|0:1,0:0:0:0:
172,157,106161,6,0,L|160:263,1,93.5000028533936,10|2,0:0|0:0,0:0:0:0:
342,120,106480,2,0,L|331:27,1,93.5000028533936,10|2,0:0|0:0,0:0:0:0:
112,100,106799,1,10,0:0:0:0:
250,150,106959,1,10,0:1:0:0:
215,22,107118,1,8,0:0:0:0:
137,205,107278,1,8,0:0:0:0:
137,205,107358,1,8,0:0:0:0:
137,205,107438,5,10,0:0:0:0:
347,143,107597,1,8,0:0:0:0:
294,356,107757,1,8,0:0:0:0:
219,106,107916,5,10,0:0:0:0:
378,260,108075,1,8,0:0:0:0:
166,317,108235,1,8,0:0:0:0:
320,9,108395,6,0,L|329:148,1,140.25000428009,10|0,0:0|0:0,0:0:0:0:
332,191,108714,6,0,P|383:177|443:210,1,85,14|0,0:1|0:0,0:0:0:0:
288,273,109033,2,0,P|250:234|248:166,1,85,2|0,0:0|0:0,0:0:0:0:
379,271,109353,2,0,P|364:322|305:357,1,85,2|0,0:0|0:0,0:0:0:0:
156,221,109672,6,0,P|158:171|207:125,1,85,2|0,0:0|0:0,0:0:0:0:
353,111,109991,2,0,P|308:134|244:114,1,85,2|0,0:0|0:0,0:0:0:0:
163,1,110310,2,0,P|205:27|220:93,1,85,2|0,0:0|0:0,0:0:0:0:
176,142,110629,5,2,0:0:0:0:
111,77,110789,1,0,0:0:0:0:
156,221,110948,1,2,0:0:0:0:
111,77,111108,1,0,0:0:0:0:
256,192,111587,12,0,117650,0:0:0:0:
