osu file format v14

[General]
AudioFilename: audio.mp3
AudioLeadIn: 0
PreviewTime: 65216
Countdown: 0
SampleSet: Soft
StackLeniency: 0.7
Mode: 0
LetterboxInBreaks: 0
WidescreenStoryboard: 1

[Editor]
DistanceSpacing: 0.9
BeatDivisor: 4
GridSize: 32
TimelineZoom: 2.08

[Metadata]
Title:Namidame Bakuhatsuon
TitleUnicode:涙目爆発音
Artist:WALKUERE
ArtistUnicode:ワルキューレ
Creator:Pentori
Version:Easy
Source:マクロスΔ
Tags:macross delta walkure dakinibrave komore schoolboy doormat
BeatmapID:1498915
BeatmapSetID:709030

[Difficulty]
HPDrainRate:2
CircleSize:3
OverallDifficulty:2
ApproachRate:3
SliderMultiplier:1.1
SliderTickRate:1

[Events]
//Background and Video events
0,0,"bg.jpg",0,0
//Break Periods
//Storyboard Layer 0 (Background)
//Storyboard Layer 1 (Fail)
//Storyboard Layer 2 (Pass)
//Storyboard Layer 3 (Foreground)
//Storyboard Sound Samples

[TimingPoints]
205,319.148936170213,4,2,1,60,1,0
2758,-100,4,2,1,50,0,0
6409,319.148936170213,4,2,1,50,1,0
7066,319.148936170213,4,2,1,50,1,0
7863,-100,4,2,1,40,0,0
9597,319.148936170213,4,2,1,60,1,0
10394,319.148936170213,4,2,1,60,1,0
12605,322.58064516129,4,2,2,60,1,0
12927,-100,4,2,1,60,0,0
13594,319.148936170213,4,2,1,60,1,0
14232,319.148936170213,4,2,1,60,1,0
23168,-100,4,2,1,40,0,0
27955,-100,4,2,1,50,0,0
33380,-100,4,2,1,40,0,0
37211,-100,4,2,1,50,0,0
57317,-100,4,2,1,60,0,0
58912,-100,4,2,1,50,0,0
62742,-100,4,2,1,60,0,0
65295,-100,4,2,1,40,0,0
65614,-100,4,2,1,60,0,1
75508,-100,4,2,1,40,0,0
75827,-100,4,2,1,60,0,1
83168,-100,4,2,1,60,0,0
83343,319.148936170213,4,2,1,60,1,0
85736,319.148936170213,4,2,1,60,1,0
87972,-100,4,2,2,60,0,0
88289,-100,4,2,1,60,0,0
98501,-100,4,2,1,70,0,0
108714,-100,4,2,1,50,0,0
109672,-100,4,2,1,40,0,0

[Colours]
Combo1 : 174,61,211
Combo2 : 0,128,192
Combo3 : 255,128,0

[HitObjects]
369,41,2758,5,12,0:1:0:0:
242,364,3875,1,12,0:1:0:0:
30,234,4673,2,0,P|0:287|11:350,1,110,10|8,0:0|0:1,0:0:0:0:
99,307,5311,5,12,0:1:0:0:
256,5,6409,1,12,0:1:0:0:
340,243,7225,2,0,L|207:227,1,110,10|10,0:1|0:1,0:0:0:0:
141,272,7863,6,0,B|110:151|206:175|173:47,2,220,14|8|10,0:1|0:1|0:1,0:0:0:0:
262,345,9597,2,0,P|340:358|401:306,1,165,8|8,0:0|0:1,0:0:0:0:
500,312,10394,6,0,L|478:132,1,165,8|8,0:0|0:0,0:0:0:0:
363,55,11351,2,0,B|301:49|301:49|268:64|268:64|184:56,2,165,8|8|8,0:0|0:0|0:0,0:0:0:0:
298,233,12927,6,0,P|245:170|110:189,1,226.875,14|10,0:1|0:0,0:0:0:0:
69,276,13913,1,8,0:0:0:0:
141,343,14232,2,0,L|263:328,1,110,10|8,0:0|0:0,0:0:0:0:
327,267,14870,2,0,L|436:280,1,110,10|10,0:0|0:0,0:0:0:0:
426,181,15508,6,0,P|456:128|445:65,1,110,10|8,0:0|0:0,0:0:0:0:
357,108,16146,2,0,B|301:101|272:47|272:47|228:83|166:75,2,220,10|10|10,0:0|0:0|0:0,0:0:0:0:
426,181,17742,1,10,0:0:0:0:
356,251,18061,6,0,L|369:360,1,110,14|8,0:0|0:0,0:0:0:0:
271,341,18700,2,0,L|258:232,1,110,10|8,0:0|0:0,0:0:0:0:
179,171,19338,2,0,P|126:234|-9:215,1,220,10|10,0:0|0:0,0:0:0:0:
45,134,20295,1,10,0:0:0:0:
2,40,20614,6,0,B|123:9|99:105|227:72,1,220,12|8,0:0|0:0,0:0:0:0:
374,9,21891,1,14,0:0:0:0:
443,361,23168,6,0,P|390:298|255:317,1,220,14|10,0:1|0:1,0:0:0:0:
138,156,24444,2,0,P|241:177|318:105,1,220,10|10,0:1|0:1,0:0:0:0:
392,171,25402,1,10,0:1:0:0:
489,156,25721,6,0,L|455:440,1,220,10|10,0:1|0:1,0:0:0:0:
277,306,26997,2,0,L|168:319,2,110,8|8|10,1:0|1:0|0:0,0:0:0:0:
366,349,27955,6,0,P|438:272|416:168,1,220,12|10,0:1|0:0,0:0:0:0:
323,201,28912,2,0,L|214:188,1,110,10|10,0:1|0:0,0:0:0:0:
123,229,29551,1,10,0:1:0:0:
36,50,30189,2,0,P|89:80|152:69,1,110,10|8,0:1|0:0,0:0:0:0:
216,17,30827,6,0,B|337:-14|313:82|441:49,1,220,10|10,0:1|0:1,0:0:0:0:
482,133,31785,1,8,0:0:0:0:
425,214,32104,2,0,P|321:191|244:264,1,220,12|8,0:1|0:1,0:0:0:0:
170,330,33061,1,8,0:0:0:0:
79,290,33380,6,0,B|48:169|144:193|111:65,1,220,14|10,0:1|0:1,0:0:0:0:
305,26,34657,2,0,P|377:103|355:206,1,220,10|10,0:1|0:1,0:0:0:0:
266,250,35614,1,10,0:1:0:0:
293,345,35934,6,0,L|577:311,1,220,10|10,0:1|0:1,0:0:0:0:
467,125,37210,2,0,P|437:178|448:241,2,110,8|8|8,0:0|0:0|0:0,0:0:0:0:
385,68,38168,6,0,P|307:140|204:118,1,220,12|10,0:1|0:0,0:0:0:0:
111,151,39125,2,0,L|98:42,1,110,10|10,0:1|0:0,0:0:0:0:
14,95,39763,1,10,0:1:0:0:
140,247,40402,2,0,L|127:356,1,110,10|8,0:1|0:0,0:0:0:0:
222,382,41040,6,0,B|278:375|307:321|307:321|351:357|413:349,1,220,10|10,0:1|0:1,0:0:0:0:
503,314,41997,1,10,0:0:0:0:
468,222,42317,2,0,L|481:113,2,110,10|10|10,0:1|0:0|0:1,0:0:0:0:
376,257,43274,1,8,0:0:0:0:
331,168,43593,6,0,P|252:96|149:119,1,220,14|8,0:1|0:1,0:0:0:0:
97,204,44551,1,10,0:0:0:0:
157,283,44870,2,0,L|441:249,1,220,10|8,0:1|0:1,0:0:0:0:
464,300,45827,1,10,0:0:0:0:
511,213,46146,6,0,P|513:158|484:112,1,110,10|10,0:1|0:0,0:0:0:0:
405,52,46785,2,0,P|344:100|257:88,1,165,8|12,0:1|0:1,0:0:0:0:
187,24,47583,1,8,0:1:0:0:
95,62,47902,2,0,L|119:270,1,165,12|10,0:1|0:0,0:0:0:0:
30,279,48700,6,0,B|151:248|127:344|255:311,1,220,12|8,0:1|0:1,0:0:0:0:
307,242,49657,1,8,0:0:0:0:
400,273,49976,2,0,L|387:382,1,110,8|10,0:1|0:0,0:0:0:0:
483,359,50614,2,0,L|496:250,1,110,10|10,0:1|0:0,0:0:0:0:
428,176,51253,6,0,P|476:115|464:28,2,165,10|2|10,0:1|0:0|0:0,0:0:0:0:
341,127,52529,2,0,L|232:140,1,110,8|8,0:1|0:0,0:0:0:0:
160,209,53168,2,0,P|188:255|186:309,1,110,8|8,0:0|0:1,0:0:0:0:
91,281,53806,6,0,L|125:-3,1,220,12|10,0:1|0:1,0:0:0:0:
207,22,54763,1,10,0:0:0:0:
264,102,55083,2,0,P|367:124|445:52,1,220,10|10,0:1|0:1,0:0:0:0:
509,127,56040,1,10,0:0:0:0:
463,214,56359,6,0,P|492:260|490:314,2,110,10|10|10,0:1|0:0|0:1,0:0:0:0:
370,177,57317,2,0,B|289:187|289:187|247:223|247:223|165:234,1,220,12|10,0:0|0:0,0:0:0:0:
66,244,58274,2,0,L|79:135,1,110,8|8,0:1|0:1,0:0:0:0:
36,45,58912,6,0,B|157:14|133:110|261:77,2,220,14|10|10,0:1|0:1|0:1,0:0:0:0:
79,134,60508,1,8,0:0:0:0:
45,227,60827,2,0,L|154:214,1,110,10|10,0:1|0:0,0:0:0:0:
223,284,61466,6,0,P|268:255|322:256,1,110,8|8,0:1|0:0,0:0:0:0:
388,330,62104,2,0,P|433:358|487:357,1,110,10|10,0:1|0:0,0:0:0:0:
460,261,62742,2,0,L|478:97,1,165,8|8,0:0|0:0,0:0:0:0:
348,24,63700,2,0,P|300:85|312:172,1,165,10|10,0:0|0:0,0:0:0:0:
24,260,65295,5,4,0:0:0:0:
106,314,65614,2,0,P|70:242|206:233,1,275,14|14,0:0|0:1,0:0:0:0:
296,275,66732,1,10,0:1:0:0:
359,199,67051,2,0,L|341:35,1,165,2|10,0:0|0:0,0:0:0:0:
249,72,67849,6,0,P|194:73|148:45,1,110,10|8,0:1|0:0,0:0:0:0:
73,110,68487,2,0,P|121:171|109:258,1,165,8|14,0:1|0:1,0:0:0:0:
27,306,69285,1,10,0:1:0:0:
88,383,69604,2,0,L|252:365,1,165,2|10,0:0|0:0,0:0:0:0:
334,309,70402,6,0,P|335:254|307:208,1,110,14|8,0:1|0:0,0:0:0:0:
395,163,71040,2,0,L|413:-1,2,165,8|10|8,0:1|0:1|0:0,0:0:0:0:
384,261,72317,2,0,L|493:248,1,110,10|10,0:1|0:0,0:0:0:0:
445,347,72955,6,0,P|381:298|301:308,1,165,12|12,0:1|0:1,0:0:0:0:
117,381,74072,2,0,L|130:272,1,110,12|8,0:1|0:1,0:0:0:0:
78,187,74710,2,0,P|142:236|222:226,1,165,12|10,0:1|0:0,0:0:0:0:
286,301,75508,5,12,0:1:0:0:
368,247,75827,2,0,P|332:319|468:328,1,275,14|14,0:0|0:1,0:0:0:0:
465,228,76944,1,10,0:1:0:0:
461,128,77263,2,0,B|399:122|399:122|366:137|366:137|282:129,1,165,2|8,0:0|0:0,0:0:0:0:
213,179,78061,6,0,P|240:225|239:279,1,110,10|8,0:1|0:0,0:0:0:0:
160,339,78700,2,0,P|96:290|16:300,1,165,10|12,0:1|0:1,0:0:0:0:
63,197,79497,1,10,0:1:0:0:
32,102,79817,2,0,L|217:79,1,165,2|10,0:0|0:0,0:0:0:0:
270,146,80614,6,0,P|316:119|370:120,1,110,14|8,0:1|0:0,0:0:0:0:
462,160,81253,2,0,B|468:98|468:98|453:65|453:65|461:-19,2,165,8|10|8,0:1|0:1|0:0,0:0:0:0:
499,251,82529,2,0,L|390:264,1,110,10|8,0:1|0:0,0:0:0:0:
303,313,83168,6,0,P|254:249|264:169,1,170,8|8,0:0|0:0,0:0:0:0:
116,212,84140,2,0,L|98:48,2,165,8|8|8,0:0|0:0|0:0,0:0:0:0:
10,379,85736,6,0,P|74:330|154:340,1,165,12|12,0:0|0:0,0:0:0:0:
123,194,86693,2,0,P|202:203|266:154,2,165,12|14|8,0:0|0:0|0:0,0:0:0:0:
230,27,88289,6,0,B|351:-4|327:92|455:59,1,220,12|10,0:1|0:1,0:0:0:0:
498,142,89246,1,8,0:0:0:0:
454,231,89565,2,0,L|345:218,1,110,10|8,0:1|0:0,0:0:0:0:
276,145,90204,2,0,L|167:158,1,110,10|10,0:1|0:0,0:0:0:0:
96,87,90842,6,0,P|69:133|70:187,1,110,10|8,0:1|0:0,0:0:0:0:
1,258,91480,2,0,P|78:329|182:307,2,220,10|10|10,0:1|0:1|0:1,0:0:0:0:
70,188,93076,1,10,0:0:0:0:
11,108,93395,6,0,L|24:-1,1,110,14|8,0:1|0:0,0:0:0:0:
117,29,94033,2,0,L|226:16,1,110,10|8,0:1|0:0,0:0:0:0:
238,114,94672,2,0,B|294:107|323:53|323:53|367:89|429:81,1,220,10|10,0:1|0:1,0:0:0:0:
485,163,95629,1,8,0:0:0:0:
411,229,95948,6,0,P|384:275|385:329,1,110,10|8,0:1|0:0,0:0:0:0:
286,377,96587,2,0,P|287:322|260:275,1,110,8|10,0:1|0:0,0:0:0:0:
298,184,97225,2,0,B|177:153|201:249|73:216,1,220,8|8,0:1|0:1,0:0:0:0:
124,127,98182,1,8,0:1:0:0:
87,34,98501,6,0,L|196:21,1,110,14|8,0:1|0:0,0:0:0:0:
278,75,99140,2,0,L|387:62,1,110,10|8,0:0|0:0,0:0:0:0:
434,148,99778,2,0,L|325:161,1,110,10|8,0:0|0:0,0:0:0:0:
261,236,100416,2,0,L|152:249,1,110,10|10,0:0|0:0,0:0:0:0:
60,287,101055,6,0,P|33:241|34:187,1,110,10|8,0:0|0:0,0:0:0:0:
88,103,101693,2,0,B|144:96|173:42|173:42|217:78|279:70,2,220,10|10|10,0:0|0:0|0:0,0:0:0:0:
34,185,103289,1,8,0:0:0:0:
110,247,103608,6,0,L|97:356,1,110,10|8,0:0|0:0,0:0:0:0:
194,339,104246,2,0,L|207:230,1,110,10|8,0:0|0:0,0:0:0:0:
296,187,104884,2,0,P|342:214|396:213,1,110,10|8,0:0|0:0,0:0:0:0:
481,160,105523,2,0,P|508:114|507:60,1,110,10|10,0:0|0:0,0:0:0:0:
415,20,106161,6,0,B|334:9|334:9|284:32|284:32|202:21,1,220,10|10,0:0|0:0,0:0:0:0:
123,82,107118,1,8,0:0:0:0:
26,59,107438,2,0,P|-1:105|0:159,1,110,10|8,0:0|0:0,0:0:0:0:
75,224,108076,2,0,P|102:270|101:324,1,110,8|10,0:1|0:0,0:0:0:0:
21,384,108714,5,14,0:1:0:0:
256,192,108874,12,0,111587,0:0:0:0:
