osu file format v14

[General]
AudioFilename: audio.mp3
AudioLeadIn: 0
PreviewTime: 165316
Countdown: 0
SampleSet: Soft
StackLeniency: 0.7
Mode: 0
LetterboxInBreaks: 0
WidescreenStoryboard: 1

[Editor]
Bookmarks: 37011,41246,45482,49717,53952,149201,178804,205553
DistanceSpacing: 0.7
BeatDivisor: 4
GridSize: 32
TimelineZoom: 2.3

[Metadata]
Title:NEO STREAM
TitleUnicode:NEO STREAM
Artist:WALKUERE
ArtistUnicode:ワルキューレ
Creator:Pentori
Version:Insane
Source:マクロスΔ
Tags:macross delta walkure trap
BeatmapID:1732260
BeatmapSetID:826599

[Difficulty]
HPDrainRate:5.4
CircleSize:4.2
OverallDifficulty:8
ApproachRate:9
SliderMultiplier:1.7
SliderTickRate:1

[Events]
//Background and Video events
0,0,"kaname.jpg",0,0
//Break Periods
//Storyboard Layer 0 (Background)
//Storyboard Layer 1 (Fail)
//Storyboard Layer 2 (Pass)
//Storyboard Layer 3 (Foreground)
//Storyboard Sound Samples

[TimingPoints]
9129,352.941176470588,6,2,1,20,1,0
9129,-166.666666666667,6,2,1,20,0,0
11599,-125,6,2,1,20,0,0
13011,-166.666666666667,6,2,1,20,0,0
15834,-125,6,2,1,20,0,0
17246,-166.666666666667,6,2,1,20,0,0
17599,-166.666666666667,6,2,1,30,0,0
19364,-125,6,2,1,30,0,0
19717,-166.666666666667,6,2,1,30,0,0
20776,329.67032967033,6,2,1,30,1,0
20776,-166.666666666667,6,2,1,30,0,0
21435,400,6,2,1,30,1,0
21435,-166.666666666667,6,2,1,30,0,0
21835,352.941176470588,6,2,1,30,1,0
21835,-166.666666666667,6,2,1,30,0,0
23599,-125,6,2,1,30,0,0
23952,-166.666666666667,6,2,1,30,0,0
25364,-125,6,2,1,30,0,0
26070,-166.666666666667,6,2,1,30,0,0
27834,-125,6,2,1,30,0,0
28187,-166.666666666667,6,2,1,30,0,0
32070,-125,6,2,1,30,0,0
32423,-166.666666666667,6,2,1,30,0,0
33834,-125,6,2,1,30,0,0
34540,-111.111111111111,6,2,1,40,0,0
35511,-111.111111111111,6,2,1,5,0,0
35599,-166.666666666667,6,2,1,40,0,0
36570,-166.666666666667,6,2,1,5,0,0
36658,-100,6,2,1,40,0,0
38776,-166.666666666667,6,2,1,40,0,0
39746,-166.666666666667,6,2,1,5,0,0
39834,-166.666666666667,6,2,1,40,0,0
40805,-166.666666666667,6,2,1,5,0,0
40893,-100,6,2,1,40,0,0
43011,-166.666666666667,6,2,1,40,0,0
43982,-166.666666666667,6,2,1,5,0,0
44070,-166.666666666667,6,2,1,40,0,0
45040,-166.666666666667,6,2,1,5,0,0
45129,-100,6,2,1,40,0,0
47246,-166.666666666667,6,2,1,40,0,0
48217,-166.666666666667,6,2,1,5,0,0
48305,-166.666666666667,6,2,1,40,0,0
49364,-100,6,2,1,40,0,0
59952,-125,6,2,1,30,0,0
64187,-166.666666666667,6,2,1,30,0,0
65158,-166.666666666667,6,2,1,5,0,0
65246,-166.666666666667,6,2,1,30,0,0
66305,-125,6,2,1,30,0,0
72658,-166.666666666667,6,2,1,30,0,0
74687,-166.666666666667,6,2,1,5,0,0
74776,-166.666666666667,6,2,1,30,0,0
76893,-125,6,2,1,30,0,0
79011,365.853658536585,6,2,1,30,1,0
79376,384.615384615385,6,2,1,30,1,0
79760,410.958904109589,6,2,1,30,1,0
80170,397.350993377483,6,2,1,30,1,0
80170,-1000,6,2,1,30,0,0
81362,352.941176470588,6,2,1,50,1,0
81362,-111.111111111111,6,2,1,50,0,0
94079,441.176470588235,4,2,1,30,1,0
94079,-125,4,2,1,30,0,0
95688,405.405405405405,4,2,1,30,1,0
95688,-125,4,2,1,30,0,0
97005,434.782608695652,4,2,1,30,1,0
97331,405.405405405405,4,2,1,30,1,0
97331,-125,4,2,1,30,0,0
98931,405.405405405405,4,2,1,30,1,0
98931,-125,4,2,1,30,0,0
100552,-100,4,2,1,40,0,0
105418,-83.3333333333333,4,2,1,50,0,0
106229,394.736842105263,4,2,1,50,1,0
107018,425.531914893617,4,2,1,50,1,0
107446,405.405405405405,4,2,1,50,1,0
108662,405.405405405405,4,2,1,50,1,0
132985,-83.3333333333333,4,2,1,50,0,0
134607,394.736842105263,4,2,1,50,1,0
136229,405.405405405405,4,2,1,50,1,0
136229,-100,4,2,1,50,0,0
149201,410.958904109589,4,2,1,50,1,0
152455,405.405405405405,4,2,1,50,1,0
154066,405.405405405405,4,2,1,50,1,0
162174,-83.3333333333333,4,2,1,50,0,0
164809,-100,4,2,1,50,0,0
165418,-125,4,2,1,50,0,0
174336,-166.666666666667,4,2,1,50,0,0
176972,394.736842105263,4,2,1,50,1,0
178353,451.127819548872,4,2,1,60,1,1
178353,-83.3333333333333,4,2,1,60,0,1
178804,405.405405405405,4,2,1,60,1,1
178804,-83.3333333333333,4,2,1,60,0,1
180020,405.405405405405,4,2,1,60,1,1
180020,-83.3333333333333,4,2,1,60,0,1
191371,-100,4,2,1,60,0,0
205553,431.654676258993,4,2,1,60,1,0
205553,-83.3333333333333,4,2,1,60,0,0
206200,400,4,2,1,60,1,0
206200,-83.3333333333333,4,2,1,60,0,0
206789,400,4,2,1,60,1,0
206789,-71.4285714285714,4,2,1,60,0,0
207589,405.405405405405,4,2,1,60,1,0
207589,-100,4,2,1,60,0,0
210832,-83.3333333333333,4,2,1,60,0,0
212453,-71.4285714285714,4,2,1,60,0,0
213670,416.666666666667,4,2,1,60,1,0
214086,405.405405405405,4,2,1,60,1,0
214086,-71.4285714285714,4,2,1,60,0,0
216518,428.571428571429,4,2,1,60,1,0
216518,-68.9655172413793,4,2,1,60,0,0
217329,405.405405405405,4,2,1,60,1,0
217329,-71.4285714285714,4,2,1,60,0,0
220561,405.405405405405,4,2,1,60,1,0
220561,-83.3333333333333,4,2,1,60,0,0
227047,-83.3333333333333,4,2,1,60,0,1
238602,394.736842105263,4,2,1,60,1,1
239194,402.684563758389,4,2,1,60,1,1
239998,428.571428571429,4,2,1,70,1,1
239998,-83.3333333333333,4,2,1,70,0,1
240426,405.405405405405,4,2,1,70,1,1
240426,-83.3333333333333,4,2,1,70,0,1
241642,405.405405405405,4,2,1,70,1,1
241642,-83.3333333333333,4,2,1,70,0,1
252790,-83.3333333333333,4,2,1,60,0,0
253419,405.405405405405,4,2,1,50,1,0
253419,-111.111111111111,4,2,1,50,0,0
254837,365.853658536585,4,2,1,50,1,0
254837,-111.111111111111,4,2,1,50,0,0
255019,405.405405405405,4,2,1,50,1,0
255019,-111.111111111111,4,2,1,50,0,0
255636,405.405405405405,4,2,1,50,1,0
255636,-111.111111111111,4,2,1,50,0,0
256649,405.405405405405,4,2,1,50,1,0
256649,-111.111111111111,4,2,1,50,0,0
257454,400,4,2,1,50,1,0
257454,-111.111111111111,4,2,1,50,0,0
258254,405.405405405405,4,2,1,50,1,0
258254,-111.111111111111,4,2,1,50,0,0
259672,441.176470588235,4,2,1,50,1,0
259892,405.405405405405,4,2,1,50,1,0
259892,-111.111111111111,4,2,1,50,0,0
263135,-100,4,2,1,50,0,0
264756,-83.3333333333333,4,2,1,60,0,0

[Colours]
Combo1 : 64,159,255
Combo2 : 201,65,235
Combo3 : 122,218,58

[HitObjects]
283,319,9128,5,2,0:0:0:0:
259,222,9481,2,0,L|302:229,3,33.9999989624024
399,177,10187,5,0,0:0:0:0:
375,274,10540,2,0,L|418:267,3,33.9999989624024
260,97,11246,5,0,0:0:0:0:
163,73,11599,2,0,L|170:116,6,22.6666666666667
116,202,12305,5,0,0:0:0:0:
213,178,12658,2,0,L|206:221,5,22.6666666666667
204,226,13011,2,0,P|229:222|254:219,1,50.9999984436036
332,375,13364,5,2,0:0:0:0:
238,352,13717,2,0,L|245:309,3,33.9999989624024
330,276,14423,5,0,0:0:0:0:
424,253,14776,2,0,L|417:210,3,33.9999989624024
222,118,15481,5,0,0:0:0:0:
245,24,15834,2,0,L|267:27,6,22.6666666666667
321,116,16540,5,0,0:0:0:0:
344,210,16893,2,0,L|387:203,5,22.6666666666667
392,201,17246,2,0,P|388:226|385:251,1,50.9999984436036
352,30,17599,5,2,0:0:0:0:
414,97,17952,2,0,P|370:123|308:108,1,101.999996887207
230,156,18658,2,0,P|223:103|213:36,1,101.999996887207,0|2,0:0|0:0,0:0:0:0:
315,209,19364,2,0,L|308:252,5,22.6666666666667,2|0|0|0|0|0,0:0|0:0|0:0|0:0|0:0|0:0,0:0:0:0:
328,263,19717,5,2,0:0:0:0:
197,242,20070,2,0,L|204:285,3,33.9999989624024
135,384,20776,2,0,P|179:358|241:373,1,101.999996887207,2|2,0:0|0:0,0:0:0:0:
290,222,21435,2,0,P|246:248|184:233,1,101.999996887207,0|2,0:0|0:0,0:0:0:0:
97,213,22187,6,0,L|106:268,2,50.9999984436036
8,175,22893,2,0,P|15:122|25:55,1,101.999996887207,0|2,0:0|0:0,0:0:0:0:
117,54,23599,2,0,L|110:11,5,22.6666666666667,2|0|0|0|0|0,0:0|0:0|0:0|0:0|0:0|0:0,0:0:0:0:
130,0,23952,5,2,0:0:0:0:
89,155,24305,2,0,L|132:148,3,33.9999989624024
239,227,25011,5,2,0:0:0:0:
198,72,25364,2,0,L|241:79,6,22.6666666666667
415,74,26070,5,2,0:0:0:0:
344,12,26423,2,0,P|318:56|333:118,1,101.999996887207
298,199,27129,2,0,P|348:191|399:184,1,101.999996887207,0|2,0:0|0:0,0:0:0:0:
483,260,27834,2,0,L|440:253,5,22.6666666666667,2|0|0|0|0|0,0:0|0:0|0:0|0:0|0:0|0:0,0:0:0:0:
429,273,28187,5,2,0:0:0:0:
347,334,28540,2,0,L|340:291,3,33.9999989624024
265,244,29246,1,2,0:0:0:0:
173,267,29599,2,0,P|150:222|159:172,1,101.999996887207,2|0,0:0|0:0,0:0:0:0:
323,32,30305,5,2,0:0:0:0:
239,78,30658,2,0,P|188:70|137:63,1,101.999996887207
58,187,31364,2,0,P|108:179|159:172,1,101.999996887207,0|2,0:0|0:0,0:0:0:0:
246,250,32070,2,0,L|203:243,5,22.6666666666667,2|0|0|0|0|0,0:0|0:0|0:0|0:0|0:0|0:0,0:0:0:0:
192,263,32423,5,2,0:0:0:0:
347,222,32776,2,0,L|340:265,3,33.9999989624024
419,372,33482,5,2,0:0:0:0:
264,331,33834,2,0,L|271:374,6,22.6666666666667
512,122,34540,6,0,B|480:142|435:138|435:138|368:138|346:86|378:27|450:34|469:92|435:138|435:138|378:178|401:248,1,420.749987159729,14|0,0:1|0:0,0:0:0:0:
446,288,35599,2,0,P|358:245|329:382,1,280.49999143982,2|0,0:0|0:0,0:0:0:0:
375,320,36658,6,0,P|308:310|221:298,1,127.5,2|0,0:0|0:0,0:0:0:0:
224,315,37011,2,0,P|219:280|214:237,1,56.6666666666667
153,211,37246,2,0,P|148:176|143:133,1,56.6666666666667
260,8,37717,5,2,0:0:0:0:
117,66,38070,2,0,B|210:45|188:121|305:93,1,170,0|2,0:0|0:0,0:0:0:0:
278,97,38599,1,0,0:0:0:0:
284,104,38776,6,0,B|217:40|217:40|247:243,1,280.49999143982,10|0,0:1|0:0,0:0:0:0:
296,284,39834,2,0,B|224:263|199:193|199:193|142:247|60:228,1,280.49999143982,2|0,0:0|0:0,0:0:0:0:
0,199,40893,6,0,P|37:246|22:318,1,127.5,2|0,0:0|0:0,0:0:0:0:
53,324,41246,2,0,P|88:319|131:314,1,56.6666666666667
185,344,41482,2,0,P|220:339|263:334,1,56.6666666666667
459,304,41952,5,2,0:0:0:0:
347,384,42305,2,0,P|358:299|371:215,1,170,2|0,0:0|0:0,0:0:0:0:
371,215,43011,6,0,P|283:258|254:121,1,280.49999143982,14|0,0:1|0:0,0:0:0:0:
301,182,44070,2,0,B|144:131|196:262|31:225,1,280.49999143982,2|0,0:0|0:0,0:0:0:0:
0,157,45129,6,0,P|8:93|18:30,1,127.5,2|0,0:0|0:0,0:0:0:0:
34,55,45482,2,0,P|68:39|98:42,1,56.6666666666667
155,0,45717,2,0,P|185:21|198:48,1,56.6666666666667
301,182,46187,5,0,0:0:0:0:
81,157,46540,2,0,P|160:179|218:122,1,170,0|2,0:0|0:0,0:0:0:0:
218,122,47070,1,0,0:0:0:0:
406,233,47246,6,0,B|378:47|378:47|445:111,1,280.49999143982,14|0,0:1|0:0,0:0:0:0:
445,111,48305,1,2,0:0:0:0:
352,100,48658,1,2,0:0:0:0:
259,89,49011,1,2,0:0:0:0:
62,247,49364,6,0,P|109:210|181:225,1,127.5,2|0,0:0|0:0,0:0:0:0:
194,200,49717,2,0,P|197:171|201:143,1,56.6666666666667
259,89,49952,2,0,P|262:60|266:32,1,56.6666666666667
304,210,50423,5,2,0:0:0:0:
134,305,50776,2,0,P|176:299|218:294,2,85,2|0|2,0:0|0:0|0:0,0:0:0:0:
395,377,51482,6,0,P|405:292|418:208,2,170,14|0|0,0:1|0:0|0:0,0:0:0:0:
108,125,52540,2,0,P|120:209|131:293,2,170,2|2|0,0:0|0:0|0:0,0:0:0:0:
479,106,53599,6,0,P|417:115|368:77,1,127.5,6|0,0:0|0:0,0:0:0:0:
350,100,53952,2,0,P|366:134|363:164,1,56.6666666666667
405,221,54187,2,0,P|383:251|356:264,1,56.6666666666667
21,321,54658,6,0,P|82:330|131:292,1,127.5,6|0,0:0|0:0,0:0:0:0:
153,312,55011,2,0,P|163:227|171:170,1,127.5
180,157,55364,2,0,P|138:161|76:171,1,85
366,280,55717,5,14,0:1:0:0:
256,192,55805,12,0,56776,0:0:0:0:
256,192,56864,12,0,57834,0:0:0:0:
256,192,57923,12,0,58893,0:0:0:0:
256,192,58982,12,0,59776,0:0:0:0:
348,139,59952,5,12,0:1:0:0:
124,155,60305,1,4,0:3:0:0:
205,112,60482,1,4,0:3:0:0:
259,182,60658,2,0,P|274:232|260:265,1,68,4|0,0:3|0:0,0:0:0:0:
310,346,61011,2,0,P|241:336|172:328,1,136,8|4,0:3|0:3,0:0:0:0:
160,341,62070,6,0,P|154:298|148:256,1,68,8|0,0:1|0:0,0:0:0:0:
185,81,62423,1,8,0:3:0:0:
125,151,62599,1,8,0:3:0:0:
216,168,62776,2,0,P|249:172|283:177,1,68,8|0,0:3|0:0,0:0:0:0:
402,60,63129,2,0,P|368:55|334:50,1,68,8|0,0:3|0:0,0:0:0:0:
369,284,63482,2,0,P|402:226|384:162,1,136,4|8,0:3|0:3,0:0:0:0:
398,148,64187,6,0,B|296:133|296:133|234:181|234:181|123:164,1,280.49999143982,14|0,0:1|0:0,0:0:0:0:
66,236,65246,2,0,P|154:193|183:330,1,280.49999143982,2|0,0:0|0:0,0:0:0:0:
104,361,66305,6,0,P|70:356|36:351,1,68,14|0,0:1|0:0,0:0:0:0:
297,269,66658,2,0,P|331:274|365:279,1,68
188,116,67011,2,0,P|154:111|120:106,1,68,2|0,0:0|0:0,0:0:0:0:
337,48,67364,6,0,P|352:98|338:131,1,68,2|0,0:0|0:0,0:0:0:0:
163,251,67717,2,0,P|198:213|234:208,1,68
426,300,68070,2,0,P|375:287|353:259,1,68,2|0,0:0|0:0,0:0:0:0:
308,200,68423,6,0,P|313:166|318:132,1,68,14|0,0:1|0:0,0:0:0:0:
215,334,68776,2,0,P|164:340|113:347,1,102,8|4,0:3|0:3,0:0:0:0:
96,333,69129,2,0,P|81:283|95:250,1,68,4|0,0:3|0:0,0:0:0:0:
220,181,69482,2,0,P|154:188|102:146,1,136,8|4,0:3|0:3,0:0:0:0:
87,157,70540,6,0,P|82:123|77:89,1,68,8|0,0:1|0:0,0:0:0:0:
233,23,70893,1,8,0:3:0:0:
233,23,71070,1,8,0:3:0:0:
191,111,71246,1,4,0:3:0:0:
191,111,71423,1,4,0:3:0:0:
258,181,71599,2,0,P|291:183|321:169,1,68,4|0,0:3|0:0,0:0:0:0:
449,323,71952,2,0,P|397:281|331:288,1,136,4|8,0:3|0:1,0:0:0:0:
343,305,72658,6,0,P|356:195|372:88,1,203.999993774414,14|2,0:1|0:0,0:0:0:0:
370,103,73717,2,0,B|213:52|265:183|100:146,1,280.49999143982,2|0,0:0|0:0,0:0:0:0:
51,228,74776,6,0,P|83:175|-20:158,1,203.999993774414,10|2,0:1|0:0,0:0:0:0:
39,320,75834,2,0,P|89:312|140:306,2,101.999996887207,2|2|2,0:0|0:0|0:0,0:0:0:0:
398,267,76893,6,0,P|345:222|278:233,2,136,14|0|2,0:1|0:0|0:0,0:0:0:0:
73,115,77952,2,0,P|126:70|193:81,2,136,2|0|0,0:0|0:0|0:0,0:0:0:0:
269,325,79011,5,4,0:3:0:0:
283,230,79376,5,4,0:3:0:0:
297,135,79760,5,4,0:3:0:0:
310,40,80170,6,0,L|265:45,1,42.5,4|0,0:3|0:0,0:0:0:0:
247,63,81362,6,0,B|124:20|145:125|17:90,1,229.499992996216,12|0,0:1|0:0,0:0:0:0:
196,142,82067,1,2,0:0:0:0:
67,16,82244,1,8,0:1:0:0:
111,253,82420,2,0,P|114:214|119:177,1,76.4999976654053,8|0,0:0|0:0,0:0:0:0:
26,291,82773,2,0,P|78:340|156:331,1,152.999995330811,2|2,0:0|0:0,0:0:0:0:
231,225,83303,1,8,0:1:0:0:
424,340,83479,6,0,P|348:331|271:323,1,152.999995330811,8|2,0:1|0:0,0:0:0:0:
162,171,84009,2,0,P|143:214|154:261,1,76.4999976654053,8|2,0:1|0:0,0:0:0:0:
298,172,84362,1,8,0:1:0:0:
108,62,84538,2,0,P|181:71|236:21,1,152.999995330811,8|2,0:0|0:0,0:0:0:0:
427,213,85067,2,0,P|372:163|298:172,1,152.999995330811,8|8,0:0|0:1,0:0:0:0:
188,279,85597,6,0,P|264:270|341:262,1,152.999995330811,12|0,0:1|0:0,0:0:0:0:
214,104,86126,2,0,P|209:141|205:179,1,76.4999976654053,8|2,0:0|0:0,0:0:0:0:
325,59,86479,1,8,0:1:0:0:
111,0,86656,2,0,P|69:58|89:134,1,152.999995330811,8|8,0:0|0:1,0:0:0:0:
28,252,87185,2,0,P|65:247|103:243,1,76.4999976654053,8|0,0:0|0:0,0:0:0:0:
273,331,87538,1,12,0:1:0:0:
214,104,87714,6,0,P|196:137|197:175,1,76.4999976654053,8|0,0:0|0:0,0:0:0:0:
325,59,88067,1,10,0:1:0:0:
439,175,88244,2,0,P|363:166|286:158,1,152.999995330811,8|8,0:3|0:3,0:0:0:0:
405,301,88773,1,8,0:3:0:0:
405,301,88950,1,8,0:3:0:0:
482,78,89126,1,4,0:3:0:0:
482,78,89303,1,4,0:3:0:0:
211,167,89479,2,0,P|248:162|286:158,1,76.4999976654053,4|4,0:3|0:3,0:0:0:0:
512,231,89832,5,14,0:1:0:0:
256,192,89920,12,0,93714,0:0:0:0:
84,142,94079,6,0,P|114:127|147:130,1,68,2|0,0:0|0:0,0:0:0:0:
211,84,94409,2,0,P|238:103|253:133,1,68
322,163,94740,2,0,P|317:196|313:230,1,68,2|0,0:0|0:0,0:0:0:0:
298,244,95071,2,0,P|350:284|415:275,1,136,0|0,3:0|0:0,0:0:0:0:
194,356,95688,6,0,P|190:322|185:288,1,68,2|0,0:0|0:0,0:0:0:0:
127,235,95992,2,0,P|130:201|135:167,1,68
76,114,96296,2,0,P|124:88|187:104,1,102,2|0,0:0|0:0,0:0:0:0:
157,77,96701,2,0,P|213:68|269:62,1,102,0|2,0:0|0:0,0:0:0:0:
361,50,97222,1,0,0:0:0:0:
361,50,97331,6,0,P|346:80|349:113,1,68,2|0,0:0|0:0,0:0:0:0:
303,177,97635,2,0,P|322:204|352:219,1,68
390,297,97939,2,0,P|422:294|450:275,1,68,2|0,0:0|0:0,0:0:0:0:
450,274,98243,1,0,3:0:0:0:
450,274,98344,2,0,P|458:200|470:127,1,136,0|2,3:0|0:0,0:0:0:0:
361,50,98931,6,0,P|327:54|293:59,1,68,2|0,0:0|0:0,0:0:0:0:
227,102,99235,2,0,P|200:98|173:94,2,34
269,169,99539,2,0,P|295:217|279:280,1,102,2|2,0:0|0:0,0:0:0:0:
268,267,99944,6,0,L|260:321,1,34
171,202,100147,2,0,L|179:256,1,34,2|0,0:0|0:0,0:0:0:0:
84,267,100350,2,0,L|79:300,1,34
278,57,100552,6,0,L|224:49,1,42.5,2|0,0:0|0:0,0:0:0:0:
348,139,100755,1,0,0:0:0:0:
358,137,100856,1,2,0:0:0:0:
368,136,100958,2,0,L|360:190,1,42.5
285,314,101160,2,0,L|291:271,1,42.5,2|0,0:0|0:0,0:0:0:0:
200,198,101363,2,0,L|193:240,1,42.5,0|2,0:0|0:0,0:0:0:0:
443,266,101566,5,0,0:0:0:0:
433,268,101667,1,0,0:0:0:0:
423,269,101769,2,0,L|380:275,1,42.5,2|0,0:0|0:0,0:0:0:0:
285,314,101971,2,0,L|242:307,1,42.5
410,375,102174,2,0,L|367:381,1,42.5,2|0,0:0|0:0,0:0:0:0:
140,292,102377,5,0,0:0:0:0:
142,302,102478,1,2,0:0:0:0:
144,312,102579,2,0,L|150:354,3,42.5,0|0|2|0,0:0|0:0|0:0|0:0,0:0:0:0:
29,251,102985,1,0,0:0:0:0:
31,234,103086,1,2,0:0:0:0:
33,217,103188,1,0,0:0:0:0:
36,200,103289,1,0,0:0:0:0:
38,183,103390,5,2,0:0:0:0:
60,219,103492,1,0,0:0:0:0:
97,239,103593,1,0,0:0:0:0:
139,239,103694,1,0,0:0:0:0:
175,218,103796,6,0,L|169:260,3,42.5,2|0|0|2,0:0|0:0|0:0|0:0,0:0:0:0:
266,246,104201,2,0,L|260:288,3,42.5,0|0|2|0,0:0|0:0|0:0|0:0,0:0:0:0:
357,273,104606,2,0,L|351:315,3,42.5,0|2|0|0,0:0|0:0|0:0|0:0,0:0:0:0:
447,245,105012,1,2,0:0:0:0:
443,216,105113,1,0,0:0:0:0:
439,188,105215,1,0,0:0:0:0:
435,161,105316,1,8,0:0:0:0:
430,132,105417,5,10,0:0:0:0:
448,148,105519,2,0,P|480:157|517:145,1,50.9999984436036,8|8,0:0|0:1,0:0:0:0:
311,212,105721,1,10,0:0:0:0:
288,219,105823,2,0,P|264:242|256:280,1,50.9999984436036,8|0,0:0|0:0,0:0:0:0:
302,69,106025,1,10,0:0:0:0:
306,45,106127,2,0,P|297:12|268:-13,1,50.9999984436036,8|10,0:0|0:1,0:0:0:0:
208,54,106327,1,8,0:0:0:0:
182,50,106426,1,8,0:0:0:0:
155,46,106525,1,8,0:0:0:0:
128,42,106623,5,10,0:0:0:0:
164,64,106722,1,8,0:0:0:0:
184,101,106821,1,8,0:0:0:0:
184,143,106919,1,10,0:0:0:0:
163,179,107018,6,0,B|256:158|234:234|351:206,1,170,12|8,0:1|0:0,0:0:0:0:
435,127,107648,1,10,0:1:0:0:
458,145,107750,1,8,0:0:0:0:
473,171,107851,1,0,0:0:0:0:
476,200,107952,1,10,0:0:0:0:
468,229,108054,1,8,0:1:0:0:
259,299,108256,2,0,P|253:256|247:214,1,85,10|0,0:0|0:0,0:0:0:0:
247,214,108560,1,8,0:0:0:0:
247,214,108662,6,0,P|204:233|151:222,1,85,10|0,0:1|0:0,0:0:0:0:
145,215,108966,1,10,0:1:0:0:
145,215,109067,1,8,0:0:0:0:
325,350,109270,2,0,P|389:309|461:337,1,127.5,10|8,0:1|0:0,0:0:0:0:
454,300,109675,2,0,L|447:258,1,42.5,8|0,0:1|0:0,0:0:0:0:
428,159,109878,1,10,0:0:0:0:
43,190,110283,5,10,0:1:0:0:
63,211,110384,1,8,0:0:0:0:
91,224,110486,1,0,0:0:0:0:
120,224,110587,1,10,0:1:0:0:
148,213,110689,1,8,0:0:0:0:
229,354,110891,1,10,0:1:0:0:
229,354,110993,1,8,0:0:0:0:
229,354,111094,2,0,P|186:335|133:346,1,85,0|8,0:0|0:1,0:0:0:0:
270,158,111499,2,0,P|264:200|259:242,1,85,10|8,0:0|0:1,0:0:0:0:
258,242,111803,1,8,0:0:0:0:
258,242,111905,6,0,L|300:235,3,42.5,10|0|0|10,0:1|0:0|0:0|0:1,0:0:0:0:
382,178,112310,2,0,L|424:185,1,42.5,8|0,0:0|0:0,0:0:0:0:
305,27,112513,5,10,0:1:0:0:
305,27,112614,1,8,0:0:0:0:
305,27,112716,2,0,P|316:56|314:82,1,42.5,0|8,0:0|0:0,0:0:0:0:
263,151,112918,2,0,P|234:162|208:160,1,42.5,8|8,0:1|0:1,0:0:0:0:
132,53,113121,2,0,P|174:58|216:64,1,85,10|0,0:0|0:0,0:0:0:0:
274,284,113526,5,10,0:1:0:0:
254,263,113628,1,8,0:0:0:0:
226,250,113729,1,0,0:0:0:0:
197,250,113830,1,8,0:1:0:0:
169,261,113932,1,8,0:0:0:0:
365,355,114134,1,10,0:1:0:0:
365,355,114236,1,8,0:0:0:0:
365,355,114337,2,0,L|372:313,2,42.5,0|8|8,0:0|0:0|0:1,0:0:0:0:
442,139,114743,2,0,P|461:182|450:235,1,85,8|0,0:0|0:0,0:0:0:0:
259,190,115148,6,0,P|302:195|344:201,1,85,10|0,0:1|0:0,0:0:0:0:
360,219,115452,1,10,0:1:0:0:
360,219,115553,1,8,0:0:0:0:
152,83,115756,2,0,P|133:126|144:179,1,85,10|0,0:1|0:0,0:0:0:0:
153,181,116060,1,10,0:0:0:0:
153,181,116162,1,8,0:1:0:0:
290,84,116364,2,0,P|285:41|279:-1,1,85,10|0,0:0|0:0,0:0:0:0:
443,162,116770,6,0,P|431:246|422:314,1,127.5,10|8,0:1|0:1,0:0:0:0:
438,309,117175,1,8,0:0:0:0:
223,217,117378,1,10,0:1:0:0:
243,196,117479,1,8,0:0:0:0:
271,183,117580,1,0,0:0:0:0:
300,183,117682,1,8,0:0:0:0:
328,194,117783,1,8,0:1:0:0:
261,374,117986,2,0,P|218:378|176:385,1,85,10|0,0:0|0:0,0:0:0:0:
176,384,118290,1,8,0:0:0:0:
176,384,118391,6,0,L|183:342,2,42.5,10|8|0,0:1|0:0|0:0,0:0:0:0:
90,205,118797,1,8,0:0:0:0:
283,287,118999,5,8,0:1:0:0:
283,287,119101,1,8,0:0:0:0:
283,287,119202,2,0,L|276:245,1,42.5,10|8,0:1|0:0,0:0:0:0:
344,124,119405,2,0,L|337:166,1,42.5,8|8,0:0|0:0,0:0:0:0:
430,211,119607,5,10,0:0:0:0:
455,206,119709,1,8,0:0:0:0:
480,201,119810,1,8,0:0:0:0:
90,205,120013,6,0,P|151:150|231:166,1,170,14|10,0:1|0:0,0:0:0:0:
324,293,120621,1,8,0:1:0:0:
324,293,120722,1,8,0:0:0:0:
324,293,120824,2,0,L|282:286,1,42.5,2|8,0:0|0:0,0:0:0:0:
183,270,121026,1,8,0:1:0:0:
400,218,121229,1,10,0:0:0:0:
217,80,121634,5,10,0:1:0:0:
220,101,121736,1,8,0:0:0:0:
224,123,121837,1,0,0:0:0:0:
227,144,121939,1,8,0:1:0:0:
231,166,122040,1,10,0:0:0:0:
93,244,122243,1,8,0:1:0:0:
93,244,122344,1,8,0:0:0:0:
93,244,122445,2,0,L|100:202,2,42.5,2|8|8,0:0|0:0|0:1,0:0:0:0:
215,379,122851,2,0,P|234:336|223:283,1,85,10|0,0:0|0:0,0:0:0:0:
230,299,123155,1,8,0:0:0:0:
230,299,123256,6,0,B|137:278|159:354|42:326,1,170,10|10,0:1|0:0,0:0:0:0:
308,252,123864,1,8,0:1:0:0:
308,252,123966,1,8,0:0:0:0:
308,252,124067,2,0,P|319:281|317:307,1,42.5,2|8,0:0|0:0,0:0:0:0:
277,380,124270,1,8,0:1:0:0:
463,312,124472,2,0,P|458:269|452:227,1,85,10|0,0:0|0:0,0:0:0:0:
474,64,124878,6,0,P|410:105|338:77,1,127.5,10|8,0:1|0:1,0:0:0:0:
338,103,125283,2,0,L|345:61,1,42.5,10|0,0:0|0:0,0:0:0:0:
240,163,125486,1,8,0:1:0:0:
240,163,125587,2,0,L|233:121,1,42.5,10|0,0:0|0:0,0:0:0:0:
340,217,125790,1,8,0:0:0:0:
340,217,125891,1,10,0:1:0:0:
161,280,126094,2,0,P|142:323|153:376,1,85,10|8,0:0|0:1,0:0:0:0:
145,359,126398,1,8,0:0:0:0:
145,359,126499,6,0,B|215:349|215:349|243:363|243:363|338:351,1,170,10|10,0:1|0:0,0:0:0:0:
480,384,127107,1,8,0:1:0:0:
480,384,127209,1,8,0:0:0:0:
480,384,127310,2,0,L|487:342,2,42.5,2|8|8,0:0|0:0|0:1,0:0:0:0:
371,184,127716,2,0,P|376:226|381:268,1,85,10|0,0:0|0:0,0:0:0:0:
446,133,128121,6,0,P|382:92|310:120,1,127.5,10|10,0:1|0:1,0:0:0:0:
311,90,128526,2,0,P|301:70|299:49,1,42.5,10|0,0:0|0:0,0:0:0:0:
230,194,128729,1,8,0:1:0:0:
210,173,128830,1,8,0:0:0:0:
182,160,128932,1,2,0:0:0:0:
153,160,129033,1,8,0:0:0:0:
125,171,129134,1,8,0:1:0:0:
206,312,129337,2,0,P|248:307|290:302,1,85,10|0,0:0|0:0,0:0:0:0:
370,294,129641,1,8,0:0:0:0:
370,294,129743,6,0,B|389:169|389:169|340:207,1,170,14|10,0:1|0:0,0:0:0:0:
464,374,130351,1,8,0:1:0:0:
485,354,130452,1,8,0:0:0:0:
498,326,130553,1,2,0:0:0:0:
498,297,130655,1,8,0:0:0:0:
487,269,130756,1,8,0:1:0:0:
377,123,130959,2,0,P|358:166|369:219,1,85,10|0,0:0|0:0,0:0:0:0:
361,202,131263,1,8,0:0:0:0:
361,202,131364,6,0,P|297:243|225:215,1,127.5,10|8,0:1|0:1,0:0:0:0:
228,247,131770,1,10,0:0:0:0:
141,378,131972,2,0,P|184:359|237:370,1,85,10|0,0:1|0:0,0:0:0:0:
290,158,132378,1,10,0:1:0:0:
131,196,132580,2,0,P|136:238|141:280,1,85,10|0,0:0|0:0,0:0:0:0:
141,280,132884,1,8,0:0:0:0:
141,280,132986,6,0,P|95:254|44:265,1,101.999996887207,14|0,0:1|0:0,0:0:0:0:
18,257,133290,2,0,L|26:325,1,50.9999984436036,2|8,0:0|0:1,0:0:0:0:
313,238,133594,2,0,P|287:284|298:335,1,101.999996887207,10|0,0:0|0:0,0:0:0:0:
290,362,133898,2,0,L|358:354,1,50.9999984436036,2|8,0:0|0:1,0:0:0:0:
189,110,134202,2,0,P|195:59|201:9,1,101.999996887207,10|0,0:0|0:0,0:0:0:0:
218,257,134607,5,10,0:1:0:0:
200,220,134705,1,8,0:0:0:0:
166,198,134804,1,8,0:0:0:0:
126,196,134903,1,10,0:0:0:0:
89,213,135001,5,8,0:1:0:0:
138,205,135100,1,8,0:1:0:0:
188,198,135199,1,8,0:1:0:0:
239,191,135297,1,8,0:0:0:0:
289,185,135396,5,10,0:0:0:0:
332,128,135495,1,10,0:0:0:0:
310,59,135593,1,10,0:1:0:0:
476,341,136229,6,0,P|433:322|380:333,1,85,14|0,0:1|0:0,0:0:0:0:
380,345,136533,1,10,0:1:0:0:
380,345,136634,1,8,0:0:0:0:
248,174,136837,2,0,P|312:215|384:187,1,127.5,10|10,0:1|0:0,0:0:0:0:
384,213,137242,2,0,L|377:171,1,42.5,8|0,0:1|0:0,0:0:0:0:
358,72,137445,1,10,0:0:0:0:
486,295,137647,1,0,0:0:0:0:
486,295,137749,1,8,0:0:0:0:
486,295,137850,6,0,P|494:232|503:160,1,127.5,10|10,0:1|0:1,0:0:0:0:
486,147,138256,2,0,P|457:158|431:156,1,42.5,8|2,0:0|0:0,0:0:0:0:
359,206,138458,2,0,P|334:186|323:162,1,42.5,10|2,0:1|0:0,0:0:0:0:
236,148,138661,2,0,P|230:105|224:63,1,85,0|10,0:0|0:1,0:0:0:0:
401,342,139066,2,0,P|358:335|316:330,1,85,10|0,0:0|0:0,0:0:0:0:
316,330,139370,1,0,0:0:0:0:
316,330,139472,6,0,P|252:289|180:317,1,127.5,10|10,0:1|0:1,0:0:0:0:
182,286,139877,1,8,0:0:0:0:
66,138,140080,1,10,0:1:0:0:
86,159,140181,1,8,0:0:0:0:
114,172,140283,1,0,0:0:0:0:
143,172,140384,1,10,0:0:0:0:
171,161,140485,1,8,0:1:0:0:
73,368,140688,2,0,P|67:325|61:283,1,85,10|0,0:0|0:0,0:0:0:0:
271,163,141093,6,0,L|264:205,3,42.5,10|8|0|0,0:1|0:0|0:0|0:0,0:0:0:0:
247,300,141499,2,0,L|289:293,1,42.5,8|0,0:0|0:0,0:0:0:0:
189,119,141701,5,10,0:1:0:0:
189,119,141803,1,8,0:0:0:0:
189,119,141904,2,0,P|178:148|180:174,1,42.5,0|10,0:0|0:0,0:0:0:0:
315,80,142107,2,0,P|286:69|260:71,1,42.5,8|0,0:1|0:0,0:0:0:0:
363,206,142310,2,0,P|406:199|448:194,1,85,10|8,0:0|0:0,0:0:0:0:
447,194,142614,1,8,0:0:0:0:
447,194,142715,6,0,P|412:261|448:330,1,127.5,10|10,0:1|0:1,0:0:0:0:
447,321,143120,1,8,0:0:0:0:
291,367,143323,1,10,0:1:0:0:
291,367,143424,1,8,0:0:0:0:
291,367,143526,2,0,L|298:325,2,42.5,0|10|8,0:0|0:0|0:1,0:0:0:0:
210,181,143931,2,0,P|253:174|295:169,1,85,10|0,0:0|0:0,0:0:0:0:
105,329,144337,6,0,P|62:324|20:318,1,85,10|0,0:1|0:0,0:0:0:0:
0,333,144641,1,10,0:1:0:0:
0,333,144742,1,8,0:0:0:0:
210,181,144945,2,0,P|229:224|218:277,1,85,10|0,0:1|0:0,0:0:0:0:
209,279,145249,1,10,0:0:0:0:
209,279,145350,1,8,0:1:0:0:
63,109,145553,2,0,P|68:66|74:24,1,85,10|0,0:0|0:0,0:0:0:0:
272,59,145958,5,10,0:1:0:0:
252,80,146060,1,8,0:0:0:0:
224,93,146161,1,0,0:0:0:0:
195,93,146262,1,10,0:1:0:0:
167,82,146364,1,8,0:0:0:0:
343,180,146566,1,10,0:1:0:0:
343,180,146668,1,8,0:0:0:0:
343,180,146769,2,0,P|362:223|351:276,1,85,0|8,0:0|0:1,0:0:0:0:
494,120,147174,2,0,P|489:77|483:35,1,85,10|0,0:0|0:0,0:0:0:0:
457,276,147580,5,10,0:1:0:0:
431,271,147681,1,8,0:0:0:0:
408,268,147783,1,8,0:1:0:0:
383,263,147884,1,8,0:1:0:0:
359,260,147985,1,10,0:0:0:0:
227,161,148188,5,8,0:1:0:0:
227,161,148289,1,8,0:0:0:0:
227,161,148391,2,0,L|220:119,1,42.5,10|0,0:0|0:0,0:0:0:0:
360,46,148593,2,0,L|367:88,1,42.5,8|8,0:1|0:1,0:0:0:0:
296,328,148796,5,8,0:1:0:0:
276,307,148897,1,8,0:1:0:0:
248,294,148999,1,8,0:1:0:0:
219,294,149100,1,8,0:0:0:0:
191,305,149201,6,0,P|203:221|212:153,1,127.5,14|8,0:1|0:1,0:0:0:0:
227,161,149611,1,10,0:0:0:0:
25,253,149817,2,0,P|67:247|109:242,1,85,8|0,0:1|0:0,0:0:0:0:
272,79,150228,6,0,P|243:68|217:70,1,42.5,10|0,0:1|0:0,0:0:0:0:
145,20,150433,2,0,P|120:40|109:64,1,42.5,10|0,0:0|0:0,0:0:0:0:
34,106,150639,1,2,0:0:0:0:
271,210,150844,6,0,B|178:189|200:265|83:237,1,170,10|10,0:1|0:0,0:0:0:0:
143,122,151461,1,8,0:1:0:0:
140,139,151564,1,8,0:0:0:0:
138,156,151666,1,0,0:0:0:0:
341,168,151872,6,0,P|352:197|350:223,1,42.5,10|0,0:1|0:0,0:0:0:0:
397,274,152077,2,0,P|377:299|353:310,1,42.5,10|0,0:0|0:0,0:0:0:0:
312,361,152283,1,2,0:0:0:0:
127,246,152455,6,0,P|211:234|279:225,1,127.5,10|8,0:1|0:1,0:0:0:0:
271,210,152860,1,10,0:0:0:0:
71,179,153063,1,8,0:1:0:0:
50,199,153164,1,8,0:0:0:0:
37,227,153265,1,2,0:0:0:0:
37,256,153367,1,8,0:0:0:0:
48,284,153468,1,8,0:1:0:0:
190,152,153671,2,0,P|195:109|201:67,1,85,10|0,0:0|0:0,0:0:0:0:
201,67,153975,1,8,0:0:0:0:
201,67,154066,6,0,L|159:74,3,42.5,10|8|0|8,0:1|0:0|0:0|0:1,0:0:0:0:
281,20,154471,2,0,P|292:49|290:75,1,42.5,10|0,0:0|0:0,0:0:0:0:
266,192,154674,5,8,0:1:0:0:
286,171,154775,1,8,0:0:0:0:
314,158,154876,1,2,0:0:0:0:
343,158,154978,1,8,0:0:0:0:
371,169,155079,2,0,L|364:127,1,42.5,8|8,0:1|0:0,0:0:0:0:
336,255,155282,1,10,0:0:0:0:
193,128,155484,1,0,0:0:0:0:
193,128,155586,1,8,0:0:0:0:
193,128,155687,6,0,P|129:169|57:141,1,127.5,10|8,0:1|0:1,0:0:0:0:
59,172,156093,1,10,0:0:0:0:
268,204,156295,1,8,0:1:0:0:
268,204,156397,1,8,0:0:0:0:
268,204,156498,2,0,L|261:246,1,42.5,2|8,0:0|0:0,0:0:0:0:
245,345,156701,1,8,0:1:0:0:
193,128,156903,1,10,0:0:0:0:
479,199,157309,5,10,0:1:0:0:
459,220,157410,1,8,0:0:0:0:
431,233,157511,1,0,0:0:0:0:
402,233,157613,1,8,0:1:0:0:
374,222,157714,1,10,0:0:0:0:
245,345,157917,2,0,P|240:302|234:260,1,85,10|8,0:1|0:1,0:0:0:0:
396,336,158322,1,8,0:0:0:0:
396,336,158424,1,8,0:0:0:0:
396,336,158525,2,0,L|354:329,1,42.5,10|0,0:0|0:0,0:0:0:0:
201,169,158728,5,8,0:0:0:0:
201,169,158829,1,8,0:0:0:0:
201,169,158930,2,0,B|294:148|272:224|389:196,1,170,14|10,0:1|0:0,0:0:0:0:
196,26,159538,1,8,0:1:0:0:
176,47,159640,1,8,0:0:0:0:
148,60,159741,1,2,0:0:0:0:
119,60,159843,1,8,0:0:0:0:
91,49,159944,1,8,0:1:0:0:
349,122,160147,2,0,P|367:84|364:42,1,85,10|0,0:0|0:0,0:0:0:0:
364,42,160451,1,8,0:0:0:0:
364,42,160552,6,0,P|428:83|500:55,1,127.5,10|8,0:1|0:1,0:0:0:0:
490,53,160957,1,10,0:0:0:0:
361,245,161160,2,0,P|356:202|350:160,1,85,10|0,0:1|0:0,0:0:0:0:
472,288,161566,1,8,0:1:0:0:
246,233,161768,2,0,P|228:271|231:313,1,85,10|0,0:0|0:0,0:0:0:0:
85,73,162174,6,0,P|131:47|182:58,1,101.999996887207,14|8,0:0|0:1,0:0:0:0:
200,78,162478,2,0,P|186:109|192:146,1,50.9999984436036,10|8,0:0|0:1,0:0:0:0:
442,177,162782,2,0,P|396:151|345:162,1,101.999996887207,14|0,0:0|0:0,0:0:0:0:
328,182,163086,2,0,P|342:213|336:250,1,50.9999984436036,10|8,0:0|0:1,0:0:0:0:
165,340,163390,2,0,P|171:289|177:239,1,101.999996887207,10|8,0:0|0:1,0:0:0:0:
470,366,163795,6,0,P|419:372|369:378,1,101.999996887207,14|8,0:0|0:1,0:0:0:0:
338,384,164099,2,0,L|343:333,1,50.9999984436036,10|8,0:0|0:1,0:0:0:0:
172,204,164403,5,8,0:0:0:0:
175,221,164505,1,8,0:0:0:0:
177,238,164606,1,10,0:0:0:0:
410,124,164809,2,0,P|329:140|268:85,1,170,14|8,0:1|0:1,0:0:0:0:
456,307,165417,5,12,0:1:0:0:
363,284,167038,1,12,0:1:0:0:
270,261,168052,1,8,0:1:0:0:
177,238,168255,2,0,P|181:271|186:305,1,68,4|8,0:3|0:1,0:0:0:0:
52,138,168660,5,12,0:1:0:0:
145,115,170282,1,12,0:1:0:0:
238,92,170890,1,8,0:1:0:0:
331,69,171093,2,0,P|326:102|321:136,1,68,10|8,0:0|0:1,0:0:0:0:
145,69,171498,2,0,P|149:35|154:1,1,68,10|8,0:0|0:1,0:0:0:0:
238,92,171903,5,12,0:1:0:0:
261,185,173525,1,8,0:1:0:0:
284,278,173728,2,0,P|250:273|216:268,1,68,10|8,0:0|0:1,0:0:0:0:
121,255,174133,1,8,0:1:0:0:
239,362,174336,2,0,P|303:315|373:340,1,152.999995330811,10|8,0:0|0:1,0:0:0:0:
443,384,175147,5,12,0:1:0:0:
466,291,176768,1,12,0:1:0:0:
489,198,176972,1,8,0:1:0:0:
473,201,177070,1,8,0:0:0:0:
457,204,177169,1,8,0:0:0:0:
512,105,177366,1,8,0:1:0:0:
496,108,177465,1,8,0:0:0:0:
480,111,177564,1,8,0:0:0:0:
245,65,177761,5,8,0:0:0:0:
242,81,177860,1,8,0:0:0:0:
239,97,177958,5,8,0:0:0:0:
276,80,178057,1,8,0:0:0:0:
316,82,178156,1,8,0:0:0:0:
350,104,178254,1,8,0:0:0:0:
368,141,178353,6,0,P|356:225|347:293,1,152.999995330811,14|8,0:1|0:1,0:0:0:0:
363,312,178804,1,10,0:0:0:0:
187,218,179006,1,8,0:1:0:0:
187,218,179108,2,0,P|217:212|237:209,2,50.9999984436036,8|2|8,0:0|0:0|0:0,0:0:0:0:
368,141,179412,2,0,P|393:144|418:149,1,50.9999984436036,8|0,0:1|0:0,0:0:0:0:
255,85,179614,1,10,0:0:0:0:
349,277,179817,1,0,0:0:0:0:
349,277,179918,1,8,0:0:0:0:
349,277,180020,6,0,P|419:233|485:254,1,152.999995330811,10|8,0:1|0:1,0:0:0:0:
499,233,180425,1,10,0:0:0:0:
418,380,180628,1,8,0:1:0:0:
418,380,180729,2,0,P|421:354|427:329,1,50.9999984436036,8|2,0:0|0:0,0:0:0:0:
241,250,180932,1,8,0:0:0:0:
241,250,181033,2,0,P|237:275|231:300,1,50.9999984436036,8|0,0:1|0:0,0:0:0:0:
349,277,181236,1,10,0:0:0:0:
169,157,181438,1,0,0:0:0:0:
169,157,181540,1,8,0:0:0:0:
169,157,181641,6,0,P|99:201|33:180,1,152.999995330811,10|8,0:1|0:1,0:0:0:0:
19,201,182047,1,10,0:0:0:0:
102,64,182249,1,8,0:1:0:0:
102,64,182351,2,0,P|96:88|92:114,2,50.9999984436036,8|2|8,0:0|0:0|0:0,0:0:0:0:
29,251,182655,2,0,P|25:225|19:201,1,50.9999984436036,8|0,0:1|0:0,0:0:0:0:
197,152,182857,1,10,0:0:0:0:
96,356,183060,1,0,0:0:0:0:
96,356,183161,1,8,0:0:0:0:
96,356,183263,6,0,P|171:366|247:376,1,152.999995330811,10|8,0:1|0:1,0:0:0:0:
267,361,183668,1,10,0:0:0:0:
197,152,183871,2,0,P|172:201|182:252,1,101.999996887207,8|2,0:1|0:0,0:0:0:0:
178,245,184175,1,8,0:0:0:0:
178,245,184276,1,8,0:1:0:0:
477,230,184479,1,10,0:0:0:0:
455,264,184580,1,8,0:0:0:0:
419,284,184682,1,8,0:0:0:0:
379,282,184783,1,2,0:0:0:0:
344,262,184884,6,0,P|352:313|358:362,1,101.999996887207,14|0,0:1|0:0,0:0:0:0:
197,152,185290,1,10,0:0:0:0:
403,193,185492,1,8,0:1:0:0:
403,193,185594,1,8,0:0:0:0:
403,193,185695,2,0,P|413:118|423:42,1,152.999995330811,2|0,0:0|0:0,0:0:0:0:
423,41,186101,2,0,P|374:66|323:56,1,101.999996887207,10|0,0:0|0:0,0:0:0:0:
149,162,186506,5,10,0:1:0:0:
149,162,186607,2,0,P|178:151|209:156,1,50.9999984436036,8|0,0:0|0:0,0:0:0:0:
277,128,186810,1,8,0:1:0:0:
277,128,186911,2,0,P|301:147|312:176,1,50.9999984436036,10|0,0:0|0:0,0:0:0:0:
363,309,187114,2,0,P|370:258|378:208,1,101.999996887207,8|2,0:1|0:0,0:0:0:0:
267,337,187520,1,8,0:1:0:0:
456,152,187722,2,0,P|481:201|471:252,1,101.999996887207,10|0,0:0|0:0,0:0:0:0:
474,245,188026,1,8,0:0:0:0:
474,245,188128,6,0,P|423:252|372:259,1,101.999996887207,10|0,0:1|0:0,0:0:0:0:
359,280,188432,1,10,0:1:0:0:
359,280,188533,1,8,0:0:0:0:
222,88,188736,2,0,P|273:81|324:74,1,101.999996887207,10|0,0:1|0:0,0:0:0:0:
337,53,189040,1,10,0:0:0:0:
337,53,189141,1,8,0:1:0:0:
246,289,189344,2,0,P|249:263|253:238,1,50.9999984436036,10|0,0:0|0:0,0:0:0:0:
450,44,189547,5,8,0:1:0:0:
450,44,189648,1,8,0:0:0:0:
450,44,189749,2,0,P|446:69|442:94,1,50.9999984436036,10|8,0:0|0:1,0:0:0:0:
423,223,189952,2,0,P|448:219|473:215,1,50.9999984436036,8|10,0:1|0:1,0:0:0:0:
325,146,190155,1,8,0:1:0:0:
300,151,190256,1,8,0:0:0:0:
275,154,190357,1,10,0:0:0:0:
448,368,190560,6,0,P|452:343|456:318,1,50.9999984436036,8|0,0:1|0:0,0:0:0:0:
481,222,190763,1,2,0:0:0:0:
481,222,190864,1,8,0:0:0:0:
481,222,190965,1,8,0:0:0:0:
225,379,191168,5,8,0:1:0:0:
225,379,191270,1,8,0:1:0:0:
225,379,191371,2,0,P|289:338|361:366,1,127.5,14|8,0:1|0:1,0:0:0:0:
359,335,191776,1,10,0:0:0:0:
200,220,191979,1,8,0:1:0:0:
180,241,192080,1,8,0:0:0:0:
152,254,192182,1,2,0:0:0:0:
123,254,192283,1,8,0:0:0:0:
95,243,192384,1,8,0:1:0:0:
281,170,192587,2,0,P|300:213|289:266,1,85,10|0,0:0|0:0,0:0:0:0:
296,249,192891,1,8,0:0:0:0:
296,249,192992,6,0,P|380:237|448:228,1,127.5,2|8,0:1|0:1,0:0:0:0:
443,244,193398,1,10,0:0:0:0:
376,94,193601,1,8,0:1:0:0:
376,94,193702,1,8,0:0:0:0:
376,94,193803,2,0,L|369:136,2,42.5,2|8|8,0:0|0:0|0:1,0:0:0:0:
238,172,194209,2,0,P|196:174|158:156,1,85,10|0,0:0|0:0,0:0:0:0:
158,156,194513,1,8,0:0:0:0:
158,156,194614,6,0,P|149:92|140:29,1,127.5,10|8,0:1|0:1,0:0:0:0:
121,11,195020,1,10,0:0:0:0:
256,83,195222,1,8,0:1:0:0:
284,94,195324,1,8,0:0:0:0:
313,94,195425,1,2,0:0:0:0:
341,81,195526,1,8,0:0:0:0:
361,60,195628,1,8,0:1:0:0:
264,227,195830,2,0,P|257:269|252:311,1,85,10|0,0:0|0:0,0:0:0:0:
252,311,196134,1,8,0:0:0:0:
252,311,196236,6,0,P|188:270|116:298,1,127.5,10|8,0:1|0:1,0:0:0:0:
127,300,196641,1,10,0:0:0:0:
23,133,196844,1,8,0:1:0:0:
26,154,196945,1,8,0:0:0:0:
30,176,197047,1,2,0:0:0:0:
33,197,197148,1,8,0:0:0:0:
37,219,197249,1,8,0:1:0:0:
217,173,197452,1,10,0:0:0:0:
182,358,197655,1,8,0:0:0:0:
180,371,197756,1,8,0:1:0:0:
178,384,197857,6,0,P|220:377|262:372,1,85,14|0,0:1|0:0,0:0:0:0:
283,358,198161,2,0,L|325:365,1,42.5,10|8,0:1|0:0,0:0:0:0:
382,170,198465,1,10,0:1:0:0:
382,170,198567,1,8,0:0:0:0:
382,170,198668,2,0,L|389:212,1,42.5,2|8,0:0|0:0,0:0:0:0:
405,311,198871,1,8,0:1:0:0:
267,132,199074,1,10,0:0:0:0:
489,174,199276,1,2,0:0:0:0:
489,174,199378,1,8,0:0:0:0:
489,174,199479,6,0,P|507:135|505:93,1,85,10|0,0:1|0:0,0:0:0:0:
486,76,199783,2,0,L|479:34,1,42.5,10|8,0:1|0:0,0:0:0:0:
229,210,200087,2,0,P|290:215|340:177,1,127.5,10|8,0:1|0:0,0:0:0:0:
358,195,200492,1,8,0:1:0:0:
262,55,200695,2,0,P|268:96|274:139,1,85,10|2,0:0|0:0,0:0:0:0:
274,139,200999,1,8,0:0:0:0:
274,139,201101,6,0,P|190:127|122:118,1,127.5,10|8,0:1|0:1,0:0:0:0:
132,100,201506,1,10,0:0:0:0:
23,275,201709,1,8,0:1:0:0:
43,254,201810,1,8,0:0:0:0:
71,241,201911,1,2,0:0:0:0:
100,241,202013,1,8,0:0:0:0:
128,252,202114,1,8,0:1:0:0:
0,149,202317,1,10,0:0:0:0:
91,329,202519,1,8,0:0:0:0:
244,176,202722,5,10,0:1:0:0:
244,176,202824,2,0,L|202:183,2,42.5,8|0|8,0:0|0:0|0:1,0:0:0:0:
90,93,203128,2,0,L|132:100,1,42.5,10|8,0:0|0:1,0:0:0:0:
140,336,203330,1,0,0:0:0:0:
140,336,203432,1,8,0:0:0:0:
140,336,203533,2,0,P|134:293|127:251,1,85,14|8,0:1|0:1,0:0:0:0:
275,95,203938,1,10,0:0:0:0:
312,113,204040,1,8,0:0:0:0:
334,147,204141,1,8,0:1:0:0:
336,187,204242,1,8,0:1:0:0:
319,224,204344,6,0,P|361:217|403:212,1,85,14|0,0:1|0:0,0:0:0:0:
423,200,204648,2,0,L|416:242,1,42.5,10|8,0:1|0:0,0:0:0:0:
244,176,204952,1,8,0:1:0:0:
244,176,205053,1,8,0:0:0:0:
244,176,205155,2,0,L|202:183,3,42.5,10|0|0|8,0:1|0:0|0:0|0:0,0:0:0:0:
187,290,205553,6,0,P|141:264|90:275,1,101.999996887207,14|0,0:1|0:0,0:0:0:0:
70,296,205876,2,0,P|84:327|78:364,1,50.9999984436036,10|8,0:1|0:0,0:0:0:0:
0,124,206200,1,8,0:1:0:0:
0,124,206300,1,8,0:0:0:0:
0,124,206400,2,0,P|31:138|68:132,1,50.9999984436036,10|0,0:1|0:0,0:0:0:0:
120,171,206600,2,0,P|147:151|160:116,1,50.9999984436036,8|8,0:0|0:0,0:0:0:0:
79,0,206789,6,0,P|85:33|89:60,2,59.4999981842042,10|8|8,0:0|0:0|0:1,0:0:0:0:
248,175,207089,2,0,P|252:145|257:116,2,59.4999981842042,10|8|8,0:1|0:1|0:1,0:0:0:0:
77,303,207389,1,10,0:1:0:0:
77,303,207489,1,8,0:1:0:0:
77,303,207589,6,0,P|141:262|213:290,1,127.5,14|8,0:1|0:1,0:0:0:0:
212,260,207994,1,10,0:0:0:0:
355,322,208197,1,8,0:1:0:0:
351,300,208298,1,8,0:0:0:0:
348,279,208399,1,2,0:0:0:0:
344,257,208501,1,8,0:0:0:0:
341,236,208602,1,8,0:1:0:0:
151,346,208805,2,0,P|193:351|235:358,1,85,10|0,0:0|0:0,0:0:0:0:
135,168,209210,6,0,P|71:209|-1:181,1,127.5,10|8,0:1|0:1,0:0:0:0:
0,211,209616,1,10,0:0:0:0:
236,243,209818,1,8,0:1:0:0:
236,243,209920,1,8,0:0:0:0:
236,243,210021,2,0,P|241:201|248:159,1,85,2|8,0:0|0:1,0:0:0:0:
50,42,210426,2,0,P|56:83|62:126,1,85,10|0,0:0|0:0,0:0:0:0:
303,96,210832,5,10,0:0:0:0:
284,79,210933,2,0,P|251:70|215:82,1,50.9999984436036,8|0,0:0|0:0,0:0:0:0:
414,144,211136,1,10,0:0:0:0:
424,120,211237,2,0,P|421:86|399:56,1,50.9999984436036,10|0,0:0|0:0,0:0:0:0:
402,264,211440,1,10,0:0:0:0:
428,266,211541,2,0,P|459:253|480:222,1,50.9999984436036,10|0,0:0|0:0,0:0:0:0:
284,289,211744,1,10,0:0:0:0:
290,314,211845,2,0,P|311:340|347:350,1,50.9999984436036,10|0,0:0|0:0,0:0:0:0:
223,184,212048,6,0,P|204:212|205:250,1,50.9999984436036,10|0,0:0|0:0,0:0:0:0:
350,176,212251,2,0,P|331:147|332:109,1,50.9999984436036,10|0,0:0|0:0,0:0:0:0:
479,127,212453,6,0,P|451:115|422:118,1,59.4999981842042,10|8,0:0|0:0,0:0:0:0:
296,304,212656,2,0,P|285:276|288:247,1,59.4999981842042,8|8,0:1|0:0,0:0:0:0:
405,29,212859,6,0,P|376:36|355:57,1,59.4999981842042,10|0,0:0|0:0,0:0:0:0:
201,228,213061,2,0,P|210:200|231:179,1,59.4999981842042,8|8,0:0|0:0,0:0:0:0:
285,0,213264,6,0,P|268:24|265:53,1,59.4999981842042,10|8,0:1|0:0,0:0:0:0:
176,106,213467,2,0,P|200:90|230:88,1,59.4999981842042,8|8,0:0|0:0,0:0:0:0:
350,176,213670,5,10,0:0:0:0:
342,228,213774,1,8,0:1:0:0:
334,280,213878,1,8,0:1:0:0:
326,332,213982,1,8,0:1:0:0:
318,384,214086,5,12,0:1:0:0:
225,361,215707,1,12,0:1:0:0:
132,338,216518,2,0,B|123:276|123:276|139:243|139:243|128:172,2,164.333338348389,8|8|8,0:0|0:0|0:0,0:0:0:0:
299,171,217329,5,12,0:1:0:0:
392,148,218950,1,12,0:1:0:0:
485,125,219761,2,0,B|476:185|476:185|491:218|491:218|481:287,2,158.666661824544,8|8|8,0:0|0:0|0:0,0:0:0:0:
335,38,220561,6,0,P|272:88|191:62,1,152.999995330811,10|8,0:0|0:0,0:0:0:0:
184,88,220967,2,0,L|197:168,1,50.9999984436036,8|0,0:0|0:0,0:0:0:0:
134,218,221170,2,0,L|147:298,1,50.9999984436036,8|0,0:0|0:0,0:0:0:0:
32,198,221372,1,8,0:1:0:0:
32,198,221474,2,0,P|56:148|35:87,1,101.999996887207,10|0,0:0|0:0,0:0:0:0:
1,14,221778,2,0,L|51:22,1,50.9999984436036,10|0,0:0|0:0,0:0:0:0:
184,88,221980,5,8,0:1:0:0:
184,88,222082,1,8,0:0:0:0:
184,88,222183,2,0,L|336:64,1,152.999995330811,10|8,0:0|0:0,0:0:0:0:
356,79,222589,2,0,P|347:112|359:148,1,50.9999984436036,8|8,0:1|0:0,0:0:0:0:
289,206,222791,2,0,P|313:230|350:237,1,50.9999984436036,8|0,0:0|0:0,0:0:0:0:
365,327,222994,1,8,0:1:0:0:
365,327,223095,2,0,P|415:303|476:324,1,101.999996887207,10|0,0:0|0:0,0:0:0:0:
512,231,223399,2,0,L|504:181,1,50.9999984436036,10|0,0:0|0:0,0:0:0:0:
474,332,223602,2,0,L|482:382,1,50.9999984436036,10|0,0:0|0:0,0:0:0:0:
272,318,223805,6,0,L|384:336,1,101.999996887207,10|8,0:0|0:1,0:0:0:0:
372,334,224109,1,8,0:0:0:0:
372,334,224210,2,0,L|364:284,1,50.9999984436036,10|0,0:1|0:0,0:0:0:0:
169,373,224413,2,0,L|161:323,1,50.9999984436036,10|0,0:0|0:0,0:0:0:0:
265,311,224616,1,8,0:1:0:0:
264,301,224717,1,10,0:0:0:0:
262,291,224818,2,0,L|254:241,1,50.9999984436036,8|8,0:0|0:1,0:0:0:0:
237,146,225021,2,0,L|287:154,1,50.9999984436036,10|0,0:0|0:0,0:0:0:0:
100,219,225224,5,8,0:1:0:0:
100,219,225325,1,10,0:0:0:0:
100,219,225426,2,0,L|92:169,1,50.9999984436036,12|8,0:1|0:0,0:0:0:0:
245,95,225629,2,0,L|237:145,1,50.9999984436036,2|8,0:0|0:1,0:0:0:0:
152,79,225832,5,8,0:0:0:0:
176,29,225933,1,8,0:1:0:0:
223,2,226034,1,8,0:1:0:0:
279,8,226136,1,8,0:1:0:0:
320,44,226237,5,8,0:1:0:0:
352,38,226338,1,0,0:0:0:0:
385,33,226440,1,8,0:1:0:0:
418,27,226541,1,0,0:0:0:0:
451,22,226643,2,0,L|427:174,1,152.999995330811,12|8,0:0|0:0,0:0:0:0:
408,195,227048,6,0,P|459:187|508:181,1,101.999996887207,14|0,0:1|0:0,0:0:0:0:
508,180,227352,1,8,0:1:0:0:
508,180,227453,1,10,0:0:0:0:
297,125,227656,2,0,P|272:174|282:225,1,101.999996887207,8|2,0:1|0:0,0:0:0:0:
402,76,228061,1,8,0:1:0:0:
512,311,228264,2,0,P|461:303|412:297,1,101.999996887207,10|8,0:0|0:1,0:0:0:0:
411,296,228568,1,8,0:0:0:0:
411,296,228670,6,0,P|341:340|275:319,1,152.999995330811,10|8,0:1|0:1,0:0:0:0:
261,340,229075,1,10,0:0:0:0:
147,272,229278,1,8,0:1:0:0:
147,272,229379,2,0,P|152:296|155:322,1,50.9999984436036,8|2,0:0|0:0,0:0:0:0:
336,251,229582,1,8,0:0:0:0:
336,251,229683,2,0,P|330:226|327:200,1,50.9999984436036,8|8,0:1|0:0,0:0:0:0:
119,93,229886,1,10,0:0:0:0:
140,128,229987,1,0,0:0:0:0:
175,148,230088,1,8,0:1:0:0:
216,147,230190,1,8,0:0:0:0:
251,127,230291,6,0,P|239:211|230:279,1,152.999995330811,10|8,0:1|0:1,0:0:0:0:
246,298,230697,1,10,0:0:0:0:
100,199,230899,1,8,0:1:0:0:
100,199,231001,2,0,P|135:188|173:200,2,50.9999984436036,8|2|8,0:0|0:0|0:0,0:0:0:0:
299,117,231305,2,0,P|264:128|226:116,1,50.9999984436036,8|0,0:1|0:0,0:0:0:0:
142,62,231507,1,10,0:0:0:0:
237,286,231710,1,0,0:0:0:0:
237,286,231811,1,8,0:0:0:0:
237,286,231913,6,0,P|307:242|373:263,1,152.999995330811,10|8,0:1|0:1,0:0:0:0:
387,242,232318,1,10,0:0:0:0:
310,384,232521,1,8,0:1:0:0:
310,384,232622,1,8,0:0:0:0:
310,384,232724,2,0,L|318:334,1,50.9999984436036,2|8,0:0|0:0,0:0:0:0:
149,234,232926,2,0,L|141:284,1,50.9999984436036,8|0,0:1|0:0,0:0:0:0:
370,260,233129,2,0,P|420:251|470:245,1,101.999996887207,14|0,0:0|0:0,0:0:0:0:
477,252,233433,1,8,0:0:0:0:
477,252,233534,6,0,P|452:301|462:352,1,101.999996887207,14|0,0:1|0:0,0:0:0:0:
280,151,233940,1,10,0:0:0:0:
153,237,234143,1,8,0:1:0:0:
153,237,234244,1,0,0:0:0:0:
153,237,234345,2,0,B|237:220|224:277|305:260,1,152.999995330811,2|0,0:0|0:0,0:0:0:0:
299,261,234751,2,0,P|290:311|284:361,1,101.999996887207,10|0,0:0|0:0,0:0:0:0:
241,77,235156,5,10,0:1:0:0:
241,77,235257,2,0,P|270:66|301:71,1,50.9999984436036,8|0,0:0|0:0,0:0:0:0:
369,43,235460,1,8,0:1:0:0:
369,43,235561,2,0,P|393:62|404:91,1,50.9999984436036,10|0,0:0|0:0,0:0:0:0:
429,180,235764,2,0,P|378:173|328:165,1,101.999996887207,8|2,0:1|0:0,0:0:0:0:
512,101,236170,1,8,0:1:0:0:
468,298,236372,2,0,P|417:291|367:283,1,101.999996887207,10|0,0:0|0:0,0:0:0:0:
367,283,236676,1,8,0:0:0:0:
367,283,236778,6,0,P|318:308|267:298,1,101.999996887207,14|0,0:1|0:0,0:0:0:0:
259,273,237082,1,10,0:1:0:0:
259,273,237183,1,8,0:0:0:0:
85,374,237386,2,0,P|134:349|185:359,1,101.999996887207,10|8,0:0|0:1,0:0:0:0:
193,384,237690,1,10,0:0:0:0:
193,384,237791,1,8,0:1:0:0:
46,215,237994,2,0,P|41:240|39:265,1,50.9999984436036,10|0,0:0|0:0,0:0:0:0:
226,155,238197,5,8,0:1:0:0:
226,155,238298,1,8,0:0:0:0:
226,155,238399,2,0,P|228:129|232:104,1,50.9999984436036,10|0,0:1|0:0,0:0:0:0:
123,64,238602,1,8,0:1:0:0:
128,89,238700,1,10,0:0:0:0:
133,114,238799,1,8,0:0:0:0:
329,94,238996,1,10,0:1:0:0:
324,69,239095,1,8,0:0:0:0:
319,44,239194,1,8,0:0:0:0:
498,164,239395,5,8,0:0:0:0:
467,146,239496,1,8,0:0:0:0:
434,143,239596,1,8,0:0:0:0:
403,155,239697,1,8,0:0:0:0:
379,178,239798,1,8,0:0:0:0:
346,191,239898,1,8,0:0:0:0:
313,189,239999,6,0,P|325:273|334:341,1,152.999995330811,14|8,0:1|0:1,0:0:0:0:
354,363,240426,1,10,0:0:0:0:
18,166,240628,2,0,P|-7:215|3:266,1,101.999996887207,12|2,0:1|0:0,0:0:0:0:
165,116,241034,1,8,0:1:0:0:
259,384,241236,2,0,P|208:377|158:369,1,101.999996887207,10|0,0:0|0:0,0:0:0:0:
93,227,241642,5,10,0:1:0:0:
93,227,241743,2,0,P|98:252|100:277,2,50.9999984436036,8|0|8,0:0|0:0|0:1,0:0:0:0:
173,65,242047,2,0,P|168:89|165:115,1,50.9999984436036,10|0,0:0|0:0,0:0:0:0:
238,197,242250,5,8,0:1:0:0:
269,179,242351,1,12,0:0:0:0:
302,176,242452,1,2,0:0:0:0:
333,188,242554,1,8,0:0:0:0:
357,211,242655,1,8,0:1:0:0:
390,224,242756,1,0,0:0:0:0:
423,222,242858,2,0,P|429:171|437:121,1,101.999996887207,10|0,0:0|0:0,0:0:0:0:
512,381,243263,6,0,P|442:337|376:358,1,152.999995330811,14|8,0:1|0:1,0:0:0:0:
362,337,243669,1,10,0:0:0:0:
485,112,243871,1,12,0:1:0:0:
485,112,243973,2,0,P|459:111|436:121,2,50.9999984436036,8|2|8,0:0|0:0|0:0,0:0:0:0:
328,83,244277,2,0,P|315:104|311:129,1,50.9999984436036,8|0,0:1|0:0,0:0:0:0:
466,300,244479,2,0,P|471:249|480:198,1,101.999996887207,10|0,0:0|0:0,0:0:0:0:
362,337,244885,5,14,0:1:0:0:
329,312,244986,1,8,0:0:0:0:
290,305,245087,1,8,0:1:0:0:
251,312,245189,1,8,0:0:0:0:
220,333,245290,1,8,0:0:0:0:
192,362,245392,1,8,0:0:0:0:
157,379,245493,1,8,0:0:0:0:
118,382,245594,1,8,0:0:0:0:
80,370,245696,5,8,0:1:0:0:
87,331,245797,1,8,0:1:0:0:
93,292,245898,1,8,0:1:0:0:
100,252,246000,1,8,0:1:0:0:
122,226,246101,5,8,0:1:0:0:
122,226,246202,1,8,0:1:0:0:
122,226,246304,1,8,0:1:0:0:
122,226,246405,1,8,0:1:0:0:
122,226,246506,6,0,P|71:232|21:241,1,101.999996887207,14|0,0:0|0:0,0:0:0:0:
296,19,246912,2,0,P|346:25|396:34,1,101.999996887207,10|8,0:0|0:1,0:0:0:0:
68,100,247317,6,0,P|61:49|52:0,1,101.999996887207,14|0,0:0|0:0,0:0:0:0:
320,237,247723,2,0,P|310:287|304:337,1,101.999996887207,10|8,0:0|0:1,0:0:0:0:
512,9,248128,6,0,P|442:53|376:32,1,152.999995330811,14|8,0:0|0:1,0:0:0:0:
357,56,248533,2,0,P|382:105|372:156,1,101.999996887207,10|8,0:0|0:1,0:0:0:0:
115,111,248939,6,0,P|64:101|14:96,1,101.999996887207,14|0,0:0|0:0,0:0:0:0:
343,293,249344,2,0,P|393:283|443:278,1,101.999996887207,10|8,0:0|0:1,0:0:0:0:
154,350,249750,6,0,P|158:325|162:300,1,50.9999984436036,14|0,0:0|0:0,0:0:0:0:
298,157,249952,1,8,0:0:0:0:
298,157,250054,1,10,0:1:0:0:
298,157,250155,1,8,0:0:0:0:
298,157,250256,1,8,0:1:0:0:
298,157,250358,2,0,P|294:132|290:107,1,50.9999984436036,10|0,0:0|0:0,0:0:0:0:
99,158,250560,5,8,0:1:0:0:
99,158,250662,2,0,P|124:162|149:166,1,50.9999984436036,10|0,0:0|0:0,0:0:0:0:
348,303,250864,1,8,0:1:0:0:
348,303,250966,2,0,P|398:293|448:288,1,101.999996887207,14|8,0:0|0:1,0:0:0:0:
448,287,251270,1,8,0:0:0:0:
448,287,251371,6,0,P|444:312|440:337,1,50.9999984436036,14|0,0:1|0:0,0:0:0:0:
503,118,251574,1,8,0:0:0:0:
482,153,251675,1,10,0:1:0:0:
447,173,251777,1,8,0:0:0:0:
406,172,251878,1,8,0:1:0:0:
371,152,251979,2,0,P|367:127|363:102,1,50.9999984436036,10|0,0:0|0:0,0:0:0:0:
217,324,252182,1,8,0:1:0:0:
238,289,252283,1,10,0:0:0:0:
273,269,252385,1,8,0:1:0:0:
314,270,252486,1,8,0:1:0:0:
349,290,252587,5,10,0:0:0:0:
395,227,252689,1,2,0:0:0:0:
371,152,252790,1,10,0:1:0:0:
34,42,253419,6,0,P|77:61|124:50,1,76.4999976654053,14|0,0:1|0:0,0:0:0:0:
174,109,253723,1,10,0:1:0:0:
174,109,253824,2,0,P|211:81|225:35,1,76.4999976654053,8|10,0:0|0:1,0:0:0:0:
55,204,254229,2,0,P|52:184|50:166,2,38.2499988327027,0|10|8,0:0|0:0|0:1,0:0:0:0:
189,199,254635,2,0,P|184:236|180:274,1,76.4999976654053,10|0,0:0|0:0,0:0:0:0:
179,274,254928,1,0,0:0:0:0:
179,274,255019,6,0,P|232:243|290:256,1,114.749996498108,10|10,0:1|0:1,0:0:0:0:
297,273,255424,1,8,0:0:0:0:
383,90,255636,1,10,0:1:0:0:
363,111,255737,1,8,0:0:0:0:
335,124,255838,1,0,0:0:0:0:
306,124,255940,1,8,0:0:0:0:
278,113,256041,1,8,0:1:0:0:
364,221,256244,2,0,P|383:264|372:311,1,76.4999976654053,10|0,0:0|0:0,0:0:0:0:
387,299,256548,1,0,0:0:0:0:
387,299,256649,6,0,P|424:294|462:290,1,76.4999976654053,10|0,0:1|0:0,0:0:0:0:
485,304,256953,2,0,P|487:284|489:266,1,38.2499988327027,10|8,0:1|0:0,0:0:0:0:
287,348,257257,1,10,0:1:0:0:
287,348,257358,1,8,0:0:0:0:
287,348,257454,2,0,P|290:309|296:272,1,76.4999976654053,0|8,0:0|0:1,0:0:0:0:
313,142,257854,2,0,P|274:145|237:151,1,76.4999976654053,10|0,0:0|0:0,0:0:0:0:
405,74,258254,6,0,P|435:127|422:185,1,114.749996498108,10|10,0:1|0:1,0:0:0:0:
406,192,258659,1,8,0:0:0:0:
237,151,258862,1,10,0:1:0:0:
242,125,258963,1,0,0:0:0:0:
245,102,259064,1,8,0:1:0:0:
250,77,259166,1,2,0:0:0:0:
253,53,259267,1,12,0:1:0:0:
460,286,259470,2,0,P|421:289|384:295,1,76.4999976654053,10|0,0:0|0:0,0:0:0:0:
322,253,259782,1,8,0:0:0:0:
322,253,259892,6,0,P|268:283|210:270,1,114.749996498108,14|10,0:1|0:1,0:0:0:0:
204,254,260297,1,8,0:0:0:0:
55,384,260500,1,10,0:1:0:0:
75,363,260601,1,8,0:0:0:0:
103,350,260702,1,0,0:0:0:0:
132,350,260804,1,10,0:0:0:0:
160,361,260905,1,8,0:1:0:0:
112,168,261108,2,0,P|93:211|104:258,1,76.4999976654053,10|0,0:0|0:0,0:0:0:0:
95,239,261412,1,8,0:0:0:0:
95,239,261513,6,0,P|88:182|80:125,1,114.749996498108,10|10,0:1|0:1,0:0:0:0:
60,106,261919,1,8,0:0:0:0:
233,2,262121,1,10,0:1:0:0:
256,20,262223,1,8,0:0:0:0:
271,46,262324,1,0,0:0:0:0:
274,75,262425,1,10,0:0:0:0:
266,104,262527,1,8,0:1:0:0:
14,0,262729,2,0,P|53:3|90:9,1,76.4999976654053,10|0,0:0|0:0,0:0:0:0:
136,76,263033,1,8,0:0:0:0:
136,76,263135,6,0,L|178:70,3,42.5,10|8|0|10,0:1|0:0|0:0|0:1,0:0:0:0:
308,110,263540,2,0,L|266:104,3,42.5,8|0|10|0,0:0|0:0|0:1|0:0,0:0:0:0:
150,168,263946,2,0,L|192:162,3,42.5,0|10|8|0,0:0|0:0|0:1|0:0,0:0:0:0:
279,195,264351,1,10,0:0:0:0:
314,217,264452,1,0,0:0:0:0:
332,252,264554,1,8,0:1:0:0:
330,293,264655,1,8,0:0:0:0:
309,328,264756,6,0,L|256:320,1,50.9999984436036,10|8,0:1|0:0,0:0:0:0:
35,287,264959,2,0,L|27:236,1,50.9999984436036,8|10,0:1|0:0,0:0:0:0:
387,117,265162,6,0,L|334:109,1,50.9999984436036,8|0,0:0|0:0,0:0:0:0:
113,76,265364,2,0,L|105:25,1,50.9999984436036,10|8,0:0|0:0,0:0:0:0:
202,138,265567,5,10,0:1:0:0:
205,166,265669,1,8,0:0:0:0:
210,195,265770,1,8,0:0:0:0:
215,224,265871,1,8,0:0:0:0:
220,254,265973,5,10,0:0:0:0:
232,176,266074,1,10,0:0:0:0:
244,99,266175,1,10,0:0:0:0:
257,22,266277,2,0,P|232:26|207:30,1,50.9999984436036,10|0,0:0|0:0,0:0:0:0:
