osu file format v14

[General]
AudioFilename: audio.mp3
AudioLeadIn: 0
PreviewTime: 72871
Countdown: 1
SampleSet: Soft
StackLeniency: 0.7
Mode: 0
LetterboxInBreaks: 0
WidescreenStoryboard: 0

[Editor]
Bookmarks: 35604,60293,111256,135945
DistanceSpacing: 1.2
BeatDivisor: 8
GridSize: 8
TimelineZoom: 2.899999

[Metadata]
Title:Ikenai Borderline
TitleUnicode:いけないボーダーライン
Artist:WALKUERE
ArtistUnicode:ワルキューレ
Creator:blissfulyoshi
Version:Uncrossable Borderline
Source:マクロスΔ
Tags:Macross Delta walkure Freyja Wion Mikumo Guynemer Kaname Buccaneer Makina Nakajima Reina Prowler Minori Suzuki Koshimizu Ami Nishida Nozomi Toyama Nao Yasuno Kiyono JUNNA
BeatmapID:986359
BeatmapSetID:460569

[Difficulty]
HPDrainRate:0.5
CircleSize:5
OverallDifficulty:8
ApproachRate:9.5
SliderMultiplier:1.9
SliderTickRate:2

[Events]
//Background and Video events
0,0,"test.jpg",0,0
//Break Periods
//Storyboard Layer 0 (Background)
//Storyboard Layer 1 (Fail)
//Storyboard Layer 2 (Pass)
//Storyboard Layer 3 (Foreground)
//Storyboard Sound Samples

[TimingPoints]
573,372.670807453416,4,2,2,20,1,0
2063,-80,4,2,2,23,0,0
3554,-66.6666666666667,4,2,2,26,0,0
5045,-57.1428571428571,4,2,2,29,0,0
6535,-50,4,2,2,32,0,0
8026,-44.4444444444444,4,2,2,35,0,0
9517,-36.3636363636364,4,2,2,38,0,0
11007,-33.3333333333333,4,2,2,41,0,0
11939,-30,4,2,1,44,0,0
12125,-27.2727272727273,4,2,1,47,0,0
12312,-25,4,2,1,70,0,0
73616,-22.2944882309,4,2,1,100,0,1
85541,-19.8817682192,4,2,1,70,0,1
98958,-19.8817682192,4,2,1,70,0,0
149268,-17.7301539029,4,2,1,100,0,1
161194,-15.8113883008,4,2,1,70,0,1
173119,-15.8113883008,4,2,1,70,0,0
189517,-15.38,4,2,1,70,0,0
191007,-14.7,4,2,1,70,0,0
195479,-14.1002724155,4,2,1,100,0,1
207405,-12.5743342968,4,2,1,70,0,1
218958,-12.5743342968,4,2,1,70,0,0
221939,-11.2135339197,4,2,1,100,0,1
233864,-10,4,2,1,70,0,1
245790,-10,4,2,1,70,0,0

[Colours]
Combo1 : 173,255,119
Combo2 : 201,172,255
Combo3 : 255,15,63
Combo4 : 255,172,136
Combo5 : 255,105,205

[HitObjects]
32,24,573,6,0,L|-8:96,1,47.5,2|0,0:0|0:0,0:0:0:0:
56,72,759,2,0,L|32:120,1,47.5,2|0,0:0|0:0,0:0:0:0:
80,120,945,2,0,L|56:168,1,47.5,2|0,0:0|0:0,0:0:0:0:
104,168,1132,2,0,L|80:216,1,47.5,2|0,0:0|0:0,0:0:0:0:
152,168,1318,2,0,L|173:210,1,47.5,2|0,0:0|0:0,0:0:0:0:
176,120,1504,2,0,L|200:168,1,47.5,2|0,0:0|0:0,0:0:0:0:
200,72,1691,2,0,L|224:120,1,47.5,2|0,0:0|0:0,0:0:0:0:
216,24,1877,2,0,L|256:96,1,47.5,2|0,0:0|0:0,0:0:0:0:
152,24,2063,6,0,L|121:88,1,59.375,2|0,0:0|0:0,0:0:0:0:
200,72,2250,2,0,L|240:160,1,59.375,2|0,0:0|0:0,0:0:0:0:
261,179,2436,2,0,L|230:243,1,59.375,2|0,0:0|0:0,0:0:0:0:
296,248,2622,2,0,L|328:320,1,59.375,2|0,0:0|0:0,0:0:0:0:
384,296,2809,2,0,L|400:224,1,59.375,2|0,0:0|0:0,0:0:0:0:
448,200,2995,2,0,L|479:264,1,59.375,2|0,0:0|0:0,0:0:0:0:
440,136,3181,2,0,L|480:72,1,59.375,2|0,0:0|0:0,0:0:0:0:
464,24,3368,2,0,L|392:48,1,59.375,2|0,0:0|0:0,0:0:0:0:
336,56,3554,6,0,L|384:112,1,71.2500027179719,2|0,0:0|0:0,0:0:0:0:
312,136,3740,2,0,L|360:192,1,71.2500027179719,2|0,0:0|0:0,0:0:0:0:
261,179,3927,2,0,L|213:235,1,71.2500027179719,2|0,0:0|0:0,0:0:0:0:
280,264,4113,2,0,L|232:320,1,71.2500027179719,2|0,0:0|0:0,0:0:0:0:
168,336,4299,2,0,L|104:240,1,71.2500027179719,2|0,0:0|0:0,0:0:0:0:
88,336,4486,2,0,L|24:240,1,71.2500027179719,2|0,0:0|0:0,0:0:0:0:
8,216,4672,2,0,L|96:160,1,71.2500027179719,2|0,0:0|0:0,0:0:0:0:
8,136,4858,2,0,L|96:80,1,71.2500027179719,2|0,0:0|0:0,0:0:0:0:
136,48,5045,6,0,L|240:48,1,83.1250007927418,2|0,0:0|0:0,0:0:0:0:
272,112,5231,2,0,L|144:112,1,83.1250007927418,2|0,0:0|0:0,0:0:0:0:
136,176,5417,2,0,L|240:176,1,83.1250007927418,2|0,0:0|0:0,0:0:0:0:
272,240,5604,2,0,L|152:240,1,83.1250007927418,2|0,0:0|0:0,0:0:0:0:
224,304,5790,2,0,L|336:304,1,83.1250007927418,2|0,0:0|0:0,0:0:0:0:
336,224,5976,2,0,L|440:224,1,83.1250007927418,2|0,0:0|0:0,0:0:0:0:
464,152,6163,2,0,L|368:152,1,83.1250007927418,2|0,0:0|0:0,0:0:0:0:
344,80,6349,2,0,L|440:80,1,83.1250007927418,2|0,0:0|0:0,0:0:0:0:
360,8,6535,6,0,L|256:-8,1,95,2|0,0:0|0:0,0:0:0:0:
272,88,6722,2,0,L|168:104,1,95,2|0,0:0|0:0,0:0:0:0:
232,184,6908,2,0,L|128:288,1,95,2|0,0:0|0:0,0:0:0:0:
256,272,7094,2,0,L|232:368,1,95,2|0,0:0|0:0,0:0:0:0:
368,272,7281,2,0,L|392:368,1,95,2|0,0:0|0:0,0:0:0:0:
392,184,7467,2,0,L|496:288,1,95,2|0,0:0|0:0,0:0:0:0:
352,88,7653,2,0,L|456:104,1,95,2|0,0:0|0:0,0:0:0:0:
272,16,7840,2,0,L|376:0,1,95,2|0,0:0|0:0,0:0:0:0:
208,16,8026,6,0,L|144:136,1,106.875004076958,2|0,0:0|0:0,0:0:0:0:
40,16,8212,2,0,L|104:136,1,106.875004076958,2|0,0:0|0:0,0:0:0:0:
208,16,8399,2,0,L|272:136,1,106.875004076958,2|0,0:0|0:0,0:0:0:0:
376,16,8585,2,0,L|312:136,1,106.875004076958,2|0,0:0|0:0,0:0:0:0:
280,200,8771,2,0,L|216:320,1,106.875004076958,2|0,0:0|0:0,0:0:0:0:
112,200,8957,2,0,L|176:320,1,106.875004076958,2|0,0:0|0:0,0:0:0:0:
280,200,9144,2,0,L|344:320,1,106.875004076958,2|0,0:0|0:0,0:0:0:0:
448,200,9330,2,0,L|384:320,1,106.875004076958,2|0,0:0|0:0,0:0:0:0:
488,136,9517,6,0,B|448:85|448:85|408:136,1,130.625001245737,2|0,0:0|0:0,0:0:0:0:
264,136,9703,2,0,B|304:85|304:85|344:136,1,130.625001245737,2|0,0:0|0:0,0:0:0:0:
224,200,9889,2,0,B|184:251|184:251|144:200,1,130.625001245737,2|0,0:0|0:0,0:0:0:0:
0,200,10075,2,0,B|40:251|40:251|80:200,1,130.625001245737,2|0,0:0|0:0,0:0:0:0:
128,88,10262,2,0,B|179:48|179:48|128:8,1,130.625001245737,2|0,0:0|0:0,0:0:0:0:
304,8,10448,2,0,B|253:48|253:48|304:88,1,130.625001245737,2|0,0:0|0:0,0:0:0:0:
304,208,10635,2,0,B|355:248|355:248|304:288,1,130.625001245737,2|0,0:0|0:0,0:0:0:0:
488,288,10821,2,0,B|437:248|437:248|488:208,1,130.625001245737,2|0,0:0|0:0,0:0:0:0:
488,120,11007,6,0,B|488:48|488:48|416:48,1,142.500005435944,2|0,0:0|0:0,0:0:0:0:
256,48,11194,2,0,B|185:48|185:48|185:120,1,142.500005435944,2|0,0:0|0:0,0:0:0:0:
185,288,11380,2,0,B|185:360|185:360|257:360,1,142.500005435944,2|0,0:0|0:0,0:0:0:0:
417,360,11567,2,0,B|487:360|487:360|487:288,1,142.500005435944,2|0,0:0|0:0,0:0:0:0:
336,304,11753,2,0,B|336:232|336:232|264:232,1,142.500005435944,2|0,0:0|0:0,0:0:0:0:
48,232,11939,6,0,P|21:167|32:73,1,158.333333333333,0|0,0:0|0:0,0:0:0:0:
152,40,12125,2,0,P|92:96|92:184,1,174.166662237379,8|0,0:0|0:0,0:0:0:0:
211,176,12312,2,0,P|149:124|218:108,1,190
304,152,12498,2,0,B|360:248|278:367|181:375|143:297|150:237|199:200|285:195|326:283|264:416|96:376,1,570,8|0,0:0|0:0,0:0:0:0:
304,376,12871,2,0,B|411:405|505:295|488:199|403:182|346:205|324:261|341:346|437:363|548:269|466:117,1,570,12|0,0:0|0:0,0:0:0:0:
352,16,13243,1,8,0:0:0:0:
80,88,13430,6,0,P|56:162|121:243,1,190
264,224,13616,2,0,P|288:152|223:69,1,190,8|0,0:0|0:0,0:0:0:0:
16,64,13802,2,0,P|-12:154|28:255,1,190
304,281,13989,2,0,B|346:242|354:192|354:192|416:24|504:96|504:200|432:248|360:144|352:104|335:78|335:78|292:12|234:7,1,570,8|0,0:0|0:0,0:0:0:0:
112,40,14361,2,0,B|80:80|64:104|48:136|40:160|96:240|176:312|208:232|224:160|208:104|160:80|112:128|56:168|40:192|56:232|112:304|152:304|224:240,1,570,12|0,0:0|0:0,0:0:0:0:
256,360,14734,1,8,0:0:0:0:
464,336,14920,6,0,P|480:256|440:112,1,190
384,0,15107,2,0,P|368:80|408:224,1,190,8|0,0:0|0:0,0:0:0:0:
320,360,15293,2,0,P|336:280|296:136,1,190
256,24,15479,2,0,B|200:152|200:152|128:24|128:24|56:152|56:152|0:24,1,570,8|0,0:0|0:0,0:0:0:0:
0,208,15852,2,0,B|56:336|56:336|128:208|128:208|200:336|200:336|256:208,1,570,12|0,0:0|0:0,0:0:0:0:
328,72,16225,6,0,P|400:20|472:72,1,190,8|0,0:0|0:0,0:0:0:0:
472,192,16411,2,0,P|400:244|328:192,1,190
248,72,16597,2,0,P|176:20|104:72,1,190,10|0,0:0|0:0,0:0:0:0:
55,190,16784,2,0,B|39:262|39:350|143:358|223:334|215:270|247:318|295:270|303:182|255:142|199:174|191:198|191:198|183:174|127:142|79:182|87:270|135:318|167:270|159:334|239:358|343:350|343:262|327:190,1,950
400,88,17343,2,0,B|360:80|368:16|408:-8|472:0|536:32|520:176|408:200|408:200|520:376,1,570,12|0,0:0|0:0,0:0:0:0:
368,376,17715,1,8,0:0:0:0:
144,368,17902,6,0,P|48:320|16:216,1,190
16,135,18088,2,0,P|58:52|144:16,1,190,10|0,0:0|0:0,0:0:0:0:
120,120,18274,2,0,P|172:192|120:264,1,190
184,300,18461,2,0,B|224:264|232:224|232:224|272:304|384:280|416:192|384:104|272:80|232:160|232:160|224:120|184:84,1,570,8|0,0:0|0:0,0:0:0:0:
408,104,18833,2,0,P|440:192|408:280,1,190,12|0,0:0|0:0,0:0:0:0:
296,192,19020,1,0,0:0:0:0:
255,375,19206,2,0,B|288:331|288:331|352:336|408:280,1,190,8|0,0:0|0:0,0:0:0:0:
408,104,19392,2,0,B|352:48|288:53|288:53|255:9,1,190
296,192,19579,1,8,0:0:0:0:
16,192,19765,6,0,L|216:192,1,190
296,192,19951,1,8,0:0:0:0:
88,88,20138,2,0,L|280:128,1,190
486,192,20324,2,0,L|286:192,1,190,12|0,0:0|0:0,0:0:0:0:
88,296,20510,2,0,L|280:256,1,190
472,120,20697,6,0,B|384:120|384:120|400:88|456:40|456:40|384:16|328:96|328:96|312:72|288:48|256:56|200:56|176:88|192:112|264:216|160:240|104:272|64:288|24:288|-24:256|-18:192|-24:128|24:96|64:96|104:112|160:144|264:168|192:272|176:296|200:328|256:328|288:336|312:312|328:288|328:288|384:368|456:344|456:344|400:296|384:264|384:264|472:264,2,1520,8|8|8,0:0|0:0|0:0,0:0:0:0:
512,192,22373,5,0,0:0:0:0:
264,192,22560,1,8,0:0:0:0:
56,24,22746,2,0,B|16:80|16:80|85:60|157:108,1,190
274,118,22933,2,0,B|240:176|240:176|265:192|265:192|240:208|240:208|272:263,1,190,8|0,0:0|0:0,0:0:0:0:
133,289,23119,2,0,B|81:321|16:304|16:304|56:360,1,190,8|0,0:0|0:0,0:0:0:0:
224,352,23305,1,8,0:0:0:0:
496,192,23492,1,8,0:0:0:0:
224,40,23678,1,8,0:0:0:0:
496,192,23864,6,0,P|480:296|392:368,1,190
288,288,24051,2,0,P|304:184|392:112,1,190,8|0,0:0|0:0,0:0:0:0:
392,240,24237,2,0,L|184:160,1,190,8|0,0:0|0:0,0:0:0:0:
9,32,24423,2,0,B|152:278|152:278|297:32,1,570,8|0,0:0|0:0,0:0:0:0:
215,32,24796,2,0,B|360:278|360:278|503:32,1,570,12|0,0:0|0:0,0:0:0:0:
360,32,25169,1,8,0:0:0:0:
496,192,25355,6,0,L|398:364,1,190
305,321,25541,2,0,B|256:238|256:238|208:320,1,190,8|0,0:0|0:0,0:0:0:0:
110,357,25728,2,0,L|16:192,1,190
8,24,25914,2,0,B|280:24|280:24|304:24|376:40|368:112|336:152|328:176|256:160|232:136|224:88|276:63|297:80|296:106,1,570,8|0,0:0|0:0,0:0:0:0:
432,208,26287,2,0,B|160:208|160:208|136:208|64:192|72:120|104:80|112:56|184:72|208:96|216:144|164:169|143:152|144:126,1,570,12|0,0:0|0:0,0:0:0:0:
8,96,26659,1,8,0:0:0:0:
8,360,26846,6,0,B|48:288|48:288|104:336|166:271,1,190
200,184,27032,2,0,B|256:107|256:107|312:184,1,190,8|0,0:0|0:0,0:0:0:0:
366,289,27218,2,0,B|408:336|464:288|464:288|504:360,1,190
432,216,27405,2,0,B|384:112|368:96|344:48|360:16|384:0|432:-4|488:0|520:64|488:144|392:184|288:112|288:8,1,570,8|0,0:0|0:0,0:0:0:0:
223,9,27777,2,4,B|224:112|120:184|24:144|-8:64|24:0|79:-4|128:0|152:16|168:48|144:96|128:112|80:216,1,570,12|0,0:0|0:0,0:0:0:0:
96,344,28150,6,0,L|184:160,1,190,8|0,0:0|0:0,0:0:0:0:
334,172,28336,2,0,L|416:344,1,190
256,296,28523,1,8,0:0:0:0:
152,224,28709,2,0,B|179:169|179:169|192:144|328:40|208:8|136:0|96:64|128:136|176:192|232:176|256:224|256:224|280:176|336:192|384:136|416:64|376:0|304:8|184:40|320:144|333:169|333:169|360:224,1,950
383,286,29268,2,0,B|303:386|303:386|223:286|223:286|287:286|287:286|207:386|207:386|127:286,1,570,12|0,0:0|0:0,0:0:0:0:
256,192,29641,1,8,0:0:0:0:
32,32,29827,6,0,L|224:32,1,190
160,128,30013,2,0,L|352:128,1,190,10|0,0:0|0:0,0:0:0:0:
290,32,30200,2,0,L|480:32,1,190
432,128,30386,2,0,B|376:192|376:192|472:192|488:288|448:344|336:344|328:240|328:240|192:368,1,570,8|0,0:0|0:0,0:0:0:0:
306,355,30759,2,0,B|184:240|184:240|176:344|64:344|24:288|40:192|136:192|136:192|80:128,1,570,12|0,0:0|0:0,0:0:0:0:
64,0,31132,2,0,L|208:160,1,190,8|0,0:0|0:0,0:0:0:0:
320,141,31318,2,0,L|448:0,1,190
256,8,31504,1,8,0:0:0:0:
128,168,31691,6,0,B|255:306|255:306|390:167,1,380,0|8,0:0|0:0,0:0:0:0:
484,212,32063,2,0,P|404:251|421:339,1,190
324,333,32250,2,0,B|304:397|256:397|208:397|188:333,1,190,8|0,0:0|0:0,0:0:0:0:
91,339,32436,2,0,P|105:248|25:213,1,190
40,285,32622,2,0,B|160:213|168:149|224:181|248:133|232:93|240:53|176:45|152:77|152:77|128:45|56:53|56:93|72:213|96:165|192:125|200:333|240:253|256:323|256:323|272:253|312:333|320:125|416:165|440:213|456:93|456:53|384:45|360:77|360:77|336:45|272:53|280:93|264:133|288:181|344:149|352:213|472:285,2,1520,8|8|8,0:0|0:0|0:0,0:0:0:0:
152,0,34299,5,0,0:0:0:0:
360,0,34486,1,8,0:0:0:0:
256,208,34672,1,0,0:0:0:0:
128,320,34858,5,8,0:0:0:0:
376,120,35045,1,8,0:0:0:0:
136,120,35231,1,8,0:0:0:0:
384,320,35417,1,4,0:0:0:0:
512,248,35790,6,0,P|504:232|336:136,1,190
256,168,35976,2,0,P|332:254|412:246,1,190,8|0,0:0|0:0,0:0:0:0:
474,108,36163,2,0,P|398:22|318:30,1,190
64,24,36349,2,0,B|56:24|40:56|0:80|0:80|40:96|48:136|128:160|208:136|216:96|256:80|256:80|216:56|200:16|128:16|128:16|128:88,1,570,12|0,0:0|0:0,0:0:0:0:
128,200,36722,2,0,B|80:168|16:224|40:384|128:296|160:382|160:382|192:296|280:384|304:224|240:168|192:200,1,570,10|0,0:0|0:0,0:0:0:0:
288,360,37094,6,0,P|324:300|288:159,1,190,8|0,0:0|0:0,0:0:0:0:
432,128,37281,2,0,P|396:188|429:330,1,190
464,368,37467,2,0,P|500:308|467:166,1,190,8|0,0:0|0:0,0:0:0:0:
432,128,37653,2,0,P|375:71|279:22,1,190
152,8,37840,2,0,B|40:40|16:96|-128:240|168:216|56:312|160:384|272:336|352:264|272:192|272:192|352:120|272:48|160:0|56:72|168:168|-128:144|16:288|40:344|152:376,1,1330,12|0,0:0|0:0,0:0:0:0:
208,192,38585,1,8,0:0:0:0:
328,368,38771,6,0,L|512:288,1,190
502,227,38958,2,0,L|327:151,1,190,8|0,0:0|0:0,0:0:0:0:
328,224,39144,2,0,L|512:144,1,190
504,80,39330,2,0,B|329:4|329:4|280:-16|216:-16|141:70|232:112|234:77|198:28|160:8|136:8|68:43|40:88|81:159,1,570,12|0,0:0|0:0,0:0:0:0:
144,112,39703,2,0,B|216:264|168:368|67:364|24:312|16:216|112:200|152:224|224:352|344:296,1,570,10|0,0:0|0:0,0:0:0:0:
440,264,40076,6,0,P|464:200|384:96,1,190,8|0,0:0|0:0,0:0:0:0:
280,80,40262,2,0,P|256:144|336:248,1,190
370,163,40448,2,0,P|468:130|424:38,1,190,8|0,0:0|0:0,0:0:0:0:
280,80,40635,2,0,P|192:16|155:112,1,190
128,136,40821,2,0,B|120:232|64:296|64:296|176:312|104:392|176:408|280:424|328:352|280:296|280:296|328:240|288:168|176:184|104:200|176:280|64:296|64:296|31:329|-16:352,1,950,12|0,0:0|0:0,0:0:0:0:
0,184,41380,1,0,0:0:0:0:
256,24,41566,1,8,0:0:0:0:
400,256,41752,6,0,L|472:80,1,190
392,56,41939,2,0,B|352:152|352:152|288:96,1,190,8|0,0:0|0:0,0:0:0:0:
200,96,42125,2,0,B|136:152|136:152|96:56,1,190
0,192,42312,2,0,B|96:356|96:356|192:192,1,380,12|0,0:0|0:0,0:0:0:0:
480,192,42684,2,0,B|384:356|384:356|288:192,1,380,8|0,0:0|0:0,0:0:0:0:
88,32,43057,6,0,P|208:64|258:140,1,190,8|0,0:0|0:0,0:0:0:0:
328,32,43243,2,0,P|208:64|158:140,1,190
168,208,43430,2,0,P|234:273|326:287,1,190,8|0,0:0|0:0,0:0:0:0:
248,208,43616,2,0,P|181:273|89:287,1,190
208,344,43802,2,0,B|296:376|400:368|488:336|512:288|485:185|384:120|328:184|320:296|392:336|472:264|496:184,1,570,12|0,0:0|0:0,0:0:0:0:
480,0,44175,2,0,L|368:160,1,190,8|0,0:0|0:0,0:0:0:0:
308,155,44361,2,0,L|200:0,1,190
8,0,44548,2,0,L|120:160,1,190,8|0,0:0|0:0,0:0:0:0:
179,155,44734,2,0,L|287:0,1,190
336,64,44920,6,0,L|144:64,1,190,8|0,0:0|0:0,0:0:0:0:
112,8,45107,2,0,L|3:163,1,190
116,155,45293,2,0,B|168:264|176:280|128:368|112:336|72:376|72:376|40:344|8:384|-72:288|-32:224|24:200|64:232|64:232|88:200|128:216|144:216|152:224|160:256|144:280|160:304|224:232|248:224|256:224|256:224|264:224|288:232|352:304|368:280|352:255|360:224|368:216|384:216|424:200|448:232|448:232|488:200|544:224|584:288|504:384|472:344|440:376|440:376|400:336|384:368|336:280|344:264|396:155,2,1520,12|8|12,0:0|0:0|0:0,0:0:0:0:
80,16,46970,6,0,L|202:162,1,190,8|0,0:0|0:0,0:0:0:0:
324,16,47156,2,0,L|201:162,1,190,8|0,0:0|0:0,0:0:0:0:
488,16,47343,2,0,L|365:162,1,190,8|0,0:0|0:0,0:0:0:0:
244,16,47529,2,0,L|366:162,1,190,8|0,0:0|0:0,0:0:0:0:
480,280,47715,6,0,P|497:335|388:326,1,190
336,256,47902,2,0,P|256:213|176:256,1,190,8|0,0:0|0:0,0:0:0:0:
115,350,48088,2,0,P|32:363|32:280,1,190,8|0,0:0|0:0,0:0:0:0:
144,184,48274,2,0,B|184:176|200:152|256:152|256:152|264:128|272:128|312:120|336:72|296:24|256:40|256:40|216:24|176:72|200:120|240:128|248:128|256:152|256:152|312:152|328:176|368:184,1,570,12|0,0:0|0:0,0:0:0:0:
175,323,48647,2,0,B|256:216|256:216|372:384|372:384|140:384,1,570,10|0,0:0|0:0,0:0:0:0:
32,240,49020,6,0,P|32:145|104:89,1,190,8|0,0:0|0:0,0:0:0:0:
32,16,49206,2,0,P|32:111|104:167,1,190
256,168,49392,2,0,L|424:32,1,190,8|0,0:0|0:0,0:0:0:0:
256,88,49579,2,0,L|424:224,1,190
504,320,49765,2,0,B|416:384|416:384|256:384|256:384|168:320|168:320|168:240|168:240|208:208|208:208|256:248|256:248|304:208|304:208|344:240|344:240|344:320|344:320|256:384|256:384|96:384|96:384|8:320,1,1140,12|0,0:0|0:0,0:0:0:0:
96,96,50510,1,8,0:0:0:0:
416,96,50697,6,0,P|480:144|488:256,1,190
320,336,50883,2,0,P|256:288|248:176,1,190,8|0,0:0|0:0,0:0:0:0:
368,216,51069,1,8,0:0:0:0:
72,352,51256,2,0,B|16:296|8:216|8:216|56:248|80:248|80:248|96:224|16:168|136:96|136:96|112:200|208:216|176:296,1,570,12|0,0:0|0:0,0:0:0:0:
224,280,51628,2,0,B|256:256|240:200|208:160|240:136|240:136|296:208|320:208|320:272|320:272|360:248|368:224|368:224|424:288|408:336|328:376,1,570,10|0,0:0|0:0,0:0:0:0:
408,160,52001,6,0,L|512:0,1,190,8|0,0:0|0:0,0:0:0:0:
216,160,52187,2,0,L|320:0,1,190
48,0,52374,2,0,L|152:160,1,190,8|0,0:0|0:0,0:0:0:0:
240,0,52560,2,0,L|344:160,1,190
488,320,52746,2,0,B|408:376|328:360|328:360|368:304|336:256|336:256|320:288|280:288|248:344|248:344|232:296|224:248|264:240|280:192|240:136|240:136|232:184|168:256|152:280|184:320|176:352|176:352|120:272|72:264|72:264|32:320|72:376|120:376,1,1140,12|0,0:0|0:0,0:0:0:0:
232,48,53492,1,8,0:0:0:0:
408,152,53678,6,0,L|512:320,1,190
456,360,53864,2,0,L|256:360,1,190,8|0,0:0|0:0,0:0:0:0:
216,312,54051,2,0,L|316:150,1,190,8|0,0:0|0:0,0:0:0:0:
3,86,54236,2,0,L|104:248,1,190,12|0,0:0|0:0,0:0:0:0:
176,248,54423,2,0,L|276:86,1,190
472,88,54610,2,0,L|371:249,1,190,8|0,0:0|0:0,0:0:0:0:
299,249,54797,2,0,L|198:87,1,190
3,86,54982,6,0,P|0:232|24:272,1,190,8|0,0:0|0:0,0:0:0:0:
184,344,55169,2,0,P|187:198|163:158,1,190
123,53,55355,2,0,P|52:162|77:231,1,190,8|0,0:0|0:0,0:0:0:0:
64,377,55542,2,0,P|135:268|117:202,1,190
200,24,55728,2,0,B|216:8|248:0|320:16|336:64|360:64|376:72|376:96|368:160|312:136|312:136|256:160|248:96|248:72|264:64|288:64|304:16|376:0|408:8|424:24,1,570,12|0,0:0|0:0,0:0:0:0:
512,144,56100,2,0,B|352:381|352:381|192:144,1,570,8|0,0:0|0:0,0:0:0:0:
318,145,56473,2,0,B|160:381|160:381|0:144,1,570,8|0,0:0|0:0,0:0:0:0:
40,368,56846,6,0,P|56:304|168:248,1,190,8|0,0:0|0:0,0:0:0:0:
353,247,57032,2,0,P|438:281|472:368,1,190,8|0,0:0|0:0,0:0:0:0:
472,367,57218,2,0,B|440:152|528:136|584:152|576:296|512:296|488:208|440:192|384:184|384:184|360:160|272:184|208:16|328:-8|360:8|384:40|384:40|408:8|448:-8|536:16|512:184|408:160|384:184|384:184|240:328|256:368|296:384|360:384|384:384|416:288|256:206|256:206|96:288|128:384|152:384|216:384|256:368|272:328|128:184|128:184|104:160|0:184|-24:16|64:-8|104:8|128:40|128:40|152:8|184:-8|304:16|240:184|152:160|128:184|128:184|72:192|24:208|0:296|-64:296|-72:152|-16:136|72:152|40:368,2,3040,12|12|12,0:0|0:0|0:0,0:0:0:0:
496,24,60386,6,0,L|352:384,1,380,0|2,0:0|0:0,0:0:0:0:
212,23,60759,2,0,L|354:376,1,380,8|8,0:0|0:0,0:0:0:0:
16,24,61132,2,0,L|160:384,1,380,0|2,0:0|0:0,0:0:0:0:
299,23,61505,2,0,L|158:376,1,380,8|8,0:0|0:0,0:0:0:0:
384,88,61877,6,0,B|424:144|424:144|496:168|496:168|440:224|440:224|440:304|440:304|376:264,1,380,0|2,0:0|0:0,0:0:0:0:
232,88,62250,2,0,B|192:144|192:144|120:168|120:168|176:224|176:224|176:304|176:304|240:264,1,380,8|8,0:0|0:0,0:0:0:0:
320,24,62622,2,0,B|352:104|416:80|496:200|392:352|288:256,1,380,0|2,0:0|0:0,0:0:0:0:
128,24,62995,2,0,B|96:104|32:80|-48:200|56:352|160:256,1,380,8|8,0:0|0:0,0:0:0:0:
508,24,63368,6,0,L|128:24,1,380,0|2,0:0|0:0,0:0:0:0:
322,355,63740,2,0,L|514:11,1,380,8|8,0:0|0:0,0:0:0:0:
128,24,64113,2,0,L|328:368,1,380,0|2,0:0|0:0,0:0:0:0:
240,88,64486,2,0,B|320:216|320:216|400:88|400:88|288:88,1,380,8|8,0:0|0:0,0:0:0:0:
176,352,64858,6,0,B|96:224|96:224|16:352|16:352|128:352,1,380,0|2,0:0|0:0,0:0:0:0:
432,352,65231,2,0,P|414:285|406:300,1,190
280,384,65417,2,0,P|297:317|305:332,1,190,8|0,0:0|0:0,0:0:0:0:
432,112,65604,2,0,P|414:45|406:60,1,190,8|0,0:0|0:0,0:0:0:0:
256,88,65790,2,0,P|171:173|372:238,1,380,12|8,0:0|0:0,0:0:0:0:
432,112,66163,5,12,0:0:0:0:
112,104,66349,2,0,B|56:16|56:16|0:104|0:104|56:104|56:104|56:232|56:232,1,380,0|2,0:0|0:0,0:0:0:0:
208,352,66722,2,0,B|320:384|320:256|240:272|240:272|160:288|160:160|272:192,1,380,8|8,0:0|0:0,0:0:0:0:
456,219,67094,2,0,B|456:232|456:104|456:104|512:104|512:104|456:16|456:16|400:104|400:104,1,380,0|2,0:0|0:0,0:0:0:0:
128,112,67467,2,0,B|23:82|23:210|103:194|103:194|183:178|183:306|71:274,1,380,8|8,0:0|0:0,0:0:0:0:
104,0,67840,6,0,L|104:384,1,380,0|2,0:0|0:0,0:0:0:0:
232,384,68212,2,0,L|232:0,1,380,8|8,0:0|0:0,0:0:0:0:
297,260,68585,2,0,L|357:79,1,190
432,80,68771,2,0,L|496:272,1,190,8|0,0:0|0:0,0:0:0:0:
488,336,68958,2,0,L|280:336,1,190,8|0,0:0|0:0,0:0:0:0:
264,384,69144,6,0,B|264:216|264:216|168:240|168:240|296:76|296:76|424:240|424:240|328:216|328:216|328:384,1,950,12|0,0:0|0:0,0:0:0:0:
424,379,69703,2,0,B|248:232|248:232|304:242|339:181|312:136|312:136|504:168,1,570,8|0,0:0|0:0,0:0:0:0:
496,96,70076,2,0,L|290:62,1,190,8|0,0:0|0:0,0:0:0:0:
104,16,70262,1,8,0:0:0:0:
88,352,70448,1,8,0:0:0:0:
376,216,70635,6,0,L|480:256,1,95,8|0,0:0|0:0,0:0:0:0:
448,312,70728,2,0,L|352:360,1,95
304,320,70821,2,0,L|312:216,1,95
264,168,70914,2,0,L|168:224,1,95
144,264,71007,2,0,L|248:336,1,95,8|0,0:0|0:0,0:0:0:0:
168,360,71100,2,0,L|48:360,1,95
40,304,71194,2,0,L|96:216,1,95,8|0,0:0|0:0,0:0:0:0:
104,160,71287,2,0,L|224:128,1,95
256,104,71380,2,0,L|312:8,1,95,8|0,0:0|0:0,0:0:0:0:
368,8,71473,2,0,L|440:88,1,95
416,144,71566,2,0,L|304:128,1,95
328,200,71659,2,0,L|376:288,1,95
440,280,71753,2,0,L|464:176,1,95,8|0,0:0|0:0,0:0:0:0:
512,256,71846,2,0,L|512:360,1,95
448,352,71939,2,0,L|336:344,1,95,8|0,0:0|0:0,0:0:0:0:
288,328,72032,2,0,L|264:224,1,95
195,233,72125,6,0,B|224:360|160:392|56:392|21:363|-40:328|-48:160|136:176|144:176|144:208|160:272|184:336|136:320|96:312|72:296|104:272,1,570,12|0,0:0|0:0,0:0:0:0:
0,96,72871,6,0,B|15:97|32:96|32:96|32:128|32:128|64:128|64:128|64:160|64:160|96:160|96:160|96:192|96:192|128:192|128:192|128:224|128:224|160:224|160:224|160:256|160:256|192:256|192:256|192:288|192:288|224:288|224:288|224:320|224:320|256:320|256:320|256:352|256:352|288:352|288:352|288:384,1,570
344,296,73243,2,0,B|312:296|312:296|312:264|312:264|280:264|280:264|280:232|280:232|248:232|248:232|248:200|248:200|216:200|216:200|216:168|216:168|184:168|184:168|184:136|184:136|152:136|152:136|152:104|152:104|120:104|120:104|120:72|120:72|88:72|88:72|88:40|88:40|56:40|56:40|56:8,1,570
376,96,73616,6,0,B|376:-16|376:-16|480:-16|464:64|544:80|544:80|464:96|496:200|368:232|256:200|288:96|208:80|208:80|272:64|256:8|334:4,3,852.228552059492,8|8|8|8,0:0|0:0|0:0|0:0,0:0:0:0:
16,80,74920,1,0,0:0:0:0:
264,216,75107,6,0,L|96:384,1,213.057138014873,8|0,0:0|0:0,0:0:0:0:
104,216,75293,2,0,L|272:384,1,213.057138014873
504,340,75479,2,0,B|504:248|504:248|464:312|320:320|280:192|320:64|464:72|504:136|504:136|504:44,1,639.171414044619,8|0,0:0|0:0,0:0:0:0:
288,56,75852,2,0,B|224:96|212:160|212:192|212:192|168:264|112:272|35:192|112:112|168:120|212:192|212:192|212:224|224:288|288:328,1,639.171414044619,8|0,0:0|0:0,0:0:0:0:
44,284,76225,2,0,P|-2:191|44:100,1,213.057138014873,8|0,0:0|0:0,0:0:0:0:
200,24,76411,5,0,0:0:0:0:
272,192,76597,2,0,B|368:168|400:4|400:4|400:380|400:380|432:216|528:192,3,852.228552059492,8|8|8|8,0:0|0:0|0:0|0:0,0:0:0:0:
200,360,77902,1,0,0:0:0:0:
216,160,78088,6,0,B|0:96|0:96|0:288|0:288|216:224|216:224,1,639.171414044619,8|0,0:0|0:0,0:0:0:0:
288,300,78461,2,0,L|288:86,1,213.057138014873,8|0,0:0|0:0,0:0:0:0:
488,84,78647,2,0,L|488:297,1,213.057138014873
272,360,78833,2,0,B|344:368|352:320|352:304|352:264|352:264|352:200|352:144|408:136|440:144|456:192|440:240|408:248|352:240|352:184|352:120|352:120|352:80|352:64|344:16|272:24,1,639.171414044619,8|0,0:0|0:0,0:0:0:0:
152,24,79206,2,0,P|40:48|0:176,1,213.057138014873,8|0,0:0|0:0,0:0:0:0:
0,296,79392,2,0,B|158:361|158:361|181:163|181:163|84:219|84:219|268:297|268:297|290:128,1,852.228552059492
408,0,79951,6,0,B|500:191|500:191|408:384,1,426.114276029746,12|0,0:0|0:0,0:0:0:0:
128,360,80324,2,0,L|0:168,1,213.057138014873,8|0,0:0|0:0,0:0:0:0:
246,182,80510,2,0,L|127:359,1,213.057138014873
272,368,80697,2,0,L|144:176,1,213.057138014873,8|0,0:0|0:0,0:0:0:0:
390,190,80883,2,0,L|271:367,1,213.057138014873
512,368,81069,6,0,B|376:8|464:0|528:-8|544:40|573:111|576:208|400:64|272:64|208:24,1,639.171414044619,8|0,0:0|0:0,0:0:0:0:
160,24,81442,2,0,P|117:17|136:304,1,426.114276029746,8|0,0:0|0:0,0:0:0:0:
221,335,81722,2,0,P|264:342|245:55,1,426.114276029746
143,87,82001,2,0,P|55:111|119:239,1,213.057138014873
368,384,82187,2,0,P|456:296|448:94,1,213.057138014873,8|0,0:0|0:0,0:0:0:0:
480,88,82374,1,0,0:0:0:0:
333,30,82560,6,0,B|280:176|280:176|200:48|200:48|120:176|120:176|64:24|64:24|-8:24|-8:24|96:336|96:336|200:192|200:192|304:336|304:336|408:24,2,1704.45710411898,8|8|8,0:0|0:0|0:0,0:0:0:0:
200,336,84237,5,8,0:0:0:0:
136,32,84423,1,8,0:0:0:0:
464,152,84610,1,8,0:0:0:0:
456,0,84796,6,0,B|320:208|320:208|288:144|288:144|320:80|320:80|456:288,1,639.171414044619,8|0,0:0|0:0,0:0:0:0:
232,384,85169,2,0,B|151:148|151:148|221:162|221:162|252:227|252:227|5:206,1,639.171414044619,8|0,0:0|0:0,0:0:0:0:
48,360,85541,6,0,B|112:264|80:88|80:88|64:0|-32:8|-56:32|-56:80|-32:152|16:136|64:96|88:80|88:80|144:8|192:-8|240:-8|320:16|312:72|280:120|256:120|192:104|216:56,3,955.649452040969,12|8|8|8,0:0|0:0|0:0|0:0,0:0:0:0:
160,344,86846,1,0,0:0:0:0:
440,352,87032,6,0,P|472:280|384:136,1,238.912363010242,8|0,0:0|0:0,0:0:0:0:
440,32,87218,2,0,P|472:104|384:248,1,238.912363010242
288,352,87405,2,0,P|256:280|344:136,1,238.912363010242,8|0,0:0|0:0,0:0:0:0:
288,32,87591,2,0,P|256:104|344:248,1,238.912363010242
200,336,87777,2,0,B|176:248|144:200|96:176|40:256|96:336|144:312|176:264|200:192|200:192|176:120|144:72|96:48|40:128|96:208|144:184|176:136|200:48,1,716.737089030727,8|0,0:0|0:0,0:0:0:0:
36,80,88150,2,0,B|8:144|48:192|48:192|8:240|36:304,1,238.912363010242,8|0,0:0|0:0,0:0:0:0:
200,336,88336,6,0,B|504:293|504:293|240:264|240:136|256:0|440:0|488:8|488:8|568:176|504:280|376:224|312:200|280:144|304:64|408:24|464:72|456:128|458:142|416:168|368:112,2,1433.47417806145,0|8|0,0:0|0:0|0:0,0:0:0:0:
24,136,89641,1,8,0:0:0:0:
272,8,89827,1,0,0:0:0:0:
8,248,90013,6,0,B|124:333|124:333|192:136|112:120|51:155|56:208|94:250|134:244|236:267|236:267|208:98,1,716.737089030727,8|0,0:0|0:0,0:0:0:0:
272,8,90386,2,0,L|316:256,1,238.912363010242,8|0,0:0|0:0,0:0:0:0:
400,288,90572,2,0,L|356:40,1,238.912363010242
448,120,90759,2,0,B|492:353|492:353|400:384|280:384|256:376|264:328|256:272|320:272|392:272|368:368|336:384|328:384|224:376|192:336,1,716.737089030727,8|0,0:0|0:0,0:0:0:0:
80,288,91132,2,0,L|0:40,1,238.912363010242,8|0,0:0|0:0,0:0:0:0:
72,8,91318,2,0,B|168:288|168:288|272:5|272:5|376:288|376:288|472:8,1,1194.56181505121
512,168,91877,6,0,B|496:184|496:184|480:168|480:168|464:152|464:152|448:168|448:168|432:184|432:184|416:168|416:168|400:152|400:152|384:168|384:168|368:184|368:184|352:168|352:168|336:152|336:152|320:168|320:168|304:184|304:184|288:168|288:168|272:152|272:152|256:168|256:168|240:184|240:184|224:168|224:168|208:152|208:152|192:168|192:168|176:184|176:184|160:168|160:168|144:152|144:152|128:168|128:168|112:184|112:184|96:168|96:168|80:152|80:152|64:168|64:168|48:184|48:184|32:168|32:168|16:152|16:152|0:168,1,716.737089030727,12|0,0:0|0:0,0:0:0:0:
40,88,92250,2,0,L|177:296,1,238.912363010242,8|0,0:0|0:0,0:0:0:0:
302,88,92436,2,0,L|165:296,1,238.912363010242
472,88,92622,2,0,L|340:287,1,238.912363010242,8|0,0:0|0:0,0:0:0:0:
210,88,92808,2,0,L|341:287,1,238.912363010242
168,168,92995,6,0,B|128:56|120:0|64:0|40:32|104:160|152:8|176:0|256:32|256:32|336:0|360:8|408:160|472:32|448:0|392:0|384:56|344:168,1,716.737089030727,8|0,0:0|0:0,0:0:0:0:
216,320,93368,2,0,P|152:360|128:96,1,477.824726020485,8|0,0:0|0:0,0:0:0:0:
453,108,93647,2,0,P|504:310|296:320,1,477.824726020485
224,176,93927,2,0,B|216:112|144:176|112:64|144:0|224:0|232:40,1,238.912363010242
288,176,94113,2,0,B|296:112|368:176|400:64|368:0|288:0|280:40,1,238.912363010242,8|0,0:0|0:0,0:0:0:0:
256,88,94299,1,0,0:0:0:0:
456,216,94486,6,0,B|384:176|272:336|312:376|344:376|376:384|424:368|440:344|424:272|336:224|280:264|256:291|256:291|232:264|176:224|88:272|72:344|88:368|136:384|168:376|200:376|240:336|128:176|56:216,2,955.649452040969,8|8|8,0:0|0:0|0:0,0:0:0:0:
256,184,95417,1,0,0:0:0:0:
136,8,95604,1,8,0:0:0:0:
376,8,95790,1,0,0:0:0:0:
192,80,95976,6,0,B|80:72|-8:176|16:296|16:296|176:312|296:232|256:72,1,716.737089030727,12|0,0:0|0:0,0:0:0:0:
320,192,96349,2,0,B|217:146|99:213|80:334|80:334|225:404|365:370|382:206,1,716.737089030727,12|0,0:0|0:0,0:0:0:0:
464,24,96722,2,0,B|352:16|312:144|464:168|464:168|528:176|552:256|552:376|488:376|448:376|424:376|400:376|352:304|440:248|528:280|448:336,1,716.737089030727,12|0,0:0|0:0,0:0:0:0:
304,256,97094,1,8,0:0:0:0:
112,344,97281,6,0,B|112:280|112:280|68:264|28:232|36:196|-24:160|-24:160|52:124|0:88|112:-8|168:-8|248:48|256:128|192:160|192:160|248:188|236:256|196:272|176:280|176:280|176:336|176:336|256:303|256:303|336:336|336:336|336:280|336:280|316:272|276:256|264:188|320:160|320:160|256:128|264:48|344:-8|400:-8|512:88|460:124|536:160|536:160|476:196|484:232|444:264|400:280|400:280|400:344,3,1911.29890408194
507,13,99703,6,0,P|459:141|339:85,1,238.912363010242,8|0,0:0|0:0,0:0:0:0:
296,176,99889,2,0,P|344:48|464:104,1,238.912363010242
496,192,100076,2,0,B|424:384|424:384|360:245|360:245|296:384|296:384|224:192,1,716.737089030727,8|0,0:0|0:0,0:0:0:0:
296,176,100448,2,0,B|224:376|224:376|160:245|160:245|96:376|96:376|24:176,1,716.737089030727,12|0,0:0|0:0,0:0:0:0:
160,24,100821,1,8,0:0:0:0:
464,24,101007,6,0,P|440:160|368:240,1,238.912363010242
464,352,101194,2,0,P|440:216|368:136,1,238.912363010242,8|0,0:0|0:0,0:0:0:0:
240,88,101380,2,0,P|190:193|240:296,1,238.912363010242
8,376,101566,2,0,B|48:216|287:191|287:191|48:168|8:8,1,716.737089030727,8|0,0:0|0:0,0:0:0:0:
272,32,101939,2,0,B|256:24|224:8|184:40|152:96|152:96|120:160|-24:191|-24:191|120:224|152:288|152:288|184:344|224:376|256:360|272:352,1,716.737089030727,12|0,0:0|0:0,0:0:0:0:
352,192,102312,1,8,0:0:0:0:
368,344,102498,6,0,B|440:208|444:131|328:115,1,238.912363010242
336,40,102684,2,0,B|264:176|260:253|376:269,1,238.912363010242,8|0,0:0|0:0,0:0:0:0:
248,288,102871,2,0,B|184:224|216:120|248:53,1,238.912363010242
176,24,103057,2,0,B|112:176|120:248|200:352|200:352|16:352|16:352|88:288|64:184,1,716.737089030727,8|0,0:0|0:0,0:0:0:0:
176,384,103430,2,0,B|456:384|456:384|320:168|320:168|192:336,1,716.737089030727,12|0,0:0|0:0,0:0:0:0:
368,128,103802,6,0,L|504:344,1,238.912363010242,8|0,0:0|0:0,0:0:0:0:
456,384,103989,2,0,L|200:384,1,238.912363010242
176,328,104175,2,0,L|312:112,1,238.912363010242,10|0,0:0|0:0,0:0:0:0:
72,24,104361,2,0,B|-8:136|88:224|88:224|144:296|112:352|88:368|64:368|16:344|8:280|80:224|80:224|144:168|112:80|112:16|248:16|304:72|160:208,2,955.649452040969
392,32,105293,1,8,0:0:0:0:
511,121,105479,6,0,L|424:344,1,238.912363010242
366,302,105666,2,0,B|304:202|304:202|240:304,1,238.912363010242,10|0,0:0|0:0,0:0:0:0:
183,342,105852,2,0,L|96:120,1,238.912363010242
168,96,106038,2,0,B|216:216|216:216|248:120|392:112|384:24|304:0|224:24|216:112|360:120|392:216|392:216|440:96,1,716.737089030727,8|0,0:0|0:0,0:0:0:0:
440,320,106411,2,0,B|392:200|392:200|360:296|216:304|224:392|304:416|384:392|392:304|248:296|216:200|216:200|168:320,1,716.737089030727,12|0,0:0|0:0,0:0:0:0:
27,361,106784,2,0,B|83:361|83:361|155:180,1,238.912363010242,8|0,0:0|0:0,0:0:0:0:
27,23,106970,2,0,B|83:23|83:23|155:204,1,238.912363010242
0,192,107156,1,8,0:0:0:0:
240,256,107343,6,0,B|341:192|341:192|240:128,1,238.912363010242
496,192,107529,1,8,0:0:0:0:
454,22,107715,2,0,L|217:139,1,238.912363010242
239,256,107902,2,0,L|454:362,1,238.912363010242,12|0,0:0|0:0,0:0:0:0:
472,280,108088,2,0,P|404:192|472:104,1,238.912363010242
328,192,108274,2,0,B|200:192|200:192|88:312|88:312|-32:192|-32:192|88:72|88:72|200:192,1,716.737089030727,8|0,0:0|0:0,0:0:0:0:
239,256,108647,6,0,B|143:360|143:360|271:360,1,238.912363010242,8|0,0:0|0:0,0:0:0:0:
239,128,108833,2,0,B|143:24|143:24|271:24,1,238.912363010242
448,96,109020,2,0,B|496:104|528:56|528:56|504:24|432:8|368:48|368:80|368:80|384:160|384:160|280:144|264:296|280:384|408:392|472:392|600:344|528:120|424:168,4,955.649452040969,8|8|8|8|8,0:0|0:0|0:0|0:0|0:0,0:0:0:0:
0,96,110697,2,0,L|64:360,1,238.912363010242,8|0,0:0|0:0,0:0:0:0:
104,256,110883,2,0,B|136:141|136:141|168:256,1,238.912363010242,8|0,0:0|0:0,0:0:0:0:
215,328,111069,2,0,L|272:96,1,238.912363010242,8|0,0:0|0:0,0:0:0:0:
512,16,111442,6,0,B|448:160|448:160|392:88,1,238.912363010242
216,16,111628,2,0,B|280:160|280:160|336:88,1,238.912363010242,8|0,0:0|0:0,0:0:0:0:
488,232,111815,2,0,L|160:232,1,238.912363010242
176,80,112001,2,0,B|-40:152|-40:152|88:360|88:360|200:136,1,716.737089030727,12|0,0:0|0:0,0:0:0:0:
297,107,112374,2,0,B|81:179|81:179|209:387|209:387|321:163,1,716.737089030727,10|0,0:0|0:0,0:0:0:0:
384,168,112746,6,0,L|496:384,1,238.912363010242,8|0,0:0|0:0,0:0:0:0:
384,312,112933,2,0,L|488:96,1,238.912363010242
318,168,113119,2,0,L|206:384,1,238.912363010242,8|0,0:0|0:0,0:0:0:0:
318,311,113305,2,0,L|214:95,1,238.912363010242
97,9,113492,2,0,B|224:272|224:272|-16:336|-16:336|54:64|54:64|192:352|192:352|42:387|42:387|95:155,1,1433.47417806145,12|0,0:0|0:0,0:0:0:0:
304,16,114237,1,8,0:0:0:0:
504,280,114423,6,0,B|432:376|432:376|360:280,1,238.912363010242
184,216,114610,2,0,B|256:312|256:312|328:216,1,238.912363010242,8|0,0:0|0:0,0:0:0:0:
504,152,114796,2,0,B|432:248|432:248|360:152,1,238.912363010242
184,16,114982,2,0,B|256:208|256:208|328:16|328:16|360:16|360:16|432:136|432:136|504:16,1,716.737089030727,12|0,0:0|0:0,0:0:0:0:
328,368,115355,2,0,B|256:176|256:176|184:368|184:368|152:368|152:368|80:248|80:248|8:368,1,716.737089030727,10|0,0:0|0:0,0:0:0:0:
24,8,115728,6,0,P|30:163|91:182,1,238.912363010242,8|0,0:0|0:0,0:0:0:0:
203,39,115915,2,0,P|146:183|81:179,1,238.912363010242
139,40,116101,2,0,P|197:184|262:180,1,238.912363010242,8|0,0:0|0:0,0:0:0:0:
318,8,116288,2,0,P|313:163|252:182,1,238.912363010242
191,252,116473,2,0,B|304:264|376:224|440:160|432:64|400:8|400:8|480:8|480:8|496:112|504:208|392:296|317:322|192:319|192:319|192:384|192:384|320:384|448:368|528:224|528:200,1,1433.47417806145,12|0,0:0|0:0,0:0:0:0:
272,16,117218,1,8,0:0:0:0:
40,80,117405,6,0,B|96:24|240:56|208:144|152:160,1,238.912363010242
184,320,117591,2,0,B|128:376|-16:344|16:256|72:240,1,238.912363010242,8|0,0:0|0:0,0:0:0:0:
256,80,117777,2,0,B|312:186|312:186|368:80,1,238.912363010242
512,8,117964,2,0,B|493:48|493:48|448:48|448:48|480:96|480:96|424:104|424:104|456:144|456:144|344:384|344:384|256:208,1,716.737089030727,12|0,0:0|0:0,0:0:0:0:
0,8,118336,2,0,B|19:48|19:48|64:48|64:48|32:96|32:96|88:104|88:104|56:144|56:144|168:384|168:384|256:208,1,716.737089030727,10|0,0:0|0:0,0:0:0:0:
356,16,118709,6,0,B|304:16|304:16|280:40|280:40|256:16|256:16|232:40|232:40|208:16|208:16|156:16,1,238.912363010242,8|0,0:0|0:0,0:0:0:0:
304,256,118895,2,0,B|330:210|330:210|321:178|321:178|354:169|354:169|345:136|345:136|378:127|378:127|404:82,1,238.912363010242
108,82,119082,2,0,B|134:127|134:127|166:136|166:136|158:169|158:169|190:178|190:178|182:210|182:210|208:256,1,238.912363010242,8|0,0:0|0:0,0:0:0:0:
156,336,119268,2,0,B|208:336|208:336|232:360|232:360|256:336|256:336|280:360|280:360|304:336|304:336|356:336,1,238.912363010242
484,338,119454,2,0,B|436:330|372:298|300:170|436:106|436:106|536:136|536:136|472:208|472:208|408:72|492:10,1,716.737089030727,12|0,0:0|0:0,0:0:0:0:
400,8,119827,2,0,B|386:93|224:136|224:136|256:8|256:8|335:97|335:97|272:184|288:258|351:338,1,716.737089030727,8|0,0:0|0:0,0:0:0:0:
301,379,120200,2,0,B|229:288|230:202|230:202|64:240|64:240|184:312|184:312|144:160|169:95,1,716.737089030727,8|0,0:0|0:0,0:0:0:0:
120,16,120572,6,0,P|88:120|-32:216,1,238.912363010242,8|0,0:0|0:0,0:0:0:0:
176,384,120759,2,0,L|-31:264,1,238.912363010242
152,152,120945,2,0,B|155:104|184:48|226:25|280:8|336:32|344:40|344:40|352:32|408:8|472:16|527:49|556:105|584:168|549:283|528:320|416:320|400:392|392:392|392:392|328:232|224:336|168:176|176:72|312:56|336:112|344:120|344:120|352:112|376:56|512:72|520:176|464:336|360:232|296:392|296:392|288:392|264:328|200:336|168:240,2,1911.29890408194,12|8|12,0:0|0:0|0:0,0:0:0:0:
56,352,122622,6,0,P|32:216|48:104,1,238.912363010242,8|0,0:0|0:0,0:0:0:0:
152,152,122809,2,0,P|296:192|400:168,1,238.912363010242,8|0,0:0|0:0,0:0:0:0:
432,264,122995,2,0,P|288:304|184:280,1,238.912363010242,8|0,0:0|0:0,0:0:0:0:
96,248,123181,1,8,0:0:0:0:
212,48,123368,6,0,B|260:104|260:104|300:77|340:104|340:104|396:48,1,238.912363010242
452,152,123554,2,0,B|379:165|379:165|382:213|339:234|339:234|360:311,1,238.912363010242,8|0,0:0|0:0,0:0:0:0:
244,312,123740,2,0,B|264:235|264:235|221:214|224:166|224:166|152:152,1,238.912363010242
0,64,123927,2,0,B|16:24|48:0|80:-16|112:-8|176:32|106:112|106:112|83:139|88:176|104:200|134:209|134:209|159:215|170:217|170:217|168:216|184:248|195:258|195:258|175:331|175:331|168:360|136:376|104:376|8:352,1,716.737089030727,12|0,0:0|0:0,0:0:0:0:
151,151,124299,2,0,B|201:98|199:41|186:9|186:9|316:8|388:88|412:224|300:272|198:160|132:88|380:0|444:-8|492:144,1,716.737089030727,10|0,0:0|0:0,0:0:0:0:
456,200,124672,6,0,L|272:424,1,238.912363010242,8|0,0:0|0:0,0:0:0:0:
400,376,124858,2,0,L|200:240,1,238.912363010242
309,241,125045,2,0,L|111:375,1,238.912363010242,8|0,0:0|0:0,0:0:0:0:
207,384,125231,2,0,L|56:200,1,238.912363010242
256,200,125417,2,0,B|8:0|8:0|504:0|504:0|317:171|317:171|179:60|179:60|349:60|349:60|285:119,1,1433.47417806145,12|0,0:0|0:0,0:0:0:0:
256,352,126163,1,8,0:0:0:0:
40,192,126349,6,0,P|64:344|128:328,1,238.912363010242
184,320,126535,2,0,B|232:304|256:230|256:230|280:304|328:320,1,238.912363010242,8|0,0:0|0:0,0:0:0:0:
408,344,126722,2,0,P|509:296|469:189,1,238.912363010242
504,8,126908,2,0,B|264:40|432:264|432:264|280:176|184:16,1,716.737089030727,12|0,0:0|0:0,0:0:0:0:
8,8,127281,2,0,B|248:40|80:264|80:264|232:176|328:16,1,716.737089030727,10|0,0:0|0:0,0:0:0:0:
288,256,127653,6,0,P|405:337|512:384,1,238.912363010242,8|0,0:0|0:0,0:0:0:0:
512,304,127839,2,0,B|360:288|408:384|264:368,1,238.912363010242
224,256,128026,2,0,P|107:337|0:384,1,238.912363010242,8|0,0:0|0:0,0:0:0:0:
0,304,128213,2,0,B|152:288|104:384|248:368,1,238.912363010242
385,262,128399,2,0,B|200:64|200:64|488:-24|488:-24|408:194|408:194|314:93|314:93|535:24|535:24|422:337,1,1433.47417806145,12|0,0:0|0:0,0:0:0:0:
256,376,129144,1,8,0:0:0:0:
136,104,129330,6,0,P|48:168|128:176,1,238.912363010242
152,272,129516,2,0,P|240:208|160:200,1,238.912363010242,8|0,0:0|0:0,0:0:0:0:
80,352,129703,2,0,P|19:261|97:281,1,238.912363010242
368,304,129889,2,0,B|408:256|368:224|216:216|264:392|344:416|416:401|480:344|440:264|440:56|440:56|464:88|528:80|520:160,1,716.737089030727,12|0,0:0|0:0,0:0:0:0:
352,80,130262,2,0,B|359:5|295:13|271:-18|271:-18|271:189|311:269|248:326|175:341|95:317|47:141|199:149|239:181|199:229,1,716.737089030727,8|0,0:0|0:0,0:0:0:0:
128,32,130635,6,0,B|144:152|48:136|64:256,1,238.912363010242,8|0,0:0|0:0,0:0:0:0:
12,92,130821,2,0,B|130:118|82:202|200:228,1,238.912363010242
296,232,131007,2,0,B|414:258|366:342|484:368,1,238.912363010242,8|0,0:0|0:0,0:0:0:0:
424,160,131194,2,0,B|440:280|344:264|360:384,1,238.912363010242
261,98,131380,2,0,B|188:154|188:154|175:-1|175:-1|389:82|389:82|183:239,1,716.737089030727,12|0,0:0|0:0,0:0:0:0:
0,216,131753,2,0,B|72:120|72:120|0:24,1,238.912363010242,8|0,0:0|0:0,0:0:0:0:
128,152,131939,2,0,B|56:248|56:248|127:343,1,238.912363010242
144,256,132125,2,0,B|215:351|215:351|336:351,1,238.912363010242,8|0,0:0|0:0,0:0:0:0:
448,192,132312,2,0,B|376:287|376:287|256:287,1,238.912363010242
352,216,132498,6,0,B|424:120|424:120|352:24,1,238.912363010242,8|0,0:0|0:0,0:0:0:0:
344,120,132684,2,0,B|272:24|272:24|152:25,1,238.912363010242
88,24,132871,2,0,B|72:0|-40:24|16:96|-16:136|-16:136|56:72|137:93|137:93|192:80|240:88|224:160|224:160|200:144|176:144|152:144|136:152|136:152|56:120|0:168|-64:240|-16:352|40:400|88:384|136:360|136:360|152:328|248:344|264:224|192:176|168:200|140:216|136:224|136:224|132:216|104:200|80:176|8:224|24:344|120:328|136:360|136:360|168:392|232:384|256:337|256:337|280:384|344:392|376:360|376:360|392:328|488:344|504:224|432:176|408:200|380:216|376:224|376:224|372:216|344:200|320:176|248:224|264:344|360:328|376:360|376:360|424:384|472:400|528:352|576:240|512:168|456:120|376:152|376:152|360:144|336:144|312:144|288:160|288:160|272:88|320:80|374:93|374:93|456:72|528:136|528:136|496:96|552:24|440:0|424:24,2,3344.77308214339,12|0|8,0:0|0:0|0:0,0:0:0:0:
423,24,135666,2,0,L|167:24,1,238.912363010242
88,24,135852,1,12,0:0:0:0:
56,152,136038,6,0,B|176:359|176:359|296:152,1,477.824726020485,0|2,0:0|0:0,0:0:0:0:
456,152,136411,2,0,B|336:359|336:359|216:152,1,477.824726020485,8|8,0:0|0:0,0:0:0:0:
136,212,136784,2,0,B|160:164|144:68|23:55|-48:92|-56:204|-12:316|60:348,1,477.824726020485,0|2,0:0|0:0,0:0:0:0:
142,45,137156,2,0,B|211:75|255:187|247:299|176:336|55:323|39:227|63:179,1,477.824726020485,8|8,0:0|0:0,0:0:0:0:
392,72,137529,6,0,B|328:200|328:200|240:48|240:48|408:0,1,477.824726020485,0|2,0:0|0:0,0:0:0:0:
352,296,137902,2,0,B|416:168|416:168|504:320|504:320|336:368,1,477.824726020485,8|8,0:0|0:0,0:0:0:0:
240,360,138274,2,0,B|-24:256|-24:256|160:192,1,477.824726020485,0|2,0:0|0:0,0:0:0:0:
240,24,138647,2,0,B|-24:128|-24:128|160:192,1,477.824726020485,8|8,0:0|0:0,0:0:0:0:
512,152,139020,6,0,B|372:384|372:384|272:200,1,477.824726020485,0|2,0:0|0:0,0:0:0:0:
502,22,139392,2,0,B|198:46|198:46|310:278,1,477.824726020485,8|8,0:0|0:0,0:0:0:0:
168,384,139765,2,0,B|-8:224|-8:224|136:304|216:224,1,477.824726020485,0|2,0:0|0:0,0:0:0:0:
168,0,140138,2,0,B|-8:160|-8:160|136:80|216:160,1,477.824726020485,8|8,0:0|0:0,0:0:0:0:
368,112,140510,6,0,L|280:336,1,238.912363010242
368,112,140697,2,0,L|456:336,1,238.912363010242,2|0,0:0|0:0,0:0:0:0:
455,334,140883,2,0,L|240:208,1,238.912363010242
487,213,141069,2,0,L|239:213,1,238.912363010242,8|0,0:0|0:0,0:0:0:0:
487,213,141256,2,0,L|256:352,1,238.912363010242
127,380,141442,2,0,B|128:312|128:312|104:288|104:288|128:264|128:264|152:240|152:240|128:216|128:216|104:192|104:192|128:168|128:168|152:144|152:144|128:120|128:120|104:96|104:96|128:72|128:72|128:0,1,477.824726020485,12|0,0:0|0:0,0:0:0:0:
16,192,141815,1,12,0:0:0:0:
304,8,142001,6,0,B|288:208|456:224|552:112|512:-16|336:-16|336:128|416:96,1,477.824726020485,0|2,0:0|0:0,0:0:0:0:
414,287,142374,2,0,B|336:256|336:400|512:400|552:272|456:160|288:176|304:376,1,477.824726020485,8|8,0:0|0:0,0:0:0:0:
238,0,142746,2,0,B|228:96|267:152|267:152|168:112|80:96|80:96|168:56|176:8,1,477.824726020485,0|2,0:0|0:0,0:0:0:0:
238,385,143119,2,0,B|228:288|267:232|267:232|168:272|80:288|80:288|168:328|176:376,1,477.824726020485,8|8,0:0|0:0,0:0:0:0:
0,296,143492,6,0,B|8:216|72:235|128:216|197:191|197:191|128:168|72:149|8:168|0:88,1,477.824726020485,0|2,0:0|0:0,0:0:0:0:
512,296,143864,2,0,B|504:216|440:235|384:216|315:191|315:191|384:168|440:149|504:168|512:88,1,477.824726020485,8|8,0:0|0:0,0:0:0:0:
304,40,144237,2,0,L|64:88,1,238.912363010242
168,344,144423,2,0,L|8:112,1,238.912363010242,8|0,0:0|0:0,0:0:0:0:
304,104,144610,2,0,L|232:344,1,238.912363010242
448,96,144796,6,0,B|240:264|336:360|360:360|376:376|416:380|432:384|456:376|496:376|528:352|576:280|672:72|432:192|192:312|288:104|336:32|368:8|408:8|432:0|448:4|488:8|504:24|528:24|616:120|416:288,1,1194.56181505121,12|0,0:0|0:0,0:0:0:0:
296,368,145355,2,0,B|238:264|316:144|316:144|264:8|112:80|208:240|316:144|316:144|290:55|344:0,1,716.737089030727,8|0,0:0|0:0,0:0:0:0:
168,16,145728,2,0,P|116:146|165:226,1,238.912363010242
376,344,145914,1,8,0:0:0:0:
504,136,146100,1,0,0:0:0:0:
344,0,146287,6,0,L|240:72,1,119.456181505121,8|0,0:0|0:0,0:0:0:0:
336,88,146380,2,0,L|472:40,1,119.456181505121
432,120,146473,2,0,L|472:256,1,119.456181505121
400,248,146566,2,0,L|320:136,1,119.456181505121
272,128,146659,2,0,L|144:160,1,119.456181505121,8|0,0:0|0:0,0:0:0:0:
96,120,146753,2,0,L|208:24,1,119.456181505121
120,16,146846,2,0,L|-8:0,1,119.456181505121
0,64,146939,2,0,L|56:200,1,119.456181505121
104,200,147032,2,0,L|16:312,1,119.456181505121,8|0,0:0|0:0,0:0:0:0:
16,360,147125,2,0,L|152:360,1,119.456181505121
112,296,147218,2,0,L|208:208,1,119.456181505121
264,192,147312,2,0,L|248:336,1,119.456181505121
200,368,147405,2,0,L|336:384,1,119.456181505121,8|0,0:0|0:0,0:0:0:0:
320,312,147498,2,0,L|440:376,1,119.456181505121
496,368,147591,2,0,L|480:248,1,119.456181505121
416,288,147684,2,0,L|320:192,1,119.456181505121
400,168,147777,6,0,B|408:0|224:0|176:8|56:152|208:176|248:176|288:144|320:112|296:0|104:8|0:32,1,716.737089030727,12|0,0:0|0:0,0:0:0:0:
112,24,148523,6,0,B|496:24|496:24|496:368,1,716.737089030727
400,360,148895,2,0,B|16:360|16:360|16:16,1,716.737089030727
424,248,149268,6,0,B|384:304|344:320|312:312|208:224|136:296|112:200|80:64|224:40|256:120|256:120|288:40|432:64|400:200|376:296|304:224|200:312|168:320|128:304|88:248,3,1071.62069544576,8|8|8|8,0:0|0:0|0:0|0:0,0:0:0:0:
256,184,150572,1,0,0:0:0:0:
440,184,150759,6,0,P|315:12|223:43,1,267.905173861439,8|0,0:0|0:0,0:0:0:0:
220,13,150945,2,0,P|100:58|72:184,1,267.905173861439
112,320,151132,2,0,B|336:320|448:144|320:80|256:56|192:80|64:144|176:320|400:320,1,803.715521584318,8|0,0:0|0:0,0:0:0:0:
512,320,151504,2,0,B|512:0|512:0|0:0|0:0,1,803.715521584318,8|0,0:0|0:0,0:0:0:0:
0,64,151877,2,0,L|0:344,1,267.905173861439,8|0,0:0|0:0,0:0:0:0:
56,384,152063,6,0,L|328:384,1,267.905173861439
280,264,152250,2,0,B|352:384|520:336|560:144|440:40|320:48|296:56|224:160|256:192|288:224|216:328|192:336|72:344|-48:240|-8:48|160:0|232:120,3,1071.62069544576,8|8|8|8,0:0|0:0|0:0|0:0,0:0:0:0:
480,336,153554,1,0,0:0:0:0:
200,352,153740,6,0,P|80:344|-16:224,1,267.905173861439,8|0,0:0|0:0,0:0:0:0:
64,152,153927,2,0,P|113:260|238:216,1,267.905173861439
154,176,154113,2,0,P|242:72|466:88,1,267.905173861439,8|0,0:0|0:0,0:0:0:0:
370,176,154299,2,0,P|241:148|157:46,1,267.905173861439
400,112,154486,2,0,B|528:104|576:312|496:392|423:390|400:392|336:392|288:360|288:312|312:232|352:224|400:200|456:216|480:248|456:280|437:295|424:312|408:320|336:328|220:308,1,803.715521584318,8|0,0:0|0:0,0:0:0:0:
97,299,154858,2,0,P|-7:240|-4:78,1,267.905173861439,8|0,0:0|0:0,0:0:0:0:
8,0,155045,2,0,B|224:96|232:240|112:328|-40:208|-8:112|192:-8|192:-8|392:112|424:208|272:328|152:240|160:96|376:0,1,1339.5258693072
456,0,155604,6,0,B|480:72|496:152|416:208|384:184|344:32|352:96|352:16|488:-8|552:24|448:128|440:272|512:264|536:248|552:224|584:152|576:56|536:40|504:104|408:136|416:200|424:248|432:384,1,803.715521584318,12|0,0:0|0:0,0:0:0:0:
320,384,155976,2,0,P|216:288|80:312,1,267.905173861439,8|0,0:0|0:0,0:0:0:0:
0,120,156163,2,0,P|104:216|240:192,1,267.905173861439
336,256,156349,2,0,B|240:128|240:128|157:173|116:157,1,267.905173861439,8|0,0:0|0:0,0:0:0:0:
12,31,156535,2,0,P|111:94|237:36,1,267.905173861439
312,112,156722,6,0,B|520:0|520:0|456:296|456:296|351:162|351:162|472:95|472:95,1,803.715521584318,8|0,0:0|0:0,0:0:0:0:
344,368,157094,2,0,B|232:368|232:368|246:220|85:177|-29:245|-7:384,1,535.810347722879,8|0,0:0|0:0,0:0:0:0:
112,352,157374,2,0,B|-16:208|-16:208|128:106|267:195|290:292,1,535.810347722879
416,368,157653,2,0,P|464:304|352:192,1,267.905173861439
416,16,157840,2,0,P|464:80|352:192,1,267.905173861439,8|0,0:0|0:0,0:0:0:0:
372,285,158025,5,0,0:0:0:0:
184,384,158212,2,0,B|184:192|184:192|288:208|288:208|136:24|136:24|-16:208|-16:208|88:192|88:192|88:384,4,1071.62069544576,8|8|8|8|8,0:0|0:0|0:0|0:0|0:0,0:0:0:0:
512,264,159889,5,8,0:0:0:0:
352,0,160076,1,8,0:0:0:0:
128,136,160262,1,8,0:0:0:0:
296,360,160448,6,0,B|352:288|352:288|448:352|448:352|432:280|384:224|528:56|528:56|344:120|288:256,1,803.715521584318,8|0,0:0|0:0,0:0:0:0:
328,59,160821,2,0,B|272:131|272:131|176:67|176:67|192:139|240:195|96:363|96:363|280:299|336:163,1,803.715521584318,8|0,0:0|0:0,0:0:0:0:
36,383,161194,6,0,B|27:343|57:313|57:313|8:312|-32:288|-56:248|23:165|23:165|39:117|79:117|111:165|79:213|39:213|23:165|23:165|32:96|32:56|72:48|144:88|175:125|168:168|159:213|127:285|79:285|55:309|-16:304|-33:197|-56:168|-56:136|-48:88|-24:24|24:16|64:16|96:16|160:64,3,1201.66553253119,8|8|8|8,0:0|0:0|0:0|0:0,0:0:0:0:
472,144,162498,1,0,0:0:0:0:
257,169,162684,6,0,B|176:168|144:288|144:360|256:392|296:392|344:384|404:326|424:224|320:168|320:168|397:18|397:18|450:35|450:35|368:192,1,901.249149398393,8|0,0:0|0:0,0:0:0:0:
280,264,163057,2,0,B|96:264|96:264|112:152|192:80|280:96|280:96|216:32|160:48|64:88|32:192|24:368,1,901.249149398393,8|0,0:0|0:0,0:0:0:0:
160,384,163430,2,0,B|352:384|352:384|384:384|488:368|496:352|528:48|504:16|456:16|384:80|392:240|512:376,1,901.249149398393,8|0,0:0|0:0,0:0:0:0:
432,8,163802,2,0,B|314:82|352:247|386:306,1,300.416383132798,8|0,0:0|0:0,0:0:0:0:
304,304,163989,6,0,B|272:216|280:144|280:144|248:88|168:96|152:136|168:192|248:200|280:144|280:144|296:48|328:6|328:6|242:-24|205:-25|153:-22|30:1|-15:108|26:257|125:313|232:300|232:300|225:267|218:242|218:242|120:232|100:162|72:80|187:8|291:63|291:63|432:120|432:120|568:200|568:72|528:40|508:38|462:51|432:120|432:120|416:192|440:248|463:313|463:313|480:360|528:368|560:368|568:336|584:192|520:168|472:216|432:376|408:384|344:384|304:384|255:382|192:384|112:392|56:328|40:312|40:312|-16:304|-32:312|-56:376|-16:384|-6:391|8:389|32:392|40:384|64:360|40:312|40:312|26:300|1:268|-79:176|-29:23|39:-11,1,3604.99659759357
432,8,165292,1,8,0:0:0:0:
368,280,165479,1,0,0:0:0:0:
96,320,165665,6,0,B|162:205|113:177|65:149|131:35,1,300.416383132798,8|0,0:0|0:0,0:0:0:0:
228,91,165852,2,0,B|162:205|113:177|65:149|0:263,1,300.416383132798
163,369,166038,2,0,B|207:278|200:228|200:228|283:195|330:36,1,300.416383132798,8|0,0:0|0:0,0:0:0:0:
432,8,166225,2,0,B|388:99|395:149|395:149|312:182|265:341,1,300.416383132798
256,376,166411,2,0,B|384:368|344:304|352:288|384:216|464:200|464:200|488:176|552:216|568:288|568:384|520:384|480:392|416:296|464:200|464:200|465:112|466:86|512:1,1,901.249149398393,8|0,0:0|0:0,0:0:0:0:
360,0,166784,2,0,P|256:80|96:40,1,300.416383132798,8|0,0:0|0:0,0:0:0:0:
24,120,166970,2,0,B|96:376|96:376|116:376|116:376|200:272|200:272|232:272|232:272|316:376|316:376|336:376|336:376|408:120|408:120|344:120|344:120|304:264|304:264|216:160|216:160|128:264|128:264|88:120,1,1502.08191566399
8,56,167529,6,0,B|40:8|40:8|72:56|72:56|104:8|104:8|136:56|136:56|168:8|168:8|200:56|200:56|232:8|232:8|264:56|264:56|296:8|296:8|328:56|328:56|360:8|360:8|392:56|392:56|424:8|424:8|456:56|456:56|488:8|488:8|520:56,1,901.249149398393,12|0,0:0|0:0,0:0:0:0:
512,120,167902,2,0,B|392:211|392:211|272:120,1,300.416383132798,8|0,0:0|0:0,0:0:0:0:
296,224,168088,2,0,B|176:133|176:133|56:224,1,300.416383132798
56,288,168274,2,0,B|176:379|176:379|296:288,1,300.416383132798,8|0,0:0|0:0,0:0:0:0:
272,384,168461,2,0,B|392:293|392:293|512:384,1,300.416383132798
504,296,168647,6,0,B|344:176|280:144|256:88|264:8|344:-16|376:-24|392:-23|408:-24|440:-16|520:8|528:88|504:144|440:176|280:296,1,901.249149398393,8|0,0:0|0:0,0:0:0:0:
192,368,169020,2,0,B|0:368|0:368|128:168|128:168|224:320,1,600.832766265596,8|0,0:0|0:0,0:0:0:0:
128,280,169299,2,0,B|-16:280|-16:280|128:48|128:48|232:216,1,600.832766265596
279,296,169579,2,0,P|352:344|496:192,1,300.416383132798
512,160,169765,2,0,P|480:48|280:16,1,300.416383132798,8|0,0:0|0:0,0:0:0:0:
408,192,169951,5,0,0:0:0:0:
232,48,170138,2,0,B|128:8|128:8|152:40|208:136|144:176|48:184|0:176|-8:176|-32:120|-24:64|0:24|24:32|80:32|96:56|112:104|128:136|128:136|168:184|256:248|288:272|352:272|427:192|352:112|288:112|256:136|168:200|128:248|128:248|112:280|96:328|80:352|24:352|0:360|-24:320|-32:264|-8:208|0:208|48:200|144:208|208:248|152:344|128:376|128:376|232:336,2,1802.49829879679,8|0|8,0:0|0:0|0:0,0:0:0:0:
232,336,171442,6,0,P|416:320|472:224,1,300.416383132798
384,64,171628,2,0,B|304:296|304:296|208:115|208:115|112:296|112:296|32:64,1,901.249149398393,8|0,0:0|0:0,0:0:0:0:
96,0,172001,2,0,L|400:0,1,300.416383132798,8|0,0:0|0:0,0:0:0:0:
480,0,172187,2,0,L|384:288,1,300.416383132798
224,368,172374,2,0,L|128:80,1,300.416383132798,8|0,0:0|0:0,0:0:0:0:
200,72,172560,2,0,B|360:72|360:72|280:312|280:312|217:133|217:133,1,600.832766265596
96,0,172840,2,0,B|480:0|480:0|392:264,1,600.832766265596
352,360,173119,5,4,0:0:0:0:
192,272,173305,2,0,B|144:368|144:368|112:339|112:339|80:368|80:368|32:272,1,300.416383132798
104,64,173492,1,8,0:0:0:0:
480,0,173678,2,0,B|432:96|432:96|400:67|400:67|368:96|368:96|320:0,1,300.416383132798
320,144,173864,2,0,B|368:240|368:240|400:211|400:211|432:240|432:240|480:144,1,300.416383132798,2|0,0:0|0:0,0:0:0:0:
480,288,174051,2,0,B|432:384|432:384|400:355|400:355|368:384|368:384|320:288,1,300.416383132798
232,112,174237,2,0,B|192:32|168:8|144:-8|80:-40|24:0|34:97,1,300.416383132798,8|0,0:0|0:0,0:0:0:0:
32,344,174423,5,0,0:0:0:0:
32,344,174610,1,2,0:0:0:0:
456,48,174796,1,0,0:0:0:0:
456,48,174982,1,8,0:0:0:0:
220,368,175169,2,0,B|220:216|220:216|52:120,1,300.416383132798
124,80,175355,2,0,B|255:156|255:156|422:58,1,300.416383132798,2|0,0:0|0:0,0:0:0:0:
420,142,175541,2,0,B|292:216|292:216|292:368,1,300.416383132798
32,344,175728,1,8,0:0:0:0:
32,344,175914,1,0,0:0:0:0:
32,344,176100,1,2,0:0:0:0:
8,16,176287,6,0,P|240:16|320:64,1,300.416383132798
420,142,176473,1,8,0:0:0:0:
416,384,176659,2,0,B|415:208|415:208|354:197|337:138|375:88,1,300.416383132798
504,272,176846,2,0,P|352:265|281:127,1,300.416383132798,2|0,0:0|0:0,0:0:0:0:
267,282,177032,2,0,B|215:240|208:104|208:104|192:160|120:200,1,300.416383132798
8,248,177218,2,0,B|48:240|80:224|80:224|120:376|256:344,1,300.416383132798,8|0,0:0|0:0,0:0:0:0:
320,336,177405,6,0,P|392:296|472:88,1,300.416383132798
464,16,177591,1,2,0:0:0:0:
112,128,177777,2,0,P|28:45|127:66,1,300.416383132798
168,216,177964,1,8,0:0:0:0:
320,336,178150,2,0,P|464:352|480:208,1,300.416383132798
432,88,178336,2,0,L|544:192,1,150.208191566399,2|0,0:0|0:0,0:0:0:0:
368,64,178430,2,0,L|304:200,1,150.208191566399,2|0,0:0|0:0,0:0:0:0:
304,40,178523,2,0,P|179:65|168:216,1,300.416383132798,2|0,0:0|0:0,0:0:0:0:
264,376,178709,1,8,0:0:0:0:
24,320,178895,1,2,0:0:0:0:
48,40,179082,1,4,0:0:0:0:
216,144,179268,6,0,P|385:179|473:104,1,300.416383132798
512,0,179454,1,8,0:0:0:0:
256,88,179641,2,0,P|339:206|296:345,1,300.416383132798
56,344,179827,2,0,B|171:248|171:248|56:152,1,300.416383132798,8|0,0:0|0:0,0:0:0:0:
56,40,180013,2,0,B|171:136|171:136|56:232,1,300.416383132798
240,256,180200,2,0,L|544:256,1,300.416383132798,8|0,0:0|0:0,0:0:0:0:
512,192,180386,6,0,L|184:192,1,300.416383132798
8,192,180572,1,8,0:0:0:0:
312,80,180759,2,0,L|440:368,1,300.416383132798
256,384,180945,1,8,0:0:0:0:
122,133,181132,2,0,B|112:-20|296:-36|322:117,1,300.416383132798
402,133,181318,2,0,B|412:-20|228:-36|202:117,1,300.416383132798,8|0,0:0|0:0,0:0:0:0:
120,200,181504,2,0,B|110:353|294:369|320:216,1,300.416383132798
432,0,181690,2,0,B|464:48|472:80|472:104|480:144|459:209|432:224|432:224|416:232|400:200|400:200|408:352|243:355|212:254|212:254|200:208|192:160|208:120|264:104|312:120|336:160|336:208|296:280,1,901.249149398393,8|0,0:0|0:0,0:0:0:0:
120,360,182063,1,8,0:0:0:0:
16,208,182250,6,0,P|56:72|286:55,1,300.416383132798
400,16,182436,1,8,0:0:0:0:
448,264,182622,2,0,P|352:360|256:264,1,300.416383132798
64,264,182809,2,0,P|160:360|256:264,1,300.416383132798,8|0,0:0|0:0,0:0:0:0:
352,248,182995,2,0,P|256:152|160:248,1,300.416383132798
0,40,183181,2,0,P|96:136|192:40,1,300.416383132798,8|0,0:0|0:0,0:0:0:0:
320,41,183368,6,0,P|416:135|512:40,1,300.416383132798
416,40,183554,1,8,0:0:0:0:
472,328,183740,2,0,B|416:208|416:208|310:203|268:115,1,300.416383132798
232,40,183927,1,8,0:0:0:0:
400,368,184113,2,0,B|360:280|360:280|232:256|165:79,1,300.416383132798
160,80,184299,2,0,P|128:40|24:48,2,150.208191566399,10|0|2,0:0|0:0|0:0,0:0:0:0:
203,159,184486,2,0,B|157:248|46:279|46:279|6:367,1,300.416383132798,2|0,0:0|0:0,0:0:0:0:
112,336,184672,2,0,B|208:376|336:376|424:128|424:128|272:176|272:176|384:384|416:376|552:328,1,901.249149398393,8|0,0:0|0:0,0:0:0:0:
496,104,185045,1,8,0:0:0:0:
217,289,185231,6,0,B|161:305|118:237|157:194|157:194|101:210|59:142|98:99,1,300.416383132798
311,105,185417,1,8,0:0:0:0:
496,104,185604,2,0,L|384:384,1,300.416383132798
311,105,185790,2,0,L|200:384,1,300.416383132798,8|0,0:0|0:0,0:0:0:0:
312,384,185976,2,0,L|200:105,1,300.416383132798
16,104,186163,2,0,L|128:384,1,300.416383132798,8|0,0:0|0:0,0:0:0:0:
368,200,186349,6,0,P|422:102|300:-6,1,300.416383132798
216,0,186535,1,8,0:0:0:0:
16,104,186722,2,0,P|-31:198|104:312,1,300.416383132798
168,304,186908,1,8,0:0:0:0:
384,56,187095,2,0,P|474:160|386:267,1,300.416383132798
392,384,187281,2,0,B|526:355|491:184|390:173|390:173|264:152|160:144|168:264|256:320|320:296|336:256|336:128|296:16|128:40,1,901.249149398393,8|0,0:0|0:0,0:0:0:0:
56,40,187653,1,8,0:0:0:0:
256,32,188026,6,0,B|0:176|0:176|176:400|176:400|272:24,1,901.249149398393,8|0,0:0|0:0,0:0:0:0:
256,32,188399,1,2,0:0:0:0:
256,32,188585,1,2,0:0:0:0:
350,321,188771,1,2,0:0:0:0:
103,142,188958,1,2,0:0:0:0:
408,142,189144,1,2,0:0:0:0:
161,321,189330,1,2,0:0:0:0:
256,32,189517,6,0,B|98:141|98:141|159:324|159:324|356:324|356:324|414:141|414:141|256:32,1,926.527951493322,8|0,0:0|0:0,0:0:0:0:
256,32,189889,1,2,0:0:0:0:
256,32,190076,1,0,0:0:0:0:
359,349,190262,1,0,0:0:0:0:
87,153,190449,1,2,0:0:0:0:
423,153,190635,1,2,0:0:0:0:
151,349,190821,1,2,0:0:0:0:
256,32,191007,6,0,B|152:352|152:352|424:152|424:152|88:152|88:152|360:352|360:352|256:32,1,1615.64627946667,8|0,0:0|0:0,0:0:0:0:
256,32,191566,1,8,0:0:0:0:
366,371,191752,1,8,0:0:0:0:
75,161,191939,1,2,0:0:0:0:
434,161,192125,1,2,0:0:0:0:
143,371,192311,1,2,0:0:0:0:
256,32,192498,6,0,L|56:64,1,161.564627946667,8|0,0:0|0:0,0:0:0:0:
32,32,192591,2,0,L|-8:208,1,161.564627946667
75,161,192684,2,0,L|240:96,1,161.564627946667
296,96,192777,2,0,L|224:256,1,161.564627946667
160,240,192871,2,0,L|-16:264,1,161.564627946667,8|0,0:0|0:0,0:0:0:0:
0,328,192964,2,0,L|200:368,1,161.564627946667
232,368,193057,2,0,L|312:224,1,161.564627946667
352,296,193150,2,0,L|488:384,1,161.564627946667
504,312,193243,2,0,L|368:192,1,161.564627946667,8|0,0:0|0:0,0:0:0:0:
472,192,193336,2,0,L|512:32,1,161.564627946667
448,24,193430,2,0,L|344:160,1,161.564627946667
344,48,193523,2,0,L|184:-8,1,161.564627946667
152,48,193616,2,0,L|272:168,1,161.564627946667,8|0,0:0|0:0,0:0:0:0:
160,160,193709,2,0,L|-16:136,1,161.564627946667
0,208,193802,2,0,L|64:360,1,161.564627946667
128,344,193895,2,0,L|224:192,1,161.564627946667
256,272,193989,6,0,B|288:368|360:376|496:360|520:208|432:128|312:152|264:208|304:336|352:368|376:376|432:368|432:368|464:360|504:336|536:296|528:168|448:96|360:88|216:231,1,969.387767680003,12|0,0:0|0:0,0:0:0:0:
12,356,194734,6,0,B|28:356|28:356|28:332|28:332|52:332|52:332|52:308|52:308|76:308|76:308|76:284|76:284|100:284|100:284|100:260|100:260|124:260|124:260|124:236|124:236|148:236|148:236|148:212|148:212|172:212|172:212|172:188|172:188|196:188|196:188|196:164|196:164|220:164|220:164|220:140|220:140|244:140|244:140|244:116|244:116|268:116|268:116|268:140|268:140|292:140|292:140|292:164|292:164|316:164|316:164|316:188|316:188|340:188|340:188|340:212|340:212|364:212|364:212|364:236|364:236|388:236|388:236|388:260|388:260|412:260|412:260|412:284|412:284|436:284|436:284|436:308|436:308|460:308|460:308|460:332|460:332|484:332|484:332|484:356|484:356|508:356,1,969.387767680003
12,224,195107,2,0,B|28:224|28:224|28:200|28:200|52:200|52:200|52:176|52:176|76:176|76:176|76:152|76:152|100:152|100:152|100:128|100:128|124:128|124:128|124:104|124:104|148:104|148:104|148:80|148:80|172:80|172:80|172:56|172:56|196:56|196:56|196:32|196:32|220:32|220:32|220:8|220:8|244:8|244:8|244:-16|244:-16|268:-16|268:-16|268:8|268:8|292:8|292:8|292:32|292:32|316:32|316:32|316:56|316:56|340:56|340:56|340:80|340:80|364:80|364:80|364:104|364:104|388:104|388:104|388:128|388:128|412:128|412:128|412:152|412:152|436:152|436:152|436:176|436:176|460:176|460:176|460:200|460:200|484:200|484:200|484:224|484:224|508:224,1,969.387767680003
500,292,195479,6,0,B|488:384|384:392|256:384|256:384|224:384|224:304|184:376|104:328|88:256|120:192|152:168|176:144|208:144|240:152|256:177|256:177|272:152|304:144|336:144|360:168|392:192|424:256|408:328|328:376|288:304|288:384|256:384|256:384|128:392|24:384|12:292,3,1347.49171925696,8|8|8|8,0:0|0:0|0:0|0:0,0:0:0:0:
8,40,196784,1,0,0:0:0:0:
330,39,196970,6,0,P|460:128|492:328,1,336.872929814239,8|0,0:0|0:0,0:0:0:0:
330,311,197156,2,0,P|460:222|492:22,1,336.872929814239
218,23,197343,2,0,B|122:47|66:111|178:303|322:287|378:231|416:176|416:176|378:119|322:63|178:47|66:239|122:303|218:327,1,1010.61878944272,8|0,0:0|0:0,0:0:0:0:
464,336,197715,2,0,B|328:392|240:400|216:400|176:392|120:376|64:328|56:256|88:176|88:176|56:104|-16:104|-56:176|-16:248|56:248|88:176|88:176|72:128|56:64|120:0,1,1010.61878944272,8|0,0:0|0:0,0:0:0:0:
248,0,198088,2,0,B|352:0|464:0|512:0|512:48|512:120|512:200,1,336.872929814239,8|0,0:0|0:0,0:0:0:0:
496,368,198274,5,0,0:0:0:0:
496,368,198461,2,0,B|408:368|416:240|488:208|536:208|559:278|536:352|488:352|416:320|400:192|496:192|496:192|16:192|16:192|112:192|96:64|24:32|-24:32|-48:104|-24:176|24:176|96:144|112:16|16:16,3,1347.49171925696,8|8|8|8,0:0|0:0|0:0|0:0,0:0:0:0:
256,16,199765,1,0,0:0:0:0:
380,78,199951,6,0,B|280:280|280:280|496:280|496:280|424:144|424:144|320:348|320:348|512:348,1,1010.61878944272,8|0,0:0|0:0,0:0:0:0:
248,344,200324,2,0,B|168:344|168:344|320:48,1,336.872929814239,8|0,0:0|0:0,0:0:0:0:
176,8,200510,2,0,B|256:8|256:8|104:304,1,336.872929814239
79,352,200697,2,0,B|73:366|166:184|166:184|-24:24|-24:24|12:326|12:326|149:63,1,1010.61878944272,8|0,0:0|0:0,0:0:0:0:
176,8,201069,2,0,B|208:88|208:88|248:16|248:16|288:88|288:88|320:8,1,336.872929814239,8|0,0:0|0:0,0:0:0:0:
390,48,201256,2,0,B|472:7|472:7|439:264|439:264|292:164|292:164|529:44|529:44|487:370|487:370|237:201,1,1347.49171925696
204,36,201815,6,0,B|204:160|204:160|96:64|96:64|96:152|96:152|-12:152|-12:152|-12:232|-12:232|96:232|96:232|96:320|96:320|204:224|204:224|204:352,1,1010.61878944272,12|0,0:0|0:0,0:0:0:0:
352,376,202187,2,0,P|488:336|423:192,1,336.872929814239,8|0,0:0|0:0,0:0:0:0:
352,7,202374,2,0,P|492:57|426:191,1,336.872929814239
288,192,202560,2,0,B|248:128|144:136|144:192|144:248|40:256|0:192,1,336.872929814239,8|0,0:0|0:0,0:0:0:0:
0,56,202746,1,0,0:0:0:0:
244,16,202933,6,0,B|232:104|304:128|376:192|472:160|496:112|448:48|416:32|384:24|336:56|352:136|352:192|352:192|352:248|336:328|384:360|416:352|448:336|496:272|472:224|376:192|304:256|232:280|244:368,1,1010.61878944272,8|0,0:0|0:0,0:0:0:0:
24,368,203305,2,0,B|112:368|112:368|88:272|24:288|24:288|24:224|24:224|144:216|176:360|176:360|174:307|208:240|263:218,1,673.745859628479,8|0,0:0|0:0,0:0:0:0:
248,159,203585,2,0,B|208:144|174:77|176:24|176:24|144:168|24:160|24:160|24:96|24:96|88:112|112:16|112:16|24:16,1,673.745859628479
246,23,203864,2,0,B|243:64|252:151|520:152,1,336.872929814239
312,0,204051,2,0,B|345:24|406:86|234:292,1,336.872929814239,8|0,0:0|0:0,0:0:0:0:
424,288,204237,5,0,0:0:0:0:
0,360,204423,2,0,B|224:304|200:64|120:48|56:64|32:112|40:192|104:264|120:288|120:288|304:320|256:64|224:-8|104:-40|32:-24|-40:32|-48:128|-38:225|24:272|56:328|72:344|72:344|144:384|240:368|296:296|305:211|305:211|309:133|282:44|343:8|368:-9|424:-8|472:-8|504:-8|565:21|568:80|576:136|576:216|536:256|504:256|472:256|352:248|328:256|336:176|336:155|336:72|352:40|395:46|432:48|437:60|456:64|480:80|496:112|488:144|464:176|440:160|409:155|440:112|440:112|448:120,2,2694.98343851391,8|8|8,0:0|0:0|0:0,0:0:0:0:
256,8,206100,5,8,0:0:0:0:
512,360,206287,1,8,0:0:0:0:
256,184,206473,1,8,0:0:0:0:
0,360,206659,2,0,B|362:-4|362:-4|352:200|192:376|192:376|128:320,1,1010.61878944272,8|0,0:0|0:0,0:0:0:0:
512,360,207032,2,0,B|150:-4|150:-4|160:200|320:376|320:376|384:320,1,1010.61878944272,8|0,0:0|0:0,0:0:0:0:
136,328,207405,6,0,B|184:352|256:336|256:336|296:232|352:320|448:312|520:72|464:-8|432:-24|376:-40|288:-32|264:32|256:80|256:80|248:48|208:8|128:24|104:48|120:120|128:192|176:248|232:192|248:240|256:240|256:240|264:240|280:192|336:248|384:192|392:120|408:48|384:24|304:8|264:48|256:80|256:80|248:32|224:-32|136:-40|80:-24|48:-8|-8:72|64:312|160:320|216:232|256:336|256:336|328:352|376:328,2,2266.5216044268,8|0|8,0:0|0:0|0:0,0:0:0:0:
256,144,208709,1,0,0:0:0:0:
432,368,208895,6,0,B|432:288|488:264|560:152|501:2,1,377.7536007378,8|0,0:0|0:0,0:0:0:0:
378,21,209082,2,0,B|348:169|438:267|498:281|512:360,1,377.7536007378
264,376,209268,2,0,B|256:336|277:287|277:287|224:232|176:120|205:18,1,377.7536007378,8|0,0:0|0:0,0:0:0:0:
13,220,209454,2,0,B|111:192|223:239|279:292|279:292|327:272|368:280,1,377.7536007378
264,376,209641,2,0,B|336:336|352:336|352:344|376:368|432:368|464:304|472:256|440:184|344:200|292:215|292:215|200:144|64:144|64:144|200:144|293:73|293:73|344:88|432:96|456:80|520:16,1,1133.2608022134,8|0,0:0|0:0,0:0:0:0:
373,19,210013,2,0,B|328:24|312:8|288:-8|256:8|256:16|240:40|216:56|192:56|176:72|104:88|64:88|0:64,1,377.7536007378,8|0,0:0|0:0,0:0:0:0:
13,220,210200,5,0,0:0:0:0:
424,280,210386,2,0,B|416:264|394:259|375:271|375:271|352:256|328:248|280:272|280:328|328:376|352:368|372:382|372:382|389:371|413:373|424:352|448:336|458:273|448:224|448:224|432:160|432:96|432:96|432:48|456:16|432:-16|528:8|544:56|536:88|512:120|464:96|432:88|396:102|360:96|336:96|294:83|294:83|282:95|219:124|208:128|184:208|192:240|248:256|320:248|336:200|296:128|254:109|254:109|176:152|128:152|59:154,3,1511.0144029512,8|8|8|8,0:0|0:0|0:0|0:0,0:0:0:0:
200,288,211691,1,0,0:0:0:0:
24,384,211877,6,0,B|56:336|144:360|152:272|144:208|64:192|24:232|24:232|24:192|-16:208|-80:120|-16:32|24:16|64:32|96:64|96:64|160:16|208:64|216:101|224:144|176:192|167:206|167:206|208:200|216:232|312:272|384:192|312:96|264:120,1,1133.2608022134,8|0,0:0|0:0,0:0:0:0:
280,48,212250,2,0,B|360:40|440:152|412:289|260:295,1,377.7536007378,8|0,0:0|0:0,0:0:0:0:
66,277,212436,2,0,B|128:360|200:376|256:384|352:368|401:358|452:246,1,377.7536007378
464,176,212622,2,0,B|290:244|176:224|96:200|96:200|64:120|24:192|-48:80|0:16|56:-8|88:24|96:32|96:32|104:24|136:-8|192:16|240:80|168:192|128:120|96:200|96:200|16:200|-48:264|0:352,1,1133.2608022134,8|0,0:0|0:0,0:0:0:0:
96,96,212995,2,0,P|236:126|465:68,1,377.7536007378,8|0,0:0|0:0,0:0:0:0:
464,176,213181,2,0,B|368:368|368:368|280:230|280:230|192:368|192:368|96:176,2,755.5072014756,0|8|0,0:0|0:0|0:0,0:0:0:0:
512,24,213740,6,0,B|353:194|353:194|185:26|185:26|377:26|377:26|209:194|209:194|46:26,1,1133.2608022134,12|0,0:0|0:0,0:0:0:0:
56,184,214113,2,0,B|232:368|232:368|320:272,1,377.7536007378,8|0,0:0|0:0,0:0:0:0:
231,277,214299,2,0,B|314:367|314:367|490:183,1,377.7536007378
451,131,214486,2,0,B|331:131|275:188|275:188|219:131|99:131,1,377.7536007378,8|0,0:0|0:0,0:0:0:0:
30,124,214672,2,0,P|166:101|56:184,1,377.7536007378
43,266,214858,6,0,B|146:304|224:280|280:160|288:48|360:16|440:24|496:48|528:152|464:168|456:176|456:176|464:184|512:208|488:296|440:296|416:304|352:304|296:288|248:296|254:81|259:57|224:24|140:-4,1,1133.2608022134,8|0,0:0|0:0,0:0:0:0:
304,16,215231,2,0,B|397:191|271:313|224:336|224:336|264:328|304:328|304:328|370:364|448:360|496:336|536:304|544:224,1,755.5072014756,8|0,0:0|0:0,0:0:0:0:
368,0,215510,2,0,B|400:72|400:120|400:120|448:192|504:184|623:119|504:56|448:48|400:120|400:120|403:160|399:177|399:177|408:208|432:224|475:224|475:224|480:264|440:288|398:296|365:283,1,755.5072014756
224,336,215790,2,0,B|304:264|304:264|263:191|263:191|304:120|304:120|224:48,1,377.7536007378
0,0,215976,2,0,B|120:40|220:132|220:132|160:240|104:272|-16:384|-67:192|-16:0|104:112|160:144|220:252|220:252|120:344|0:384,1,1133.2608022134,8|0,0:0|0:0,0:0:0:0:
152,384,216349,6,0,B|288:296|312:264|260:192|260:192|344:144|304:96|336:0|432:0|488:0|528:8|568:96|552:160|520:184|504:192|504:192|520:200|552:224|568:288|528:376|488:384|432:384|336:384|304:288|344:240|260:192|260:192|312:120|288:88|152:0,3,1511.0144029512,8|8|8|8,0:0|0:0|0:0|0:0,0:0:0:0:
432,192,217653,1,0,0:0:0:0:
12,122,217840,6,0,B|236:-14|236:-14|196:298|196:298|36:154,1,755.5072014756,8|0,0:0|0:0,0:0:0:0:
280,184,218212,2,0,B|504:48|504:48|464:360|464:360|304:216,1,755.5072014756,8|0,0:0|0:0,0:0:0:0:
0,216,218585,2,0,B|224:80|224:80|184:392|184:392|24:248,1,755.5072014756,8|0,0:0|0:0,0:0:0:0:
0,48,218958,6,0,B|64:48|64:48|112:16|112:16|112:48|112:48|160:16|160:16|160:48|160:48|208:16|208:16|256:16|256:16|304:48|304:48|304:16|304:16|352:48|352:48|352:16|352:16|400:48|400:48|400:16|400:16|448:24|448:24|448:16|448:16|520:16,1,755.5072014756,12|0,0:0|0:0,0:0:0:0:
480,344,219330,1,8,0:0:0:0:
40,344,219517,2,0,B|136:344|136:344|168:312|168:312|168:376|168:376|200:344|200:344|328:344,1,377.7536007378
360,248,219703,2,0,B|264:248|264:248|232:280|232:280|232:216|232:216|200:248|200:248|72:248,1,377.7536007378,8|0,0:0|0:0,0:0:0:0:
32,152,219889,2,0,B|128:152|128:152|160:120|160:120|160:184|160:184|192:152|192:152|320:152,1,377.7536007378
496,152,220076,1,8,0:0:0:0:
184,0,220262,6,0,B|184:24|184:24|168:32|168:32|200:40|200:40|144:72|144:72|224:88|224:88|96:112|96:112|256:144|256:144|128:176|128:176|224:184|224:184|160:224|160:224|216:232|216:232|184:248|184:248|184:264|184:296|184:296|168:312|168:312|200:312|200:312|184:328|184:328|184:344|184:344|168:360|168:360|200:360|200:360|184:368|184:368|184:384,1,1133.2608022134,4|0,0:0|0:0,0:0:0:0:
407,367,220635,2,0,P|289:237|416:128,1,377.7536007378
408,8,220821,2,0,P|526:138|399:247,1,377.7536007378,8|0,0:0|0:0,0:0:0:0:
219,247,221007,2,0,P|101:117|228:8,1,377.7536007378
296,8,221194,6,0,B|344:40|344:40|296:72|296:72|344:104|344:104|296:136|296:136|344:168|344:168|296:200|296:200|344:232|344:232|296:264|296:264|344:296|344:296|208:392|208:392|72:296|72:296|72:248|72:248|24:248|24:248|24:40,1,1133.2608022134,8|0,0:0|0:0,0:0:0:0:
224,8,221566,2,0,B|176:40|176:40|224:72|224:72|176:104|176:104|224:136|224:136|176:168|176:168|224:200|224:200|176:232|176:232|224:264|224:264|176:296|176:296|312:392|312:392|448:296|448:296|448:248|448:248|496:248|496:248|496:40,1,1133.2608022134,8|0,0:0|0:0,0:0:0:0:
386,262,221939,6,0,B|360:216|360:216|344:168|304:216|240:128|264:56|328:40|352:72|360:80|360:80|368:72|392:40|456:56|480:128|416:216|376:168|360:216|360:216|291:233|299:353|243:369|112:376|32:376|-8:384|-40:384|-56:264|16:248|16:240|40:216|40:216|56:168|96:216|152:128|136:56|72:40|48:72|40:80|40:80|32:72|8:40|-56:56|-72:128|-16:216|24:168|40:216|40:216|112:264|88:328,3,1694.38103975228,8|8|8|8,0:0|0:0|0:0|0:0,0:0:0:0:
40,8,223243,1,0,0:0:0:0:
472,8,223430,6,0,B|368:190|368:190|256:8,1,423.595259938071,8|0,0:0|0:0,0:0:0:0:
40,8,223616,2,0,B|144:190|144:190|256:8,1,423.595259938071
0,128,223802,2,0,B|144:384|144:384|264:312|264:312|288:176|288:176|152:256|152:256|368:384|368:384|512:128,1,1270.78577981421,8|0,0:0|0:0,0:0:0:0:
512,16,224175,2,0,B|400:16|376:16|359:273|359:273|352:16|336:16|168:8|128:32|128:32|32:88|56:200|128:224|200:200|224:88|128:32|128:32|88:8|5:6,1,1270.78577981421,8|0,0:0|0:0,0:0:0:0:
1,211,224548,2,0,P|150:282|272:88,1,423.595259938071,8|0,0:0|0:0,0:0:0:0:
256,376,224734,5,0,0:0:0:0:
512,136,224920,2,0,B|440:136|400:0|400:0|400:384|400:384|368:208|336:200|224:192|136:200|136:200|64:208|24:288|40:384|136:384|232:384|248:288|208:208|136:200|136:200|79:196|16:200|16:200|-48:272|12:371,3,1694.38103975228,8|8|8|8,0:0|0:0|0:0|0:0,0:0:0:0:
136,48,226225,1,0,0:0:0:0:
248,368,226411,6,0,B|320:296|284:80|24:136,1,423.595259938071,8|0,0:0|0:0,0:0:0:0:
136,280,226597,2,0,B|228:323|418:215|277:-9,1,423.595259938071
360,342,226784,2,0,P|356:216|112:48,1,423.595259938071,8|0,0:0|0:0,0:0:0:0:
480,8,226970,2,0,P|384:128|120:200,1,423.595259938071
0,192,227156,2,0,B|72:224|112:304|112:304|96:344|88:360|80:384|64:384|40:384|0:384|-16:352|-8:304|16:280|48:272|112:304|112:304|136:360|192:384|256:392|320:384|376:360|400:304|400:304|464:272|496:280|520:304|528:352|512:384|472:384|448:384|432:384|424:360|416:344|400:304|400:304|440:224|512:192,1,1270.78577981421,8|0,0:0|0:0,0:0:0:0:
448,152,227529,2,0,P|256:228|64:152,1,423.595259938071,8|0,0:0|0:0,0:0:0:0:
512,192,227715,2,0,B|536:160|528:112|512:80|472:48|400:40|392:144|352:152|328:120|328:120|360:192|344:292|344:292|340:308|352:356|376:376|416:376|424:384|424:384|432:376|520:368|520:304|520:240|456:224|424:256|424:256|400:236|380:244|356:248|344:276|344:292|344:292|256:216|168:292|168:292|168:276|156:248|132:244|112:236|88:256|88:256|56:224|-8:240|-8:304|-8:368|80:376|88:384|88:384|96:376|136:376|160:356|172:308|168:292|168:292|152:192|184:120|184:120|160:152|120:144|112:40|40:48|0:80|-16:112|-24:160|0:192,1,2117.97629969035
512,24,228274,6,0,B|504:0|504:0|496:16|496:16|480:0|480:0|464:12|464:12|440:0|440:0|432:16|432:16|408:0|408:0|392:32|392:32|368:0|368:0|352:60|352:60|304:0|304:0|312:56|312:56|272:-8|272:-8|256:120|256:120|240:-8|240:-8|200:56|200:56|208:0|208:0|160:60|160:60|144:0|144:0|120:32|120:32|104:0|104:0|80:16|80:16|72:0|72:0|48:12|48:12|32:0|32:0|16:16|16:16|8:0|8:0|0:24,1,1270.78577981421,12|0,0:0|0:0,0:0:0:0:
8,96,228647,2,0,B|56:80|88:80|120:104|144:136|184:216|96:320|-8:392,1,423.595259938071,8|0,0:0|0:0,0:0:0:0:
216,360,228833,2,0,P|75:181|192:120,1,423.595259938071
327,119,229020,2,0,P|452:258|296:360,1,423.595259938071,8|0,0:0|0:0,0:0:0:0:
500,378,229206,2,0,B|416:320|328:216|368:136|392:104|424:80|456:80|504:96,1,423.595259938071
512,160,229392,6,0,B|576:232|544:360|480:368|344:320|328:312|328:296|312:280|256:304|256:304|240:272|208:288|168:248|168:160|232:156|256:180|256:180|280:156|344:160|344:248|304:288|272:272|256:304|256:304|200:280|184:296|184:312|168:320|32:368|-32:360|-64:232|0:160,1,1270.78577981421,8|0,0:0|0:0,0:0:0:0:
40,96,229765,2,0,B|104:32|144:16|204:16|204:16|144:64|136:104|168:132|168:132|192:108|240:104|256:112|256:112|272:104|320:108|344:132|344:132|376:104|368:64|308:16|308:16|368:16|408:32|472:96,1,847.190519876141,8|0,0:0|0:0,0:0:0:0:
512,160,230045,2,0,B|360:376|360:376|256:255|256:255|152:376|152:376|0:160,1,847.190519876141
120,148,230324,2,0,B|192:236|192:236|256:161|256:161|320:236|320:236|392:148,1,423.595259938071
470,94,230510,2,0,B|512:72|472:0|416:88|416:88|416:0|376:-8|320:16|320:16|256:64|288:128|320:176|352:128|384:64|320:16|320:16|256:-8|192:16|192:16|128:64|160:128|192:176|224:128|256:64|192:16|192:16|136:-8|96:0|96:88|96:88|40:0|0:72|40:96,1,1270.78577981421,8|0,0:0|0:0,0:0:0:0:
40,192,230883,6,0,B|-8:272|120:352|16:368|16:368|-32:312|16:288|88:280|256:384|256:384|296:328|320:360|368:320|376:224|376:192|320:184|280:184|264:208|256:210|256:210|248:208|232:184|192:184|136:192|136:224|144:320|192:360|216:328|256:384|256:384|424:280|496:288|544:312|496:368|496:368|392:352|520:272|472:192,4,1694.38103975228,8|8|8|8|8,0:0|0:0|0:0|0:0|0:0,0:0:0:0:
384,24,232560,5,8,0:0:0:0:
256,288,232746,1,8,0:0:0:0:
128,24,232933,1,8,0:0:0:0:
328,48,233119,6,0,B|264:96|264:96|191:50|191:50|232:128|232:128|152:88|152:88|191:162|191:162|119:130|119:130|149:198|149:198|79:170|79:170|104:232|104:232|39:218|39:218|77:269|88:288|72:384|72:384|160:312|160:312|160:272|160:272|216:272|216:272|320:184,1,1270.78577981421,8|0,0:0|0:0,0:0:0:0:
250,374,233492,2,0,B|314:326|314:326|387:372|387:372|346:294|346:294|426:334|426:334|387:260|387:260|459:292|459:292|429:224|429:224|499:252|499:252|474:190|474:190|539:204|539:204|500:152|490:134|506:38|506:38|418:110|418:110|418:150|418:150|362:150|362:150|258:238,1,1270.78577981421,8|0,0:0|0:0,0:0:0:0:
176,304,233864,6,0,B|104:368|32:368|-9:335|-56:256|16:136|104:136|104:136|136:128|168:200|184:256|128:264|96:280|72:320|32:328|24:248|64:176|104:176|144:200|203:220|203:220|234:203|208:96|184:64|88:40|0:104|0:104|-8:24|-8:24|48:0|80:-8|112:-8|192:0|224:16|272:88|280:136|280:136|256:40|296:0|336:-8|384:0|416:40|384:96|344:112|328:96|320:72|328:48|360:32,3,1900,8|8|8|8,0:0|0:0|0:0|0:0,0:0:0:0:
512,0,235169,1,0,0:0:0:0:
512,368,235355,6,0,P|376:208|240:368,1,475,8|0,0:0|0:0,0:0:0:0:
184,272,235541,2,0,P|390:234|320:36,1,475
488,96,235728,2,0,P|414:292|232:189,1,475,8|0,0:0|0:0,0:0:0:0:
152,160,235914,2,0,P|361:164|325:370,1,475
176,376,236100,2,0,B|104:376|104:352|104:328|32:328|32:328|-40:320|-40:224|32:216|32:216|104:208|104:104|32:96|32:96|-32:96|-32:0|32:0|32:0|80:0|80:48|80:48|88:88|136:88|144:48|144:48|136:8|88:8|80:48|80:48|80:96|32:96|32:96|-40:104|-40:208|32:216|32:216|104:224|104:320|32:328|32:328|0:352|48:392,1,1425,8|0,0:0|0:0,0:0:0:0:
242,385,236473,2,0,B|240:312|192:304|152:320|148:307|148:307|160:256|136:216|136:216|152:192|150:135|150:135|211:108|221:38|198:4,1,475,8|0,0:0|0:0,0:0:0:0:
216,176,236659,5,0,0:0:0:0:
304,376,236846,2,0,B|344:384|368:368|408:360|480:352|408:224|416:224|496:152|616:184|592:320|544:344|416:360|400:224|400:224|384:168|352:224|320:168|240:144|184:16|288:-48|352:-40|392:8|400:20|400:20|408:8|448:-40|512:-48|616:16|560:144|480:168|448:224|416:168|400:224|400:224|384:360|256:344|208:320|184:184|304:152|384:224|392:224|320:352|392:360|432:368|456:384|496:376,3,1900,8|8|8|8,0:0|0:0|0:0|0:0,0:0:0:0:
400,136,238150,1,0,0:0:0:0:
152,320,238336,6,0,B|72:320|72:320|72:360|72:360|-21:287|-21:287|72:216|72:216|72:256|72:256|152:256,1,475,8|0,0:0|0:0,0:0:0:0:
144,168,238523,2,0,B|144:88|144:88|104:88|104:88|175:-5|175:-5|248:88|248:88|208:88|208:88|208:168,1,475
360,56,238709,2,0,B|440:56|440:56|440:16|440:16|533:89|533:89|440:160|440:160|440:120|440:120|360:120,1,475,8|0,0:0|0:0,0:0:0:0:
368,208,238895,2,0,B|368:288|368:288|408:288|408:288|337:381|337:381|264:288|264:288|304:288|304:288|304:208,1,475
232,360,239082,2,0,B|136:376|80:280|80:280|64:216|-24:208|-64:280|-24:352|64:344|80:280|80:280|128:240|136:192|136:192|160:120|240:128|272:192|240:256|160:264|136:192|136:192|128:144|80:104|80:104|64:40|-24:32|-64:104|-24:176|64:168|80:104|80:104|136:8|232:24,1,1425,8|0,0:0|0:0,0:0:0:0:
384,24,239454,2,0,B|504:32|512:160|467:193|467:193|512:224|504:352|384:360,1,475,8|0,0:0|0:0,0:0:0:0:
0,296,239641,2,0,B|56:320|128:320|160:304|160:304|184:384|280:360|280:360|160:272|240:232|336:192|392:176|496:184|472:304|432:352|312:300|264:280|208:192|208:192|96:88|-28:192|-28:192|96:296|208:192|208:192|264:104|312:84|432:32|472:80|496:200|392:208|336:192|240:152|160:112|280:24|280:24|184:0|160:80|160:80|128:64|56:64|0:88,1,2375
344,24,240200,6,0,B|368:0|368:0|368:24|368:24|392:0|392:0|388:24|388:24|408:4|408:4|404:28|404:28|416:4|416:4|420:32|420:32|436:8|436:8|444:44|444:44|468:24|468:24|460:56|460:56|488:36|488:36|472:68|472:68|500:60|500:60|480:80|480:80|504:92|504:92|488:100|488:100|508:116|508:116|492:116|492:116|500:128|500:128|492:136|492:136|504:148|504:148|488:160|488:160|504:168|504:168|484:172|484:172|496:184|496:184|468:192|468:192|496:200|496:200|484:212|484:212|504:216|504:216|488:224|488:224|504:236|504:236|492:248|492:248|500:256|500:256|492:268|492:268|508:268|508:268|488:284|488:284|504:292|504:292|480:304|480:304|500:324|500:324|472:316|472:316|488:348|488:348|460:328|460:328|468:360|468:360|444:340|444:340|436:376|436:376|420:352|420:352|416:380|416:380|404:356|404:356|408:380|408:380|388:360|388:360|392:384|392:384|368:360|368:360|368:384|368:384|344:360,1,1425,12|0,0:0|0:0,0:0:0:0:
280,272,240572,2,0,B|216:384|216:384|152:296|152:296|88:384|88:384|24:272,1,475,8|0,0:0|0:0,0:0:0:0:
56,200,240759,2,0,B|168:32|168:32|168:152|168:152|0:152,1,475
240,0,240945,2,0,B|240:208|240:208|528:208,1,475,8|0,0:0|0:0,0:0:0:0:
512,0,241132,2,0,B|328:152|328:152|512:304,1,475
240,0,241318,6,0,B|240:256|240:256|240:288|232:304|224:320|192:328|224:368|240:376|264:384|280:384|304:384|320:384|336:384|344:384|360:384|384:384|544:384|576:384|632:352|488:256|328:192|192:176|176:256|192:344|224:344|248:384|216:384|136:392|88:384|32:376|-16:368|-32:352|-24:0,1,1425,8|0,0:0|0:0,0:0:0:0:
312,216,241691,2,0,B|312:8|312:8|392:-16|440:-16|464:-8|496:0|560:0|552:88|560:176|488:200|376:224|376:224|448:232|532:276|516:378,1,950,8|0,0:0|0:0,0:0:0:0:
240,368,241970,2,0,B|176:368|72:368|64:368|64:360|64:224|64:224|144:176|224:176|276:224|224:272|144:272|64:224|64:224|64:88|64:80|72:80|176:80|240:80,1,950
0,384,242250,2,0,B|0:16|0:16|112:16,1,475
64,160,242436,2,0,B|232:160|232:160|240:128|264:144|336:128|328:40|312:0|264:0|240:16|232:24|232:24|224:16|200:0|152:0|136:40|128:128|192:144|224:128|232:160|232:160|440:160|440:160|448:128|480:144|544:128|536:40|520:0|472:0|448:16|440:24|440:24|432:16|408:0|360:0|344:40|336:128|408:144|432:128|440:160|440:160|568:160,1,1425,8|0,0:0|0:0,0:0:0:0:
488,224,242809,6,0,B|536:224|536:224|472:296|540:384|540:384|472:352|384:384|384:384|384:344|424:384|464:336|480:232|416:208|376:232|360:248|360:248|344:232|304:208|240:232|256:336|296:384|336:344|336:384|336:384|256:360|176:384|176:384|176:344|216:384|256:336|272:232|208:208|168:232|152:248|152:248|136:232|96:208|32:232|48:336|88:384|128:344|128:384|128:384|40:352|-28:384|-28:384|40:296|-24:224|-24:224|24:224,5,1900,8|8|8|8|8|0,0:0|0:0|0:0|0:0|0:0|0:0,0:0:0:0:
0,0,244858,6,0,L|488:0,1,475,2|0,0:0|0:0,0:0:0:0:
512,96,245045,2,0,L|38:64,1,475,2|0,0:0|0:0,0:0:0:0:
72,136,245231,2,0,L|560:200,1,475,2|0,0:0|0:0,0:0:0:0:
512,304,245417,2,0,L|48:201,1,475,2|0,0:0|0:0,0:0:0:0:
0,256,245604,2,0,L|464:384,1,475,2|0,0:0|0:0,0:0:0:0:
288,120,245790,6,0,B|312:40|400:-8|496:-8|496:-8|528:8|528:80|496:112|496:112|528:144|512:224|456:216|400:192|400:192|432:224|472:312|448:344|408:368|336:368|296:352|272:296|256:259|256:259|240:296|216:352|176:368|104:368|64:344|40:312|80:224|112:192|112:192|56:216|8:224|-16:144|16:112|16:112|-16:80|-16:8|16:-8|16:-8|112:-8|200:40|224:120,3,1900,8|8|8|8,0:0|0:0|0:0|0:0,0:0:0:0:
256,376,247094,1,0,0:0:0:0:
288,248,247281,6,0,B|344:232|376:208|392:160|392:160|448:176|496:184|496:184|520:168|504:144|504:144|536:136|512:112|512:112|544:96|528:72|528:72|480:64|392:88|392:88|384:32|344:8|288:8|256:46|256:46|224:8|168:8|128:32|120:88|120:88|32:64|-16:72|-16:72|-32:96|0:112|0:112|-24:136|8:144|8:144|-8:168|16:184|16:184|64:176|120:160|120:160|136:208|168:232|224:248,1,1425,8|0,0:0|0:0,0:0:0:0:
48,256,247653,2,0,P|256:354|464:256,1,475,8|0,0:0|0:0,0:0:0:0:
512,376,247840,2,0,B|280:360|376:232|432:72|181:20,1,475
472,88,248026,2,0,B|255:189|255:189|41:88,1,475,8|0,0:0|0:0,0:0:0:0:
256,42,248212,2,0,B|120:96|128:232|224:368|0:376,1,475
56,256,248399,2,0,B|224:280|256:364|256:364|288:280|456:256,1,475,8|0,0:0|0:0,0:0:0:0:
256,256,248585,1,0,0:0:0:0:
0,224,248771,6,0,B|24:160|24:160|24:120|-16:160|-56:112|-68:8|-8:-16|32:8|48:24|48:24|64:8|104:-16|164:8|152:112|112:160|72:120|72:160|72:160|152:136|232:160|232:160|232:120|192:160|152:112|140:8|200:-16|240:8|256:24|256:24|272:8|312:-16|372:8|360:112|320:160|280:120|280:160|280:160|360:136|440:160|440:160|440:120|400:160|360:112|348:8|408:-16|448:8|464:24|464:24|480:8|520:-16|580:8|568:112|528:160|488:120|488:160|488:160|512:224,5,1900,8|8|8|8|8|8,0:0|0:0|0:0|0:0|0:0|0:0,0:0:0:0:
488,380,250821,6,0,B|440:228|440:228|392:208|328:208|280:228|280:228|208:368,1,475
256,88,251007,1,8,0:0:0:0:
24,380,251194,2,0,B|72:228|72:228|120:208|184:208|232:228|232:228|304:368,1,475
256,88,251380,1,8,0:0:0:0:
400,320,251566,2,0,P|256:165|112:320,1,475
460,364,251753,6,0,B|492:264|420:172|420:172|410:144|397:157|377:141|353:90|349:54|388:17|419:3|456:42|460:52|460:52|471:47|523:41|537:72|543:125|517:150|467:174|442:173|440:155|420:172|420:172|368:120|324:104|288:100|288:100|264:100|356:40|256:2|256:2|156:40|248:100|224:100|224:100|188:104|144:120|92:172|92:172|72:155|70:173|45:174|-5:150|-31:125|-25:72|-11:41|41:47|52:52|52:52|56:42|93:3|124:17|163:54|159:90|135:141|115:157|102:144|92:172|92:172|20:264|52:364,1,1900,8|8,0:0|0:0,0:0:0:0:
224,240,252312,2,0,B|168:380|168:380|344:380|344:380|288:240,1,475
424,0,252498,2,0,B|532:0|532:0|488:8|488:8|416:384|416:384|264:0|264:0|248:0|248:0|96:384|96:384|24:8|24:8|-20:0|-20:0|88:0,2,1900,8|8|8,0:0|0:0|0:0,0:0:0:0:
112,104,253430,6,0,B|255:293|255:293|400:104,1,475
312,120,253616,2,0,B|256:192|256:192|200:120|200:120|256:120|256:120|256:464,1,475,8|0,0:0|0:0,0:0:0:0:
96,280,253802,2,0,B|96:256|88:240|88:240|32:336|32:336|16:360|16:360|-28:384|-28:384|56:384|56:384|72:376|72:376|112:384|112:384|200:384|200:384|128:336|32:304|-8:272|-32:192|-48:144|-40:32|-16:0|32:0|96:-8|144:-8|192:-8|240:16|256:52|256:52|272:16|320:-8|368:-8|416:-8|480:0|528:0|552:32|560:144|544:192|520:272|480:304|384:336|312:384|312:384|400:384|400:384|440:376|440:376|456:384|456:384|540:384|540:384|496:360|496:360|480:336|480:336|424:240|424:240|416:256|416:280,1,2375
288,328,254361,6,0,B|288:280|248:256|224:248|160:288|160:288|160:216|128:192|128:192|136:184|160:184|224:168|232:88|200:64|160:48|136:64|128:72|128:72|120:64|96:48|56:64|24:88|32:168|88:184|120:184|128:192|128:192|192:184|256:48|344:104|344:240|256:240|168:240|168:104|256:48|320:184|384:192|384:192|392:184|424:184|480:168|488:88|456:64|416:48|392:64|384:72|384:72|376:64|352:48|312:64|280:88|288:168|352:184|376:184|384:192|384:192|352:216|352:288|352:288|288:248|264:256|224:280|224:328,4,1900,8|8|8|8|8,0:0|0:0|0:0|0:0|0:0,0:0:0:0:
336,376,256038,6,0,B|528:384|544:368|560:288|560:232|480:192|440:200|400:216|384:272|392:320|448:336|472:328|530:188,1,475
512,176,256225,1,8,0:0:0:0:
176,376,256411,2,0,B|-16:384|-32:368|-48:288|-48:232|32:192|72:200|112:216|128:272|120:320|64:336|40:328|-18:188,1,475
0,176,256598,1,8,0:0:0:0:
256,8,256784,2,0,B|153:170|158:192|220:245|268:273|343:224|356:186|362:143|322:101|276:84|234:124|229:149|321:270,1,475
112,376,256970,1,8,0:0:0:0:
256,8,257156,1,8,0:0:0:0:
400,376,257343,1,8,0:0:0:0:
0,120,257529,1,8,0:0:0:0:
512,120,257715,6,0,B|520:176|504:248|504:248|488:288|536:376|536:376|472:320|448:344|424:352|424:352|408:360|400:384|368:384|264:384|256:384|256:384|184:352|120:328|88:312|24:256|32:160|56:56|64:-8|112:0|192:-8|240:24|256:72|256:72|376:240|376:240|256:240|256:240|216:164|216:164|296:164|296:164|256:240|256:240|136:240|136:240|256:72|256:72|272:24|320:-8|400:0|448:-8|456:56|480:160|488:256|424:312|392:328|328:352|256:384|256:384|248:384|144:384|112:384|104:360|88:352|88:352|64:344|40:320|-28:376|-28:376|24:288|8:248|8:248|-8:176|0:120,1,3325,8|0,0:0|0:0,0:0:0:0:
224,304,258461,2,0,B|256:320|256:320|288:304|288:304|336:352|336:352|384:304|384:304|456:392|456:392|512:312|512:312|297:15|297:15|136:240|136:240|376:240|376:240|292:127,1,1425,8|0,0:0|0:0,0:0:0:0:
8,352,258833,1,8,0:0:0:0:
0,24,259020,2,0,B|224:0|224:0|124:137|124:137|57:65,1,475
32,136,259206,6,0,B|184:384|184:384|280:288|280:288|312:248|352:256|384:232|400:144|368:96|304:96|280:128|280:128|256:96|192:96|160:144|176:232|208:256|248:248|280:288|280:288|376:384|376:384|528:136,1,1425,8|0,0:0|0:0,0:0:0:0:
460,124,259579,2,0,B|440:36|360:-12|280:8|280:8|200:-8|120:36|100:124,1,475,8|0,0:0|0:0,0:0:0:0:
0,0,259765,2,0,B|-48:168|80:160|88:200|88:200|120:160|200:160|296:240|192:384|96:376|88:384|88:384|80:376|-16:384|-112:240|-24:160|56:160|88:200|88:200|96:168|184:184|240:176|256:72|256:72|272:176|328:184|416:168|424:200|424:200|456:160|536:160|624:240|528:384|432:376|424:384|424:384|416:376|320:384|216:240|312:160|392:160|424:200|424:200|432:160|560:168|512:0,1,2375
424,312,260324,2,0,B|504:280|480:192|352:80|352:80|352:8|392:0|432:-16|512:32|440:152|352:80|352:80|304:0|256:0|208:0|160:80|160:80|72:152|0:32|80:-16|120:0|160:8|160:80|160:80|32:192|8:280|88:312,1,1425,8|0,0:0|0:0,0:0:0:0:
8,16,260697,6,0,B|-16:72|24:124|24:124|-68:236|-40:336|16:368|56:384|80:384|200:384|256:368|256:368|304:344|360:336|392:240|392:144|288:144|256:184|256:184|224:144|120:144|120:240|152:336|208:344|256:368|256:368|312:384|432:384|456:384|496:368|552:336|580:236|488:124|488:124|528:72|504:16,5,1900,8|8|8|8|8|8,0:0|0:0|0:0|0:0|0:0|0:0,0:0:0:0:
96,312,262746,6,0,B|40:160|136:64|236:93|256:104|256:104|384:16,1,475
504,16,262933,1,8,0:0:0:0:
416,312,263119,2,0,B|472:160|376:64|276:93|256:104|256:104|128:16,1,475
8,16,263306,1,8,0:0:0:0:
208,120,263492,2,0,B|176:104|152:112|120:192|200:248|256:272|256:272|312:248|392:192|360:112|336:104|304:120,1,475
256,76,263678,6,0,B|264:24|264:24|296:40|296:40|312:16|312:16|344:40|344:40|496:40|496:40|384:64|384:64|504:104|504:104|416:104|416:104|504:168|504:168|424:160|424:160|496:232|496:232|408:216|408:216|488:288|488:288|384:264|384:264|456:344|456:344|352:296|352:296|376:360|376:360|304:320|304:320|256:352|256:352|208:320|208:320|136:360|136:360|160:296|160:296|56:344|56:344|128:264|128:264|24:288|24:288|104:216|104:216|16:232|16:232|88:160|88:160|8:168|8:168|96:104|96:104|8:104|8:104|128:64|128:64|16:40|16:40|168:40|168:40|200:16|200:16|216:40|216:40|248:24|248:24|256:76,1,3325,8|0,0:0|0:0,0:0:0:0:
256,144,264423,2,0,B|304:104|304:104|320:96|320:96|336:104|336:104|364:144|364:144|344:216|344:216|316:248|316:248|280:264|280:264|256:280|256:280|232:264|232:264|196:248|196:248|168:216|168:216|148:144|148:144|176:104|176:104|192:96|192:96|200:104|200:104|256:144|256:144|256:184|256:184|256:208|256:208|256:184|256:184|256:208|256:208|256:184|256:184|256:208|256:208|256:184|256:184|256:208|256:208|256:184|256:184|256:208|256:208|256:184|256:184|256:248,2,950,8|0|8,0:0|0:0|0:0,0:0:0:0:
208,8,264982,6,0,B|-8:0|-24:8|-56:96|-48:152|32:184|64:176|104:160|120:104|104:64|56:48|32:64|-26:196,1,475
32,216,265169,2,0,B|120:384|120:384|256:328|256:328|272:304|336:320|440:192|416:72|280:80|256:125|256:125|232:80|96:72|72:192|176:320|240:304|256:328|256:328|392:384|392:384|480:216,1,1425,8|0,0:0|0:0,0:0:0:0:
458,82,265541,2,0,B|440:80|432:80|408:96|416:120|424:160|448:168|480:176|560:152|568:96|536:8|520:0|304:8,1,475,8|0,0:0|0:0,0:0:0:0:
200,72,265728,2,0,B|200:128|200:128|224:144|224:144|224:176|224:176|192:160|152:176|152:176|80:152|-8:184|-24:320|0:384|72:384|152:384|152:384|160:352|184:368|256:352|248:264|232:224|184:224|160:240|152:248|152:248|144:240|120:224|72:224|56:264|48:352|112:368|144:352|152:384|152:384|256:320|360:384|360:384|368:352|400:368|464:352|456:264|440:224|392:224|368:240|360:248|360:248|352:240|328:224|280:224|264:264|256:352|328:368|352:352|360:384|360:384|440:384|512:384|536:320|520:184|432:152|360:176|360:176|320:160|288:176|288:176|288:144|288:144|312:128|312:128|312:72,1,2375
376,104,266287,2,0,B|424:0|456:0|504:0|528:0|528:96|504:144|424:112|416:64|384:24|368:0|312:-8|280:0|256:34|256:34|232:0|200:-8|144:0|128:24|96:64|88:112|8:144|-16:96|-16:0|8:0|56:0|88:0|136:104,9,950,8|0|8|0|8|0|8|0|8|0,0:0|0:0|0:0|0:0|0:0|0:0|0:0|0:0|0:0|0:0,0:0:0:0:
0,156,268150,6,0,L|488:196,1,475,8|0,0:0|0:0,0:0:0:0:
504,260,268336,2,0,L|16:220,1,475,8|0,0:0|0:0,0:0:0:0:
0,280,268523,2,0,L|488:320,1,475,8|0,0:0|0:0,0:0:0:0:
504,384,268709,2,0,L|16:344,1,475,8|0,0:0|0:0,0:0:0:0:
354,0,268895,6,0,L|26:352,1,475,2|0,0:0|0:0,0:0:0:0:
106,33,269082,2,0,L|434:385,1,475,2|0,0:0|0:0,0:0:0:0:
440,32,269268,2,0,L|112:384,1,475,2|0,0:0|0:0,0:0:0:0:
0,32,269454,2,0,L|328:384,1,475,2|0,0:0|0:0,0:0:0:0:
216,56,269641,5,0,0:0:0:0:
72,208,269827,1,0,0:0:0:0:
224,368,270013,1,0,0:0:0:0:
368,208,270200,1,0,0:0:0:0:
256,192,270246,12,0,274113,0:0:0:0:
