osu file format v14

[General]
AudioFilename: audio.mp3
AudioLeadIn: 0
PreviewTime: 60593
Countdown: 0
SampleSet: Normal
StackLeniency: 0.7
Mode: 3
LetterboxInBreaks: 0
SpecialStyle: 0
WidescreenStoryboard: 1

[Editor]
DistanceSpacing: 2
BeatDivisor: 4
GridSize: 4
TimelineZoom: 2.2

[Metadata]
Title:Ikenai Borderline (Sped Up Ver.)
TitleUnicode:いけないボーダーライン (Sped Up Ver.)
Artist:Walkuere
ArtistUnicode:ワルキューレ
Creator:-mint-
Version:Can I get a Large Wintermelon Drink Half Ice With Pearls and Milk Foam
Source:マクロスΔ
Tags:MACROSS DELTA Walkure Walküre Valkyrie マクロスΔスクランブル Idol Group 美雲・ギンヌメール Mikumo Guynemer カナメ・バッカニア Kaname Buccaneer マキナ・中島 Makina Nakajima レイナ・プラウラー Reina Prowler フレイア・ヴィオン Freyja Wion JUNNA 安野希世乃 Kiyono Yasuno 西田望見 Nozomi Nishida 東山奈央 Nao Toyama 鈴木みのり Minori Suzuki 是永巧一 Koichi Korenaga 村田陽一 Yoichi Murata 山口隼士 Shunji Yamaguchi 西村浩二 Koji Nishimura 菅坂雅彦 Masahiko Sugasaka 山本拓夫 Takuo Yamamoto 一度だけの恋なら / ルンがピカッと光ったら VE3WA-17575 osu!mania 4k world cup 2022 mwc22 mwc 4k 2022 ro32 round of 32 js jumpstream 1.2x 120% qqqant jpop j-pop j pop anime japanese
BeatmapID:3779566
BeatmapSetID:1840222

[Difficulty]
HPDrainRate:8.5
CircleSize:4
OverallDifficulty:8.5
ApproachRate:5
SliderMultiplier:1.4
SliderTickRate:1

[Events]
//Background and Video events
0,0,"31335ccb-a9f1-4400-935e-4d3774fa89b0.png",0,0
//Break Periods
//Storyboard Layer 0 (Background)
//Storyboard Layer 1 (Fail)
//Storyboard Layer 2 (Pass)
//Storyboard Layer 3 (Foreground)
//Storyboard Layer 4 (Overlay)
//Storyboard Sound Samples

[TimingPoints]
500,310.55900621118,4,1,1,30,1,0
2984,-100,4,1,1,35,0,0
5468,-100,4,1,1,40,0,0
7953,-100,4,1,1,45,0,0
9972,-100,4,1,1,50,0,0
61369,-100,4,1,1,50,0,1
80003,-100,4,1,1,50,0,0
80934,310.55900621118,4,1,1,50,1,0
124412,-100,4,1,1,50,0,1
143045,-100,4,1,1,50,0,0
162921,-100,4,1,1,50,0,1
181555,-100,4,1,1,50,0,0
182486,310.55900621118,4,1,1,50,1,0
184970,-100,4,1,1,50,0,1
203604,-100,4,1,1,50,0,0

[HitObjects]
64,192,500,5,0,0:0:0:0:
320,192,655,5,0,0:0:0:0:
192,192,810,1,0,0:0:0:0:
448,192,965,1,0,0:0:0:0:
64,192,1121,1,0,0:0:0:0:
320,192,1276,1,0,0:0:0:0:
192,192,1431,1,0,0:0:0:0:
448,192,1586,1,0,0:0:0:0:
192,192,1742,1,0,0:0:0:0:
64,192,1897,1,0,0:0:0:0:
320,192,2052,1,0,0:0:0:0:
448,192,2208,1,0,0:0:0:0:
192,192,2363,1,0,0:0:0:0:
64,192,2518,1,0,0:0:0:0:
320,192,2673,1,0,0:0:0:0:
192,192,2829,1,0,0:0:0:0:
320,192,2984,1,0,0:0:0:0:
64,192,3139,1,0,0:0:0:0:
448,192,3295,1,0,0:0:0:0:
192,192,3450,1,0,0:0:0:0:
320,192,3605,1,0,0:0:0:0:
64,192,3760,1,0,0:0:0:0:
448,192,3916,1,0,0:0:0:0:
192,192,4071,1,0,0:0:0:0:
448,192,4226,1,0,0:0:0:0:
320,192,4381,1,0,0:0:0:0:
64,192,4537,1,0,0:0:0:0:
192,192,4692,1,0,0:0:0:0:
448,192,4847,1,0,0:0:0:0:
320,192,5003,1,0,0:0:0:0:
64,192,5158,1,0,0:0:0:0:
192,192,5313,1,0,0:0:0:0:
448,192,5468,1,0,0:0:0:0:
448,192,5624,1,0,0:0:0:0:
64,192,5779,1,0,0:0:0:0:
64,192,5934,1,0,0:0:0:0:
320,192,6090,1,0,0:0:0:0:
320,192,6245,1,0,0:0:0:0:
192,192,6400,1,0,0:0:0:0:
192,192,6555,1,0,0:0:0:0:
64,192,6711,1,0,0:0:0:0:
64,192,6866,1,0,0:0:0:0:
320,192,7021,1,0,0:0:0:0:
320,192,7177,1,0,0:0:0:0:
192,192,7332,1,0,0:0:0:0:
192,192,7487,1,0,0:0:0:0:
448,192,7642,1,0,0:0:0:0:
448,192,7798,1,0,0:0:0:0:
320,192,7953,1,0,0:0:0:0:
64,192,7953,128,0,9972:0:0:0:0:
320,192,8108,1,0,0:0:0:0:
192,192,8263,1,0,0:0:0:0:
192,192,8419,1,0,0:0:0:0:
320,192,8574,1,0,0:0:0:0:
320,192,8729,1,0,0:0:0:0:
192,192,8885,1,0,0:0:0:0:
192,192,9040,1,0,0:0:0:0:
448,192,9195,1,0,0:0:0:0:
448,192,9350,1,0,0:0:0:0:
320,192,9506,1,0,0:0:0:0:
320,192,9661,1,0,0:0:0:0:
192,192,9816,1,0,0:0:0:0:
320,192,9972,1,0,0:0:0:0:
448,192,9972,1,0,0:0:0:0:
192,192,10127,1,0,0:0:0:0:
64,192,10127,1,0,0:0:0:0:
448,192,10127,1,0,0:0:0:0:
320,192,10282,1,0,0:0:0:0:
192,192,10360,1,0,0:0:0:0:
64,192,10437,1,0,0:0:0:0:
448,192,10437,1,0,0:0:0:0:
320,192,10515,1,0,0:0:0:0:
64,192,10593,1,0,0:0:0:0:
320,192,10670,1,0,0:0:0:0:
192,192,10748,1,0,0:0:0:0:
448,192,10748,1,0,0:0:0:0:
64,192,10826,1,0,0:0:0:0:
448,192,10903,1,0,0:0:0:0:
320,192,10981,1,0,0:0:0:0:
192,192,11059,1,0,0:0:0:0:
448,192,11214,1,0,0:0:0:0:
64,192,11369,1,0,0:0:0:0:
448,192,11369,1,0,0:0:0:0:
192,192,11524,1,0,0:0:0:0:
192,192,11680,1,0,0:0:0:0:
448,192,11680,1,0,0:0:0:0:
64,192,11757,1,0,0:0:0:0:
448,192,11835,1,0,0:0:0:0:
64,192,11913,1,0,0:0:0:0:
192,192,11990,1,0,0:0:0:0:
320,192,11990,1,0,0:0:0:0:
448,192,12068,1,0,0:0:0:0:
192,192,12145,1,0,0:0:0:0:
64,192,12223,1,0,0:0:0:0:
320,192,12301,1,0,0:0:0:0:
192,192,12456,1,0,0:0:0:0:
192,192,12611,1,0,0:0:0:0:
448,192,12611,1,0,0:0:0:0:
320,192,12767,1,0,0:0:0:0:
320,192,12922,1,0,0:0:0:0:
192,192,12922,1,0,0:0:0:0:
448,192,12999,1,0,0:0:0:0:
192,192,13077,1,0,0:0:0:0:
448,192,13155,1,0,0:0:0:0:
320,192,13232,1,0,0:0:0:0:
64,192,13232,1,0,0:0:0:0:
192,192,13310,1,0,0:0:0:0:
320,192,13388,1,0,0:0:0:0:
192,192,13465,1,0,0:0:0:0:
64,192,13543,1,0,0:0:0:0:
448,192,13543,1,0,0:0:0:0:
320,192,13621,1,0,0:0:0:0:
64,192,13698,1,0,0:0:0:0:
192,192,13698,1,0,0:0:0:0:
320,192,13776,1,0,0:0:0:0:
192,192,13854,1,0,0:0:0:0:
448,192,13854,1,0,0:0:0:0:
64,192,13931,1,0,0:0:0:0:
448,192,14009,1,0,0:0:0:0:
320,192,14009,1,0,0:0:0:0:
64,192,14086,1,0,0:0:0:0:
320,192,14164,1,0,0:0:0:0:
192,192,14242,1,0,0:0:0:0:
320,192,14319,1,0,0:0:0:0:
448,192,14397,1,0,0:0:0:0:
192,192,14475,1,0,0:0:0:0:
64,192,14475,1,0,0:0:0:0:
320,192,14552,1,0,0:0:0:0:
64,192,14630,1,0,0:0:0:0:
448,192,14708,1,0,0:0:0:0:
320,192,14785,1,0,0:0:0:0:
64,192,14785,1,0,0:0:0:0:
192,192,14863,1,0,0:0:0:0:
320,192,14940,1,0,0:0:0:0:
448,192,14940,1,0,0:0:0:0:
64,192,15096,1,0,0:0:0:0:
448,192,15096,1,0,0:0:0:0:
448,192,15251,1,0,0:0:0:0:
320,192,15406,1,0,0:0:0:0:
64,192,15406,1,0,0:0:0:0:
192,192,15484,1,0,0:0:0:0:
64,192,15562,1,0,0:0:0:0:
192,192,15639,1,0,0:0:0:0:
448,192,15717,1,0,0:0:0:0:
320,192,15717,1,0,0:0:0:0:
64,192,15795,1,0,0:0:0:0:
448,192,15872,1,0,0:0:0:0:
192,192,16027,1,0,0:0:0:0:
320,192,16027,1,0,0:0:0:0:
448,192,16105,1,0,0:0:0:0:
64,192,16183,1,0,0:0:0:0:
320,192,16183,1,0,0:0:0:0:
448,192,16260,1,0,0:0:0:0:
64,192,16338,1,0,0:0:0:0:
192,192,16493,1,0,0:0:0:0:
320,192,16493,1,0,0:0:0:0:
64,192,16571,1,0,0:0:0:0:
320,192,16649,1,0,0:0:0:0:
192,192,16804,1,0,0:0:0:0:
64,192,16804,1,0,0:0:0:0:
448,192,16881,1,0,0:0:0:0:
320,192,16959,1,0,0:0:0:0:
64,192,16959,1,0,0:0:0:0:
192,192,17037,1,0,0:0:0:0:
64,192,17114,1,0,0:0:0:0:
448,192,17114,1,0,0:0:0:0:
192,192,17192,1,0,0:0:0:0:
320,192,17270,1,0,0:0:0:0:
448,192,17270,1,0,0:0:0:0:
64,192,17347,1,0,0:0:0:0:
320,192,17425,1,0,0:0:0:0:
64,192,17503,1,0,0:0:0:0:
192,192,17580,1,0,0:0:0:0:
448,192,17580,1,0,0:0:0:0:
320,192,17658,1,0,0:0:0:0:
192,192,17736,1,0,0:0:0:0:
64,192,17736,1,0,0:0:0:0:
320,192,17813,1,0,0:0:0:0:
64,192,17891,1,0,0:0:0:0:
448,192,17968,1,0,0:0:0:0:
64,192,18046,1,0,0:0:0:0:
320,192,18124,1,0,0:0:0:0:
64,192,18201,1,0,0:0:0:0:
448,192,18201,1,0,0:0:0:0:
192,192,18279,1,0,0:0:0:0:
64,192,18357,1,0,0:0:0:0:
320,192,18434,1,0,0:0:0:0:
192,192,18512,1,0,0:0:0:0:
448,192,18512,1,0,0:0:0:0:
64,192,18590,1,0,0:0:0:0:
448,192,18667,1,0,0:0:0:0:
192,192,18745,1,0,0:0:0:0:
64,192,18822,1,0,0:0:0:0:
448,192,18822,1,0,0:0:0:0:
320,192,18900,1,0,0:0:0:0:
64,192,18978,1,0,0:0:0:0:
448,192,19133,1,0,0:0:0:0:
192,192,19133,1,0,0:0:0:0:
192,192,19288,1,0,0:0:0:0:
192,192,19444,1,0,0:0:0:0:
320,192,19444,1,0,0:0:0:0:
192,192,19599,1,0,0:0:0:0:
64,192,19754,1,0,0:0:0:0:
320,192,19754,1,0,0:0:0:0:
448,192,19909,1,0,0:0:0:0:
64,192,19909,1,0,0:0:0:0:
448,192,20065,1,0,0:0:0:0:
192,192,20220,1,0,0:0:0:0:
64,192,20220,1,0,0:0:0:0:
320,192,20298,1,0,0:0:0:0:
448,192,20375,1,0,0:0:0:0:
64,192,20375,1,0,0:0:0:0:
192,192,20453,1,0,0:0:0:0:
448,192,20531,1,0,0:0:0:0:
192,192,20608,1,0,0:0:0:0:
320,192,20686,1,0,0:0:0:0:
64,192,20686,1,0,0:0:0:0:
448,192,20763,1,0,0:0:0:0:
64,192,20841,1,0,0:0:0:0:
448,192,20919,1,0,0:0:0:0:
192,192,20996,1,0,0:0:0:0:
64,192,21152,1,0,0:0:0:0:
320,192,21152,1,0,0:0:0:0:
448,192,21307,1,0,0:0:0:0:
64,192,21307,1,0,0:0:0:0:
320,192,21462,1,0,0:0:0:0:
192,192,21462,1,0,0:0:0:0:
320,192,21618,1,0,0:0:0:0:
64,192,21618,1,0,0:0:0:0:
448,192,21695,1,0,0:0:0:0:
64,192,21773,1,0,0:0:0:0:
448,192,21850,1,0,0:0:0:0:
320,192,21928,1,0,0:0:0:0:
192,192,21928,1,0,0:0:0:0:
64,192,22006,1,0,0:0:0:0:
320,192,22083,1,0,0:0:0:0:
64,192,22161,1,0,0:0:0:0:
448,192,22239,1,0,0:0:0:0:
320,192,22394,1,0,0:0:0:0:
192,192,22394,1,0,0:0:0:0:
320,192,22549,1,0,0:0:0:0:
64,192,22549,1,0,0:0:0:0:
192,192,22704,1,0,0:0:0:0:
448,192,22704,1,0,0:0:0:0:
192,192,22860,1,0,0:0:0:0:
320,192,22860,1,0,0:0:0:0:
64,192,22937,1,0,0:0:0:0:
320,192,23015,1,0,0:0:0:0:
64,192,23093,1,0,0:0:0:0:
192,192,23170,1,0,0:0:0:0:
448,192,23170,1,0,0:0:0:0:
320,192,23248,1,0,0:0:0:0:
192,192,23326,1,0,0:0:0:0:
320,192,23403,1,0,0:0:0:0:
448,192,23481,1,0,0:0:0:0:
64,192,23481,1,0,0:0:0:0:
192,192,23559,1,0,0:0:0:0:
448,192,23636,1,0,0:0:0:0:
320,192,23636,1,0,0:0:0:0:
192,192,23714,1,0,0:0:0:0:
320,192,23791,1,0,0:0:0:0:
64,192,23791,1,0,0:0:0:0:
448,192,23869,1,0,0:0:0:0:
64,192,23947,1,0,0:0:0:0:
192,192,23947,1,0,0:0:0:0:
448,192,24024,1,0,0:0:0:0:
192,192,24102,1,0,0:0:0:0:
320,192,24180,1,0,0:0:0:0:
192,192,24257,1,0,0:0:0:0:
64,192,24335,1,0,0:0:0:0:
320,192,24413,1,0,0:0:0:0:
448,192,24413,1,0,0:0:0:0:
192,192,24490,1,0,0:0:0:0:
448,192,24568,1,0,0:0:0:0:
64,192,24645,1,0,0:0:0:0:
192,192,24723,1,0,0:0:0:0:
448,192,24723,1,0,0:0:0:0:
320,192,24801,1,0,0:0:0:0:
192,192,24878,1,0,0:0:0:0:
64,192,24878,1,0,0:0:0:0:
448,192,25034,1,0,0:0:0:0:
64,192,25034,1,0,0:0:0:0:
64,192,25189,1,0,0:0:0:0:
320,192,25189,1,0,0:0:0:0:
192,192,25344,1,0,0:0:0:0:
448,192,25344,1,0,0:0:0:0:
320,192,25422,1,0,0:0:0:0:
448,192,25499,1,0,0:0:0:0:
320,192,25577,1,0,0:0:0:0:
64,192,25655,1,0,0:0:0:0:
192,192,25655,1,0,0:0:0:0:
448,192,25732,1,0,0:0:0:0:
64,192,25810,1,0,0:0:0:0:
448,192,25888,1,0,0:0:0:0:
320,192,25965,1,0,0:0:0:0:
192,192,25965,1,0,0:0:0:0:
64,192,26043,1,0,0:0:0:0:
448,192,26121,1,0,0:0:0:0:
192,192,26121,1,0,0:0:0:0:
64,192,26198,1,0,0:0:0:0:
448,192,26276,1,0,0:0:0:0:
320,192,26431,1,0,0:0:0:0:
192,192,26431,1,0,0:0:0:0:
448,192,26509,1,0,0:0:0:0:
192,192,26586,1,0,0:0:0:0:
320,192,26742,1,0,0:0:0:0:
448,192,26742,1,0,0:0:0:0:
64,192,26819,1,0,0:0:0:0:
192,192,26897,1,0,0:0:0:0:
448,192,26897,1,0,0:0:0:0:
320,192,26975,1,0,0:0:0:0:
448,192,27052,1,0,0:0:0:0:
64,192,27052,1,0,0:0:0:0:
320,192,27130,1,0,0:0:0:0:
192,192,27208,1,0,0:0:0:0:
64,192,27208,1,0,0:0:0:0:
448,192,27285,1,0,0:0:0:0:
192,192,27363,1,0,0:0:0:0:
448,192,27440,1,0,0:0:0:0:
320,192,27518,1,0,0:0:0:0:
64,192,27518,1,0,0:0:0:0:
192,192,27596,1,0,0:0:0:0:
320,192,27673,1,0,0:0:0:0:
448,192,27673,1,0,0:0:0:0:
192,192,27751,1,0,0:0:0:0:
448,192,27829,1,0,0:0:0:0:
64,192,27906,1,0,0:0:0:0:
448,192,27984,1,0,0:0:0:0:
192,192,28062,1,0,0:0:0:0:
448,192,28139,1,0,0:0:0:0:
64,192,28139,1,0,0:0:0:0:
320,192,28217,1,0,0:0:0:0:
448,192,28295,1,0,0:0:0:0:
192,192,28372,1,0,0:0:0:0:
320,192,28450,1,0,0:0:0:0:
64,192,28450,1,0,0:0:0:0:
448,192,28527,1,0,0:0:0:0:
64,192,28605,1,0,0:0:0:0:
320,192,28683,5,0,0:0:0:0:
448,192,28760,1,0,0:0:0:0:
64,192,28760,1,0,0:0:0:0:
192,192,28838,1,0,0:0:0:0:
64,192,28916,1,0,0:0:0:0:
192,192,28993,1,0,0:0:0:0:
448,192,29071,1,0,0:0:0:0:
320,192,29071,1,0,0:0:0:0:
320,192,29226,1,0,0:0:0:0:
192,192,29381,1,0,0:0:0:0:
448,192,29381,1,0,0:0:0:0:
64,192,29537,1,0,0:0:0:0:
192,192,29537,1,0,0:0:0:0:
64,192,29847,5,0,0:0:0:0:
448,192,30003,1,0,0:0:0:0:
320,192,30003,1,0,0:0:0:0:
64,192,30003,1,0,0:0:0:0:
192,192,30158,1,0,0:0:0:0:
320,192,30236,1,0,0:0:0:0:
192,192,30313,1,0,0:0:0:0:
64,192,30313,1,0,0:0:0:0:
448,192,30313,1,0,0:0:0:0:
448,192,30468,1,0,0:0:0:0:
320,192,30624,1,0,0:0:0:0:
192,192,30624,1,0,0:0:0:0:
64,192,30701,1,0,0:0:0:0:
320,192,30779,1,0,0:0:0:0:
64,192,30857,1,0,0:0:0:0:
192,192,30934,1,0,0:0:0:0:
448,192,30934,1,0,0:0:0:0:
320,192,31012,1,0,0:0:0:0:
448,192,31090,1,0,0:0:0:0:
64,192,31090,1,0,0:0:0:0:
320,192,31167,1,0,0:0:0:0:
64,192,31245,1,0,0:0:0:0:
192,192,31245,1,0,0:0:0:0:
448,192,31322,1,0,0:0:0:0:
192,192,31400,1,0,0:0:0:0:
320,192,31400,1,0,0:0:0:0:
64,192,31478,1,0,0:0:0:0:
320,192,31555,1,0,0:0:0:0:
448,192,31555,1,0,0:0:0:0:
192,192,31633,1,0,0:0:0:0:
448,192,31711,1,0,0:0:0:0:
64,192,31788,1,0,0:0:0:0:
448,192,31866,1,0,0:0:0:0:
192,192,31866,1,0,0:0:0:0:
320,192,31944,1,0,0:0:0:0:
448,192,32021,1,0,0:0:0:0:
192,192,32099,1,0,0:0:0:0:
64,192,32177,1,0,0:0:0:0:
320,192,32177,1,0,0:0:0:0:
64,192,32332,1,0,0:0:0:0:
192,192,32332,1,0,0:0:0:0:
448,192,32409,1,0,0:0:0:0:
192,192,32487,1,0,0:0:0:0:
320,192,32487,1,0,0:0:0:0:
64,192,32565,1,0,0:0:0:0:
320,192,32642,1,0,0:0:0:0:
448,192,32642,1,0,0:0:0:0:
64,192,32720,1,0,0:0:0:0:
192,192,32798,1,0,0:0:0:0:
448,192,32798,1,0,0:0:0:0:
320,192,32875,1,0,0:0:0:0:
448,192,32953,1,0,0:0:0:0:
320,192,33031,1,0,0:0:0:0:
64,192,33108,1,0,0:0:0:0:
192,192,33108,1,0,0:0:0:0:
448,192,33186,1,0,0:0:0:0:
192,192,33263,1,0,0:0:0:0:
448,192,33341,1,0,0:0:0:0:
64,192,33419,1,0,0:0:0:0:
320,192,33419,1,0,0:0:0:0:
192,192,33496,1,0,0:0:0:0:
64,192,33574,1,0,0:0:0:0:
448,192,33574,1,0,0:0:0:0:
192,192,33652,1,0,0:0:0:0:
320,192,33729,1,0,0:0:0:0:
448,192,33729,1,0,0:0:0:0:
64,192,33807,1,0,0:0:0:0:
320,192,33885,1,0,0:0:0:0:
192,192,33885,1,0,0:0:0:0:
448,192,33962,1,0,0:0:0:0:
192,192,34040,1,0,0:0:0:0:
64,192,34040,1,0,0:0:0:0:
320,192,34118,1,0,0:0:0:0:
64,192,34195,1,0,0:0:0:0:
448,192,34273,1,0,0:0:0:0:
320,192,34350,1,0,0:0:0:0:
64,192,34350,1,0,0:0:0:0:
192,192,34428,1,0,0:0:0:0:
64,192,34506,1,0,0:0:0:0:
320,192,34583,1,0,0:0:0:0:
448,192,34661,1,0,0:0:0:0:
192,192,34661,1,0,0:0:0:0:
448,192,34816,1,0,0:0:0:0:
64,192,34972,1,0,0:0:0:0:
320,192,34972,1,0,0:0:0:0:
192,192,35127,1,0,0:0:0:0:
64,192,35127,1,0,0:0:0:0:
192,192,35282,1,0,0:0:0:0:
448,192,35282,1,0,0:0:0:0:
448,192,35437,1,0,0:0:0:0:
320,192,35593,1,0,0:0:0:0:
192,192,35593,1,0,0:0:0:0:
448,192,35670,1,0,0:0:0:0:
192,192,35748,1,0,0:0:0:0:
448,192,35826,1,0,0:0:0:0:
64,192,35903,1,0,0:0:0:0:
320,192,35903,1,0,0:0:0:0:
192,192,35981,1,0,0:0:0:0:
64,192,36059,1,0,0:0:0:0:
448,192,36059,1,0,0:0:0:0:
192,192,36136,1,0,0:0:0:0:
320,192,36214,1,0,0:0:0:0:
448,192,36214,1,0,0:0:0:0:
64,192,36291,1,0,0:0:0:0:
192,192,36369,1,0,0:0:0:0:
320,192,36369,1,0,0:0:0:0:
448,192,36447,1,0,0:0:0:0:
192,192,36524,1,0,0:0:0:0:
64,192,36524,1,0,0:0:0:0:
320,192,36602,1,0,0:0:0:0:
64,192,36680,1,0,0:0:0:0:
320,192,36757,1,0,0:0:0:0:
64,192,36835,1,0,0:0:0:0:
448,192,36835,1,0,0:0:0:0:
192,192,36913,1,0,0:0:0:0:
448,192,36990,1,0,0:0:0:0:
320,192,36990,1,0,0:0:0:0:
192,192,37068,1,0,0:0:0:0:
64,192,37145,1,0,0:0:0:0:
320,192,37145,1,0,0:0:0:0:
448,192,37223,1,0,0:0:0:0:
192,192,37301,1,0,0:0:0:0:
320,192,37301,1,0,0:0:0:0:
448,192,37378,1,0,0:0:0:0:
192,192,37456,1,0,0:0:0:0:
64,192,37456,1,0,0:0:0:0:
320,192,37534,1,0,0:0:0:0:
64,192,37611,1,0,0:0:0:0:
448,192,37611,1,0,0:0:0:0:
192,192,37689,1,0,0:0:0:0:
320,192,37767,1,0,0:0:0:0:
448,192,37767,1,0,0:0:0:0:
64,192,37844,1,0,0:0:0:0:
320,192,37922,1,0,0:0:0:0:
192,192,37999,1,0,0:0:0:0:
64,192,38077,1,0,0:0:0:0:
320,192,38077,1,0,0:0:0:0:
448,192,38155,1,0,0:0:0:0:
320,192,38232,1,0,0:0:0:0:
448,192,38310,1,0,0:0:0:0:
192,192,38388,1,0,0:0:0:0:
64,192,38388,1,0,0:0:0:0:
320,192,38465,1,0,0:0:0:0:
192,192,38543,1,0,0:0:0:0:
448,192,38621,1,0,0:0:0:0:
192,192,38698,1,0,0:0:0:0:
320,192,38698,1,0,0:0:0:0:
64,192,38776,1,0,0:0:0:0:
192,192,38854,1,0,0:0:0:0:
320,192,38931,1,0,0:0:0:0:
64,192,39009,1,0,0:0:0:0:
448,192,39009,1,0,0:0:0:0:
448,192,39164,1,0,0:0:0:0:
192,192,39319,1,0,0:0:0:0:
448,192,39319,1,0,0:0:0:0:
64,192,39319,1,0,0:0:0:0:
448,192,39475,1,0,0:0:0:0:
192,192,39630,1,0,0:0:0:0:
320,192,39785,1,0,0:0:0:0:
64,192,39785,1,0,0:0:0:0:
320,192,39940,1,0,0:0:0:0:
192,192,39940,1,0,0:0:0:0:
448,192,40018,1,0,0:0:0:0:
64,192,40096,1,0,0:0:0:0:
192,192,40096,1,0,0:0:0:0:
320,192,40173,1,0,0:0:0:0:
64,192,40251,1,0,0:0:0:0:
448,192,40251,1,0,0:0:0:0:
192,192,40329,1,0,0:0:0:0:
64,192,40406,1,0,0:0:0:0:
192,192,40484,1,0,0:0:0:0:
320,192,40562,1,0,0:0:0:0:
448,192,40562,1,0,0:0:0:0:
64,192,40639,1,0,0:0:0:0:
320,192,40717,1,0,0:0:0:0:
64,192,40795,1,0,0:0:0:0:
192,192,40872,1,0,0:0:0:0:
448,192,40872,1,0,0:0:0:0:
320,192,40950,1,0,0:0:0:0:
64,192,41027,1,0,0:0:0:0:
448,192,41027,1,0,0:0:0:0:
320,192,41105,1,0,0:0:0:0:
192,192,41183,1,0,0:0:0:0:
64,192,41183,1,0,0:0:0:0:
448,192,41260,1,0,0:0:0:0:
320,192,41338,1,0,0:0:0:0:
192,192,41338,1,0,0:0:0:0:
64,192,41416,1,0,0:0:0:0:
320,192,41493,1,0,0:0:0:0:
448,192,41493,1,0,0:0:0:0:
192,192,41571,1,0,0:0:0:0:
448,192,41649,1,0,0:0:0:0:
64,192,41726,1,0,0:0:0:0:
448,192,41804,1,0,0:0:0:0:
192,192,41804,1,0,0:0:0:0:
320,192,41881,1,0,0:0:0:0:
448,192,41959,1,0,0:0:0:0:
192,192,42037,1,0,0:0:0:0:
64,192,42114,1,0,0:0:0:0:
320,192,42114,1,0,0:0:0:0:
64,192,42270,1,0,0:0:0:0:
192,192,42270,1,0,0:0:0:0:
448,192,42347,1,0,0:0:0:0:
192,192,42425,1,0,0:0:0:0:
320,192,42425,1,0,0:0:0:0:
64,192,42503,1,0,0:0:0:0:
320,192,42580,1,0,0:0:0:0:
64,192,42658,1,0,0:0:0:0:
192,192,42736,1,0,0:0:0:0:
448,192,42736,1,0,0:0:0:0:
320,192,42813,1,0,0:0:0:0:
448,192,42891,1,0,0:0:0:0:
320,192,42968,1,0,0:0:0:0:
64,192,43046,1,0,0:0:0:0:
192,192,43046,1,0,0:0:0:0:
448,192,43124,1,0,0:0:0:0:
192,192,43201,1,0,0:0:0:0:
448,192,43279,1,0,0:0:0:0:
64,192,43357,1,0,0:0:0:0:
320,192,43357,1,0,0:0:0:0:
192,192,43434,1,0,0:0:0:0:
64,192,43512,1,0,0:0:0:0:
448,192,43512,1,0,0:0:0:0:
192,192,43590,1,0,0:0:0:0:
320,192,43667,1,0,0:0:0:0:
448,192,43667,1,0,0:0:0:0:
64,192,43745,1,0,0:0:0:0:
320,192,43822,1,0,0:0:0:0:
192,192,43822,1,0,0:0:0:0:
448,192,43900,1,0,0:0:0:0:
192,192,43978,1,0,0:0:0:0:
64,192,43978,1,0,0:0:0:0:
320,192,44055,1,0,0:0:0:0:
64,192,44133,1,0,0:0:0:0:
448,192,44211,1,0,0:0:0:0:
320,192,44288,1,0,0:0:0:0:
64,192,44288,1,0,0:0:0:0:
192,192,44366,1,0,0:0:0:0:
64,192,44444,1,0,0:0:0:0:
320,192,44521,1,0,0:0:0:0:
448,192,44599,1,0,0:0:0:0:
192,192,44599,1,0,0:0:0:0:
448,192,44754,1,0,0:0:0:0:
64,192,44909,1,0,0:0:0:0:
320,192,44909,1,0,0:0:0:0:
192,192,45065,1,0,0:0:0:0:
64,192,45065,1,0,0:0:0:0:
192,192,45220,1,0,0:0:0:0:
448,192,45220,1,0,0:0:0:0:
448,192,45375,1,0,0:0:0:0:
320,192,45531,1,0,0:0:0:0:
192,192,45531,1,0,0:0:0:0:
448,192,45608,1,0,0:0:0:0:
192,192,45686,1,0,0:0:0:0:
448,192,45763,1,0,0:0:0:0:
64,192,45841,1,0,0:0:0:0:
320,192,45841,1,0,0:0:0:0:
192,192,45919,1,0,0:0:0:0:
64,192,45996,1,0,0:0:0:0:
448,192,45996,1,0,0:0:0:0:
192,192,46074,1,0,0:0:0:0:
320,192,46152,1,0,0:0:0:0:
448,192,46152,1,0,0:0:0:0:
64,192,46229,1,0,0:0:0:0:
192,192,46307,1,0,0:0:0:0:
320,192,46307,1,0,0:0:0:0:
448,192,46385,1,0,0:0:0:0:
192,192,46462,1,0,0:0:0:0:
64,192,46462,1,0,0:0:0:0:
320,192,46540,1,0,0:0:0:0:
64,192,46618,1,0,0:0:0:0:
320,192,46695,1,0,0:0:0:0:
64,192,46773,1,0,0:0:0:0:
448,192,46773,1,0,0:0:0:0:
192,192,46850,1,0,0:0:0:0:
448,192,46928,1,0,0:0:0:0:
320,192,46928,1,0,0:0:0:0:
192,192,47006,1,0,0:0:0:0:
64,192,47083,1,0,0:0:0:0:
320,192,47083,1,0,0:0:0:0:
448,192,47161,1,0,0:0:0:0:
192,192,47239,1,0,0:0:0:0:
320,192,47239,1,0,0:0:0:0:
448,192,47316,1,0,0:0:0:0:
192,192,47394,1,0,0:0:0:0:
64,192,47394,1,0,0:0:0:0:
320,192,47472,1,0,0:0:0:0:
64,192,47549,1,0,0:0:0:0:
448,192,47549,1,0,0:0:0:0:
192,192,47627,1,0,0:0:0:0:
320,192,47704,1,0,0:0:0:0:
448,192,47704,1,0,0:0:0:0:
64,192,47782,1,0,0:0:0:0:
320,192,47860,1,0,0:0:0:0:
192,192,47937,1,0,0:0:0:0:
64,192,48015,1,0,0:0:0:0:
320,192,48015,1,0,0:0:0:0:
448,192,48093,1,0,0:0:0:0:
320,192,48170,1,0,0:0:0:0:
448,192,48248,1,0,0:0:0:0:
192,192,48326,1,0,0:0:0:0:
64,192,48326,1,0,0:0:0:0:
320,192,48403,1,0,0:0:0:0:
192,192,48481,1,0,0:0:0:0:
448,192,48559,1,0,0:0:0:0:
192,192,48636,1,0,0:0:0:0:
320,192,48636,1,0,0:0:0:0:
64,192,48714,1,0,0:0:0:0:
448,192,48791,1,0,0:0:0:0:
192,192,48869,1,0,0:0:0:0:
448,192,48947,1,0,0:0:0:0:
320,192,48947,1,0,0:0:0:0:
64,192,49024,1,0,0:0:0:0:
448,192,49102,1,0,0:0:0:0:
64,192,49180,1,0,0:0:0:0:
448,192,49257,1,0,0:0:0:0:
192,192,49257,1,0,0:0:0:0:
320,192,49335,1,0,0:0:0:0:
448,192,49413,1,0,0:0:0:0:
192,192,49490,1,0,0:0:0:0:
64,192,49568,1,0,0:0:0:0:
448,192,49568,1,0,0:0:0:0:
64,192,49723,1,0,0:0:0:0:
64,192,49878,1,0,0:0:0:0:
64,192,50034,1,0,0:0:0:0:
448,192,50034,1,0,0:0:0:0:
192,192,50189,1,0,0:0:0:0:
320,192,50189,1,0,0:0:0:0:
448,192,50189,1,0,0:0:0:0:
192,192,50344,1,0,0:0:0:0:
320,192,50422,1,0,0:0:0:0:
192,192,50499,1,0,0:0:0:0:
448,192,50577,1,0,0:0:0:0:
64,192,50655,1,0,0:0:0:0:
320,192,50655,1,0,0:0:0:0:
192,192,50732,1,0,0:0:0:0:
448,192,50810,1,0,0:0:0:0:
320,192,50810,1,0,0:0:0:0:
64,192,50888,1,0,0:0:0:0:
448,192,50965,1,0,0:0:0:0:
192,192,51043,1,0,0:0:0:0:
448,192,51121,1,0,0:0:0:0:
64,192,51198,1,0,0:0:0:0:
192,192,51276,1,0,0:0:0:0:
320,192,51276,1,0,0:0:0:0:
448,192,51354,1,0,0:0:0:0:
192,192,51431,1,0,0:0:0:0:
64,192,51431,1,0,0:0:0:0:
320,192,51509,1,0,0:0:0:0:
64,192,51586,1,0,0:0:0:0:
448,192,51664,1,0,0:0:0:0:
64,192,51742,1,0,0:0:0:0:
320,192,51819,1,0,0:0:0:0:
192,192,51897,1,0,0:0:0:0:
448,192,51897,1,0,0:0:0:0:
64,192,51975,1,0,0:0:0:0:
320,192,52052,1,0,0:0:0:0:
448,192,52052,1,0,0:0:0:0:
192,192,52130,1,0,0:0:0:0:
320,192,52208,1,0,0:0:0:0:
64,192,52285,1,0,0:0:0:0:
448,192,52363,1,0,0:0:0:0:
192,192,52363,1,0,0:0:0:0:
320,192,52440,1,0,0:0:0:0:
64,192,52518,1,0,0:0:0:0:
448,192,52596,1,0,0:0:0:0:
192,192,52673,1,0,0:0:0:0:
64,192,52673,1,0,0:0:0:0:
320,192,52673,1,0,0:0:0:0:
448,192,52751,1,0,0:0:0:0:
192,192,52829,1,0,0:0:0:0:
320,192,52906,1,0,0:0:0:0:
192,192,52984,1,0,0:0:0:0:
320,192,53062,1,0,0:0:0:0:
64,192,53139,1,0,0:0:0:0:
448,192,53139,1,0,0:0:0:0:
192,192,53217,1,0,0:0:0:0:
448,192,53295,1,0,0:0:0:0:
320,192,53295,1,0,0:0:0:0:
192,192,53372,1,0,0:0:0:0:
320,192,53450,1,0,0:0:0:0:
64,192,53527,1,0,0:0:0:0:
320,192,53605,1,0,0:0:0:0:
64,192,53683,1,0,0:0:0:0:
192,192,53760,1,0,0:0:0:0:
448,192,53760,1,0,0:0:0:0:
320,192,53838,1,0,0:0:0:0:
192,192,53916,1,0,0:0:0:0:
64,192,53916,1,0,0:0:0:0:
320,192,53993,1,0,0:0:0:0:
64,192,54071,1,0,0:0:0:0:
448,192,54149,1,0,0:0:0:0:
64,192,54226,1,0,0:0:0:0:
448,192,54304,1,0,0:0:0:0:
192,192,54381,1,0,0:0:0:0:
320,192,54381,1,0,0:0:0:0:
64,192,54459,1,0,0:0:0:0:
192,192,54537,1,0,0:0:0:0:
448,192,54537,1,0,0:0:0:0:
64,192,54614,1,0,0:0:0:0:
448,192,54692,1,0,0:0:0:0:
320,192,54692,1,0,0:0:0:0:
192,192,54770,1,0,0:0:0:0:
64,192,54847,1,0,0:0:0:0:
448,192,54847,1,0,0:0:0:0:
320,192,55003,1,0,0:0:0:0:
192,192,55003,1,0,0:0:0:0:
192,192,55158,1,0,0:0:0:0:
448,192,55158,1,0,0:0:0:0:
64,192,55158,1,0,0:0:0:0:
448,192,55313,1,0,0:0:0:0:
64,192,55391,1,0,0:0:0:0:
448,192,55468,1,0,0:0:0:0:
192,192,55546,1,0,0:0:0:0:
320,192,55624,1,0,0:0:0:0:
64,192,55624,1,0,0:0:0:0:
448,192,55701,1,0,0:0:0:0:
192,192,55779,1,0,0:0:0:0:
64,192,55779,1,0,0:0:0:0:
320,192,55857,1,0,0:0:0:0:
192,192,55934,1,0,0:0:0:0:
448,192,56012,1,0,0:0:0:0:
192,192,56090,1,0,0:0:0:0:
320,192,56167,1,0,0:0:0:0:
448,192,56245,1,0,0:0:0:0:
64,192,56245,1,0,0:0:0:0:
192,192,56322,1,0,0:0:0:0:
448,192,56400,1,0,0:0:0:0:
320,192,56400,1,0,0:0:0:0:
64,192,56478,1,0,0:0:0:0:
320,192,56555,1,0,0:0:0:0:
192,192,56633,1,0,0:0:0:0:
320,192,56711,1,0,0:0:0:0:
64,192,56788,1,0,0:0:0:0:
448,192,56866,1,0,0:0:0:0:
192,192,56866,1,0,0:0:0:0:
320,192,56944,1,0,0:0:0:0:
64,192,57021,1,0,0:0:0:0:
192,192,57021,1,0,0:0:0:0:
448,192,57099,1,0,0:0:0:0:
64,192,57177,1,0,0:0:0:0:
320,192,57254,1,0,0:0:0:0:
192,192,57332,1,0,0:0:0:0:
448,192,57332,1,0,0:0:0:0:
64,192,57409,1,0,0:0:0:0:
320,192,57487,1,0,0:0:0:0:
192,192,57565,1,0,0:0:0:0:
448,192,57642,1,0,0:0:0:0:
320,192,57642,1,0,0:0:0:0:
64,192,57642,1,0,0:0:0:0:
192,192,57720,1,0,0:0:0:0:
448,192,57798,1,0,0:0:0:0:
64,192,57875,1,0,0:0:0:0:
320,192,57953,1,0,0:0:0:0:
448,192,58031,1,0,0:0:0:0:
64,192,58108,1,0,0:0:0:0:
192,192,58108,1,0,0:0:0:0:
320,192,58186,1,0,0:0:0:0:
192,192,58263,1,0,0:0:0:0:
448,192,58263,1,0,0:0:0:0:
64,192,58341,1,0,0:0:0:0:
448,192,58419,1,0,0:0:0:0:
192,192,58496,1,0,0:0:0:0:
320,192,58574,1,0,0:0:0:0:
64,192,58652,1,0,0:0:0:0:
320,192,58729,1,0,0:0:0:0:
192,192,58729,1,0,0:0:0:0:
448,192,58807,1,0,0:0:0:0:
64,192,58885,5,0,0:0:0:0:
192,192,58885,1,0,0:0:0:0:
320,192,58962,1,0,0:0:0:0:
64,192,59040,1,0,0:0:0:0:
448,192,59040,1,0,0:0:0:0:
192,192,59118,1,0,0:0:0:0:
448,192,59195,1,0,0:0:0:0:
192,192,59273,1,0,0:0:0:0:
320,192,59350,1,0,0:0:0:0:
64,192,59350,1,0,0:0:0:0:
448,192,59428,1,0,0:0:0:0:
64,192,59506,1,0,0:0:0:0:
448,192,59583,1,0,0:0:0:0:
192,192,59661,1,0,0:0:0:0:
320,192,59661,1,0,0:0:0:0:
64,192,59739,1,0,0:0:0:0:
320,192,59816,1,0,0:0:0:0:
64,192,59894,1,0,0:0:0:0:
448,192,59972,1,0,0:0:0:0:
192,192,59972,1,0,0:0:0:0:
320,192,60049,1,0,0:0:0:0:
448,192,60127,1,0,0:0:0:0:
192,192,60127,1,0,0:0:0:0:
64,192,60127,1,0,0:0:0:0:
320,192,60748,5,0,0:0:0:0:
192,192,60748,1,0,0:0:0:0:
448,192,60826,1,0,0:0:0:0:
64,192,60903,1,0,0:0:0:0:
320,192,60903,1,0,0:0:0:0:
448,192,60981,1,0,0:0:0:0:
64,192,61059,1,0,0:0:0:0:
192,192,61059,1,0,0:0:0:0:
320,192,61136,1,0,0:0:0:0:
192,192,61214,1,0,0:0:0:0:
448,192,61214,1,0,0:0:0:0:
320,192,61291,1,0,0:0:0:0:
64,192,61369,1,0,0:0:0:0:
192,192,61369,1,0,0:0:0:0:
448,192,61447,1,0,0:0:0:0:
64,192,61524,1,0,0:0:0:0:
320,192,61602,1,0,0:0:0:0:
64,192,61680,1,0,0:0:0:0:
448,192,61680,1,0,0:0:0:0:
192,192,61757,1,0,0:0:0:0:
64,192,61835,1,0,0:0:0:0:
320,192,61913,1,0,0:0:0:0:
64,192,61990,1,0,0:0:0:0:
192,192,61990,1,0,0:0:0:0:
448,192,62068,1,0,0:0:0:0:
64,192,62145,1,0,0:0:0:0:
320,192,62223,1,0,0:0:0:0:
192,192,62301,1,0,0:0:0:0:
448,192,62301,1,0,0:0:0:0:
64,192,62378,1,0,0:0:0:0:
448,192,62456,1,0,0:0:0:0:
320,192,62534,1,0,0:0:0:0:
64,192,62611,1,0,0:0:0:0:
192,192,62611,1,0,0:0:0:0:
448,192,62689,1,0,0:0:0:0:
192,192,62767,1,0,0:0:0:0:
320,192,62767,1,0,0:0:0:0:
64,192,62844,1,0,0:0:0:0:
448,192,62922,1,0,0:0:0:0:
192,192,62922,1,0,0:0:0:0:
64,192,62999,1,0,0:0:0:0:
448,192,63077,1,0,0:0:0:0:
320,192,63155,1,0,0:0:0:0:
64,192,63232,1,0,0:0:0:0:
192,192,63232,1,0,0:0:0:0:
448,192,63310,1,0,0:0:0:0:
192,192,63388,1,0,0:0:0:0:
448,192,63465,1,0,0:0:0:0:
64,192,63543,1,0,0:0:0:0:
320,192,63543,1,0,0:0:0:0:
192,192,63621,1,0,0:0:0:0:
448,192,63698,1,0,0:0:0:0:
64,192,63698,1,0,0:0:0:0:
192,192,63776,1,0,0:0:0:0:
320,192,63854,1,0,0:0:0:0:
448,192,63854,1,0,0:0:0:0:
64,192,63931,1,0,0:0:0:0:
448,192,64009,1,0,0:0:0:0:
192,192,64086,1,0,0:0:0:0:
64,192,64164,1,0,0:0:0:0:
448,192,64164,1,0,0:0:0:0:
320,192,64242,1,0,0:0:0:0:
448,192,64319,1,0,0:0:0:0:
192,192,64397,1,0,0:0:0:0:
448,192,64475,1,0,0:0:0:0:
320,192,64475,1,0,0:0:0:0:
64,192,64552,1,0,0:0:0:0:
448,192,64630,1,0,0:0:0:0:
192,192,64708,1,0,0:0:0:0:
320,192,64785,1,0,0:0:0:0:
64,192,64785,1,0,0:0:0:0:
448,192,64863,1,0,0:0:0:0:
64,192,64940,1,0,0:0:0:0:
192,192,65018,1,0,0:0:0:0:
448,192,65096,1,0,0:0:0:0:
320,192,65096,1,0,0:0:0:0:
64,192,65173,1,0,0:0:0:0:
320,192,65251,1,0,0:0:0:0:
64,192,65329,1,0,0:0:0:0:
448,192,65406,1,0,0:0:0:0:
192,192,65406,1,0,0:0:0:0:
320,192,65484,1,0,0:0:0:0:
448,192,65562,1,0,0:0:0:0:
64,192,65562,1,0,0:0:0:0:
320,192,65639,1,0,0:0:0:0:
192,192,65717,1,0,0:0:0:0:
64,192,65717,1,0,0:0:0:0:
448,192,65795,1,0,0:0:0:0:
192,192,65872,1,0,0:0:0:0:
448,192,65950,1,0,0:0:0:0:
64,192,66027,1,0,0:0:0:0:
320,192,66027,1,0,0:0:0:0:
192,192,66105,1,0,0:0:0:0:
448,192,66183,1,0,0:0:0:0:
320,192,66183,1,0,0:0:0:0:
192,192,66260,1,0,0:0:0:0:
448,192,66338,1,0,0:0:0:0:
64,192,66338,1,0,0:0:0:0:
320,192,66416,1,0,0:0:0:0:
64,192,66493,1,0,0:0:0:0:
448,192,66571,1,0,0:0:0:0:
64,192,66649,1,0,0:0:0:0:
320,192,66649,1,0,0:0:0:0:
192,192,66649,1,0,0:0:0:0:
448,192,66726,1,0,0:0:0:0:
192,192,66804,1,0,0:0:0:0:
320,192,66881,1,0,0:0:0:0:
448,192,66959,1,0,0:0:0:0:
64,192,66959,1,0,0:0:0:0:
192,192,67037,1,0,0:0:0:0:
448,192,67114,1,0,0:0:0:0:
320,192,67114,1,0,0:0:0:0:
64,192,67192,1,0,0:0:0:0:
320,192,67270,1,0,0:0:0:0:
192,192,67270,1,0,0:0:0:0:
64,192,67347,1,0,0:0:0:0:
448,192,67425,1,0,0:0:0:0:
320,192,67425,1,0,0:0:0:0:
192,192,67503,1,0,0:0:0:0:
448,192,67580,1,0,0:0:0:0:
64,192,67580,1,0,0:0:0:0:
320,192,67658,1,0,0:0:0:0:
448,192,67736,1,0,0:0:0:0:
320,192,67813,1,0,0:0:0:0:
64,192,67891,1,0,0:0:0:0:
192,192,67891,1,0,0:0:0:0:
448,192,67968,1,0,0:0:0:0:
64,192,68046,1,0,0:0:0:0:
320,192,68124,1,0,0:0:0:0:
192,192,68124,1,0,0:0:0:0:
448,192,68201,1,0,0:0:0:0:
320,192,68279,1,0,0:0:0:0:
64,192,68357,1,0,0:0:0:0:
192,192,68357,1,0,0:0:0:0:
448,192,68434,1,0,0:0:0:0:
320,192,68512,1,0,0:0:0:0:
192,192,68512,1,0,0:0:0:0:
64,192,68590,1,0,0:0:0:0:
320,192,68667,1,0,0:0:0:0:
192,192,68745,1,0,0:0:0:0:
64,192,68822,1,0,0:0:0:0:
448,192,68822,1,0,0:0:0:0:
192,192,68900,1,0,0:0:0:0:
448,192,68978,1,0,0:0:0:0:
320,192,69055,1,0,0:0:0:0:
64,192,69133,1,0,0:0:0:0:
192,192,69133,1,0,0:0:0:0:
448,192,69211,1,0,0:0:0:0:
64,192,69288,1,0,0:0:0:0:
448,192,69366,1,0,0:0:0:0:
320,192,69444,1,0,0:0:0:0:
192,192,69444,1,0,0:0:0:0:
64,192,69521,1,0,0:0:0:0:
448,192,69599,1,0,0:0:0:0:
320,192,69599,1,0,0:0:0:0:
64,192,69677,1,0,0:0:0:0:
448,192,69754,1,0,0:0:0:0:
192,192,69754,1,0,0:0:0:0:
320,192,69832,1,0,0:0:0:0:
192,192,69909,1,0,0:0:0:0:
64,192,69987,1,0,0:0:0:0:
448,192,70065,1,0,0:0:0:0:
320,192,70065,1,0,0:0:0:0:
448,192,70220,1,0,0:0:0:0:
64,192,70298,1,0,0:0:0:0:
320,192,70375,1,0,0:0:0:0:
192,192,70375,1,0,0:0:0:0:
192,192,70531,1,0,0:0:0:0:
448,192,70686,5,0,0:0:0:0:
64,192,70686,1,0,0:0:0:0:
320,192,70763,1,0,0:0:0:0:
448,192,70841,1,0,0:0:0:0:
192,192,70841,1,0,0:0:0:0:
320,192,70919,1,0,0:0:0:0:
64,192,70996,1,0,0:0:0:0:
192,192,70996,1,0,0:0:0:0:
448,192,71074,1,0,0:0:0:0:
320,192,71152,1,0,0:0:0:0:
64,192,71152,1,0,0:0:0:0:
448,192,71229,1,0,0:0:0:0:
64,192,71307,1,0,0:0:0:0:
192,192,71307,1,0,0:0:0:0:
320,192,71385,1,0,0:0:0:0:
192,192,71462,1,0,0:0:0:0:
448,192,71540,1,0,0:0:0:0:
320,192,71618,1,0,0:0:0:0:
192,192,71618,1,0,0:0:0:0:
64,192,71695,1,0,0:0:0:0:
192,192,71773,1,0,0:0:0:0:
448,192,71850,1,0,0:0:0:0:
64,192,71928,1,0,0:0:0:0:
192,192,71928,1,0,0:0:0:0:
320,192,72006,1,0,0:0:0:0:
192,192,72083,1,0,0:0:0:0:
448,192,72161,1,0,0:0:0:0:
64,192,72239,1,0,0:0:0:0:
320,192,72239,1,0,0:0:0:0:
192,192,72316,1,0,0:0:0:0:
320,192,72394,1,0,0:0:0:0:
448,192,72472,1,0,0:0:0:0:
64,192,72549,1,0,0:0:0:0:
192,192,72549,1,0,0:0:0:0:
320,192,72627,1,0,0:0:0:0:
192,192,72704,1,0,0:0:0:0:
448,192,72704,1,0,0:0:0:0:
64,192,72782,1,0,0:0:0:0:
448,192,72860,1,0,0:0:0:0:
320,192,72860,1,0,0:0:0:0:
64,192,72937,1,0,0:0:0:0:
192,192,73015,1,0,0:0:0:0:
320,192,73015,1,0,0:0:0:0:
448,192,73093,1,0,0:0:0:0:
64,192,73170,1,0,0:0:0:0:
192,192,73170,1,0,0:0:0:0:
320,192,73248,1,0,0:0:0:0:
64,192,73326,1,0,0:0:0:0:
320,192,73403,1,0,0:0:0:0:
448,192,73481,1,0,0:0:0:0:
192,192,73481,1,0,0:0:0:0:
64,192,73559,1,0,0:0:0:0:
192,192,73636,1,0,0:0:0:0:
320,192,73636,1,0,0:0:0:0:
64,192,73714,1,0,0:0:0:0:
320,192,73791,1,0,0:0:0:0:
448,192,73791,1,0,0:0:0:0:
192,192,73869,1,0,0:0:0:0:
320,192,73947,1,0,0:0:0:0:
64,192,74024,1,0,0:0:0:0:
320,192,74102,1,0,0:0:0:0:
192,192,74102,1,0,0:0:0:0:
448,192,74180,1,0,0:0:0:0:
320,192,74257,1,0,0:0:0:0:
64,192,74335,1,0,0:0:0:0:
448,192,74413,1,0,0:0:0:0:
320,192,74413,1,0,0:0:0:0:
192,192,74490,1,0,0:0:0:0:
320,192,74568,1,0,0:0:0:0:
64,192,74645,1,0,0:0:0:0:
448,192,74723,1,0,0:0:0:0:
192,192,74723,1,0,0:0:0:0:
320,192,74801,1,0,0:0:0:0:
192,192,74878,1,0,0:0:0:0:
64,192,74956,1,0,0:0:0:0:
448,192,75034,1,0,0:0:0:0:
320,192,75034,1,0,0:0:0:0:
192,192,75111,1,0,0:0:0:0:
448,192,75189,1,0,0:0:0:0:
192,192,75267,1,0,0:0:0:0:
64,192,75344,1,0,0:0:0:0:
320,192,75344,1,0,0:0:0:0:
448,192,75422,1,0,0:0:0:0:
192,192,75499,1,0,0:0:0:0:
320,192,75499,1,0,0:0:0:0:
448,192,75577,1,0,0:0:0:0:
192,192,75655,1,0,0:0:0:0:
64,192,75655,1,0,0:0:0:0:
320,192,75732,1,0,0:0:0:0:
64,192,75810,1,0,0:0:0:0:
320,192,75888,1,0,0:0:0:0:
448,192,75965,1,0,0:0:0:0:
192,192,75965,1,0,0:0:0:0:
64,192,76043,1,0,0:0:0:0:
448,192,76121,1,0,0:0:0:0:
320,192,76121,1,0,0:0:0:0:
64,192,76198,1,0,0:0:0:0:
192,192,76276,1,0,0:0:0:0:
320,192,76276,1,0,0:0:0:0:
448,192,76354,1,0,0:0:0:0:
192,192,76431,1,0,0:0:0:0:
320,192,76509,1,0,0:0:0:0:
64,192,76586,1,0,0:0:0:0:
448,192,76586,1,0,0:0:0:0:
192,192,76586,1,0,0:0:0:0:
320,192,76664,1,0,0:0:0:0:
64,192,76742,1,0,0:0:0:0:
448,192,76819,1,0,0:0:0:0:
192,192,76897,1,0,0:0:0:0:
320,192,76897,1,0,0:0:0:0:
64,192,76975,1,0,0:0:0:0:
448,192,77052,1,0,0:0:0:0:
320,192,77052,1,0,0:0:0:0:
192,192,77130,1,0,0:0:0:0:
64,192,77208,1,0,0:0:0:0:
448,192,77208,1,0,0:0:0:0:
192,192,77285,1,0,0:0:0:0:
448,192,77363,1,0,0:0:0:0:
320,192,77363,1,0,0:0:0:0:
64,192,77440,1,0,0:0:0:0:
192,192,77518,1,0,0:0:0:0:
320,192,77518,1,0,0:0:0:0:
448,192,77596,1,0,0:0:0:0:
320,192,77673,1,0,0:0:0:0:
448,192,77751,1,0,0:0:0:0:
64,192,77829,1,0,0:0:0:0:
192,192,77829,1,0,0:0:0:0:
320,192,77906,1,0,0:0:0:0:
192,192,77984,1,0,0:0:0:0:
448,192,77984,1,0,0:0:0:0:
64,192,78062,1,0,0:0:0:0:
320,192,78139,1,0,0:0:0:0:
64,192,78217,1,0,0:0:0:0:
448,192,78295,1,0,0:0:0:0:
192,192,78295,1,0,0:0:0:0:
320,192,78372,1,0,0:0:0:0:
64,192,78450,1,0,0:0:0:0:
448,192,78450,1,0,0:0:0:0:
192,192,78527,1,0,0:0:0:0:
448,192,78605,1,0,0:0:0:0:
64,192,78683,1,0,0:0:0:0:
320,192,78760,1,0,0:0:0:0:
192,192,78760,1,0,0:0:0:0:
64,192,78838,1,0,0:0:0:0:
320,192,78916,1,0,0:0:0:0:
448,192,78993,1,0,0:0:0:0:
64,192,79071,1,0,0:0:0:0:
192,192,79071,1,0,0:0:0:0:
320,192,79149,1,0,0:0:0:0:
192,192,79226,1,0,0:0:0:0:
320,192,79304,1,0,0:0:0:0:
64,192,79381,1,0,0:0:0:0:
448,192,79381,1,0,0:0:0:0:
192,192,79459,1,0,0:0:0:0:
448,192,79537,1,0,0:0:0:0:
320,192,79537,1,0,0:0:0:0:
192,192,79614,1,0,0:0:0:0:
64,192,79692,1,0,0:0:0:0:
320,192,79692,1,0,0:0:0:0:
448,192,79770,1,0,0:0:0:0:
64,192,79847,1,0,0:0:0:0:
192,192,79847,1,0,0:0:0:0:
320,192,79925,1,0,0:0:0:0:
64,192,80003,1,0,0:0:0:0:
192,192,80003,1,0,0:0:0:0:
448,192,80003,1,0,0:0:0:0:
320,192,80313,1,0,0:0:0:0:
192,192,80313,1,0,0:0:0:0:
64,192,80313,1,0,0:0:0:0:
320,192,80468,1,0,0:0:0:0:
64,192,80624,1,0,0:0:0:0:
448,192,80624,1,0,0:0:0:0:
192,192,80624,1,0,0:0:0:0:
64,192,80895,1,0,0:0:0:0:
192,192,81089,128,0,82952:0:0:0:0:
448,192,82952,1,0,0:0:0:0:
192,192,83107,1,0,0:0:0:0:
448,192,83107,1,0,0:0:0:0:
64,192,83185,1,0,0:0:0:0:
320,192,83263,1,0,0:0:0:0:
192,192,83340,1,0,0:0:0:0:
448,192,83418,1,0,0:0:0:0:
64,192,83418,1,0,0:0:0:0:
320,192,83496,1,0,0:0:0:0:
64,192,83573,1,0,0:0:0:0:
320,192,83651,1,0,0:0:0:0:
448,192,83729,1,0,0:0:0:0:
192,192,83729,1,0,0:0:0:0:
64,192,83806,1,0,0:0:0:0:
448,192,83884,1,0,0:0:0:0:
64,192,83961,1,0,0:0:0:0:
320,192,84039,1,0,0:0:0:0:
192,192,84194,1,0,0:0:0:0:
448,192,84194,1,0,0:0:0:0:
448,192,84350,1,0,0:0:0:0:
64,192,84350,1,0,0:0:0:0:
320,192,84505,1,0,0:0:0:0:
192,192,84505,1,0,0:0:0:0:
448,192,84660,1,0,0:0:0:0:
192,192,84660,1,0,0:0:0:0:
64,192,84738,1,0,0:0:0:0:
448,192,84815,1,0,0:0:0:0:
64,192,84893,1,0,0:0:0:0:
320,192,84971,1,0,0:0:0:0:
192,192,84971,1,0,0:0:0:0:
448,192,85048,1,0,0:0:0:0:
192,192,85126,1,0,0:0:0:0:
448,192,85204,1,0,0:0:0:0:
64,192,85281,1,0,0:0:0:0:
320,192,85437,1,0,0:0:0:0:
192,192,85437,1,0,0:0:0:0:
448,192,85592,1,0,0:0:0:0:
192,192,85592,1,0,0:0:0:0:
64,192,85747,1,0,0:0:0:0:
320,192,85747,1,0,0:0:0:0:
192,192,85902,1,0,0:0:0:0:
320,192,85902,1,0,0:0:0:0:
448,192,85980,1,0,0:0:0:0:
192,192,86058,1,0,0:0:0:0:
448,192,86135,1,0,0:0:0:0:
64,192,86213,1,0,0:0:0:0:
320,192,86213,1,0,0:0:0:0:
192,192,86291,1,0,0:0:0:0:
320,192,86368,1,0,0:0:0:0:
192,192,86446,1,0,0:0:0:0:
448,192,86524,1,0,0:0:0:0:
64,192,86524,1,0,0:0:0:0:
320,192,86601,1,0,0:0:0:0:
192,192,86679,1,0,0:0:0:0:
64,192,86679,1,0,0:0:0:0:
320,192,86756,1,0,0:0:0:0:
448,192,86834,1,0,0:0:0:0:
192,192,86834,1,0,0:0:0:0:
64,192,86912,1,0,0:0:0:0:
448,192,86989,1,0,0:0:0:0:
64,192,87067,1,0,0:0:0:0:
192,192,87067,1,0,0:0:0:0:
320,192,87145,1,0,0:0:0:0:
192,192,87222,1,0,0:0:0:0:
320,192,87300,1,0,0:0:0:0:
448,192,87378,1,0,0:0:0:0:
64,192,87455,1,0,0:0:0:0:
192,192,87455,1,0,0:0:0:0:
320,192,87533,1,0,0:0:0:0:
64,192,87611,1,0,0:0:0:0:
448,192,87688,1,0,0:0:0:0:
64,192,87766,1,0,0:0:0:0:
320,192,87766,1,0,0:0:0:0:
192,192,87843,1,0,0:0:0:0:
448,192,87921,1,0,0:0:0:0:
320,192,87921,1,0,0:0:0:0:
448,192,88076,1,0,0:0:0:0:
64,192,88076,1,0,0:0:0:0:
192,192,88232,1,0,0:0:0:0:
448,192,88232,1,0,0:0:0:0:
64,192,88387,1,0,0:0:0:0:
320,192,88387,1,0,0:0:0:0:
192,192,88465,1,0,0:0:0:0:
64,192,88542,1,0,0:0:0:0:
192,192,88620,1,0,0:0:0:0:
320,192,88697,1,0,0:0:0:0:
448,192,88697,1,0,0:0:0:0:
64,192,88775,1,0,0:0:0:0:
448,192,88853,1,0,0:0:0:0:
64,192,88930,1,0,0:0:0:0:
320,192,89008,1,0,0:0:0:0:
192,192,89008,1,0,0:0:0:0:
448,192,89086,1,0,0:0:0:0:
320,192,89163,1,0,0:0:0:0:
64,192,89163,1,0,0:0:0:0:
448,192,89241,1,0,0:0:0:0:
64,192,89319,1,0,0:0:0:0:
320,192,89474,1,0,0:0:0:0:
192,192,89474,1,0,0:0:0:0:
64,192,89552,1,0,0:0:0:0:
320,192,89629,1,0,0:0:0:0:
64,192,89784,1,0,0:0:0:0:
192,192,89784,1,0,0:0:0:0:
448,192,89862,1,0,0:0:0:0:
64,192,89940,1,0,0:0:0:0:
320,192,89940,1,0,0:0:0:0:
192,192,90017,1,0,0:0:0:0:
448,192,90095,1,0,0:0:0:0:
64,192,90095,1,0,0:0:0:0:
192,192,90173,1,0,0:0:0:0:
448,192,90250,1,0,0:0:0:0:
320,192,90250,1,0,0:0:0:0:
64,192,90328,1,0,0:0:0:0:
320,192,90406,1,0,0:0:0:0:
64,192,90483,1,0,0:0:0:0:
448,192,90561,1,0,0:0:0:0:
192,192,90561,1,0,0:0:0:0:
320,192,90638,1,0,0:0:0:0:
64,192,90716,1,0,0:0:0:0:
192,192,90716,1,0,0:0:0:0:
320,192,90794,1,0,0:0:0:0:
64,192,90871,1,0,0:0:0:0:
448,192,90949,1,0,0:0:0:0:
64,192,91027,1,0,0:0:0:0:
320,192,91104,1,0,0:0:0:0:
448,192,91182,1,0,0:0:0:0:
64,192,91182,1,0,0:0:0:0:
192,192,91260,1,0,0:0:0:0:
64,192,91337,1,0,0:0:0:0:
320,192,91415,1,0,0:0:0:0:
448,192,91493,1,0,0:0:0:0:
192,192,91493,1,0,0:0:0:0:
64,192,91570,1,0,0:0:0:0:
448,192,91648,1,0,0:0:0:0:
192,192,91725,5,0,0:0:0:0:
448,192,91803,1,0,0:0:0:0:
64,192,91803,1,0,0:0:0:0:
320,192,91881,1,0,0:0:0:0:
448,192,91958,1,0,0:0:0:0:
320,192,92036,1,0,0:0:0:0:
192,192,92114,1,0,0:0:0:0:
64,192,92114,1,0,0:0:0:0:
192,192,92269,1,0,0:0:0:0:
64,192,92424,1,0,0:0:0:0:
320,192,92424,1,0,0:0:0:0:
320,192,92579,1,0,0:0:0:0:
448,192,92579,1,0,0:0:0:0:
448,192,92890,5,0,0:0:0:0:
448,192,93045,1,0,0:0:0:0:
192,192,93045,1,0,0:0:0:0:
64,192,93045,1,0,0:0:0:0:
320,192,93201,1,0,0:0:0:0:
192,192,93278,1,0,0:0:0:0:
64,192,93356,1,0,0:0:0:0:
448,192,93356,1,0,0:0:0:0:
320,192,93356,1,0,0:0:0:0:
64,192,93511,1,0,0:0:0:0:
320,192,93666,1,0,0:0:0:0:
192,192,93666,1,0,0:0:0:0:
448,192,93744,1,0,0:0:0:0:
192,192,93822,1,0,0:0:0:0:
448,192,93899,1,0,0:0:0:0:
64,192,93977,1,0,0:0:0:0:
320,192,93977,1,0,0:0:0:0:
192,192,94055,1,0,0:0:0:0:
448,192,94132,1,0,0:0:0:0:
64,192,94132,1,0,0:0:0:0:
192,192,94210,1,0,0:0:0:0:
320,192,94288,1,0,0:0:0:0:
448,192,94288,1,0,0:0:0:0:
64,192,94365,1,0,0:0:0:0:
192,192,94443,1,0,0:0:0:0:
320,192,94443,1,0,0:0:0:0:
448,192,94520,1,0,0:0:0:0:
64,192,94598,1,0,0:0:0:0:
192,192,94598,1,0,0:0:0:0:
320,192,94676,1,0,0:0:0:0:
64,192,94753,1,0,0:0:0:0:
448,192,94831,1,0,0:0:0:0:
320,192,94909,1,0,0:0:0:0:
64,192,94909,1,0,0:0:0:0:
192,192,94986,1,0,0:0:0:0:
64,192,95064,1,0,0:0:0:0:
320,192,95142,1,0,0:0:0:0:
192,192,95219,1,0,0:0:0:0:
448,192,95219,1,0,0:0:0:0:
320,192,95374,1,0,0:0:0:0:
448,192,95374,1,0,0:0:0:0:
64,192,95452,1,0,0:0:0:0:
192,192,95530,1,0,0:0:0:0:
320,192,95530,1,0,0:0:0:0:
448,192,95607,1,0,0:0:0:0:
64,192,95685,1,0,0:0:0:0:
192,192,95685,1,0,0:0:0:0:
448,192,95763,1,0,0:0:0:0:
64,192,95840,1,0,0:0:0:0:
320,192,95840,1,0,0:0:0:0:
64,192,95996,1,0,0:0:0:0:
320,192,96151,1,0,0:0:0:0:
448,192,96151,1,0,0:0:0:0:
64,192,96229,1,0,0:0:0:0:
320,192,96306,1,0,0:0:0:0:
64,192,96384,1,0,0:0:0:0:
192,192,96461,1,0,0:0:0:0:
448,192,96461,1,0,0:0:0:0:
320,192,96539,1,0,0:0:0:0:
64,192,96617,1,0,0:0:0:0:
448,192,96617,1,0,0:0:0:0:
320,192,96694,1,0,0:0:0:0:
64,192,96772,1,0,0:0:0:0:
192,192,96772,1,0,0:0:0:0:
448,192,96850,1,0,0:0:0:0:
320,192,96927,1,0,0:0:0:0:
192,192,96927,1,0,0:0:0:0:
64,192,97005,1,0,0:0:0:0:
448,192,97083,1,0,0:0:0:0:
320,192,97083,1,0,0:0:0:0:
192,192,97160,1,0,0:0:0:0:
448,192,97238,1,0,0:0:0:0:
64,192,97315,1,0,0:0:0:0:
448,192,97393,1,0,0:0:0:0:
192,192,97393,1,0,0:0:0:0:
320,192,97471,1,0,0:0:0:0:
448,192,97548,1,0,0:0:0:0:
192,192,97626,1,0,0:0:0:0:
320,192,97704,1,0,0:0:0:0:
64,192,97704,1,0,0:0:0:0:
192,192,97859,1,0,0:0:0:0:
448,192,98014,1,0,0:0:0:0:
192,192,98014,1,0,0:0:0:0:
64,192,98092,1,0,0:0:0:0:
448,192,98170,1,0,0:0:0:0:
320,192,98170,1,0,0:0:0:0:
192,192,98247,1,0,0:0:0:0:
64,192,98325,1,0,0:0:0:0:
320,192,98325,1,0,0:0:0:0:
448,192,98402,1,0,0:0:0:0:
64,192,98480,1,0,0:0:0:0:
448,192,98558,1,0,0:0:0:0:
320,192,98635,1,0,0:0:0:0:
192,192,98635,1,0,0:0:0:0:
64,192,98713,1,0,0:0:0:0:
320,192,98791,1,0,0:0:0:0:
64,192,98868,1,0,0:0:0:0:
192,192,98946,1,0,0:0:0:0:
448,192,98946,1,0,0:0:0:0:
320,192,99024,1,0,0:0:0:0:
64,192,99101,1,0,0:0:0:0:
448,192,99101,1,0,0:0:0:0:
320,192,99179,1,0,0:0:0:0:
64,192,99256,1,0,0:0:0:0:
192,192,99256,1,0,0:0:0:0:
448,192,99334,1,0,0:0:0:0:
192,192,99412,1,0,0:0:0:0:
320,192,99412,1,0,0:0:0:0:
64,192,99489,1,0,0:0:0:0:
448,192,99567,1,0,0:0:0:0:
320,192,99567,1,0,0:0:0:0:
192,192,99645,1,0,0:0:0:0:
448,192,99722,1,0,0:0:0:0:
192,192,99800,1,0,0:0:0:0:
64,192,99878,1,0,0:0:0:0:
448,192,99878,1,0,0:0:0:0:
320,192,99955,1,0,0:0:0:0:
192,192,100033,1,0,0:0:0:0:
64,192,100033,1,0,0:0:0:0:
320,192,100111,1,0,0:0:0:0:
192,192,100188,1,0,0:0:0:0:
448,192,100188,1,0,0:0:0:0:
64,192,100266,1,0,0:0:0:0:
192,192,100343,1,0,0:0:0:0:
320,192,100343,1,0,0:0:0:0:
64,192,100421,1,0,0:0:0:0:
448,192,100499,1,0,0:0:0:0:
320,192,100499,1,0,0:0:0:0:
192,192,100576,1,0,0:0:0:0:
64,192,100654,1,0,0:0:0:0:
448,192,100654,1,0,0:0:0:0:
320,192,100732,1,0,0:0:0:0:
64,192,100809,1,0,0:0:0:0:
192,192,100809,1,0,0:0:0:0:
448,192,100887,1,0,0:0:0:0:
192,192,100965,1,0,0:0:0:0:
320,192,101042,1,0,0:0:0:0:
192,192,101120,1,0,0:0:0:0:
448,192,101120,1,0,0:0:0:0:
64,192,101197,1,0,0:0:0:0:
192,192,101275,1,0,0:0:0:0:
320,192,101353,1,0,0:0:0:0:
64,192,101430,1,0,0:0:0:0:
192,192,101430,1,0,0:0:0:0:
448,192,101508,1,0,0:0:0:0:
192,192,101586,1,0,0:0:0:0:
320,192,101663,1,0,0:0:0:0:
448,192,101741,1,0,0:0:0:0:
192,192,101741,1,0,0:0:0:0:
64,192,101819,1,0,0:0:0:0:
192,192,101896,1,0,0:0:0:0:
320,192,101974,1,0,0:0:0:0:
448,192,102052,1,0,0:0:0:0:
64,192,102052,1,0,0:0:0:0:
448,192,102207,1,0,0:0:0:0:
64,192,102362,1,0,0:0:0:0:
448,192,102362,1,0,0:0:0:0:
192,192,102362,1,0,0:0:0:0:
448,192,102517,1,0,0:0:0:0:
192,192,102673,1,0,0:0:0:0:
64,192,102828,1,0,0:0:0:0:
320,192,102828,1,0,0:0:0:0:
192,192,102983,1,0,0:0:0:0:
320,192,102983,1,0,0:0:0:0:
448,192,103061,1,0,0:0:0:0:
192,192,103138,1,0,0:0:0:0:
64,192,103138,1,0,0:0:0:0:
320,192,103216,1,0,0:0:0:0:
448,192,103294,1,0,0:0:0:0:
64,192,103294,1,0,0:0:0:0:
192,192,103371,1,0,0:0:0:0:
64,192,103449,1,0,0:0:0:0:
192,192,103527,1,0,0:0:0:0:
448,192,103604,1,0,0:0:0:0:
320,192,103604,1,0,0:0:0:0:
64,192,103682,1,0,0:0:0:0:
320,192,103760,1,0,0:0:0:0:
64,192,103837,1,0,0:0:0:0:
448,192,103915,1,0,0:0:0:0:
192,192,103915,1,0,0:0:0:0:
320,192,103993,1,0,0:0:0:0:
448,192,104070,1,0,0:0:0:0:
64,192,104070,1,0,0:0:0:0:
320,192,104148,1,0,0:0:0:0:
64,192,104225,1,0,0:0:0:0:
192,192,104225,1,0,0:0:0:0:
448,192,104303,1,0,0:0:0:0:
192,192,104381,1,0,0:0:0:0:
320,192,104381,1,0,0:0:0:0:
64,192,104458,1,0,0:0:0:0:
448,192,104536,1,0,0:0:0:0:
320,192,104536,1,0,0:0:0:0:
192,192,104614,1,0,0:0:0:0:
448,192,104691,1,0,0:0:0:0:
64,192,104769,1,0,0:0:0:0:
192,192,104847,1,0,0:0:0:0:
448,192,104847,1,0,0:0:0:0:
320,192,104924,1,0,0:0:0:0:
448,192,105002,1,0,0:0:0:0:
192,192,105079,1,0,0:0:0:0:
320,192,105157,1,0,0:0:0:0:
64,192,105157,1,0,0:0:0:0:
192,192,105312,1,0,0:0:0:0:
64,192,105312,1,0,0:0:0:0:
448,192,105390,1,0,0:0:0:0:
320,192,105468,1,0,0:0:0:0:
192,192,105468,1,0,0:0:0:0:
64,192,105545,1,0,0:0:0:0:
320,192,105623,1,0,0:0:0:0:
448,192,105623,1,0,0:0:0:0:
64,192,105701,1,0,0:0:0:0:
448,192,105778,1,0,0:0:0:0:
192,192,105778,1,0,0:0:0:0:
320,192,105856,1,0,0:0:0:0:
448,192,105934,1,0,0:0:0:0:
320,192,106011,1,0,0:0:0:0:
192,192,106089,1,0,0:0:0:0:
64,192,106089,1,0,0:0:0:0:
448,192,106166,1,0,0:0:0:0:
192,192,106244,1,0,0:0:0:0:
448,192,106322,1,0,0:0:0:0:
320,192,106399,1,0,0:0:0:0:
64,192,106399,1,0,0:0:0:0:
192,192,106477,1,0,0:0:0:0:
448,192,106555,1,0,0:0:0:0:
64,192,106555,1,0,0:0:0:0:
192,192,106632,1,0,0:0:0:0:
448,192,106710,1,0,0:0:0:0:
320,192,106710,1,0,0:0:0:0:
64,192,106788,1,0,0:0:0:0:
192,192,106865,1,0,0:0:0:0:
320,192,106865,1,0,0:0:0:0:
448,192,106943,1,0,0:0:0:0:
64,192,107020,1,0,0:0:0:0:
192,192,107020,1,0,0:0:0:0:
320,192,107098,1,0,0:0:0:0:
64,192,107176,1,0,0:0:0:0:
448,192,107253,1,0,0:0:0:0:
64,192,107331,1,0,0:0:0:0:
320,192,107331,1,0,0:0:0:0:
192,192,107409,1,0,0:0:0:0:
64,192,107486,1,0,0:0:0:0:
320,192,107564,1,0,0:0:0:0:
192,192,107642,1,0,0:0:0:0:
448,192,107642,1,0,0:0:0:0:
448,192,107797,1,0,0:0:0:0:
320,192,107952,1,0,0:0:0:0:
64,192,107952,1,0,0:0:0:0:
64,192,108107,1,0,0:0:0:0:
192,192,108107,1,0,0:0:0:0:
448,192,108263,1,0,0:0:0:0:
192,192,108263,1,0,0:0:0:0:
64,192,108340,1,0,0:0:0:0:
448,192,108418,1,0,0:0:0:0:
64,192,108496,1,0,0:0:0:0:
192,192,108573,1,0,0:0:0:0:
320,192,108573,1,0,0:0:0:0:
448,192,108651,1,0,0:0:0:0:
192,192,108729,1,0,0:0:0:0:
448,192,108806,1,0,0:0:0:0:
320,192,108884,1,0,0:0:0:0:
64,192,108884,1,0,0:0:0:0:
192,192,108961,1,0,0:0:0:0:
448,192,109039,1,0,0:0:0:0:
64,192,109039,1,0,0:0:0:0:
192,192,109117,1,0,0:0:0:0:
448,192,109194,1,0,0:0:0:0:
320,192,109194,1,0,0:0:0:0:
64,192,109272,1,0,0:0:0:0:
320,192,109350,1,0,0:0:0:0:
192,192,109350,1,0,0:0:0:0:
448,192,109427,1,0,0:0:0:0:
64,192,109505,1,0,0:0:0:0:
192,192,109505,1,0,0:0:0:0:
320,192,109583,1,0,0:0:0:0:
64,192,109660,1,0,0:0:0:0:
320,192,109738,1,0,0:0:0:0:
448,192,109815,1,0,0:0:0:0:
64,192,109815,1,0,0:0:0:0:
192,192,109893,1,0,0:0:0:0:
320,192,109971,1,0,0:0:0:0:
448,192,109971,1,0,0:0:0:0:
192,192,110048,1,0,0:0:0:0:
320,192,110126,1,0,0:0:0:0:
64,192,110126,1,0,0:0:0:0:
448,192,110204,1,0,0:0:0:0:
320,192,110281,1,0,0:0:0:0:
192,192,110281,1,0,0:0:0:0:
448,192,110359,1,0,0:0:0:0:
64,192,110437,1,0,0:0:0:0:
192,192,110437,1,0,0:0:0:0:
320,192,110514,1,0,0:0:0:0:
448,192,110592,1,0,0:0:0:0:
64,192,110592,1,0,0:0:0:0:
192,192,110670,1,0,0:0:0:0:
448,192,110747,1,0,0:0:0:0:
320,192,110747,1,0,0:0:0:0:
64,192,110825,1,0,0:0:0:0:
320,192,110902,1,0,0:0:0:0:
192,192,110980,1,0,0:0:0:0:
320,192,111058,1,0,0:0:0:0:
64,192,111058,1,0,0:0:0:0:
448,192,111135,1,0,0:0:0:0:
320,192,111213,1,0,0:0:0:0:
192,192,111291,1,0,0:0:0:0:
448,192,111368,1,0,0:0:0:0:
320,192,111368,1,0,0:0:0:0:
64,192,111446,1,0,0:0:0:0:
320,192,111524,1,0,0:0:0:0:
64,192,111601,1,0,0:0:0:0:
192,192,111679,1,0,0:0:0:0:
320,192,111679,1,0,0:0:0:0:
448,192,111756,1,0,0:0:0:0:
64,192,111834,1,0,0:0:0:0:
320,192,111912,1,0,0:0:0:0:
192,192,111989,1,0,0:0:0:0:
64,192,111989,1,0,0:0:0:0:
448,192,112067,1,0,0:0:0:0:
64,192,112145,1,0,0:0:0:0:
448,192,112222,1,0,0:0:0:0:
320,192,112300,1,0,0:0:0:0:
64,192,112300,1,0,0:0:0:0:
192,192,112378,1,0,0:0:0:0:
64,192,112455,1,0,0:0:0:0:
320,192,112533,1,0,0:0:0:0:
64,192,112611,1,0,0:0:0:0:
448,192,112611,1,0,0:0:0:0:
448,192,112766,1,0,0:0:0:0:
448,192,112921,1,0,0:0:0:0:
64,192,113076,1,0,0:0:0:0:
448,192,113076,1,0,0:0:0:0:
64,192,113232,1,0,0:0:0:0:
192,192,113232,1,0,0:0:0:0:
320,192,113232,1,0,0:0:0:0:
320,192,113387,1,0,0:0:0:0:
192,192,113465,1,0,0:0:0:0:
320,192,113542,1,0,0:0:0:0:
64,192,113620,1,0,0:0:0:0:
192,192,113697,1,0,0:0:0:0:
448,192,113697,1,0,0:0:0:0:
320,192,113775,1,0,0:0:0:0:
192,192,113853,1,0,0:0:0:0:
64,192,113853,1,0,0:0:0:0:
448,192,113930,1,0,0:0:0:0:
64,192,114008,1,0,0:0:0:0:
320,192,114086,1,0,0:0:0:0:
64,192,114163,1,0,0:0:0:0:
448,192,114241,1,0,0:0:0:0:
192,192,114319,1,0,0:0:0:0:
320,192,114319,1,0,0:0:0:0:
64,192,114396,1,0,0:0:0:0:
448,192,114474,1,0,0:0:0:0:
320,192,114474,1,0,0:0:0:0:
192,192,114552,1,0,0:0:0:0:
448,192,114629,1,0,0:0:0:0:
64,192,114707,1,0,0:0:0:0:
448,192,114784,1,0,0:0:0:0:
192,192,114862,1,0,0:0:0:0:
64,192,114940,1,0,0:0:0:0:
320,192,114940,1,0,0:0:0:0:
448,192,115017,1,0,0:0:0:0:
64,192,115095,1,0,0:0:0:0:
192,192,115095,1,0,0:0:0:0:
320,192,115173,1,0,0:0:0:0:
192,192,115250,1,0,0:0:0:0:
448,192,115328,1,0,0:0:0:0:
320,192,115406,1,0,0:0:0:0:
64,192,115406,1,0,0:0:0:0:
192,192,115483,1,0,0:0:0:0:
448,192,115561,1,0,0:0:0:0:
64,192,115638,1,0,0:0:0:0:
192,192,115716,1,0,0:0:0:0:
448,192,115716,1,0,0:0:0:0:
320,192,115716,1,0,0:0:0:0:
64,192,115794,1,0,0:0:0:0:
320,192,115871,1,0,0:0:0:0:
192,192,115949,1,0,0:0:0:0:
320,192,116027,1,0,0:0:0:0:
192,192,116104,1,0,0:0:0:0:
64,192,116182,1,0,0:0:0:0:
448,192,116182,1,0,0:0:0:0:
320,192,116260,1,0,0:0:0:0:
192,192,116337,1,0,0:0:0:0:
64,192,116337,1,0,0:0:0:0:
320,192,116415,1,0,0:0:0:0:
192,192,116493,1,0,0:0:0:0:
448,192,116570,1,0,0:0:0:0:
192,192,116648,1,0,0:0:0:0:
448,192,116725,1,0,0:0:0:0:
64,192,116803,1,0,0:0:0:0:
320,192,116803,1,0,0:0:0:0:
192,192,116881,1,0,0:0:0:0:
448,192,116958,1,0,0:0:0:0:
320,192,116958,1,0,0:0:0:0:
192,192,117036,1,0,0:0:0:0:
448,192,117114,1,0,0:0:0:0:
64,192,117114,1,0,0:0:0:0:
320,192,117191,1,0,0:0:0:0:
192,192,117269,1,0,0:0:0:0:
448,192,117269,1,0,0:0:0:0:
64,192,117347,1,0,0:0:0:0:
192,192,117424,1,0,0:0:0:0:
320,192,117424,1,0,0:0:0:0:
448,192,117502,1,0,0:0:0:0:
64,192,117579,1,0,0:0:0:0:
320,192,117579,1,0,0:0:0:0:
448,192,117657,1,0,0:0:0:0:
192,192,117735,1,0,0:0:0:0:
64,192,117735,1,0,0:0:0:0:
320,192,117812,1,0,0:0:0:0:
64,192,117890,1,0,0:0:0:0:
448,192,117890,1,0,0:0:0:0:
320,192,118045,1,0,0:0:0:0:
192,192,118045,1,0,0:0:0:0:
448,192,118201,1,0,0:0:0:0:
64,192,118201,1,0,0:0:0:0:
320,192,118201,1,0,0:0:0:0:
64,192,118356,1,0,0:0:0:0:
448,192,118433,1,0,0:0:0:0:
64,192,118511,1,0,0:0:0:0:
320,192,118589,1,0,0:0:0:0:
448,192,118666,1,0,0:0:0:0:
192,192,118666,1,0,0:0:0:0:
64,192,118744,1,0,0:0:0:0:
448,192,118822,1,0,0:0:0:0:
320,192,118822,1,0,0:0:0:0:
192,192,118899,1,0,0:0:0:0:
320,192,118977,1,0,0:0:0:0:
64,192,119055,1,0,0:0:0:0:
320,192,119132,1,0,0:0:0:0:
192,192,119210,1,0,0:0:0:0:
448,192,119288,1,0,0:0:0:0:
64,192,119288,1,0,0:0:0:0:
320,192,119365,1,0,0:0:0:0:
192,192,119443,1,0,0:0:0:0:
64,192,119443,1,0,0:0:0:0:
448,192,119520,1,0,0:0:0:0:
192,192,119598,1,0,0:0:0:0:
320,192,119676,1,0,0:0:0:0:
192,192,119753,1,0,0:0:0:0:
448,192,119831,1,0,0:0:0:0:
320,192,119909,1,0,0:0:0:0:
64,192,119909,1,0,0:0:0:0:
192,192,119986,1,0,0:0:0:0:
320,192,120064,1,0,0:0:0:0:
448,192,120064,1,0,0:0:0:0:
64,192,120142,1,0,0:0:0:0:
448,192,120219,1,0,0:0:0:0:
192,192,120297,1,0,0:0:0:0:
64,192,120374,1,0,0:0:0:0:
320,192,120374,1,0,0:0:0:0:
448,192,120452,1,0,0:0:0:0:
192,192,120530,1,0,0:0:0:0:
320,192,120607,1,0,0:0:0:0:
448,192,120685,1,0,0:0:0:0:
192,192,120685,1,0,0:0:0:0:
64,192,120685,1,0,0:0:0:0:
320,192,120763,1,0,0:0:0:0:
64,192,120840,1,0,0:0:0:0:
448,192,120918,1,0,0:0:0:0:
192,192,120996,1,0,0:0:0:0:
64,192,121073,1,0,0:0:0:0:
320,192,121151,1,0,0:0:0:0:
448,192,121151,1,0,0:0:0:0:
192,192,121229,1,0,0:0:0:0:
64,192,121306,1,0,0:0:0:0:
320,192,121306,1,0,0:0:0:0:
448,192,121384,1,0,0:0:0:0:
64,192,121461,1,0,0:0:0:0:
320,192,121539,1,0,0:0:0:0:
192,192,121617,1,0,0:0:0:0:
448,192,121694,1,0,0:0:0:0:
320,192,121772,1,0,0:0:0:0:
192,192,121772,1,0,0:0:0:0:
64,192,121850,1,0,0:0:0:0:
448,192,121927,5,0,0:0:0:0:
320,192,121927,1,0,0:0:0:0:
192,192,122005,1,0,0:0:0:0:
64,192,122083,1,0,0:0:0:0:
448,192,122083,1,0,0:0:0:0:
320,192,122160,1,0,0:0:0:0:
64,192,122238,1,0,0:0:0:0:
320,192,122315,1,0,0:0:0:0:
448,192,122393,1,0,0:0:0:0:
192,192,122393,1,0,0:0:0:0:
64,192,122471,1,0,0:0:0:0:
448,192,122548,1,0,0:0:0:0:
64,192,122626,1,0,0:0:0:0:
192,192,122704,1,0,0:0:0:0:
320,192,122704,1,0,0:0:0:0:
448,192,122781,1,0,0:0:0:0:
192,192,122859,1,0,0:0:0:0:
448,192,122937,1,0,0:0:0:0:
320,192,123014,1,0,0:0:0:0:
64,192,123014,1,0,0:0:0:0:
192,192,123092,1,0,0:0:0:0:
448,192,123170,1,0,0:0:0:0:
320,192,123170,1,0,0:0:0:0:
64,192,123170,1,0,0:0:0:0:
192,192,123791,5,0,0:0:0:0:
320,192,123791,1,0,0:0:0:0:
64,192,123868,1,0,0:0:0:0:
192,192,123946,1,0,0:0:0:0:
448,192,123946,1,0,0:0:0:0:
64,192,124024,1,0,0:0:0:0:
320,192,124101,1,0,0:0:0:0:
448,192,124101,1,0,0:0:0:0:
192,192,124179,1,0,0:0:0:0:
64,192,124256,1,0,0:0:0:0:
320,192,124256,1,0,0:0:0:0:
192,192,124334,1,0,0:0:0:0:
320,192,124412,1,0,0:0:0:0:
448,192,124412,1,0,0:0:0:0:
64,192,124489,1,0,0:0:0:0:
448,192,124567,1,0,0:0:0:0:
192,192,124645,1,0,0:0:0:0:
64,192,124722,1,0,0:0:0:0:
448,192,124722,1,0,0:0:0:0:
320,192,124800,1,0,0:0:0:0:
448,192,124878,1,0,0:0:0:0:
192,192,124955,1,0,0:0:0:0:
320,192,125033,1,0,0:0:0:0:
448,192,125033,1,0,0:0:0:0:
64,192,125111,1,0,0:0:0:0:
448,192,125188,1,0,0:0:0:0:
192,192,125266,1,0,0:0:0:0:
64,192,125343,1,0,0:0:0:0:
320,192,125343,1,0,0:0:0:0:
448,192,125421,1,0,0:0:0:0:
64,192,125499,1,0,0:0:0:0:
192,192,125576,1,0,0:0:0:0:
320,192,125654,1,0,0:0:0:0:
448,192,125654,1,0,0:0:0:0:
64,192,125732,1,0,0:0:0:0:
192,192,125809,1,0,0:0:0:0:
320,192,125809,1,0,0:0:0:0:
448,192,125887,1,0,0:0:0:0:
320,192,125965,1,0,0:0:0:0:
64,192,125965,1,0,0:0:0:0:
448,192,126042,1,0,0:0:0:0:
64,192,126120,1,0,0:0:0:0:
192,192,126197,1,0,0:0:0:0:
320,192,126275,1,0,0:0:0:0:
448,192,126275,1,0,0:0:0:0:
64,192,126353,1,0,0:0:0:0:
320,192,126430,1,0,0:0:0:0:
64,192,126508,1,0,0:0:0:0:
192,192,126586,1,0,0:0:0:0:
448,192,126586,1,0,0:0:0:0:
320,192,126663,1,0,0:0:0:0:
448,192,126741,1,0,0:0:0:0:
64,192,126741,1,0,0:0:0:0:
320,192,126819,1,0,0:0:0:0:
64,192,126896,1,0,0:0:0:0:
192,192,126896,1,0,0:0:0:0:
448,192,126974,1,0,0:0:0:0:
64,192,127052,1,0,0:0:0:0:
320,192,127129,1,0,0:0:0:0:
64,192,127207,1,0,0:0:0:0:
448,192,127207,1,0,0:0:0:0:
192,192,127284,1,0,0:0:0:0:
64,192,127362,1,0,0:0:0:0:
320,192,127440,1,0,0:0:0:0:
192,192,127517,1,0,0:0:0:0:
64,192,127517,1,0,0:0:0:0:
448,192,127595,1,0,0:0:0:0:
64,192,127673,1,0,0:0:0:0:
320,192,127750,1,0,0:0:0:0:
448,192,127828,1,0,0:0:0:0:
192,192,127828,1,0,0:0:0:0:
64,192,127906,1,0,0:0:0:0:
448,192,127983,1,0,0:0:0:0:
320,192,128061,1,0,0:0:0:0:
192,192,128138,1,0,0:0:0:0:
64,192,128138,1,0,0:0:0:0:
448,192,128216,1,0,0:0:0:0:
192,192,128294,1,0,0:0:0:0:
320,192,128294,1,0,0:0:0:0:
448,192,128371,1,0,0:0:0:0:
192,192,128449,1,0,0:0:0:0:
320,192,128527,1,0,0:0:0:0:
448,192,128604,1,0,0:0:0:0:
64,192,128604,1,0,0:0:0:0:
192,192,128682,1,0,0:0:0:0:
448,192,128760,1,0,0:0:0:0:
320,192,128760,1,0,0:0:0:0:
64,192,128837,1,0,0:0:0:0:
320,192,128915,1,0,0:0:0:0:
64,192,128993,1,0,0:0:0:0:
192,192,129070,1,0,0:0:0:0:
448,192,129070,1,0,0:0:0:0:
320,192,129148,1,0,0:0:0:0:
192,192,129225,1,0,0:0:0:0:
64,192,129225,1,0,0:0:0:0:
320,192,129303,1,0,0:0:0:0:
448,192,129381,1,0,0:0:0:0:
64,192,129381,1,0,0:0:0:0:
192,192,129458,1,0,0:0:0:0:
448,192,129536,1,0,0:0:0:0:
64,192,129614,1,0,0:0:0:0:
320,192,129691,1,0,0:0:0:0:
192,192,129691,1,0,0:0:0:0:
448,192,129691,1,0,0:0:0:0:
64,192,129769,1,0,0:0:0:0:
320,192,129847,1,0,0:0:0:0:
192,192,129924,1,0,0:0:0:0:
448,192,130002,1,0,0:0:0:0:
64,192,130002,1,0,0:0:0:0:
320,192,130079,1,0,0:0:0:0:
192,192,130157,1,0,0:0:0:0:
64,192,130157,1,0,0:0:0:0:
448,192,130235,1,0,0:0:0:0:
320,192,130312,1,0,0:0:0:0:
192,192,130312,1,0,0:0:0:0:
448,192,130390,1,0,0:0:0:0:
192,192,130468,1,0,0:0:0:0:
64,192,130468,1,0,0:0:0:0:
320,192,130545,1,0,0:0:0:0:
448,192,130623,1,0,0:0:0:0:
64,192,130623,1,0,0:0:0:0:
192,192,130701,1,0,0:0:0:0:
64,192,130778,1,0,0:0:0:0:
192,192,130856,1,0,0:0:0:0:
320,192,130933,1,0,0:0:0:0:
448,192,130933,1,0,0:0:0:0:
64,192,131011,1,0,0:0:0:0:
448,192,131089,1,0,0:0:0:0:
320,192,131166,1,0,0:0:0:0:
192,192,131166,1,0,0:0:0:0:
64,192,131244,1,0,0:0:0:0:
192,192,131322,1,0,0:0:0:0:
320,192,131399,1,0,0:0:0:0:
448,192,131399,1,0,0:0:0:0:
64,192,131477,1,0,0:0:0:0:
320,192,131555,1,0,0:0:0:0:
192,192,131555,1,0,0:0:0:0:
448,192,131632,1,0,0:0:0:0:
192,192,131710,1,0,0:0:0:0:
320,192,131788,1,0,0:0:0:0:
64,192,131865,1,0,0:0:0:0:
448,192,131865,1,0,0:0:0:0:
320,192,131943,1,0,0:0:0:0:
64,192,132020,1,0,0:0:0:0:
192,192,132098,1,0,0:0:0:0:
320,192,132176,1,0,0:0:0:0:
448,192,132176,1,0,0:0:0:0:
64,192,132253,1,0,0:0:0:0:
448,192,132331,1,0,0:0:0:0:
64,192,132409,1,0,0:0:0:0:
320,192,132486,1,0,0:0:0:0:
192,192,132486,1,0,0:0:0:0:
448,192,132564,1,0,0:0:0:0:
192,192,132642,1,0,0:0:0:0:
64,192,132642,1,0,0:0:0:0:
448,192,132719,1,0,0:0:0:0:
320,192,132797,1,0,0:0:0:0:
64,192,132797,1,0,0:0:0:0:
192,192,132874,1,0,0:0:0:0:
320,192,132952,1,0,0:0:0:0:
448,192,133030,1,0,0:0:0:0:
192,192,133107,1,0,0:0:0:0:
64,192,133107,1,0,0:0:0:0:
64,192,133263,1,0,0:0:0:0:
448,192,133340,1,0,0:0:0:0:
320,192,133418,1,0,0:0:0:0:
192,192,133418,1,0,0:0:0:0:
320,192,133573,1,0,0:0:0:0:
64,192,133729,5,0,0:0:0:0:
448,192,133729,1,0,0:0:0:0:
192,192,133806,1,0,0:0:0:0:
320,192,133884,1,0,0:0:0:0:
64,192,133884,1,0,0:0:0:0:
192,192,133961,1,0,0:0:0:0:
320,192,134039,1,0,0:0:0:0:
448,192,134039,1,0,0:0:0:0:
64,192,134117,1,0,0:0:0:0:
448,192,134194,1,0,0:0:0:0:
192,192,134194,1,0,0:0:0:0:
64,192,134272,1,0,0:0:0:0:
320,192,134350,1,0,0:0:0:0:
448,192,134350,1,0,0:0:0:0:
192,192,134427,1,0,0:0:0:0:
320,192,134505,1,0,0:0:0:0:
64,192,134583,1,0,0:0:0:0:
320,192,134660,1,0,0:0:0:0:
192,192,134660,1,0,0:0:0:0:
448,192,134738,1,0,0:0:0:0:
320,192,134815,1,0,0:0:0:0:
64,192,134893,1,0,0:0:0:0:
320,192,134971,1,0,0:0:0:0:
448,192,134971,1,0,0:0:0:0:
192,192,135048,1,0,0:0:0:0:
320,192,135126,1,0,0:0:0:0:
64,192,135204,1,0,0:0:0:0:
192,192,135281,1,0,0:0:0:0:
448,192,135281,1,0,0:0:0:0:
320,192,135359,1,0,0:0:0:0:
192,192,135437,1,0,0:0:0:0:
64,192,135514,1,0,0:0:0:0:
320,192,135592,1,0,0:0:0:0:
448,192,135592,1,0,0:0:0:0:
192,192,135670,1,0,0:0:0:0:
320,192,135747,1,0,0:0:0:0:
192,192,135825,1,0,0:0:0:0:
448,192,135902,1,0,0:0:0:0:
64,192,135902,1,0,0:0:0:0:
320,192,135980,1,0,0:0:0:0:
64,192,136058,1,0,0:0:0:0:
320,192,136135,1,0,0:0:0:0:
192,192,136213,1,0,0:0:0:0:
448,192,136213,1,0,0:0:0:0:
64,192,136291,1,0,0:0:0:0:
448,192,136368,1,0,0:0:0:0:
192,192,136446,1,0,0:0:0:0:
320,192,136524,1,0,0:0:0:0:
64,192,136524,1,0,0:0:0:0:
448,192,136601,1,0,0:0:0:0:
192,192,136679,1,0,0:0:0:0:
320,192,136679,1,0,0:0:0:0:
448,192,136756,1,0,0:0:0:0:
64,192,136834,1,0,0:0:0:0:
192,192,136834,1,0,0:0:0:0:
320,192,136912,1,0,0:0:0:0:
192,192,136989,1,0,0:0:0:0:
448,192,137067,1,0,0:0:0:0:
320,192,137145,1,0,0:0:0:0:
192,192,137145,1,0,0:0:0:0:
64,192,137222,1,0,0:0:0:0:
192,192,137300,1,0,0:0:0:0:
448,192,137378,1,0,0:0:0:0:
192,192,137455,1,0,0:0:0:0:
64,192,137455,1,0,0:0:0:0:
320,192,137533,1,0,0:0:0:0:
192,192,137611,1,0,0:0:0:0:
448,192,137688,1,0,0:0:0:0:
320,192,137766,1,0,0:0:0:0:
64,192,137766,1,0,0:0:0:0:
192,192,137843,1,0,0:0:0:0:
320,192,137921,1,0,0:0:0:0:
448,192,137999,1,0,0:0:0:0:
192,192,138076,1,0,0:0:0:0:
64,192,138076,1,0,0:0:0:0:
320,192,138154,1,0,0:0:0:0:
448,192,138232,1,0,0:0:0:0:
64,192,138232,1,0,0:0:0:0:
320,192,138309,1,0,0:0:0:0:
192,192,138387,1,0,0:0:0:0:
64,192,138387,1,0,0:0:0:0:
448,192,138465,1,0,0:0:0:0:
192,192,138542,1,0,0:0:0:0:
320,192,138542,1,0,0:0:0:0:
64,192,138620,1,0,0:0:0:0:
320,192,138697,1,0,0:0:0:0:
448,192,138697,1,0,0:0:0:0:
192,192,138775,1,0,0:0:0:0:
448,192,138853,1,0,0:0:0:0:
192,192,138930,1,0,0:0:0:0:
320,192,139008,1,0,0:0:0:0:
64,192,139008,1,0,0:0:0:0:
448,192,139086,1,0,0:0:0:0:
192,192,139163,1,0,0:0:0:0:
64,192,139163,1,0,0:0:0:0:
448,192,139241,1,0,0:0:0:0:
192,192,139319,1,0,0:0:0:0:
320,192,139319,1,0,0:0:0:0:
64,192,139396,1,0,0:0:0:0:
320,192,139474,1,0,0:0:0:0:
192,192,139552,1,0,0:0:0:0:
320,192,139629,1,0,0:0:0:0:
64,192,139629,1,0,0:0:0:0:
448,192,139629,1,0,0:0:0:0:
192,192,139707,1,0,0:0:0:0:
448,192,139784,1,0,0:0:0:0:
64,192,139862,1,0,0:0:0:0:
192,192,139940,1,0,0:0:0:0:
320,192,139940,1,0,0:0:0:0:
448,192,140017,1,0,0:0:0:0:
192,192,140095,1,0,0:0:0:0:
64,192,140095,1,0,0:0:0:0:
320,192,140173,1,0,0:0:0:0:
64,192,140250,1,0,0:0:0:0:
448,192,140250,1,0,0:0:0:0:
320,192,140328,1,0,0:0:0:0:
192,192,140406,1,0,0:0:0:0:
64,192,140406,1,0,0:0:0:0:
448,192,140483,1,0,0:0:0:0:
192,192,140561,1,0,0:0:0:0:
320,192,140561,1,0,0:0:0:0:
64,192,140638,1,0,0:0:0:0:
192,192,140716,1,0,0:0:0:0:
64,192,140794,1,0,0:0:0:0:
320,192,140871,1,0,0:0:0:0:
448,192,140871,1,0,0:0:0:0:
192,192,140949,1,0,0:0:0:0:
320,192,141027,1,0,0:0:0:0:
448,192,141104,1,0,0:0:0:0:
64,192,141104,1,0,0:0:0:0:
192,192,141182,1,0,0:0:0:0:
64,192,141260,1,0,0:0:0:0:
320,192,141337,1,0,0:0:0:0:
448,192,141337,1,0,0:0:0:0:
192,192,141415,1,0,0:0:0:0:
64,192,141493,1,0,0:0:0:0:
448,192,141493,1,0,0:0:0:0:
320,192,141570,1,0,0:0:0:0:
64,192,141648,1,0,0:0:0:0:
448,192,141725,1,0,0:0:0:0:
320,192,141803,1,0,0:0:0:0:
192,192,141803,1,0,0:0:0:0:
448,192,141881,1,0,0:0:0:0:
192,192,141958,1,0,0:0:0:0:
64,192,142036,1,0,0:0:0:0:
320,192,142114,1,0,0:0:0:0:
448,192,142114,1,0,0:0:0:0:
192,192,142191,1,0,0:0:0:0:
320,192,142269,1,0,0:0:0:0:
192,192,142347,1,0,0:0:0:0:
64,192,142424,1,0,0:0:0:0:
448,192,142424,1,0,0:0:0:0:
320,192,142502,1,0,0:0:0:0:
192,192,142579,1,0,0:0:0:0:
64,192,142579,1,0,0:0:0:0:
320,192,142657,1,0,0:0:0:0:
192,192,142735,1,0,0:0:0:0:
448,192,142735,1,0,0:0:0:0:
64,192,142812,1,0,0:0:0:0:
320,192,142890,1,0,0:0:0:0:
448,192,142890,1,0,0:0:0:0:
192,192,142968,1,0,0:0:0:0:
64,192,143045,1,0,0:0:0:0:
448,192,143045,1,0,0:0:0:0:
320,192,143356,1,0,0:0:0:0:
192,192,143356,1,0,0:0:0:0:
192,192,143511,1,0,0:0:0:0:
320,192,143666,1,0,0:0:0:0:
64,192,143666,1,0,0:0:0:0:
320,192,143873,1,0,0:0:0:0:
64,192,144106,1,0,0:0:0:0:
320,192,144288,1,0,0:0:0:0:
448,192,144288,1,0,0:0:0:0:
448,192,144443,1,0,0:0:0:0:
64,192,144443,1,0,0:0:0:0:
64,192,144598,1,0,0:0:0:0:
192,192,144753,1,0,0:0:0:0:
320,192,144753,1,0,0:0:0:0:
192,192,144909,1,0,0:0:0:0:
448,192,144909,1,0,0:0:0:0:
64,192,145064,1,0,0:0:0:0:
448,192,145064,1,0,0:0:0:0:
64,192,145219,1,0,0:0:0:0:
320,192,145219,1,0,0:0:0:0:
192,192,145374,1,0,0:0:0:0:
320,192,145374,1,0,0:0:0:0:
192,192,145530,1,0,0:0:0:0:
64,192,145685,1,0,0:0:0:0:
448,192,145685,1,0,0:0:0:0:
448,192,145840,1,0,0:0:0:0:
192,192,145996,1,0,0:0:0:0:
320,192,145996,1,0,0:0:0:0:
448,192,146073,1,0,0:0:0:0:
64,192,146151,1,0,0:0:0:0:
192,192,146151,1,0,0:0:0:0:
64,192,146306,1,0,0:0:0:0:
320,192,146306,1,0,0:0:0:0:
192,192,146461,1,0,0:0:0:0:
320,192,146461,1,0,0:0:0:0:
192,192,146617,1,0,0:0:0:0:
320,192,146772,1,0,0:0:0:0:
448,192,146927,1,0,0:0:0:0:
64,192,146927,1,0,0:0:0:0:
64,192,147083,1,0,0:0:0:0:
192,192,147238,1,0,0:0:0:0:
320,192,147238,1,0,0:0:0:0:
192,192,147393,1,0,0:0:0:0:
448,192,147393,1,0,0:0:0:0:
64,192,147548,1,0,0:0:0:0:
448,192,147548,1,0,0:0:0:0:
64,192,147704,1,0,0:0:0:0:
320,192,147704,1,0,0:0:0:0:
192,192,147859,1,0,0:0:0:0:
320,192,147859,1,0,0:0:0:0:
192,192,148014,1,0,0:0:0:0:
320,192,148170,1,0,0:0:0:0:
448,192,148170,1,0,0:0:0:0:
64,192,148170,1,0,0:0:0:0:
448,192,148325,1,0,0:0:0:0:
320,192,148480,1,0,0:0:0:0:
192,192,148480,1,0,0:0:0:0:
64,192,148480,1,0,0:0:0:0:
448,192,148635,1,0,0:0:0:0:
320,192,148635,1,0,0:0:0:0:
192,192,148713,1,0,0:0:0:0:
64,192,148713,1,0,0:0:0:0:
448,192,148791,1,0,0:0:0:0:
320,192,148791,1,0,0:0:0:0:
448,192,148946,1,0,0:0:0:0:
64,192,148946,1,0,0:0:0:0:
192,192,149024,1,0,0:0:0:0:
320,192,149101,1,0,0:0:0:0:
64,192,149101,1,0,0:0:0:0:
192,192,149179,1,0,0:0:0:0:
320,192,149256,1,0,0:0:0:0:
448,192,149256,1,0,0:0:0:0:
64,192,149334,1,0,0:0:0:0:
448,192,149412,1,0,0:0:0:0:
192,192,149412,1,0,0:0:0:0:
64,192,149489,1,0,0:0:0:0:
448,192,149567,1,0,0:0:0:0:
320,192,149645,1,0,0:0:0:0:
192,192,149722,1,0,0:0:0:0:
64,192,149722,1,0,0:0:0:0:
448,192,149800,1,0,0:0:0:0:
320,192,149878,1,0,0:0:0:0:
192,192,149878,1,0,0:0:0:0:
64,192,149955,1,0,0:0:0:0:
448,192,150033,1,0,0:0:0:0:
192,192,150033,1,0,0:0:0:0:
64,192,150111,1,0,0:0:0:0:
320,192,150188,1,0,0:0:0:0:
448,192,150188,1,0,0:0:0:0:
192,192,150266,1,0,0:0:0:0:
64,192,150343,1,0,0:0:0:0:
320,192,150343,1,0,0:0:0:0:
448,192,150421,1,0,0:0:0:0:
64,192,150499,1,0,0:0:0:0:
448,192,150576,1,0,0:0:0:0:
320,192,150654,1,0,0:0:0:0:
192,192,150654,1,0,0:0:0:0:
64,192,150732,1,0,0:0:0:0:
320,192,150809,1,0,0:0:0:0:
64,192,150887,1,0,0:0:0:0:
192,192,150965,1,0,0:0:0:0:
448,192,150965,1,0,0:0:0:0:
320,192,151042,1,0,0:0:0:0:
64,192,151120,1,0,0:0:0:0:
192,192,151120,1,0,0:0:0:0:
448,192,151197,1,0,0:0:0:0:
320,192,151275,1,0,0:0:0:0:
64,192,151275,1,0,0:0:0:0:
192,192,151353,1,0,0:0:0:0:
320,192,151430,1,0,0:0:0:0:
448,192,151430,1,0,0:0:0:0:
64,192,151508,1,0,0:0:0:0:
448,192,151586,1,0,0:0:0:0:
320,192,151663,1,0,0:0:0:0:
64,192,151741,1,0,0:0:0:0:
192,192,151741,1,0,0:0:0:0:
448,192,151819,1,0,0:0:0:0:
64,192,151896,1,0,0:0:0:0:
320,192,151896,1,0,0:0:0:0:
448,192,151974,1,0,0:0:0:0:
64,192,152052,1,0,0:0:0:0:
192,192,152129,1,0,0:0:0:0:
320,192,152207,1,0,0:0:0:0:
448,192,152207,1,0,0:0:0:0:
64,192,152284,1,0,0:0:0:0:
192,192,152362,1,0,0:0:0:0:
320,192,152362,1,0,0:0:0:0:
448,192,152440,1,0,0:0:0:0:
64,192,152517,1,0,0:0:0:0:
320,192,152517,1,0,0:0:0:0:
448,192,152595,1,0,0:0:0:0:
192,192,152673,1,0,0:0:0:0:
64,192,152673,1,0,0:0:0:0:
320,192,152750,1,0,0:0:0:0:
448,192,152828,1,0,0:0:0:0:
192,192,152828,1,0,0:0:0:0:
64,192,152906,1,0,0:0:0:0:
448,192,152983,1,0,0:0:0:0:
64,192,153061,1,0,0:0:0:0:
192,192,153138,1,0,0:0:0:0:
320,192,153138,1,0,0:0:0:0:
448,192,153216,1,0,0:0:0:0:
192,192,153294,1,0,0:0:0:0:
64,192,153294,1,0,0:0:0:0:
320,192,153371,1,0,0:0:0:0:
64,192,153449,1,0,0:0:0:0:
448,192,153449,1,0,0:0:0:0:
192,192,153527,1,0,0:0:0:0:
448,192,153604,1,0,0:0:0:0:
320,192,153604,1,0,0:0:0:0:
64,192,153682,1,0,0:0:0:0:
192,192,153682,1,0,0:0:0:0:
448,192,153760,1,0,0:0:0:0:
320,192,153760,1,0,0:0:0:0:
64,192,153837,1,0,0:0:0:0:
192,192,153915,1,0,0:0:0:0:
320,192,153915,1,0,0:0:0:0:
448,192,153993,1,0,0:0:0:0:
64,192,154070,1,0,0:0:0:0:
320,192,154070,1,0,0:0:0:0:
448,192,154148,1,0,0:0:0:0:
192,192,154225,1,0,0:0:0:0:
64,192,154225,1,0,0:0:0:0:
320,192,154303,1,0,0:0:0:0:
192,192,154381,1,0,0:0:0:0:
448,192,154381,1,0,0:0:0:0:
320,192,154458,1,0,0:0:0:0:
192,192,154536,1,0,0:0:0:0:
64,192,154614,1,0,0:0:0:0:
320,192,154691,1,0,0:0:0:0:
448,192,154691,1,0,0:0:0:0:
192,192,154769,1,0,0:0:0:0:
64,192,154847,1,0,0:0:0:0:
448,192,154847,1,0,0:0:0:0:
320,192,154924,1,0,0:0:0:0:
192,192,155002,1,0,0:0:0:0:
448,192,155002,1,0,0:0:0:0:
320,192,155079,1,0,0:0:0:0:
192,192,155157,1,0,0:0:0:0:
64,192,155157,1,0,0:0:0:0:
448,192,155235,1,0,0:0:0:0:
320,192,155312,1,0,0:0:0:0:
64,192,155312,1,0,0:0:0:0:
192,192,155390,1,0,0:0:0:0:
320,192,155468,1,0,0:0:0:0:
192,192,155545,5,0,0:0:0:0:
64,192,155623,1,0,0:0:0:0:
448,192,155623,1,0,0:0:0:0:
320,192,155701,1,0,0:0:0:0:
64,192,155778,1,0,0:0:0:0:
320,192,155856,1,0,0:0:0:0:
192,192,155933,1,0,0:0:0:0:
448,192,155933,1,0,0:0:0:0:
64,192,156011,1,0,0:0:0:0:
320,192,156089,1,0,0:0:0:0:
448,192,156089,1,0,0:0:0:0:
192,192,156166,1,0,0:0:0:0:
320,192,156244,1,0,0:0:0:0:
192,192,156322,1,0,0:0:0:0:
64,192,156399,1,0,0:0:0:0:
448,192,156399,1,0,0:0:0:0:
320,192,156477,1,0,0:0:0:0:
192,192,156555,1,0,0:0:0:0:
64,192,156632,1,0,0:0:0:0:
320,192,156710,5,0,0:0:0:0:
448,192,156710,1,0,0:0:0:0:
192,192,156788,1,0,0:0:0:0:
320,192,156865,1,0,0:0:0:0:
192,192,156943,1,0,0:0:0:0:
320,192,157020,1,0,0:0:0:0:
448,192,157098,1,0,0:0:0:0:
192,192,157176,1,0,0:0:0:0:
64,192,157176,1,0,0:0:0:0:
320,192,157253,1,0,0:0:0:0:
448,192,157331,1,0,0:0:0:0:
192,192,157331,1,0,0:0:0:0:
64,192,157409,1,0,0:0:0:0:
320,192,157486,1,0,0:0:0:0:
192,192,157486,1,0,0:0:0:0:
64,192,157564,1,0,0:0:0:0:
448,192,157642,1,0,0:0:0:0:
320,192,157642,1,0,0:0:0:0:
192,192,157719,1,0,0:0:0:0:
64,192,157797,1,0,0:0:0:0:
448,192,157797,1,0,0:0:0:0:
320,192,157874,1,0,0:0:0:0:
192,192,157952,1,0,0:0:0:0:
64,192,157952,1,0,0:0:0:0:
448,192,158030,1,0,0:0:0:0:
192,192,158107,1,0,0:0:0:0:
448,192,158185,1,0,0:0:0:0:
192,192,158263,1,0,0:0:0:0:
64,192,158340,1,0,0:0:0:0:
448,192,158418,1,0,0:0:0:0:
320,192,158418,1,0,0:0:0:0:
192,192,158496,1,0,0:0:0:0:
448,192,158573,1,0,0:0:0:0:
64,192,158573,1,0,0:0:0:0:
320,192,158651,1,0,0:0:0:0:
192,192,158729,1,0,0:0:0:0:
448,192,158729,1,0,0:0:0:0:
320,192,158806,1,0,0:0:0:0:
192,192,158884,1,0,0:0:0:0:
64,192,158884,1,0,0:0:0:0:
448,192,158961,1,0,0:0:0:0:
320,192,159039,1,0,0:0:0:0:
64,192,159039,1,0,0:0:0:0:
192,192,159117,1,0,0:0:0:0:
320,192,159194,1,0,0:0:0:0:
448,192,159194,1,0,0:0:0:0:
64,192,159272,1,0,0:0:0:0:
448,192,159350,1,0,0:0:0:0:
64,192,159427,1,0,0:0:0:0:
448,192,159505,1,0,0:0:0:0:
320,192,159583,1,0,0:0:0:0:
192,192,159660,1,0,0:0:0:0:
64,192,159660,1,0,0:0:0:0:
448,192,159738,1,0,0:0:0:0:
320,192,159815,1,0,0:0:0:0:
64,192,159815,1,0,0:0:0:0:
192,192,159893,1,0,0:0:0:0:
448,192,159971,1,0,0:0:0:0:
64,192,159971,1,0,0:0:0:0:
192,192,160048,1,0,0:0:0:0:
448,192,160126,1,0,0:0:0:0:
320,192,160126,1,0,0:0:0:0:
64,192,160204,1,0,0:0:0:0:
192,192,160281,1,0,0:0:0:0:
320,192,160281,1,0,0:0:0:0:
448,192,160359,1,0,0:0:0:0:
64,192,160437,5,0,0:0:0:0:
192,192,160437,1,0,0:0:0:0:
320,192,160514,1,0,0:0:0:0:
448,192,160592,1,0,0:0:0:0:
64,192,160592,1,0,0:0:0:0:
192,192,160670,1,0,0:0:0:0:
448,192,160747,1,0,0:0:0:0:
320,192,160747,1,0,0:0:0:0:
192,192,160825,1,0,0:0:0:0:
64,192,160902,1,0,0:0:0:0:
320,192,160902,1,0,0:0:0:0:
448,192,160980,1,0,0:0:0:0:
64,192,161058,1,0,0:0:0:0:
192,192,161058,1,0,0:0:0:0:
448,192,161135,5,0,0:0:0:0:
320,192,161213,1,0,0:0:0:0:
192,192,161213,1,0,0:0:0:0:
64,192,161291,1,0,0:0:0:0:
320,192,161368,1,0,0:0:0:0:
448,192,161368,1,0,0:0:0:0:
64,192,161446,1,0,0:0:0:0:
192,192,161524,1,0,0:0:0:0:
448,192,161524,1,0,0:0:0:0:
320,192,161601,1,0,0:0:0:0:
192,192,161679,1,0,0:0:0:0:
448,192,161679,1,0,0:0:0:0:
64,192,161679,128,0,162222:0:0:0:0:
320,192,162300,5,0,0:0:0:0:
192,192,162300,1,0,0:0:0:0:
448,192,162378,1,0,0:0:0:0:
64,192,162455,1,0,0:0:0:0:
320,192,162455,1,0,0:0:0:0:
448,192,162533,1,0,0:0:0:0:
64,192,162611,1,0,0:0:0:0:
192,192,162611,1,0,0:0:0:0:
320,192,162688,1,0,0:0:0:0:
192,192,162766,1,0,0:0:0:0:
448,192,162766,1,0,0:0:0:0:
320,192,162843,1,0,0:0:0:0:
64,192,162921,1,0,0:0:0:0:
192,192,162921,1,0,0:0:0:0:
448,192,162999,1,0,0:0:0:0:
64,192,163076,1,0,0:0:0:0:
320,192,163154,1,0,0:0:0:0:
64,192,163232,1,0,0:0:0:0:
448,192,163232,1,0,0:0:0:0:
192,192,163309,1,0,0:0:0:0:
64,192,163387,1,0,0:0:0:0:
320,192,163465,1,0,0:0:0:0:
64,192,163542,1,0,0:0:0:0:
192,192,163542,1,0,0:0:0:0:
448,192,163620,1,0,0:0:0:0:
64,192,163697,1,0,0:0:0:0:
320,192,163775,1,0,0:0:0:0:
192,192,163853,1,0,0:0:0:0:
448,192,163853,1,0,0:0:0:0:
64,192,163930,1,0,0:0:0:0:
448,192,164008,1,0,0:0:0:0:
320,192,164086,1,0,0:0:0:0:
64,192,164163,1,0,0:0:0:0:
192,192,164163,1,0,0:0:0:0:
448,192,164241,1,0,0:0:0:0:
192,192,164319,1,0,0:0:0:0:
320,192,164319,1,0,0:0:0:0:
64,192,164396,1,0,0:0:0:0:
448,192,164474,1,0,0:0:0:0:
192,192,164474,1,0,0:0:0:0:
64,192,164552,1,0,0:0:0:0:
448,192,164629,1,0,0:0:0:0:
320,192,164707,1,0,0:0:0:0:
64,192,164784,1,0,0:0:0:0:
192,192,164784,1,0,0:0:0:0:
448,192,164862,1,0,0:0:0:0:
192,192,164940,1,0,0:0:0:0:
448,192,165017,1,0,0:0:0:0:
64,192,165095,1,0,0:0:0:0:
320,192,165095,1,0,0:0:0:0:
192,192,165173,1,0,0:0:0:0:
448,192,165250,1,0,0:0:0:0:
64,192,165250,1,0,0:0:0:0:
192,192,165328,1,0,0:0:0:0:
320,192,165406,1,0,0:0:0:0:
448,192,165406,1,0,0:0:0:0:
64,192,165483,1,0,0:0:0:0:
448,192,165561,1,0,0:0:0:0:
192,192,165638,1,0,0:0:0:0:
64,192,165716,1,0,0:0:0:0:
448,192,165716,1,0,0:0:0:0:
320,192,165794,1,0,0:0:0:0:
448,192,165871,1,0,0:0:0:0:
192,192,165949,1,0,0:0:0:0:
448,192,166027,1,0,0:0:0:0:
320,192,166027,1,0,0:0:0:0:
64,192,166104,1,0,0:0:0:0:
448,192,166182,1,0,0:0:0:0:
192,192,166260,1,0,0:0:0:0:
320,192,166337,1,0,0:0:0:0:
64,192,166337,1,0,0:0:0:0:
448,192,166415,1,0,0:0:0:0:
64,192,166493,1,0,0:0:0:0:
192,192,166570,1,0,0:0:0:0:
448,192,166648,1,0,0:0:0:0:
320,192,166648,1,0,0:0:0:0:
64,192,166725,1,0,0:0:0:0:
320,192,166803,1,0,0:0:0:0:
64,192,166881,1,0,0:0:0:0:
448,192,166958,1,0,0:0:0:0:
192,192,166958,1,0,0:0:0:0:
320,192,167036,1,0,0:0:0:0:
448,192,167114,1,0,0:0:0:0:
64,192,167114,1,0,0:0:0:0:
320,192,167191,1,0,0:0:0:0:
192,192,167269,1,0,0:0:0:0:
64,192,167269,1,0,0:0:0:0:
448,192,167347,1,0,0:0:0:0:
192,192,167424,1,0,0:0:0:0:
448,192,167502,1,0,0:0:0:0:
64,192,167579,1,0,0:0:0:0:
320,192,167579,1,0,0:0:0:0:
192,192,167657,1,0,0:0:0:0:
448,192,167735,1,0,0:0:0:0:
320,192,167735,1,0,0:0:0:0:
192,192,167812,1,0,0:0:0:0:
448,192,167890,1,0,0:0:0:0:
64,192,167890,1,0,0:0:0:0:
320,192,167968,1,0,0:0:0:0:
64,192,168045,1,0,0:0:0:0:
448,192,168123,1,0,0:0:0:0:
64,192,168201,1,0,0:0:0:0:
320,192,168201,1,0,0:0:0:0:
192,192,168201,1,0,0:0:0:0:
448,192,168278,1,0,0:0:0:0:
192,192,168356,1,0,0:0:0:0:
320,192,168433,1,0,0:0:0:0:
448,192,168511,1,0,0:0:0:0:
64,192,168511,1,0,0:0:0:0:
192,192,168589,1,0,0:0:0:0:
448,192,168666,1,0,0:0:0:0:
320,192,168666,1,0,0:0:0:0:
64,192,168744,1,0,0:0:0:0:
320,192,168822,1,0,0:0:0:0:
192,192,168822,1,0,0:0:0:0:
64,192,168899,1,0,0:0:0:0:
448,192,168977,1,0,0:0:0:0:
320,192,168977,1,0,0:0:0:0:
192,192,169055,1,0,0:0:0:0:
448,192,169132,1,0,0:0:0:0:
64,192,169132,1,0,0:0:0:0:
320,192,169210,1,0,0:0:0:0:
448,192,169288,1,0,0:0:0:0:
320,192,169365,1,0,0:0:0:0:
64,192,169443,1,0,0:0:0:0:
192,192,169443,1,0,0:0:0:0:
448,192,169520,1,0,0:0:0:0:
64,192,169598,1,0,0:0:0:0:
320,192,169676,1,0,0:0:0:0:
192,192,169676,1,0,0:0:0:0:
448,192,169753,1,0,0:0:0:0:
320,192,169831,1,0,0:0:0:0:
64,192,169909,1,0,0:0:0:0:
192,192,169909,1,0,0:0:0:0:
448,192,169986,1,0,0:0:0:0:
320,192,170064,1,0,0:0:0:0:
192,192,170064,1,0,0:0:0:0:
64,192,170142,1,0,0:0:0:0:
320,192,170219,1,0,0:0:0:0:
192,192,170297,1,0,0:0:0:0:
64,192,170374,1,0,0:0:0:0:
448,192,170374,1,0,0:0:0:0:
192,192,170452,1,0,0:0:0:0:
448,192,170530,1,0,0:0:0:0:
320,192,170607,1,0,0:0:0:0:
64,192,170685,1,0,0:0:0:0:
192,192,170685,1,0,0:0:0:0:
448,192,170763,1,0,0:0:0:0:
64,192,170840,1,0,0:0:0:0:
448,192,170918,1,0,0:0:0:0:
320,192,170996,1,0,0:0:0:0:
192,192,170996,1,0,0:0:0:0:
64,192,171073,1,0,0:0:0:0:
448,192,171151,1,0,0:0:0:0:
320,192,171151,1,0,0:0:0:0:
64,192,171229,1,0,0:0:0:0:
448,192,171306,1,0,0:0:0:0:
192,192,171306,1,0,0:0:0:0:
320,192,171384,1,0,0:0:0:0:
192,192,171461,1,0,0:0:0:0:
64,192,171539,1,0,0:0:0:0:
448,192,171617,1,0,0:0:0:0:
320,192,171617,1,0,0:0:0:0:
448,192,171772,1,0,0:0:0:0:
64,192,171850,1,0,0:0:0:0:
320,192,171927,1,0,0:0:0:0:
192,192,171927,1,0,0:0:0:0:
192,192,172083,1,0,0:0:0:0:
448,192,172238,5,0,0:0:0:0:
64,192,172238,1,0,0:0:0:0:
320,192,172315,1,0,0:0:0:0:
448,192,172393,1,0,0:0:0:0:
192,192,172393,1,0,0:0:0:0:
320,192,172471,1,0,0:0:0:0:
64,192,172548,1,0,0:0:0:0:
192,192,172548,1,0,0:0:0:0:
448,192,172626,1,0,0:0:0:0:
320,192,172704,1,0,0:0:0:0:
64,192,172704,1,0,0:0:0:0:
448,192,172781,1,0,0:0:0:0:
64,192,172859,1,0,0:0:0:0:
192,192,172859,1,0,0:0:0:0:
320,192,172937,1,0,0:0:0:0:
192,192,173014,1,0,0:0:0:0:
448,192,173092,1,0,0:0:0:0:
320,192,173170,1,0,0:0:0:0:
192,192,173170,1,0,0:0:0:0:
64,192,173247,1,0,0:0:0:0:
192,192,173325,1,0,0:0:0:0:
448,192,173402,1,0,0:0:0:0:
64,192,173480,1,0,0:0:0:0:
192,192,173480,1,0,0:0:0:0:
320,192,173558,1,0,0:0:0:0:
192,192,173635,1,0,0:0:0:0:
448,192,173713,1,0,0:0:0:0:
64,192,173791,1,0,0:0:0:0:
320,192,173791,1,0,0:0:0:0:
192,192,173868,1,0,0:0:0:0:
320,192,173946,1,0,0:0:0:0:
448,192,174024,1,0,0:0:0:0:
64,192,174101,1,0,0:0:0:0:
192,192,174101,1,0,0:0:0:0:
320,192,174179,1,0,0:0:0:0:
192,192,174256,1,0,0:0:0:0:
448,192,174256,1,0,0:0:0:0:
64,192,174334,1,0,0:0:0:0:
448,192,174412,1,0,0:0:0:0:
320,192,174412,1,0,0:0:0:0:
64,192,174489,1,0,0:0:0:0:
192,192,174567,1,0,0:0:0:0:
320,192,174567,1,0,0:0:0:0:
448,192,174645,1,0,0:0:0:0:
64,192,174722,1,0,0:0:0:0:
192,192,174722,1,0,0:0:0:0:
320,192,174800,1,0,0:0:0:0:
64,192,174878,1,0,0:0:0:0:
320,192,174955,1,0,0:0:0:0:
448,192,175033,1,0,0:0:0:0:
192,192,175033,1,0,0:0:0:0:
64,192,175111,1,0,0:0:0:0:
192,192,175188,1,0,0:0:0:0:
320,192,175188,1,0,0:0:0:0:
64,192,175266,1,0,0:0:0:0:
320,192,175343,1,0,0:0:0:0:
448,192,175343,1,0,0:0:0:0:
192,192,175421,1,0,0:0:0:0:
320,192,175499,1,0,0:0:0:0:
64,192,175576,1,0,0:0:0:0:
320,192,175654,1,0,0:0:0:0:
192,192,175654,1,0,0:0:0:0:
448,192,175732,1,0,0:0:0:0:
320,192,175809,1,0,0:0:0:0:
64,192,175887,1,0,0:0:0:0:
448,192,175965,1,0,0:0:0:0:
320,192,175965,1,0,0:0:0:0:
192,192,176042,1,0,0:0:0:0:
320,192,176120,1,0,0:0:0:0:
64,192,176197,1,0,0:0:0:0:
448,192,176275,1,0,0:0:0:0:
192,192,176275,1,0,0:0:0:0:
320,192,176353,1,0,0:0:0:0:
192,192,176430,1,0,0:0:0:0:
64,192,176508,1,0,0:0:0:0:
448,192,176586,1,0,0:0:0:0:
320,192,176586,1,0,0:0:0:0:
192,192,176663,1,0,0:0:0:0:
448,192,176741,1,0,0:0:0:0:
192,192,176819,1,0,0:0:0:0:
64,192,176896,1,0,0:0:0:0:
320,192,176896,1,0,0:0:0:0:
448,192,176974,1,0,0:0:0:0:
192,192,177052,1,0,0:0:0:0:
320,192,177052,1,0,0:0:0:0:
448,192,177129,1,0,0:0:0:0:
192,192,177207,1,0,0:0:0:0:
64,192,177207,1,0,0:0:0:0:
320,192,177284,1,0,0:0:0:0:
64,192,177362,1,0,0:0:0:0:
320,192,177440,1,0,0:0:0:0:
448,192,177517,1,0,0:0:0:0:
192,192,177517,1,0,0:0:0:0:
64,192,177595,1,0,0:0:0:0:
448,192,177673,1,0,0:0:0:0:
320,192,177673,1,0,0:0:0:0:
64,192,177750,1,0,0:0:0:0:
192,192,177828,1,0,0:0:0:0:
320,192,177828,1,0,0:0:0:0:
448,192,177906,1,0,0:0:0:0:
192,192,177983,1,0,0:0:0:0:
320,192,178061,1,0,0:0:0:0:
64,192,178138,1,0,0:0:0:0:
448,192,178138,1,0,0:0:0:0:
192,192,178138,1,0,0:0:0:0:
320,192,178216,1,0,0:0:0:0:
64,192,178294,1,0,0:0:0:0:
448,192,178371,1,0,0:0:0:0:
192,192,178449,1,0,0:0:0:0:
320,192,178449,1,0,0:0:0:0:
64,192,178527,1,0,0:0:0:0:
448,192,178604,1,0,0:0:0:0:
320,192,178604,1,0,0:0:0:0:
192,192,178682,1,0,0:0:0:0:
64,192,178760,1,0,0:0:0:0:
448,192,178760,1,0,0:0:0:0:
192,192,178837,1,0,0:0:0:0:
448,192,178915,1,0,0:0:0:0:
320,192,178915,1,0,0:0:0:0:
64,192,178993,1,0,0:0:0:0:
192,192,179070,1,0,0:0:0:0:
320,192,179070,1,0,0:0:0:0:
448,192,179148,1,0,0:0:0:0:
320,192,179225,1,0,0:0:0:0:
448,192,179303,1,0,0:0:0:0:
64,192,179381,1,0,0:0:0:0:
192,192,179381,1,0,0:0:0:0:
320,192,179458,1,0,0:0:0:0:
192,192,179536,1,0,0:0:0:0:
448,192,179536,1,0,0:0:0:0:
64,192,179614,1,0,0:0:0:0:
320,192,179691,1,0,0:0:0:0:
64,192,179769,1,0,0:0:0:0:
448,192,179847,1,0,0:0:0:0:
192,192,179847,1,0,0:0:0:0:
320,192,179924,1,0,0:0:0:0:
64,192,180002,1,0,0:0:0:0:
448,192,180002,1,0,0:0:0:0:
192,192,180079,1,0,0:0:0:0:
448,192,180157,1,0,0:0:0:0:
64,192,180235,1,0,0:0:0:0:
320,192,180312,1,0,0:0:0:0:
192,192,180312,1,0,0:0:0:0:
64,192,180390,1,0,0:0:0:0:
320,192,180468,1,0,0:0:0:0:
448,192,180545,1,0,0:0:0:0:
64,192,180623,1,0,0:0:0:0:
192,192,180623,1,0,0:0:0:0:
320,192,180701,1,0,0:0:0:0:
192,192,180778,1,0,0:0:0:0:
320,192,180856,1,0,0:0:0:0:
64,192,180933,1,0,0:0:0:0:
448,192,180933,1,0,0:0:0:0:
192,192,181011,1,0,0:0:0:0:
448,192,181089,1,0,0:0:0:0:
320,192,181089,1,0,0:0:0:0:
192,192,181166,1,0,0:0:0:0:
64,192,181244,1,0,0:0:0:0:
320,192,181244,1,0,0:0:0:0:
448,192,181322,1,0,0:0:0:0:
64,192,181399,1,0,0:0:0:0:
192,192,181399,1,0,0:0:0:0:
320,192,181477,1,0,0:0:0:0:
64,192,181555,1,0,0:0:0:0:
192,192,181555,1,0,0:0:0:0:
448,192,181555,1,0,0:0:0:0:
320,192,181865,1,0,0:0:0:0:
192,192,181865,1,0,0:0:0:0:
64,192,181865,1,0,0:0:0:0:
320,192,182020,1,0,0:0:0:0:
64,192,182176,1,0,0:0:0:0:
448,192,182176,1,0,0:0:0:0:
192,192,182176,1,0,0:0:0:0:
64,192,182409,1,0,0:0:0:0:
192,192,182486,1,0,0:0:0:0:
320,192,182486,1,0,0:0:0:0:
448,192,182486,1,0,0:0:0:0:
448,192,182641,1,0,0:0:0:0:
64,192,182796,1,0,0:0:0:0:
192,192,182796,1,0,0:0:0:0:
192,192,182951,1,0,0:0:0:0:
448,192,182951,1,0,0:0:0:0:
64,192,183107,1,0,0:0:0:0:
320,192,183107,1,0,0:0:0:0:
448,192,183107,1,0,0:0:0:0:
192,192,183262,1,0,0:0:0:0:
320,192,183262,1,0,0:0:0:0:
192,192,183417,1,0,0:0:0:0:
64,192,183417,1,0,0:0:0:0:
448,192,183572,1,0,0:0:0:0:
320,192,183572,1,0,0:0:0:0:
64,192,183650,1,0,0:0:0:0:
320,192,183728,1,0,0:0:0:0:
64,192,183805,1,0,0:0:0:0:
192,192,183883,1,0,0:0:0:0:
448,192,183883,1,0,0:0:0:0:
320,192,183961,1,0,0:0:0:0:
448,192,184038,1,0,0:0:0:0:
64,192,184038,1,0,0:0:0:0:
192,192,184116,1,0,0:0:0:0:
320,192,184194,1,0,0:0:0:0:
64,192,184194,1,0,0:0:0:0:
448,192,184271,1,0,0:0:0:0:
192,192,184349,5,0,0:0:0:0:
320,192,184349,1,0,0:0:0:0:
64,192,184426,1,0,0:0:0:0:
448,192,184504,1,0,0:0:0:0:
192,192,184504,1,0,0:0:0:0:
64,192,184582,1,0,0:0:0:0:
448,192,184659,1,0,0:0:0:0:
320,192,184659,1,0,0:0:0:0:
192,192,184737,1,0,0:0:0:0:
320,192,184815,1,0,0:0:0:0:
64,192,184815,1,0,0:0:0:0:
192,192,184892,1,0,0:0:0:0:
448,192,184970,1,0,0:0:0:0:
320,192,184970,1,0,0:0:0:0:
64,192,185048,1,0,0:0:0:0:
448,192,185125,1,0,0:0:0:0:
192,192,185203,1,0,0:0:0:0:
448,192,185281,1,0,0:0:0:0:
64,192,185281,1,0,0:0:0:0:
320,192,185358,1,0,0:0:0:0:
448,192,185436,1,0,0:0:0:0:
192,192,185513,1,0,0:0:0:0:
448,192,185591,1,0,0:0:0:0:
320,192,185591,1,0,0:0:0:0:
64,192,185669,1,0,0:0:0:0:
448,192,185746,1,0,0:0:0:0:
192,192,185824,1,0,0:0:0:0:
320,192,185902,1,0,0:0:0:0:
64,192,185902,1,0,0:0:0:0:
448,192,185979,1,0,0:0:0:0:
64,192,186057,1,0,0:0:0:0:
192,192,186135,1,0,0:0:0:0:
448,192,186212,1,0,0:0:0:0:
320,192,186212,1,0,0:0:0:0:
64,192,186290,1,0,0:0:0:0:
320,192,186367,1,0,0:0:0:0:
192,192,186367,1,0,0:0:0:0:
448,192,186445,1,0,0:0:0:0:
64,192,186523,1,0,0:0:0:0:
320,192,186523,1,0,0:0:0:0:
448,192,186600,1,0,0:0:0:0:
64,192,186678,1,0,0:0:0:0:
192,192,186756,1,0,0:0:0:0:
448,192,186833,1,0,0:0:0:0:
320,192,186833,1,0,0:0:0:0:
64,192,186911,1,0,0:0:0:0:
320,192,186989,1,0,0:0:0:0:
64,192,187066,1,0,0:0:0:0:
448,192,187144,1,0,0:0:0:0:
192,192,187144,1,0,0:0:0:0:
320,192,187222,1,0,0:0:0:0:
64,192,187299,1,0,0:0:0:0:
448,192,187299,1,0,0:0:0:0:
320,192,187377,1,0,0:0:0:0:
192,192,187454,1,0,0:0:0:0:
64,192,187454,1,0,0:0:0:0:
448,192,187532,1,0,0:0:0:0:
64,192,187610,1,0,0:0:0:0:
320,192,187687,1,0,0:0:0:0:
448,192,187765,1,0,0:0:0:0:
64,192,187765,1,0,0:0:0:0:
192,192,187843,1,0,0:0:0:0:
64,192,187920,1,0,0:0:0:0:
320,192,187998,1,0,0:0:0:0:
64,192,188076,1,0,0:0:0:0:
192,192,188076,1,0,0:0:0:0:
448,192,188153,1,0,0:0:0:0:
64,192,188231,1,0,0:0:0:0:
320,192,188308,1,0,0:0:0:0:
192,192,188386,1,0,0:0:0:0:
448,192,188386,1,0,0:0:0:0:
64,192,188464,1,0,0:0:0:0:
448,192,188541,1,0,0:0:0:0:
320,192,188619,1,0,0:0:0:0:
64,192,188697,1,0,0:0:0:0:
192,192,188697,1,0,0:0:0:0:
448,192,188774,1,0,0:0:0:0:
320,192,188852,1,0,0:0:0:0:
192,192,188852,1,0,0:0:0:0:
64,192,188930,1,0,0:0:0:0:
320,192,189007,1,0,0:0:0:0:
448,192,189007,1,0,0:0:0:0:
192,192,189085,1,0,0:0:0:0:
448,192,189163,1,0,0:0:0:0:
64,192,189163,1,0,0:0:0:0:
192,192,189240,1,0,0:0:0:0:
320,192,189318,1,0,0:0:0:0:
448,192,189318,1,0,0:0:0:0:
64,192,189395,1,0,0:0:0:0:
320,192,189473,1,0,0:0:0:0:
64,192,189551,1,0,0:0:0:0:
448,192,189628,1,0,0:0:0:0:
192,192,189628,1,0,0:0:0:0:
320,192,189706,1,0,0:0:0:0:
64,192,189784,1,0,0:0:0:0:
192,192,189784,1,0,0:0:0:0:
320,192,189861,1,0,0:0:0:0:
64,192,189939,1,0,0:0:0:0:
448,192,189939,1,0,0:0:0:0:
192,192,190017,1,0,0:0:0:0:
448,192,190094,1,0,0:0:0:0:
64,192,190172,1,0,0:0:0:0:
448,192,190249,1,0,0:0:0:0:
192,192,190249,1,0,0:0:0:0:
320,192,190249,1,0,0:0:0:0:
64,192,190327,1,0,0:0:0:0:
320,192,190405,1,0,0:0:0:0:
192,192,190482,1,0,0:0:0:0:
64,192,190560,1,0,0:0:0:0:
448,192,190560,1,0,0:0:0:0:
320,192,190638,1,0,0:0:0:0:
64,192,190715,1,0,0:0:0:0:
192,192,190715,1,0,0:0:0:0:
448,192,190793,1,0,0:0:0:0:
192,192,190871,1,0,0:0:0:0:
320,192,190871,1,0,0:0:0:0:
448,192,190948,1,0,0:0:0:0:
64,192,191026,1,0,0:0:0:0:
192,192,191026,1,0,0:0:0:0:
320,192,191104,1,0,0:0:0:0:
64,192,191181,1,0,0:0:0:0:
448,192,191181,1,0,0:0:0:0:
192,192,191259,1,0,0:0:0:0:
64,192,191336,1,0,0:0:0:0:
192,192,191414,1,0,0:0:0:0:
448,192,191492,1,0,0:0:0:0:
320,192,191492,1,0,0:0:0:0:
64,192,191569,1,0,0:0:0:0:
448,192,191647,1,0,0:0:0:0:
192,192,191725,1,0,0:0:0:0:
320,192,191725,1,0,0:0:0:0:
64,192,191802,1,0,0:0:0:0:
192,192,191880,1,0,0:0:0:0:
448,192,191958,1,0,0:0:0:0:
320,192,191958,1,0,0:0:0:0:
64,192,192035,1,0,0:0:0:0:
192,192,192113,1,0,0:0:0:0:
320,192,192113,1,0,0:0:0:0:
448,192,192190,1,0,0:0:0:0:
192,192,192268,1,0,0:0:0:0:
320,192,192346,1,0,0:0:0:0:
448,192,192423,1,0,0:0:0:0:
64,192,192423,1,0,0:0:0:0:
320,192,192501,1,0,0:0:0:0:
64,192,192579,1,0,0:0:0:0:
192,192,192656,1,0,0:0:0:0:
448,192,192734,1,0,0:0:0:0:
320,192,192734,1,0,0:0:0:0:
64,192,192812,1,0,0:0:0:0:
448,192,192889,1,0,0:0:0:0:
64,192,192967,1,0,0:0:0:0:
192,192,193045,1,0,0:0:0:0:
320,192,193045,1,0,0:0:0:0:
448,192,193122,1,0,0:0:0:0:
64,192,193200,1,0,0:0:0:0:
192,192,193200,1,0,0:0:0:0:
448,192,193277,1,0,0:0:0:0:
64,192,193355,1,0,0:0:0:0:
320,192,193355,1,0,0:0:0:0:
192,192,193433,1,0,0:0:0:0:
320,192,193510,1,0,0:0:0:0:
448,192,193588,1,0,0:0:0:0:
64,192,193666,1,0,0:0:0:0:
192,192,193666,1,0,0:0:0:0:
64,192,193821,1,0,0:0:0:0:
448,192,193899,1,0,0:0:0:0:
192,192,193976,1,0,0:0:0:0:
320,192,193976,1,0,0:0:0:0:
320,192,194131,1,0,0:0:0:0:
64,192,194287,5,0,0:0:0:0:
448,192,194287,1,0,0:0:0:0:
192,192,194364,1,0,0:0:0:0:
64,192,194442,1,0,0:0:0:0:
320,192,194442,1,0,0:0:0:0:
192,192,194520,1,0,0:0:0:0:
448,192,194597,1,0,0:0:0:0:
320,192,194597,1,0,0:0:0:0:
64,192,194675,1,0,0:0:0:0:
192,192,194753,1,0,0:0:0:0:
448,192,194753,1,0,0:0:0:0:
64,192,194830,1,0,0:0:0:0:
448,192,194908,1,0,0:0:0:0:
320,192,194908,1,0,0:0:0:0:
192,192,194986,1,0,0:0:0:0:
320,192,195063,1,0,0:0:0:0:
64,192,195141,1,0,0:0:0:0:
192,192,195218,1,0,0:0:0:0:
320,192,195218,1,0,0:0:0:0:
448,192,195296,1,0,0:0:0:0:
320,192,195374,1,0,0:0:0:0:
64,192,195451,1,0,0:0:0:0:
448,192,195529,1,0,0:0:0:0:
320,192,195529,1,0,0:0:0:0:
192,192,195607,1,0,0:0:0:0:
320,192,195684,1,0,0:0:0:0:
64,192,195762,1,0,0:0:0:0:
448,192,195840,1,0,0:0:0:0:
192,192,195840,1,0,0:0:0:0:
320,192,195917,1,0,0:0:0:0:
192,192,195995,1,0,0:0:0:0:
64,192,196072,1,0,0:0:0:0:
448,192,196150,1,0,0:0:0:0:
320,192,196150,1,0,0:0:0:0:
192,192,196228,1,0,0:0:0:0:
320,192,196305,1,0,0:0:0:0:
64,192,196305,1,0,0:0:0:0:
448,192,196383,1,0,0:0:0:0:
64,192,196461,1,0,0:0:0:0:
192,192,196461,1,0,0:0:0:0:
448,192,196538,1,0,0:0:0:0:
320,192,196616,1,0,0:0:0:0:
192,192,196616,1,0,0:0:0:0:
64,192,196694,1,0,0:0:0:0:
448,192,196771,1,0,0:0:0:0:
320,192,196771,1,0,0:0:0:0:
192,192,196849,1,0,0:0:0:0:
448,192,196926,1,0,0:0:0:0:
192,192,197004,1,0,0:0:0:0:
64,192,197082,1,0,0:0:0:0:
320,192,197082,1,0,0:0:0:0:
448,192,197159,1,0,0:0:0:0:
320,192,197237,1,0,0:0:0:0:
192,192,197237,1,0,0:0:0:0:
448,192,197315,1,0,0:0:0:0:
192,192,197392,1,0,0:0:0:0:
64,192,197392,1,0,0:0:0:0:
320,192,197470,1,0,0:0:0:0:
192,192,197548,1,0,0:0:0:0:
448,192,197625,1,0,0:0:0:0:
192,192,197703,1,0,0:0:0:0:
320,192,197703,1,0,0:0:0:0:
64,192,197781,1,0,0:0:0:0:
192,192,197858,1,0,0:0:0:0:
448,192,197936,1,0,0:0:0:0:
64,192,198013,1,0,0:0:0:0:
192,192,198013,1,0,0:0:0:0:
320,192,198091,1,0,0:0:0:0:
192,192,198169,1,0,0:0:0:0:
448,192,198246,1,0,0:0:0:0:
64,192,198324,1,0,0:0:0:0:
320,192,198324,1,0,0:0:0:0:
192,192,198402,1,0,0:0:0:0:
320,192,198479,1,0,0:0:0:0:
448,192,198557,1,0,0:0:0:0:
64,192,198635,1,0,0:0:0:0:
192,192,198635,1,0,0:0:0:0:
320,192,198712,1,0,0:0:0:0:
64,192,198790,1,0,0:0:0:0:
448,192,198790,1,0,0:0:0:0:
320,192,198867,1,0,0:0:0:0:
192,192,198945,1,0,0:0:0:0:
64,192,199023,1,0,0:0:0:0:
320,192,199100,1,0,0:0:0:0:
192,192,199100,1,0,0:0:0:0:
64,192,199178,1,0,0:0:0:0:
320,192,199256,1,0,0:0:0:0:
448,192,199256,1,0,0:0:0:0:
192,192,199333,1,0,0:0:0:0:
448,192,199411,1,0,0:0:0:0:
192,192,199489,1,0,0:0:0:0:
64,192,199566,1,0,0:0:0:0:
320,192,199566,1,0,0:0:0:0:
448,192,199644,1,0,0:0:0:0:
64,192,199722,1,0,0:0:0:0:
192,192,199722,1,0,0:0:0:0:
448,192,199799,1,0,0:0:0:0:
320,192,199877,1,0,0:0:0:0:
192,192,199877,1,0,0:0:0:0:
64,192,199954,1,0,0:0:0:0:
320,192,200032,1,0,0:0:0:0:
192,192,200110,1,0,0:0:0:0:
448,192,200187,1,0,0:0:0:0:
64,192,200187,1,0,0:0:0:0:
320,192,200187,1,0,0:0:0:0:
192,192,200265,1,0,0:0:0:0:
448,192,200343,1,0,0:0:0:0:
64,192,200420,1,0,0:0:0:0:
320,192,200498,1,0,0:0:0:0:
192,192,200498,1,0,0:0:0:0:
448,192,200576,1,0,0:0:0:0:
64,192,200653,1,0,0:0:0:0:
192,192,200653,1,0,0:0:0:0:
320,192,200731,1,0,0:0:0:0:
448,192,200808,1,0,0:0:0:0:
64,192,200808,1,0,0:0:0:0:
320,192,200886,1,0,0:0:0:0:
64,192,200964,1,0,0:0:0:0:
192,192,200964,1,0,0:0:0:0:
448,192,201041,1,0,0:0:0:0:
192,192,201119,1,0,0:0:0:0:
320,192,201119,1,0,0:0:0:0:
64,192,201197,1,0,0:0:0:0:
192,192,201274,1,0,0:0:0:0:
64,192,201352,1,0,0:0:0:0:
320,192,201430,1,0,0:0:0:0:
448,192,201430,1,0,0:0:0:0:
192,192,201507,1,0,0:0:0:0:
320,192,201585,1,0,0:0:0:0:
64,192,201663,1,0,0:0:0:0:
448,192,201663,1,0,0:0:0:0:
192,192,201740,1,0,0:0:0:0:
64,192,201818,1,0,0:0:0:0:
320,192,201895,1,0,0:0:0:0:
448,192,201895,1,0,0:0:0:0:
192,192,201973,1,0,0:0:0:0:
64,192,202051,1,0,0:0:0:0:
448,192,202051,1,0,0:0:0:0:
320,192,202128,1,0,0:0:0:0:
64,192,202206,1,0,0:0:0:0:
448,192,202284,1,0,0:0:0:0:
320,192,202361,1,0,0:0:0:0:
192,192,202361,1,0,0:0:0:0:
448,192,202439,1,0,0:0:0:0:
192,192,202517,1,0,0:0:0:0:
64,192,202594,1,0,0:0:0:0:
320,192,202672,1,0,0:0:0:0:
448,192,202672,1,0,0:0:0:0:
192,192,202749,1,0,0:0:0:0:
320,192,202827,1,0,0:0:0:0:
192,192,202905,1,0,0:0:0:0:
64,192,202982,1,0,0:0:0:0:
448,192,202982,1,0,0:0:0:0:
320,192,203060,1,0,0:0:0:0:
192,192,203138,1,0,0:0:0:0:
64,192,203138,1,0,0:0:0:0:
320,192,203215,1,0,0:0:0:0:
192,192,203293,1,0,0:0:0:0:
448,192,203293,1,0,0:0:0:0:
64,192,203371,1,0,0:0:0:0:
448,192,203448,1,0,0:0:0:0:
320,192,203526,1,0,0:0:0:0:
192,192,203604,1,0,0:0:0:0:
64,192,203604,1,0,0:0:0:0:
192,192,203759,1,0,0:0:0:0:
320,192,203914,1,0,0:0:0:0:
448,192,203914,1,0,0:0:0:0:
320,192,204069,1,0,0:0:0:0:
192,192,204069,1,0,0:0:0:0:
64,192,204225,1,0,0:0:0:0:
448,192,204225,1,0,0:0:0:0:
192,192,204302,1,0,0:0:0:0:
64,192,204380,1,0,0:0:0:0:
320,192,204380,1,0,0:0:0:0:
192,192,204535,1,0,0:0:0:0:
320,192,204535,1,0,0:0:0:0:
192,192,204690,1,0,0:0:0:0:
448,192,204690,1,0,0:0:0:0:
64,192,204846,1,0,0:0:0:0:
320,192,204846,1,0,0:0:0:0:
448,192,204846,1,0,0:0:0:0:
192,192,204923,1,0,0:0:0:0:
320,192,205001,1,0,0:0:0:0:
192,192,205079,1,0,0:0:0:0:
64,192,205156,1,0,0:0:0:0:
320,192,205156,1,0,0:0:0:0:
448,192,205234,1,0,0:0:0:0:
320,192,205312,1,0,0:0:0:0:
192,192,205389,1,0,0:0:0:0:
448,192,205467,1,0,0:0:0:0:
64,192,205467,1,0,0:0:0:0:
320,192,205545,1,0,0:0:0:0:
64,192,205622,1,0,0:0:0:0:
320,192,205700,1,0,0:0:0:0:
448,192,205777,1,0,0:0:0:0:
64,192,205777,1,0,0:0:0:0:
192,192,205855,1,0,0:0:0:0:
64,192,205933,1,0,0:0:0:0:
320,192,206010,1,0,0:0:0:0:
192,192,206088,1,0,0:0:0:0:
448,192,206088,1,0,0:0:0:0:
64,192,206166,1,0,0:0:0:0:
448,192,206243,1,0,0:0:0:0:
192,192,206321,1,0,0:0:0:0:
320,192,206399,1,0,0:0:0:0:
64,192,206399,1,0,0:0:0:0:
448,192,206476,1,0,0:0:0:0:
320,192,206554,1,0,0:0:0:0:
192,192,206554,1,0,0:0:0:0:
448,192,206631,1,0,0:0:0:0:
192,192,206709,1,0,0:0:0:0:
320,192,206787,1,0,0:0:0:0:
192,192,206864,1,0,0:0:0:0:
64,192,206942,1,0,0:0:0:0:
320,192,207020,1,0,0:0:0:0:
448,192,207020,1,0,0:0:0:0:
192,192,207097,1,0,0:0:0:0:
64,192,207175,1,0,0:0:0:0:
320,192,207253,1,0,0:0:0:0:
448,192,207330,1,0,0:0:0:0:
192,192,207330,1,0,0:0:0:0:
64,192,207408,1,0,0:0:0:0:
448,192,207486,1,0,0:0:0:0:
192,192,207563,1,0,0:0:0:0:
64,192,207641,1,0,0:0:0:0:
320,192,207641,1,0,0:0:0:0:
192,192,207718,1,0,0:0:0:0:
448,192,207796,1,0,0:0:0:0:
64,192,207874,1,0,0:0:0:0:
448,192,207951,1,0,0:0:0:0:
320,192,207951,1,0,0:0:0:0:
192,192,208029,1,0,0:0:0:0:
448,192,208107,1,0,0:0:0:0:
64,192,208184,1,0,0:0:0:0:
448,192,208262,1,0,0:0:0:0:
192,192,208262,1,0,0:0:0:0:
64,192,208340,1,0,0:0:0:0:
448,192,208417,1,0,0:0:0:0:
320,192,208495,1,0,0:0:0:0:
64,192,208572,1,0,0:0:0:0:
192,192,208572,1,0,0:0:0:0:
448,192,208650,1,0,0:0:0:0:
192,192,208728,1,0,0:0:0:0:
448,192,208805,1,0,0:0:0:0:
64,192,208883,1,0,0:0:0:0:
320,192,208883,1,0,0:0:0:0:
320,192,209038,1,0,0:0:0:0:
64,192,209194,1,0,0:0:0:0:
448,192,209194,1,0,0:0:0:0:
64,192,209349,1,0,0:0:0:0:
448,192,209504,1,0,0:0:0:0:
192,192,209504,1,0,0:0:0:0:
448,192,209659,1,0,0:0:0:0:
192,192,209815,1,0,0:0:0:0:
64,192,209815,1,0,0:0:0:0:
320,192,209815,1,0,0:0:0:0:
448,192,209892,1,0,0:0:0:0:
64,192,209970,1,0,0:0:0:0:
448,192,210048,1,0,0:0:0:0:
64,192,210125,1,0,0:0:0:0:
320,192,210125,1,0,0:0:0:0:
192,192,210203,1,0,0:0:0:0:
64,192,210281,1,0,0:0:0:0:
448,192,210358,1,0,0:0:0:0:
320,192,210436,1,0,0:0:0:0:
192,192,210436,1,0,0:0:0:0:
64,192,210513,1,0,0:0:0:0:
320,192,210591,1,0,0:0:0:0:
64,192,210669,1,0,0:0:0:0:
320,192,210746,1,0,0:0:0:0:
192,192,210746,1,0,0:0:0:0:
448,192,210824,1,0,0:0:0:0:
320,192,210902,1,0,0:0:0:0:
64,192,210979,1,0,0:0:0:0:
192,192,211057,1,0,0:0:0:0:
448,192,211057,1,0,0:0:0:0:
320,192,211135,1,0,0:0:0:0:
192,192,211212,1,0,0:0:0:0:
448,192,211290,1,0,0:0:0:0:
320,192,211367,1,0,0:0:0:0:
64,192,211367,1,0,0:0:0:0:
192,192,211445,1,0,0:0:0:0:
448,192,211523,1,0,0:0:0:0:
64,192,211523,1,0,0:0:0:0:
192,192,211600,1,0,0:0:0:0:
448,192,211678,1,0,0:0:0:0:
64,192,211756,1,0,0:0:0:0:
448,192,211833,1,0,0:0:0:0:
320,192,211911,1,0,0:0:0:0:
64,192,211989,1,0,0:0:0:0:
192,192,211989,1,0,0:0:0:0:
448,192,212066,1,0,0:0:0:0:
64,192,212144,1,0,0:0:0:0:
192,192,212222,1,0,0:0:0:0:
320,192,212299,1,0,0:0:0:0:
448,192,212299,1,0,0:0:0:0:
64,192,212377,1,0,0:0:0:0:
320,192,212454,1,0,0:0:0:0:
192,192,212532,1,0,0:0:0:0:
64,192,212610,1,0,0:0:0:0:
448,192,212610,1,0,0:0:0:0:
320,192,212687,1,0,0:0:0:0:
64,192,212765,1,0,0:0:0:0:
192,192,212843,1,0,0:0:0:0:
320,192,212920,1,0,0:0:0:0:
448,192,212920,1,0,0:0:0:0:
64,192,212998,1,0,0:0:0:0:
448,192,213076,1,0,0:0:0:0:
192,192,213153,1,0,0:0:0:0:
320,192,213231,1,0,0:0:0:0:
64,192,213231,1,0,0:0:0:0:
448,192,213308,1,0,0:0:0:0:
192,192,213386,1,0,0:0:0:0:
320,192,213464,1,0,0:0:0:0:
64,192,213541,1,0,0:0:0:0:
448,192,213541,1,0,0:0:0:0:
64,192,213697,1,0,0:0:0:0:
192,192,213852,1,0,0:0:0:0:
448,192,213852,1,0,0:0:0:0:
448,192,214007,1,0,0:0:0:0:
320,192,214163,1,0,0:0:0:0:
192,192,214163,1,0,0:0:0:0:
320,192,214318,1,0,0:0:0:0:
192,192,214318,1,0,0:0:0:0:
320,192,214473,1,0,0:0:0:0:
320,192,214628,1,0,0:0:0:0:
64,192,214628,1,0,0:0:0:0:
448,192,214784,1,0,0:0:0:0:
192,192,214784,1,0,0:0:0:0:
64,192,214784,1,0,0:0:0:0:
320,192,214861,1,0,0:0:0:0:
192,192,214939,1,0,0:0:0:0:
320,192,215017,1,0,0:0:0:0:
448,192,215094,1,0,0:0:0:0:
192,192,215094,1,0,0:0:0:0:
64,192,215172,1,0,0:0:0:0:
192,192,215249,1,0,0:0:0:0:
320,192,215327,1,0,0:0:0:0:
64,192,215405,1,0,0:0:0:0:
448,192,215405,1,0,0:0:0:0:
192,192,215482,1,0,0:0:0:0:
448,192,215560,1,0,0:0:0:0:
192,192,215638,1,0,0:0:0:0:
64,192,215715,1,0,0:0:0:0:
448,192,215715,1,0,0:0:0:0:
320,192,215793,1,0,0:0:0:0:
448,192,215871,1,0,0:0:0:0:
192,192,215948,1,0,0:0:0:0:
320,192,216026,1,0,0:0:0:0:
64,192,216026,1,0,0:0:0:0:
448,192,216104,1,0,0:0:0:0:
64,192,216181,1,0,0:0:0:0:
320,192,216259,1,0,0:0:0:0:
192,192,216336,1,0,0:0:0:0:
448,192,216336,1,0,0:0:0:0:
64,192,216414,1,0,0:0:0:0:
192,192,216492,1,0,0:0:0:0:
320,192,216492,1,0,0:0:0:0:
64,192,216569,1,0,0:0:0:0:
320,192,216647,1,0,0:0:0:0:
192,192,216725,1,0,0:0:0:0:
320,192,216802,1,0,0:0:0:0:
448,192,216880,1,0,0:0:0:0:
192,192,216958,1,0,0:0:0:0:
64,192,216958,1,0,0:0:0:0:
320,192,217035,1,0,0:0:0:0:
448,192,217113,1,0,0:0:0:0:
192,192,217190,1,0,0:0:0:0:
64,192,217268,1,0,0:0:0:0:
320,192,217268,1,0,0:0:0:0:
448,192,217346,1,0,0:0:0:0:
64,192,217423,1,0,0:0:0:0:
320,192,217501,1,0,0:0:0:0:
448,192,217579,1,0,0:0:0:0:
192,192,217579,1,0,0:0:0:0:
320,192,217656,1,0,0:0:0:0:
64,192,217734,1,0,0:0:0:0:
448,192,217812,1,0,0:0:0:0:
64,192,217889,1,0,0:0:0:0:
192,192,217889,1,0,0:0:0:0:
320,192,217967,1,0,0:0:0:0:
64,192,218045,1,0,0:0:0:0:
448,192,218122,1,0,0:0:0:0:
64,192,218200,1,0,0:0:0:0:
320,192,218200,1,0,0:0:0:0:
448,192,218277,1,0,0:0:0:0:
64,192,218355,1,0,0:0:0:0:
192,192,218433,1,0,0:0:0:0:
448,192,218510,1,0,0:0:0:0:
320,192,218510,1,0,0:0:0:0:
64,192,218588,1,0,0:0:0:0:
320,192,218666,1,0,0:0:0:0:
64,192,218743,1,0,0:0:0:0:
448,192,218821,1,0,0:0:0:0:
192,192,218821,1,0,0:0:0:0:
192,192,218976,1,0,0:0:0:0:
448,192,219131,1,0,0:0:0:0:
64,192,219131,1,0,0:0:0:0:
448,192,219287,1,0,0:0:0:0:
64,192,219442,1,0,0:0:0:0:
320,192,219442,1,0,0:0:0:0:
64,192,219597,1,0,0:0:0:0:
320,192,219753,1,0,0:0:0:0:
448,192,219753,1,0,0:0:0:0:
192,192,219753,1,0,0:0:0:0:
64,192,219830,1,0,0:0:0:0:
448,192,219908,1,0,0:0:0:0:
64,192,219986,1,0,0:0:0:0:
448,192,220063,1,0,0:0:0:0:
192,192,220063,1,0,0:0:0:0:
320,192,220141,1,0,0:0:0:0:
448,192,220218,1,0,0:0:0:0:
64,192,220296,1,0,0:0:0:0:
192,192,220374,1,0,0:0:0:0:
320,192,220374,1,0,0:0:0:0:
448,192,220451,1,0,0:0:0:0:
192,192,220529,1,0,0:0:0:0:
448,192,220607,1,0,0:0:0:0:
192,192,220684,1,0,0:0:0:0:
320,192,220684,1,0,0:0:0:0:
64,192,220762,1,0,0:0:0:0:
192,192,220840,1,0,0:0:0:0:
448,192,220917,1,0,0:0:0:0:
320,192,220995,1,0,0:0:0:0:
64,192,220995,1,0,0:0:0:0:
192,192,221072,1,0,0:0:0:0:
320,192,221150,1,0,0:0:0:0:
64,192,221228,1,0,0:0:0:0:
192,192,221305,1,0,0:0:0:0:
448,192,221305,1,0,0:0:0:0:
320,192,221383,1,0,0:0:0:0:
64,192,221461,1,0,0:0:0:0:
448,192,221461,1,0,0:0:0:0:
320,192,221538,1,0,0:0:0:0:
64,192,221616,1,0,0:0:0:0:
448,192,221694,1,0,0:0:0:0:
64,192,221771,1,0,0:0:0:0:
192,192,221849,1,0,0:0:0:0:
448,192,221926,1,0,0:0:0:0:
320,192,221926,1,0,0:0:0:0:
64,192,222004,1,0,0:0:0:0:
448,192,222082,1,0,0:0:0:0:
320,192,222159,1,0,0:0:0:0:
192,192,222237,1,0,0:0:0:0:
64,192,222237,1,0,0:0:0:0:
448,192,222315,1,0,0:0:0:0:
192,192,222392,1,0,0:0:0:0:
320,192,222470,1,0,0:0:0:0:
448,192,222548,1,0,0:0:0:0:
64,192,222548,1,0,0:0:0:0:
192,192,222625,1,0,0:0:0:0:
448,192,222703,1,0,0:0:0:0:
320,192,222781,1,0,0:0:0:0:
192,192,222858,1,0,0:0:0:0:
64,192,222858,1,0,0:0:0:0:
448,192,222936,1,0,0:0:0:0:
64,192,223013,1,0,0:0:0:0:
320,192,223091,1,0,0:0:0:0:
192,192,223169,1,0,0:0:0:0:
448,192,223169,1,0,0:0:0:0:
64,192,223246,1,0,0:0:0:0:
320,192,223324,1,0,0:0:0:0:
192,192,223402,1,0,0:0:0:0:
448,192,223479,1,0,0:0:0:0:
64,192,223479,1,0,0:0:0:0:
448,192,223635,1,0,0:0:0:0:
320,192,223790,1,0,0:0:0:0:
448,192,223945,1,0,0:0:0:0:
64,192,223945,1,0,0:0:0:0:
192,192,224100,1,0,0:0:0:0:
192,192,224256,1,0,0:0:0:0:
192,192,224411,1,0,0:0:0:0:
448,192,224411,1,0,0:0:0:0:
192,192,224566,1,0,0:0:0:0:
64,192,224722,1,0,0:0:0:0:
448,192,224722,1,0,0:0:0:0:
448,192,224877,1,0,0:0:0:0:
192,192,225032,1,0,0:0:0:0:
192,192,225187,1,0,0:0:0:0:
320,192,225187,1,0,0:0:0:0:
64,192,225343,1,0,0:0:0:0:
64,192,225498,1,0,0:0:0:0:
448,192,225653,1,0,0:0:0:0:
448,192,225808,1,0,0:0:0:0:
192,192,225964,1,0,0:0:0:0:
192,192,226119,1,0,0:0:0:0:
320,192,226274,1,0,0:0:0:0:
320,192,226430,1,0,0:0:0:0:
448,192,226585,1,0,0:0:0:0:
