osu file format v14

[General]
AudioFilename: audio.mp3
AudioLeadIn: 0
PreviewTime: 52766
Countdown: 1
SampleSet: Soft
StackLeniency: 0.4
Mode: 0
LetterboxInBreaks: 0
WidescreenStoryboard: 1

[Editor]
Bookmarks: 537,899,1079,1260,1622,1983,2164,2525,3429,3790,4152,4513,4875,5055,9814,17706,22766,30537,40838,43730,46622,49513,64694,65417,73730,74634,75176
DistanceSpacing: 1.5
BeatDivisor: 4
GridSize: 16
TimelineZoom: 2

[Metadata]
Title:Hametsu no Junjou (TV Size)
TitleUnicode:破滅の純情 (TV Size)
Artist:WALKUERE
ArtistUnicode:ワルキューレ
Creator:StrengeMistake
Version:Insane
Source:マクロスΔ
Tags:macross delta Walküre Freyja Wion Mikumo Guynemer Kaname Buccaneer Makina Nakajima Reina Minori Suzuki Koshimizu Ami Nishida Nozomi Toyama Nao Yasuno Kiyono JUNNA Remapper _lai オリジナルサウンドトラック2 Original sound track 2 OST2 Japanese Anime ending2 ed2 FlyingDog
BeatmapID:2487722
BeatmapSetID:991620

[Difficulty]
HPDrainRate:5
CircleSize:4
OverallDifficulty:8
ApproachRate:9
SliderMultiplier:1.8
SliderTickRate:1

[Events]
//Background and Video events
0,0,"32.jpg",0,0
//Break Periods
//Storyboard Layer 0 (Background)
//Storyboard Layer 1 (Fail)
//Storyboard Layer 2 (Pass)
//Storyboard Layer 3 (Foreground)
//Storyboard Layer 4 (Overlay)
//Storyboard Sound Samples

[TimingPoints]
417,361.44578313253,4,2,1,50,1,0
6200,-100,4,2,1,70,0,0
6923,-111.111111111111,4,2,1,70,0,0
7284,-125,4,2,1,70,0,0
7645,-142.857142857143,4,2,1,70,0,0
8368,-100,4,2,1,70,0,0
9814,-111.111111111111,4,2,1,70,0,0
10176,-125,4,2,1,70,0,0
10537,-142.857142857143,4,2,1,70,0,0
11260,-100,4,2,1,70,0,0
12706,-111.111111111111,4,2,1,70,0,0
13067,-125,4,2,1,70,0,0
13429,-142.857142857143,4,2,1,70,0,0
14151,-100,4,2,1,70,0,0
15597,-111.111111111111,4,2,1,70,0,0
16139,-133.333333333333,4,2,1,70,0,0
16682,-133.333333333333,4,2,1,40,0,0
17766,-125,4,2,1,50,0,0
28248,-100,4,2,1,50,0,0
28609,-125,4,2,1,50,0,0
40898,-125,4,2,1,60,0,0
49935,-111.111111111111,4,2,1,60,0,0
50296,-100,4,2,1,60,0,0
50657,-90.9090909090909,4,2,1,60,0,0
52826,-181.818181818181,4,2,1,60,0,0
53910,-90.9090909090909,4,2,1,70,0,1
72706,-133.333333333333,4,2,1,50,0,0
73790,-100,4,2,1,50,0,0
76682,-133.333333333333,4,2,1,50,0,0
77043,-83.3333333333333,4,2,1,70,0,1
84272,-133.333333333333,4,2,1,60,0,0
85356,-100,4,2,1,60,0,0

[Colours]
Combo1 : 255,104,180
Combo2 : 255,128,0
Combo3 : 163,0,219
Combo4 : 255,0,0
Combo5 : 0,238,0

[HitObjects]
64,94,417,5,2,1:0:0:0:
60,213,597,1,2,0:0:0:0:
261,160,778,1,8,0:0:0:0:
141,157,959,1,2,0:0:0:0:
195,357,1139,5,2,1:2:0:0:
198,237,1320,1,2,0:0:0:0:
1,290,1501,1,8,0:0:0:0:
120,294,1682,1,2,0:0:0:0:
64,94,1862,6,0,L|61:183,1,90,0|2,1:0|0:0,0:0:0:0:
228,281,2224,2,0,L|230:191,1,90,8|2,0:0|0:0,0:0:0:0:
231,177,2495,1,2,0:0:0:0:
232,164,2585,6,0,B|261:153|261:153|331:178,1,90,0|0,1:0|1:0,0:0:0:0:
510,248,2947,2,0,B|480:258|480:258|410:233,1,90,8|2,0:0|0:0,0:0:0:0:
232,164,3308,5,0,1:0:0:0:
348,140,3489,1,2,0:0:0:0:
329,345,3670,1,8,0:0:0:0:
305,229,3850,1,2,0:0:0:0:
510,248,4031,5,2,1:2:0:0:
394,272,4212,1,2,0:0:0:0:
413,67,4392,1,8,0:0:0:0:
436,185,4573,1,2,0:0:0:0:
232,164,4754,6,0,B|258:146|258:146|329:159,1,90,2|2,1:2|0:0,0:0:0:0:
217,327,5115,2,0,B|191:345|191:345|120:332,1,90,10|0,0:0|0:0,0:0:0:0:
25,162,5477,6,0,P|19:136|19:111,1,45,2|0,0:1|0:0,0:0:0:0:
121,122,5657,2,0,P|147:116|172:116,1,45,2|0,0:1|0:0,0:0:0:0:
156,219,5838,2,0,P|162:245|162:270,1,45,10|0,0:1|0:0,0:0:0:0:
60,259,6018,2,0,P|34:265|9:265,1,45,2|2,0:1|0:0,0:0:0:0:
156,219,6200,5,4,1:2:0:0:
144,378,6380,1,0,0:0:0:0:
345,326,6561,2,0,P|285:298|221:316,1,135,10|0,0:1|0:0,0:0:0:0:
339,330,6923,2,0,P|285:305|228:321,1,121.499996292114,2|0,1:0|0:0,0:0:0:0:
332,334,7284,2,0,P|284:311|233:326,1,108,10|0,0:1|0:0,0:0:0:0:
327,337,7645,2,0,P|285:317|240:330,1,94.499997116089,2|0,1:0|0:0,0:0:0:0:
240,330,8007,1,8,0:0:0:0:
465,229,8188,5,2,0:0:0:0:
465,229,8278,1,2,0:0:0:0:
465,229,8368,2,0,P|467:198|463:174,1,45,2|0,1:0|0:0,0:0:0:0:
368,213,8549,2,0,P|366:244|370:268,1,45,2|0,0:1|0:0,0:0:0:0:
470,234,8730,2,0,P|472:203|468:179,1,45,10|0,0:1|0:0,0:0:0:0:
361,211,8911,2,0,P|359:242|363:266,1,45,2|0,0:1|0:0,0:0:0:0:
465,229,9091,5,4,1:2:0:0:
472,67,9272,1,0,0:0:0:0:
281,151,9453,2,0,P|341:122|407:129,1,135,10|0,0:1|0:0,0:0:0:0:
289,155,9814,2,0,P|343:129|402:135,1,121.499996292114,2|0,1:0|0:0,0:0:0:0:
296,159,10176,2,0,P|344:135|397:141,1,108,10|0,0:1|0:0,0:0:0:0:
304,162,10537,2,0,P|346:141|392:146,1,94.499997116089,2|0,1:0|0:0,0:0:0:0:
392,146,10898,1,8,0:0:0:0:
269,0,11079,5,2,0:0:0:0:
125,46,11260,2,0,L|122:113,1,45,2|0,1:0|0:0,0:0:0:0:
220,122,11441,2,0,L|223:189,1,45,2|0,0:1|0:0,0:0:0:0:
125,201,11621,2,0,L|122:268,1,45,10|0,0:1|0:0,0:0:0:0:
224,274,11802,2,0,L|227:341,1,45,2|2,0:1|0:0,0:0:0:0:
117,364,11983,5,4,1:2:0:0:
125,201,12163,1,0,0:0:0:0:
298,307,12344,2,0,P|364:307|414:263,1,135,10|0,0:1|0:0,0:0:0:0:
302,301,12706,2,0,P|361:300|406:262,1,121.499996292114,2|0,1:0|0:0,0:0:0:0:
307,294,13067,2,0,P|360:294|400:259,1,108,10|0,0:1|0:0,0:0:0:0:
312,288,13429,2,0,P|358:288|393:257,1,94.499997116089,2|0,1:0|0:0,0:0:0:0:
391,259,13790,1,8,0:0:0:0:
165,190,13971,5,2,0:0:0:0:
165,190,14061,1,2,0:0:0:0:
165,190,14151,2,0,P|161:212|161:234,1,45,2|0,1:0|0:0,0:0:0:0:
192,111,14332,2,0,P|169:107|147:107,1,45,2|0,0:1|0:0,0:0:0:0:
271,138,14513,2,0,P|274:115|274:93,1,45,10|0,0:1|0:0,0:0:0:0:
244,217,14694,2,0,P|266:220|288:220,1,45,2|0,0:1|0:0,0:0:0:0:
165,190,14874,5,0,1:0:0:0:
188,353,15055,1,2,0:0:0:0:
5,294,15236,2,0,P|64:264|131:269,1,135,10|0,0:1|0:0,0:0:0:0:
13,297,15597,2,0,P|66:270|126:274,1,121.499996292114,2|0,1:0|0:0,0:0:0:0:
188,353,15959,1,10,0:1:0:0:
371,293,16139,6,0,P|311:264|245:269,1,135,2|0,1:0|0:0,0:0:0:0:
447,198,16682,6,0,L|442:231,2,33.7500012874604,2|2|2,0:3|0:3|0:3,0:0:0:0:
436,358,17043,1,2,0:3:0:0:
436,358,17133,1,2,0:3:0:0:
436,358,17224,2,0,L|504:348,2,67.5000025749208,2|4|0,1:3|0:3|1:0,0:0:0:0:
366,200,17766,5,6,1:2:0:0:
366,200,17947,1,0,0:0:0:0:
246,78,18127,2,0,P|254:111|248:159,1,72,8|2,0:0|0:0,0:0:0:0:
138,200,18489,1,0,1:0:0:0:
138,200,18670,1,2,1:2:0:0:
11,101,18850,1,8,0:0:0:0:
11,101,19031,6,0,B|84:74|80:140|155:115,1,144,2|2,0:0|0:0,0:0:0:0:
284,40,19573,1,10,0:0:0:0:
284,40,19754,2,0,B|215:62|219:-3|146:23,1,144,2|2,0:0|0:0,0:0:0:0:
11,101,20296,1,8,0:0:0:0:
98,197,20477,5,2,0:0:0:0:
98,207,20567,1,0,0:0:0:0:
97,215,20657,2,0,L|93:304,2,72,0|2|10,1:0|0:0|0:0,0:0:0:0:
212,153,21200,1,2,0:0:0:0:
327,91,21380,2,0,L|331:2,2,72,0|0|8,1:0|0:0|0:0,0:0:0:0:
434,166,21923,1,2,0:0:0:0:
319,228,22103,6,0,B|335:219|335:219|406:233,1,72,2|2,1:2|0:0,0:0:0:0:
511,336,22465,2,0,B|495:345|495:345|424:331,1,72,8|2,0:0|0:0,0:0:0:0:
306,349,22826,6,0,P|257:327|207:342,1,108,2|0,1:2|0:0,0:0:0:0:
177,366,23188,2,0,P|126:381|78:359,1,108,10|2,0:0|0:0,0:0:0:0:
57,329,23549,5,2,1:2:0:0:
57,329,23730,1,0,1:0:0:0:
9,165,23910,2,0,B|33:156|33:156|104:173,1,72,10|2,0:0|0:0,0:0:0:0:
197,113,24272,1,0,1:0:0:0:
197,113,24453,1,0,1:0:0:0:
250,279,24633,1,8,0:0:0:0:
367,227,24814,5,2,0:0:0:0:
366,226,24995,2,0,B|304:254|308:178|231:203,1,144,2|8,1:2|0:0,0:0:0:0:
115,254,25537,1,2,0:0:0:0:
7,190,25718,1,0,1:0:0:0:
7,190,25898,1,0,1:0:0:0:
113,50,26079,6,0,B|125:83|125:83|108:170,1,108,8|2,0:0|0:0,0:0:0:0:
91,184,26441,2,0,B|169:164|160:233|227:210,1,144,2|8,1:2|0:0,0:0:0:0:
225,210,26983,1,2,0:0:0:0:
349,155,27163,5,2,1:2:0:0:
334,291,27344,1,2,1:2:0:0:
348,165,27525,1,10,0:0:0:0:
333,301,27706,1,2,1:2:0:0:
461,250,27886,6,0,P|454:293|493:272,1,108,2|0,1:0|0:0,0:0:0:0:
501,281,28248,2,0,P|447:299|457:243,1,135,10|0,0:1|0:0,0:0:0:0:
461,250,28609,1,2,1:0:0:0:
476,114,28790,1,2,0:0:0:0:
478,124,28880,1,2,0:0:0:0:
480,134,28971,2,0,P|454:147|458:118,1,72,10|2,1:0|0:0,0:0:0:0:
319,52,29332,5,6,1:2:0:0:
319,52,29513,1,0,1:0:0:0:
214,189,29694,2,0,P|205:154|215:119,1,72,8|2,0:0|0:0,0:0:0:0:
321,197,30055,1,0,1:0:0:0:
321,197,30236,1,2,1:2:0:0:
219,336,30416,1,8,0:0:0:0:
219,336,30597,6,0,B|293:316|273:397|348:372,1,144,2|2,0:0|0:0,0:0:0:0:
494,314,31139,1,10,0:0:0:0:
494,314,31320,2,0,B|419:339|439:258|364:277,1,144,2|2,0:0|0:0,0:0:0:0:
219,336,31862,1,10,0:0:0:0:
118,252,32043,1,2,0:0:0:0:
118,252,32133,1,2,0:0:0:0:
118,252,32224,6,0,P|73:239|35:250,2,72,0|2|8,1:0|0:0|0:0,0:0:0:0:
240,207,32766,1,2,0:0:0:0:
363,165,32947,2,0,P|408:152|446:163,2,72,0|2|8,1:0|0:2|0:0,0:0:0:0:
268,77,33489,1,2,0:0:0:0:
146,123,33670,2,0,B|133:100|133:100|142:32,1,72,0|2,1:0|0:0,0:0:0:0:
27,170,34031,2,0,B|40:193|40:193|31:261,1,72,8|0,0:0|0:0,0:0:0:0:
140,350,34392,6,0,P|186:321|244:334,1,108,2|0,1:2|0:0,0:0:0:0:
268,349,34754,2,0,P|320:356|364:328,1,108,10|2,0:0|0:0,0:0:0:0:
379,294,35115,5,2,1:2:0:0:
379,294,35296,1,0,1:0:0:0:
410,121,35477,2,0,B|388:130|388:130|381:185,1,72,10|2,0:0|0:0,0:0:0:0:
267,236,35838,1,0,1:0:0:0:
267,236,36019,1,0,1:0:0:0:
115,149,36200,1,8,0:0:0:0:
0,207,36380,5,2,0:0:0:0:
0,207,36561,2,0,B|74:184|70:252|143:226,1,144,2|10,1:2|0:0,0:0:0:0:
232,140,37103,1,2,0:0:0:0:
342,207,37284,1,0,1:0:0:0:
342,207,37465,1,0,1:0:0:0:
378,47,37645,2,0,B|353:17|353:17|343:89,1,108,10|0,0:0|0:0,0:0:0:0:
320,124,38007,6,0,B|399:97|388:173|468:141,1,144,2|8,1:2|0:0,0:0:0:0:
455,145,38549,1,2,0:0:0:0:
342,207,38730,2,0,B|327:220|327:220|332:274,2,72,2|2|8,1:2|1:2|0:0,0:0:0:0:
156,282,39272,6,0,P|181:231|196:285,1,144,2|2,0:1|0:0,0:0:0:0:
28,165,39814,2,0,L|31:202,1,36,10|0,1:0|0:0,0:0:0:0:
123,157,39995,2,0,L|125:121,1,36,2|0,0:0|0:0,0:0:0:0:
44,70,40176,5,2,1:0:0:0:
44,70,40266,1,2,0:0:0:0:
44,70,40356,1,2,0:0:0:0:
10,282,40537,2,0,P|44:274|79:282,1,72,10|2,0:1|0:0,0:0:0:0:
208,384,40898,5,6,1:2:0:0:
208,384,40989,1,2,0:3:0:0:
208,384,41079,1,2,0:3:0:0:
208,384,41170,1,2,0:3:0:0:
208,384,41260,2,0,L|214:307,1,72,8|2,0:0|0:0,0:0:0:0:
303,237,41621,1,0,1:0:0:0:
183,198,41802,1,0,1:0:0:0:
289,114,41983,2,0,L|295:37,1,72,10|0,0:0|0:0,0:0:0:0:
153,0,42344,6,0,L|148:45,3,36,2|2|2|2,1:2|0:3|0:3|0:3,0:0:0:0:
82,75,42706,2,0,P|46:77|16:95,1,72,8|2,0:0|0:0,0:0:0:0:
83,176,43067,5,4,0:3:0:0:
190,164,43248,1,4,0:3:0:0:
297,152,43429,1,4,0:3:0:0:
404,140,43609,1,4,0:3:0:0:
512,208,43790,5,2,1:2:0:0:
512,208,43880,1,2,0:3:0:0:
512,208,43971,1,2,0:3:0:0:
512,208,44061,1,2,0:3:0:0:
510,207,44151,2,0,P|475:216|454:244,1,72,10|0,0:0|0:0,0:0:0:0:
343,281,44513,1,2,1:2:0:0:
448,335,44694,1,0,1:0:0:0:
310,384,44874,2,0,P|288:355|254:346,1,72,10|2,0:0|0:0,0:0:0:0:
119,384,45236,6,0,L|123:348,3,36,4|4|4|4,0:3|0:3|0:3|0:3,0:0:0:0:
66,295,45597,2,0,P|31:287|-6:303,1,72,10|0,0:0|0:0,0:0:0:0:
90,171,45959,2,0,L|86:207,3,36,4|4|4|4,0:3|0:3|0:3|0:3,0:0:0:0:
143,260,46320,2,0,P|178:268|215:252,1,72,8|2,0:0|0:0,0:0:0:0:
361,310,46682,5,6,1:2:0:0:
361,310,46772,1,2,0:3:0:0:
361,310,46862,1,2,0:3:0:0:
361,310,46953,1,2,0:3:0:0:
361,310,47043,2,0,L|355:383,1,72,10|0,0:0|0:0,0:0:0:0:
471,342,47404,1,2,1:2:0:0:
361,310,47585,1,0,1:0:0:0:
500,262,47766,2,0,L|494:335,1,72,10|2,0:0|0:0,0:0:0:0:
388,223,48127,6,0,P|364:217|339:225,2,48,2|4|4,1:2|0:3|0:3,0:0:0:0:
453,161,48489,2,0,L|458:89,1,72,10|2,0:0|0:0,0:0:0:0:
364,0,48850,5,4,0:3:0:0:
364,0,49212,1,4,0:3:0:0:
151,175,49573,6,0,P|203:167|251:191,1,108,2|0,1:0|0:0,0:0:0:0:
258,188,49935,2,0,P|204:160|145:169,1,121.499996292114,10|0,0:1|0:0,0:0:0:0:
140,162,50296,2,0,P|205:153|265:183,1,135,2|0,1:0|0:0,0:0:0:0:
273,178,50657,2,0,P|207:145|135:155,1,148.50000453186,10|0,0:1|0:0,0:0:0:0:
140,162,51019,6,0,L|127:318,1,148.50000453186,10|0,0:0|0:0,0:0:0:0:
119,326,51380,2,0,B|207:306|183:373|272:349,1,148.50000453186,10|0,0:0|0:0,0:0:0:0:
258,363,51742,2,0,B|181:384|205:317|117:337,1,148.50000453186,10|0,0:0|0:0,0:0:0:0:
48,377,52103,5,10,0:0:0:0:
242,285,52284,1,10,0:0:0:0:
261,156,52826,6,0,P|212:148|166:164,2,99.0000030212403,2|2|2,0:0|0:0|0:0,0:0:0:0:
33,57,53910,5,2,1:0:0:0:
15,198,54090,1,2,0:0:0:0:
261,156,54271,1,10,0:1:0:0:
118,140,54452,1,2,0:0:0:0:
162,384,54633,2,0,L|173:281,2,99.0000030212403,2|2|8,1:0|0:0|0:0,0:0:0:0:
342,236,55176,6,0,B|225:293|238:161|110:223,1,247.500007553101,2|0,0:1|0:0,0:0:0:0:
77,246,55718,1,10,0:1:0:0:
288,171,55898,2,0,L|295:69,1,99.0000030212403,2|0,0:0|1:0,0:0:0:0:
262,249,56260,1,2,0:2:0:0:
430,189,56441,1,10,0:1:0:0:
294,72,56621,1,2,0:0:0:0:
349,326,56802,5,2,1:0:0:0:
359,183,56982,1,2,0:0:0:0:
116,235,57163,1,10,0:1:0:0:
262,249,57344,1,2,0:0:0:0:
204,4,57525,2,0,L|197:107,2,99.0000030212403,2|2|8,1:0|0:0|0:0,0:0:0:0:
21,156,58067,6,0,B|149:94|136:226|253:169,1,247.500007553101,2|0,0:1|0:0,0:0:0:0:
285,145,58609,1,10,0:1:0:0:
83,221,58790,2,0,L|76:324,1,99.0000030212403,2|0,0:0|1:0,0:0:0:0:
88,139,59151,1,2,0:0:0:0:
280,231,59332,2,0,L|273:334,1,99.0000030212403,10|2,0:1|0:0,0:0:0:0:
457,384,59694,5,2,1:2:0:0:
457,384,59874,1,2,0:0:0:0:
505,151,60055,2,0,B|470:170|470:170|461:263,1,99.0000030212403,8|2,0:0|0:0,0:0:0:0:
330,305,60416,1,2,1:2:0:0:
330,305,60596,1,2,0:0:0:0:
282,72,60778,2,0,B|317:91|317:91|326:184,2,99.0000030212403,8|2|0,0:0|0:0|1:0,0:0:0:0:
282,72,61320,5,2,0:0:0:0:
55,164,61501,1,10,0:1:0:0:
194,183,61682,1,2,0:0:0:0:
2,34,61862,1,2,1:0:0:0:
143,53,62043,1,2,0:0:0:0:
111,295,62224,5,8,0:0:0:0:
111,295,62585,2,0,B|142:312|142:312|144:382,1,99.0000030212403,2|0,1:0|0:0,0:0:0:0:
347,237,62947,2,0,B|316:254|316:254|314:324,1,99.0000030212403,10|0,0:1|0:0,0:0:0:0:
111,135,63308,2,0,B|142:152|142:152|144:222,2,99.0000030212403,2|2|10,1:0|0:2|0:0,0:0:0:0:
418,147,63850,6,0,B|346:174|349:96|278:127,1,148.50000453186,2|0,1:0|0:0,0:0:0:0:
245,144,64212,1,0,0:0:0:0:
487,52,64392,2,0,P|440:67|393:55,1,99.0000030212403,8|2,0:0|0:0,0:0:0:0:
485,251,64754,6,0,P|438:235|391:248,1,99.0000030212403,2|2,1:0|0:0,0:0:0:0:
371,264,65025,1,2,0:0:0:0:
371,264,65115,2,0,P|323:276|277:260,1,99.0000030212403,10|2,0:1|0:0,0:0:0:0:
35,311,65477,5,6,1:0:0:0:
46,169,65657,1,2,0:0:0:0:
278,261,65838,1,10,0:1:0:0:
135,247,66019,1,2,0:0:0:0:
229,18,66200,2,0,L|218:121,2,99.0000030212403,2|2|8,1:0|0:0|0:0,0:0:0:0:
393,173,66743,6,0,B|278:105|275:242|160:169,1,247.500007553101,2|0,0:1|0:0,0:0:0:0:
125,150,67285,1,10,0:1:0:0:
333,239,67465,2,0,L|318:340,1,99.0000030212403,2|0,0:0|1:0,0:0:0:0:
324,153,67827,1,2,0:0:0:0:
481,251,68008,1,10,0:1:0:0:
319,337,68188,1,2,0:0:0:0:
425,90,68368,5,2,1:0:0:0:
411,232,68548,1,2,0:0:0:0:
181,136,68729,1,10,0:1:0:0:
324,153,68910,1,2,0:0:0:0:
226,380,69091,2,0,L|238:277,2,99.0000030212403,2|2|8,1:0|0:0|0:0,0:0:0:0:
74,208,69633,6,0,B|178:284|196:148|304:231,1,247.500007553101,2|0,0:1|0:0,0:0:0:0:
334,259,70176,1,10,0:1:0:0:
139,153,70356,2,0,L|147:49,1,99.0000030212403,2|0,0:0|1:0,0:0:0:0:
131,257,70718,1,2,0:0:0:0:
342,155,70898,2,0,L|350:51,1,99.0000030212403,10|2,0:1|0:0,0:0:0:0:
512,214,71260,5,2,1:2:0:0:
512,214,71441,1,2,0:0:0:0:
275,284,71621,2,0,B|305:296|305:296|310:384,1,99.0000030212403,8|2,0:0|0:0,0:0:0:0:
198,219,71983,1,0,1:0:0:0:
198,219,72163,1,0,0:0:0:0:
435,289,72344,1,10,0:0:0:0:
409,106,72525,2,0,B|379:118|379:118|374:206,1,99.0000030212403,2|0,1:0|1:0,0:0:0:0:
88,337,73067,5,10,0:1:0:0:
315,227,73248,2,0,P|351:225|380:240,1,67.5000025749208,10|0,0:0|0:0,0:0:0:0:
54,71,73790,6,0,P|103:56|72:97,1,135,10|0,0:1|0:0,0:0:0:0:
6,178,74152,2,0,B|99:146|79:239|173:203,1,180,2|2,1:0|0:0,0:0:0:0:
382,278,74694,2,0,P|338:268|299:287,1,90,10|2,0:1|0:0,0:0:0:0:
301,282,75055,1,0,1:0:0:0:
444,122,75236,6,0,L|441:170,1,45,10|0,0:1|0:0,0:0:0:0:
506,57,75416,2,0,P|444:33|382:56,1,135,6|0,1:2|0:0,0:0:0:0:
300,35,75778,6,0,L|302:83,1,45,2|0,0:0|0:0,0:0:0:0:
190,140,75959,2,0,L|192:95,1,45,10|0,0:0|0:0,0:0:0:0:
309,156,76139,2,0,L|311:204,1,45,2|0,0:0|0:0,0:0:0:0:
184,262,76320,2,0,L|186:217,1,45,2|0,1:2|0:0,0:0:0:0:
318,277,76501,2,0,L|320:325,1,45,2|0,0:0|0:0,0:0:0:0:
121,356,76682,6,0,P|159:342|215:366,1,101.250003862381,10|0,0:0|0:0,0:0:0:0:
252,382,77043,5,6,1:0:0:0:
419,336,77224,1,2,0:0:0:0:
257,355,77404,1,10,0:1:0:0:
389,217,77585,1,2,0:0:0:0:
262,328,77766,1,2,1:0:0:0:
311,123,77947,1,2,0:0:0:0:
150,250,78127,6,0,P|203:236|265:262,1,107.999996704102,8|4,0:0|0:3,0:0:0:0:
58,166,78489,1,0,1:0:0:0:
58,178,78579,1,8,0:3:0:0:
58,191,78670,1,12,0:3:0:0:
59,204,78760,1,8,0:3:0:0:
59,217,78850,5,10,0:1:0:0:
0,315,79031,2,0,B|94:259|102:376|207:312,1,215.999993408203,2|2,0:0|0:0,0:0:0:0:
236,306,79483,1,2,0:0:0:0:
236,306,79573,2,0,L|248:195,1,107.999996704102,10|2,0:1|0:3,0:0:0:0:
147,10,79935,5,2,1:0:0:0:
125,181,80116,1,2,0:0:0:0:
168,24,80296,1,10,0:1:0:0:
247,198,80477,1,2,0:0:0:0:
191,39,80658,1,2,1:0:0:0:
363,161,80839,1,2,0:0:0:0:
306,0,81019,6,0,B|279:27|279:27|274:112,1,107.999996704102,8|4,0:0|0:3,0:0:0:0:
102,118,81380,6,0,B|123:138|123:138|125:187,2,71.9999978027344,0|8|8,1:0|0:3|0:3,0:0:0:0:
169,251,81742,6,0,P|236:208|314:220,1,161.999995056153,10|0,0:1|0:0,0:0:0:0:
345,232,82103,5,2,1:0:0:0:
373,384,82284,1,2,0:0:0:0:
422,208,82465,1,10,0:2:0:0:
378,370,82646,1,4,0:3:0:0:
506,289,82826,6,0,P|454:276|404:299,1,107.999996704102,2|0,1:2|0:0,0:0:0:0:
177,168,83188,2,0,P|228:155|279:177,1,107.999996704102,8|0,0:0|0:0,0:0:0:0:
472,8,83549,2,0,L|463:115,2,107.999996704102,2|0|8,1:2|0:0|0:0,0:0:0:0:
327,259,84091,5,2,1:0:0:0:
100,149,84272,2,0,P|64:147|35:162,1,67.5000025749208,0|0,1:0|0:0,0:0:0:0:
215,198,84633,5,10,0:1:0:0:
442,88,84814,2,0,P|478:86|507:101,1,67.5000025749208,10|0,0:0|0:0,0:0:0:0:
189,53,85356,6,0,P|164:79|183:35,1,135,10|2,0:1|0:0,0:0:0:0:
251,105,85718,2,0,L|233:311,1,180,4|0,1:0|0:0,0:0:0:0:
84,137,86260,6,0,L|76:245,1,90,10|0,0:1|0:0,0:0:0:0:
77,226,86621,1,2,0:0:0:0:
263,364,86802,2,0,P|221:356|178:382,1,90,10|0,0:1|0:0,0:0:0:0:
389,319,87163,6,0,L|394:259,3,60,2|2|2|2,0:0|0:0|0:0|0:0,0:0:0:0:
