osu file format v14

[General]
AudioFilename: WALK THE MOON - Shut Up and Dance.mp3
AudioLeadIn: 0
PreviewTime: 89923
Countdown: 0
SampleSet: Soft
StackLeniency: 0.7
Mode: 0
LetterboxInBreaks: 0
WidescreenStoryboard: 0

[Editor]
DistanceSpacing: 1.1
BeatDivisor: 4
GridSize: 4
TimelineZoom: 1

[Metadata]
Title:Shut Up and Dance
TitleUnicode:Shut Up and Dance
Artist:WALK THE MOON
ArtistUnicode:WALK THE MOON
Creator:Nyu-chan
Version:Hard
Source:
Tags:Natsu -Bakari- Bakari Collaboration Inyuschan Talking Is Hard
BeatmapID:791431
BeatmapSetID:359987

[Difficulty]
HPDrainRate:5.5
CircleSize:3.8
OverallDifficulty:6
ApproachRate:7.4
SliderMultiplier:1.55
SliderTickRate:2

[Events]
//Background and Video events
0,0,"BG.jpg",0,0
//Break Periods
2,19577,24163
2,64576,67288
2,139577,145569
//Storyboard Layer 0 (Background)
//Storyboard Layer 1 (Fail)
//Storyboard Layer 2 (Pass)
//Storyboard Layer 3 (Foreground)
//Storyboard Sound Samples

[TimingPoints]
627,468.75,4,2,1,50,1,0
4377,-100,4,2,1,60,0,0
40236,-100,4,2,1,70,0,0
43283,-100,4,2,2,70,0,0
43400,-100,4,2,1,70,0,0
49377,-90.9090909090909,4,2,1,90,0,1
55002,-100,4,2,1,80,0,0
56877,-90.9090909090909,4,2,1,90,0,1
62502,-100,4,2,1,80,0,0
64377,-100,4,2,1,50,0,0
66955,-100,4,2,1,60,0,0
81486,-100,4,2,1,70,0,0
84533,-100,4,2,2,70,0,0
84650,-100,4,2,1,70,0,0
90627,-90.9090909090909,4,2,1,90,0,1
96252,-100,4,2,1,80,0,0
98127,-90.9090909090909,4,2,1,90,0,1
103752,-100,4,2,1,80,0,0
124611,-100,4,2,1,70,0,0
125783,-100,4,2,2,70,0,0
125900,-100,4,2,1,70,0,0
133283,-100,4,2,2,70,0,0
133400,-100,4,2,1,70,0,0
139377,-100,4,2,1,60,0,0
161877,-90.9090909090909,4,2,1,90,0,1
167502,-100,4,2,1,80,0,0
169377,-90.9090909090909,4,2,1,80,0,1
175002,-100,4,2,1,80,0,0

[Colours]
Combo1 : 156,204,216
Combo2 : 221,136,136
Combo3 : 131,136,150
Combo4 : 232,188,159

[HitObjects]
328,160,4377,6,0,P|255:135|183:159,1,155,2|2,0:0|0:0,0:0:0:0:
128,224,5080,2,0,P|116:260|128:296,1,77.5,0|2,0:0|0:0,0:0:0:0:
183,158,5548,2,0,P|195:121|183:85,1,77.5,0|2,0:0|0:0,0:0:0:0:
256,40,6017,1,0,0:0:0:0:
328,84,6252,6,0,B|376:84|376:84|400:96|400:96|456:96,1,116.25,2|0,0:0|0:0,0:0:0:0:
441,96,6720,2,0,L|404:184,1,77.5,2|0,0:0|0:0,0:0:0:0:
476,220,7189,2,0,L|438:308,1,77.5,2|0,0:0|0:0,0:0:0:0:
376,340,7658,1,8,0:0:0:0:
312,284,7892,1,0,0:0:0:0:
256,220,8127,6,0,P|183:195|111:219,1,155,2|2,0:0|0:0,0:0:0:0:
32,192,8830,2,0,P|19:155|31:119,1,77.5,0|2,0:0|0:0,0:0:0:0:
111,218,9298,2,0,P|123:254|110:290,1,77.5,0|2,0:0|0:0,0:0:0:0:
176,348,9767,1,0,0:0:0:0:
256,316,10002,6,0,B|312:316|312:316|352:340|352:340|428:340,1,155,2|2,0:0|0:0,0:0:0:0:
488,192,10939,2,0,B|432:192|432:192|392:168|392:168|316:168,1,155,2|8,0:0|0:0,0:0:0:0:
256,192,11642,1,0,0:0:0:0:
176,168,11877,1,2,0:0:0:0:
212,88,12111,6,0,P|256:36|300:88,2,155
220,172,13283,2,0,B|256:188|256:188|292:172,1,77.5,2|0,0:0|0:0,0:0:0:0:
376,192,13752,2,0,B|408:208|440:192|440:192|420:240,2,116.25,2|0|0,0:0|0:0|0:0,0:0:0:0:
408,112,14689,2,0,P|444:99|480:111,1,77.5,2|0,0:0|0:0,0:0:0:0:
376,192,15158,2,0,P|339:204|303:192,1,77.5,8|0,0:0|0:0,0:0:0:0:
256,124,15627,5,2,0:0:0:0:
208,192,15861,2,0,P|172:204|136:192,1,77.5,8|8,0:0|0:0,0:0:0:0:
256,124,16330,2,0,P|292:111|328:124,1,77.5,8|8,0:0|0:0,0:0:0:0:
376,192,16798,1,8,0:0:0:0:
328,259,17033,2,0,P|292:272|256:260,1,77.5,8|8,0:0|0:0,0:0:0:0:
208,192,17502,6,0,L|152:124,1,77.5,10|8,0:0|0:0,0:0:0:0:
256,124,17970,2,0,L|200:56,1,77.5,8|8,0:0|0:0,0:0:0:0:
276,12,18439,2,0,L|325:71,1,77.5,8|8,0:0|0:0,0:0:0:0:
256,124,18908,2,0,L|305:183,1,77.5,8|8,0:0|0:0,0:0:0:0:
368,244,19377,5,2,0:0:0:0:
256,192,25002,12,8,26408,0:0:0:0:
320,264,26877,6,0,P|344:192|320:120,1,155,2|2,0:0|0:0,0:0:0:0:
256,60,27580,1,0,0:0:0:0:
192,119,27814,2,0,P|168:191|192:264,1,155,2|2,0:0|0:0,0:0:0:0:
260,328,28517,1,0,0:0:0:0:
260,328,28634,1,0,0:0:0:0:
260,328,28752,6,0,P|187:303|115:327,1,155,2|2,0:0|0:0,0:0:0:0:
52,268,29455,1,0,0:0:0:0:
16,192,29689,2,0,B|0:156|0:156|16:120,1,77.5,2|0,0:0|0:0,0:0:0:0:
52,44,30158,1,8,0:0:0:0:
220,76,30627,6,0,B|256:92|256:92|292:76,1,77.5,2|0,0:0|0:0,0:0:0:0:
372,48,31095,2,0,B|406:32|406:32|442:48,1,77.5,0|0,0:0|0:0,0:0:0:0:
472,128,31564,2,0,B|452:175|500:175|460:239,2,116.25,2|0|0,0:0|0:0|0:0,0:0:0:0:
372,48,32502,6,0,L|292:8,2,77.5,0|0|2,0:0|0:0|0:0,0:0:0:0:
324,160,33205,2,0,B|255:123|255:123|188:160,1,155
220,240,33908,2,0,B|256:256|256:256|292:240,1,77.5,8|0,0:0|0:0,0:0:0:0:
324,160,34377,6,0,P|396:160|448:236,1,155,2|0,0:0|0:0,0:0:0:0:
360,236,35080,1,0,0:0:0:0:
360,236,35314,2,0,L|448:96,1,155,2|0,0:0|0:0,0:0:0:0:
408,28,36017,1,0,0:0:0:0:
408,28,36134,1,0,0:0:0:0:
408,28,36252,6,0,B|368:28|368:28|328:56,1,77.5,2|0,0:0|0:0,0:0:0:0:
256,80,36720,1,0,0:0:0:0:
184,128,36955,2,0,B|168:176|140:192|140:192|168:208|184:256,1,155
256,300,37658,1,8,0:0:0:0:
329,252,37892,6,0,B|344:208|372:192|372:192|344:176|328:128,1,155
292,52,38595,2,0,P|328:39|364:52,1,77.5
328,128,39064,1,2,0:0:0:0:
328,128,39298,2,0,P|255:152|183:128,1,155,0|0,0:0|0:0,0:0:0:0:
151,52,40002,5,2,0:0:0:0:
76,92,40236,2,0,B|60:128|60:128|76:164,1,77.5,8|8,0:0|0:0,0:0:0:0:
136,224,40705,2,0,B|152:260|152:260|136:294,1,77.5,8|8,0:0|0:0,0:0:0:0:
200,348,41173,1,8,0:0:0:0:
256,284,41408,1,8,0:0:0:0:
312,348,41642,1,8,0:0:0:0:
312,348,42111,6,0,L|384:280,1,77.5,0|12,0:0|0:0,0:0:0:0:
440,252,42580,1,0,0:0:0:0:
440,252,42814,2,0,B|454:207|482:191|482:191|454:175|438:127,1,155,0|8,0:0|0:0,0:0:0:0:
188,68,43986,6,0,P|151:55|115:67,1,77.5,2|8,0:0|0:0,0:0:0:0:
80,144,44455,2,0,P|116:156|152:144,1,77.5,0|2,0:0|0:0,0:0:0:0:
188,68,44923,1,0,0:0:0:0:
256,120,45158,1,8,0:0:0:0:
324,68,45392,1,0,0:0:0:0:
324,240,45861,6,0,P|360:252|396:240,1,77.5,2|8,0:0|0:0,0:0:0:0:
432,164,46330,2,0,P|395:151|359:163,1,77.5,0|2,0:0|0:0,0:0:0:0:
324,240,46798,1,0,0:0:0:0:
256,292,47033,1,8,0:0:0:0:
188,240,47267,1,4,0:0:0:0:
184,68,47736,6,0,B|220:52|220:52|256:68,1,77.5,8|8,0:0|0:0,0:0:0:0:
324,116,48205,2,0,B|360:132|360:132|396:116,1,77.5,8|8,0:0|0:0,0:0:0:0:
468,156,48673,2,0,L|448:208,5,38.75,8|0|8|0|8|0,0:0|0:0|0:0|0:0|0:0|0:0,0:0:0:0:
428,232,49377,6,0,B|340:192|340:256|252:232,1,170.500005203247,6|8,0:0|0:0,0:0:0:0:
180,192,50080,2,0,P|168:152|180:112,1,85.2500026016236,0|0,0:0|0:0,0:0:0:0:
260,64,50548,1,0,0:0:0:0:
260,64,50666,1,0,0:0:0:0:
260,64,50783,2,0,P|272:104|260:144,1,85.2500026016236,8|0,0:0|0:0,0:0:0:0:
256,240,51252,6,0,L|380:292,1,127.875003902435,0|0,0:0|0:0,0:0:0:0:
412,264,51720,1,8,0:0:0:0:
472,192,51955,2,0,P|484:152|472:112,1,85.2500026016236,0|0,0:0|0:0,0:0:0:0:
388,72,52423,1,0,0:0:0:0:
296,80,52658,2,0,P|255:92|215:80,1,85.2500026016236,8|0,0:0|0:0,0:0:0:0:
124,72,53127,6,0,L|72:200,1,127.875003902435,2|0,0:0|0:0,0:0:0:0:
96,232,53595,1,8,0:0:0:0:
124,320,53830,2,0,B|168:320|168:320|204:280,1,85.2500026016236,0|0,0:0|0:0,0:0:0:0:
256,220,54298,1,0,0:0:0:0:
316,289,54533,1,8,0:0:0:0:
256,364,54767,1,0,0:0:0:0:
256,220,55002,6,0,P|328:196|400:220,2,155,4|8|0,0:0|0:0|0:0,0:0:0:0:
104,144,56408,2,0,B|96:124|96:124|104:104,3,38.75,8|0|8|0,0:0|0:0|0:0|0:0,0:0:0:0:
132,72,56877,5,6,0:0:0:0:
220,36,57111,2,0,B|297:14|297:78|385:38,1,170.500005203247,0|0,0:0|0:0,0:0:0:0:
480,52,57814,2,0,L|436:144,1,85.2500026016236,0|0,0:0|0:0,0:0:0:0:
508,196,58283,2,0,L|464:288,1,85.2500026016236,8|0,0:0|0:0,0:0:0:0:
408,344,58752,6,0,B|340:344|340:344|288:312,1,127.875003902435,0|0,0:0|0:0,0:0:0:0:
256,280,59220,1,8,0:0:0:0:
212,196,59455,2,0,P|200:155|212:115,1,85.2500026016236,0|0,0:0|0:0,0:0:0:0:
300,115,59923,2,0,P|312:155|300:196,1,85.2500026016236,0|8,0:0|0:0,0:0:0:0:
256,280,60392,1,0,0:0:0:0:
256,280,60509,1,0,0:0:0:0:
256,280,60627,6,0,P|180:280|116:208,1,170.500005203247,2|8,0:0|0:0,0:0:0:0:
128,120,61330,2,0,P|164:120|212:72,1,85.2500026016236,0|0,0:0|0:0,0:0:0:0:
256,16,61798,1,0,0:0:0:0:
309,92,62033,1,8,0:0:0:0:
256,172,62267,1,0,0:0:0:0:
309,92,62502,6,0,P|381:68|453:92,2,155,4|8|0,0:0|0:0|0:0,0:0:0:0:
256,172,63673,1,8,0:0:0:0:
203,92,63908,2,0,B|164:92|164:92|128:68,2,77.5,8|0|0,0:0|0:0|0:0,0:0:0:0:
192,120,68127,6,0,P|168:192|192:264,1,155,2|2,0:0|0:0,0:0:0:0:
256,324,68830,1,0,0:0:0:0:
320,265,69064,1,2,0:0:0:0:
320,265,69298,2,0,P|344:193|320:120,1,155,0|0,0:0|0:0,0:0:0:0:
256,52,70002,6,0,P|329:77|401:53,1,155,2|2,0:0|0:0,0:0:0:0:
460,116,70705,1,0,0:0:0:0:
496,192,70939,2,0,B|512:228|512:228|496:264,1,77.5,2|0,0:0|0:0,0:0:0:0:
460,340,71408,1,8,0:0:0:0:
292,308,71877,6,0,B|256:292|256:292|220:308,1,77.5,2|0,0:0|0:0,0:0:0:0:
140,336,72345,2,0,B|106:352|106:352|70:336,1,77.5,2|0,0:0|0:0,0:0:0:0:
40,256,72814,2,0,B|60:209|12:209|52:145,2,116.25,2|0|0,0:0|0:0|0:0,0:0:0:0:
140,336,73752,6,0,L|232:364,1,77.5,2|0,0:0|0:0,0:0:0:0:
292,328,74220,1,2,0:0:0:0:
356,272,74455,2,0,P|369:235|357:199,1,77.5,0|2,0:0|0:0,0:0:0:0:
292,144,74923,2,0,B|256:128|256:128|220:144,1,77.5,0|2,0:0|0:0,0:0:0:0:
188,224,75392,1,8,0:0:0:0:
188,224,75627,6,0,P|116:224|64:148,1,155,2|2,0:0|0:0,0:0:0:0:
152,148,76330,1,0,0:0:0:0:
152,148,76564,2,0,L|64:288,1,155,2|2,0:0|0:0,0:0:0:0:
104,356,77267,1,0,0:0:0:0:
104,356,77384,1,0,0:0:0:0:
104,356,77502,6,0,B|144:356|144:356|184:328,1,77.5,2|0,0:0|0:0,0:0:0:0:
256,304,77970,1,2,0:0:0:0:
328,256,78205,2,0,B|344:208|372:192|372:192|344:176|328:128,1,155,0|0,0:0|0:0,0:0:0:0:
256,84,78908,1,8,0:0:0:0:
183,132,79142,6,0,B|168:176|140:192|140:192|168:208|184:256,1,155,0|0,0:0|0:0,0:0:0:0:
220,332,79845,2,0,P|183:344|147:331,1,77.5
184,256,80314,1,2,0:0:0:0:
184,256,80548,2,0,P|257:232|329:256,1,155,0|0,0:0|0:0,0:0:0:0:
361,332,81252,5,2,0:0:0:0:
436,292,81486,2,0,B|452:256|452:256|436:220,1,77.5,8|8,0:0|0:0,0:0:0:0:
376,160,81955,2,0,B|360:124|360:124|376:90,1,77.5,8|8,0:0|0:0,0:0:0:0:
312,36,82423,1,8,0:0:0:0:
256,100,82658,1,8,0:0:0:0:
200,36,82892,1,8,0:0:0:0:
200,36,83361,6,0,L|128:104,1,77.5,0|12,0:0|0:0,0:0:0:0:
72,132,83830,1,0,0:0:0:0:
72,132,84064,2,0,B|58:177|30:193|30:193|58:209|74:257,1,155,0|8,0:0|0:0,0:0:0:0:
324,316,85236,6,0,P|361:329|397:317,1,77.5,2|8,0:0|0:0,0:0:0:0:
432,240,85705,2,0,P|396:228|360:240,1,77.5,0|2,0:0|0:0,0:0:0:0:
324,316,86173,1,0,0:0:0:0:
256,264,86408,1,8,0:0:0:0:
188,316,86642,1,0,0:0:0:0:
188,144,87111,6,0,P|152:132|116:144,1,77.5,2|8,0:0|0:0,0:0:0:0:
80,220,87580,2,0,P|117:233|153:221,1,77.5,0|2,0:0|0:0,0:0:0:0:
188,144,88048,1,0,0:0:0:0:
256,92,88283,1,8,0:0:0:0:
324,144,88517,1,4,0:0:0:0:
328,316,88986,6,0,B|292:332|292:332|256:316,1,77.5,8|8,0:0|0:0,0:0:0:0:
188,268,89455,2,0,B|152:252|152:252|116:268,1,77.5,8|8,0:0|0:0,0:0:0:0:
44,228,89923,2,0,L|64:176,5,38.75,8|0|8|0|8|0,0:0|0:0|0:0|0:0|0:0|0:0,0:0:0:0:
84,152,90627,6,0,P|152:152|232:64,1,170.500005203247,6|8,0:0|0:0,0:0:0:0:
312,52,91330,2,0,L|396:96,1,85.2500026016236,0|0,0:0|0:0,0:0:0:0:
380,184,91798,1,0,0:0:0:0:
380,184,91916,1,0,0:0:0:0:
380,184,92033,2,0,L|304:144,1,85.2500026016236,8|0,0:0|0:0,0:0:0:0:
207,144,92502,6,0,P|160:144|84:224,1,127.875003902435,0|0,0:0|0:0,0:0:0:0:
84,236,92970,1,8,0:0:0:0:
104,328,93205,2,0,P|144:328|192:288,1,85.2500026016236,0|0,0:0|0:0,0:0:0:0:
256,248,93673,1,0,0:0:0:0:
330,304,93908,2,0,P|365:327|408:328,1,85.2500026016236,8|0,0:0|0:0,0:0:0:0:
400,247,94377,6,0,P|328:208|256:247,1,170.500005203247,2|8,0:0|0:0,0:0:0:0:
176,300,95080,1,0,0:0:0:0:
100,247,95314,2,0,P|88:207|100:167,1,85.2500026016236,0|0,0:0|0:0,0:0:0:0:
176,219,95783,2,0,P|188:259|176:299,1,85.2500026016236,8|0,0:0|0:0,0:0:0:0:
256,332,96252,6,0,B|328:332|328:332|344:340|344:340|416:340,2,155,4|8|0,0:0|0:0|0:0,0:0:0:0:
136,212,97658,2,0,B|128:192|128:192|136:172,3,38.75,8|0|8|0,0:0|0:0|0:0|0:0,0:0:0:0:
148,132,98127,5,6,0:0:0:0:
180,44,98361,2,0,B|257:66|257:2|345:42,1,170.500005203247,0|0,0:0|0:0,0:0:0:0:
404,112,99064,2,0,P|416:152|404:192,1,85.2500026016236,0|0,0:0|0:0,0:0:0:0:
320,232,99533,2,0,P|307:191|320:151,1,85.2500026016236,8|0,0:0|0:0,0:0:0:0:
403,192,100002,6,0,L|328:336,2,127.875003902435,0|0|0,0:0|0:0|0:0,0:0:0:0:
444,108,100939,1,0,0:0:0:0:
412,20,101173,2,0,P|371:32|331:19,1,85.2500026016236,0|8,0:0|0:0,0:0:0:0:
256,72,101642,1,0,0:0:0:0:
176,120,101877,6,0,P|137:191|176:263,1,170.500005203247,2|8,0:0|0:0,0:0:0:0:
256,312,102580,1,0,0:0:0:0:
335,263,102814,2,0,P|374:191|336:120,1,170.500005203247,0|8,0:0|0:0,0:0:0:0:
256,72,103517,1,0,0:0:0:0:
256,72,103752,6,0,B|192:72|192:72|152:92|152:92|96:92,2,155,4|8|0,0:0|0:0|0:0,0:0:0:0:
328,132,104923,1,8,0:0:0:0:
396,196,105158,2,0,L|336:260,1,77.5,8|0,0:0|0:0,0:0:0:0:
256,288,105627,6,0,P|176:288|104:228,1,155,4|2,0:0|0:0,0:0:0:0:
60,172,106330,1,0,0:0:0:0:
20,88,106564,2,0,P|57:76|93:88,1,77.5,2|0,0:0|0:0,0:0:0:0:
132,171,107033,2,0,P|95:183|59:171,1,77.5,2|0,0:0|0:0,0:0:0:0:
92,87,107502,5,2,0:0:0:0:
256,192,107619,12,2,108908,0:0:0:0:
360,264,109377,6,0,P|384:191|360:119,1,155,4|8,0:0|0:0,0:0:0:0:
284,76,110080,1,0,0:0:0:0:
360,119,110314,2,0,P|397:131|433:119,1,77.5,0|0,0:0|0:0,0:0:0:0:
284,76,110783,2,0,P|247:64|211:76,1,77.5,8|0,0:0|0:0,0:0:0:0:
222,160,111252,6,0,B|256:176|256:176|292:160,1,77.5,0|0,0:0|0:0,0:0:0:0:
316,240,111720,1,8,0:0:0:0:
316,240,111955,2,0,B|272:255|256:283|256:283|240:255|192:239,1,155,0|0,0:0|0:0,0:0:0:0:
120,192,112658,2,0,P|108:155|120:119,1,77.5,8|0,0:0|0:0,0:0:0:0:
191,238,113127,6,0,P|151:270|48:240,1,155,0|8,0:0|0:0,0:0:0:0:
102,116,113830,2,0,L|120:192,1,77.5,0|0,0:0|0:0,0:0:0:0:
191,238,114298,1,0,0:0:0:0:
256,180,114533,2,0,L|238:104,1,77.5,8|0,0:0|0:0,0:0:0:0:
296,44,115002,6,0,B|336:44|336:44|372:68,1,77.5,0|0,0:0|0:0,0:0:0:0:
432,120,115470,1,8,0:0:0:0:
476,192,115705,1,0,0:0:0:0:
428,260,115939,2,0,L|388:292,3,38.75,8|0|8|0,0:0|0:0|0:0|0:0,0:0:0:0:
364,312,116408,1,8,0:0:0:0:
284,344,116642,1,8,0:0:0:0:
284,344,116759,1,0,0:0:0:0:
284,344,116877,6,0,P|232:344|188:328,1,77.5,4|0,0:0|0:0,0:0:0:0:
184,256,117345,2,0,P|236:256|280:272,1,77.5,8|0,0:0|0:0,0:0:0:0:
296,236,117697,2,0,L|240:128,1,116.25
256,48,118283,1,8,0:0:0:0:
340,28,118517,1,0,0:0:0:0:
340,28,118634,1,0,0:0:0:0:
340,28,118752,6,0,P|376:28|432:64,1,77.5,0|0,0:0|0:0,0:0:0:0:
436,128,119220,2,0,P|400:128|344:92,1,77.5,8|0,0:0|0:0,0:0:0:0:
413,44,119689,2,0,L|384:204,1,155,0|8,0:0|0:0,0:0:0:0:
256,332,120627,6,0,L|164:332,2,77.5,4|8|0,0:0|0:0|0:0,0:0:0:0:
320,264,121330,2,0,P|332:227|320:191,1,77.5,4|8,0:0|0:0,0:0:0:0:
256,124,121798,1,0,0:0:0:0:
191,191,122033,2,0,P|179:227|192:264,2,77.5,4|8|0,0:0|0:0|0:0,0:0:0:0:
256,124,122736,6,0,L|340:104,1,77.5,8|8,0:0|0:0,0:0:0:0:
420,80,123205,1,8,0:0:0:0:
472,156,123439,2,0,P|460:192|472:228,1,77.5,8|8,0:0|0:0,0:0:0:0:
420,304,123908,1,8,0:0:0:0:
420,304,124142,1,8,0:0:0:0:
256,216,124611,6,0,L|192:168,2,77.5,0|12|0,0:0|0:0|0:0,0:0:0:0:
348,240,125314,2,0,P|420:215|492:239,2,155,2|8|0,0:0|0:0|0:0,0:0:0:0:
304,320,126486,1,2,0:0:0:0:
208,320,126720,1,8,0:0:0:0:
256,240,126955,1,0,0:0:0:0:
312,164,127189,2,0,P|324:127|312:91,1,77.5,2|0,0:0|0:0,0:0:0:0:
256,240,127658,2,0,P|244:276|256:312,1,77.5,8|0,0:0|0:0,0:0:0:0:
368,112,128361,6,0,P|336:92|284:92,1,77.5,2|8,0:0|0:0,0:0:0:0:
216,132,128830,1,0,0:0:0:0:
204,224,129064,2,0,B|256:232|288:200|288:200|344:248,1,155,2|8,0:0|0:0,0:0:0:0:
372,336,129767,1,0,0:0:0:0:
372,336,129884,1,0,0:0:0:0:
372,336,130002,2,0,L|288:352,1,77.5,0|2,0:0|0:0,0:0:0:0:
336,241,130470,2,0,L|420:225,1,77.5,8|0,0:0|0:0,0:0:0:0:
444,140,130939,5,4,0:0:0:0:
255,73,131408,1,8,0:0:0:0:
255,73,132111,6,0,L|192:136,1,77.5,2|12,0:0|0:0,0:0:0:0:
156,208,132580,1,0,0:0:0:0:
156,208,132814,2,0,B|204:232|252:204|252:204|308:204,2,155,2|8|0,0:0|0:0|0:0,0:0:0:0:
76,164,133986,2,0,P|64:200|76:236,1,77.5,2|8,0:0|0:0,0:0:0:0:
156,284,134455,2,0,P|167:320|156:356,1,77.5,0|2,0:0|0:0,0:0:0:0:
68,324,134923,1,0,0:0:0:0:
76,236,135158,1,8,0:0:0:0:
156,192,135392,1,0,0:0:0:0:
156,192,135861,6,0,B|156:148|156:148|176:116,1,77.5,2|8,0:0|0:0,0:0:0:0:
256,76,136330,1,0,0:0:0:0:
338,119,136564,2,0,B|356:148|356:148|356:192,2,77.5,2|0|8,0:0|0:0|0:0,0:0:0:0:
256,76,137267,1,12,0:0:0:0:
256,192,137384,12,2,139377,0:0:0:0:
184,224,146408,5,8,0:0:0:0:
184,224,146877,2,0,P|257:249|329:225,1,155,2|2,0:0|0:0,0:0:0:0:
384,160,147580,2,0,P|396:124|384:88,1,77.5,0|2,0:0|0:0,0:0:0:0:
329,226,148048,2,0,P|316:262|328:298,1,77.5,0|2,0:0|0:0,0:0:0:0:
256,344,148517,1,0,0:0:0:0:
184,300,148752,6,0,B|136:300|136:300|112:288|112:288|56:288,1,116.25,2|0,0:0|0:0,0:0:0:0:
70,288,149220,2,0,L|108:200,1,77.5,2|0,0:0|0:0,0:0:0:0:
36,164,149689,2,0,L|73:76,1,77.5,2|0,0:0|0:0,0:0:0:0:
136,44,150158,1,8,0:0:0:0:
200,100,150392,1,0,0:0:0:0:
256,164,150627,6,0,P|329:189|401:165,1,155,2|2,0:0|0:0,0:0:0:0:
480,192,151330,2,0,P|492:228|480:264,1,77.5,0|2,0:0|0:0,0:0:0:0:
401,166,151798,2,0,P|388:129|401:93,1,77.5,0|2,0:0|0:0,0:0:0:0:
336,36,152267,1,0,0:0:0:0:
256,68,152502,6,0,B|200:68|200:68|160:44|160:44|84:44,1,155,2|2,0:0|0:0,0:0:0:0:
24,192,153439,2,0,B|80:192|80:192|120:216|120:216|196:216,1,155,2|8,0:0|0:0,0:0:0:0:
256,192,154142,1,0,0:0:0:0:
336,216,154377,1,2,0:0:0:0:
300,296,154611,6,0,P|256:348|212:296,2,155,0|0|0,0:0|0:0|0:0,0:0:0:0:
292,212,155783,2,0,B|256:196|256:196|220:212,1,77.5,2|0,0:0|0:0,0:0:0:0:
136,192,156252,2,0,B|104:176|72:192|72:192|92:144,2,116.25,2|0|0,0:0|0:0|0:0,0:0:0:0:
104,272,157189,2,0,P|67:284|31:272,1,77.5,2|0,0:0|0:0,0:0:0:0:
136,192,157658,6,0,P|172:179|208:191,1,77.5,8|0,0:0|0:0,0:0:0:0:
256,260,158127,1,2,0:0:0:0:
303,191,158361,2,0,P|339:179|376:192,1,77.5,0|2,0:0|0:0,0:0:0:0:
256,260,158830,6,0,P|219:272|183:259,1,77.5,8|8,0:0|0:0,0:0:0:0:
136,192,159298,1,8,0:0:0:0:
183,124,159533,2,0,P|219:111|256:124,2,77.5,8|8|2,0:0|0:0|0:0,0:0:0:0:
84,152,161408,5,12,0:0:0:0:
84,152,161877,2,0,B|172:192|172:128|260:152,1,170.500005203247,6|8,0:0|0:0,0:0:0:0:
332,192,162580,2,0,P|344:232|332:272,1,85.2500026016236,0|0,0:0|0:0,0:0:0:0:
252,320,163048,1,0,0:0:0:0:
252,320,163166,1,0,0:0:0:0:
252,320,163283,2,0,P|240:280|252:240,1,85.2500026016236,8|0,0:0|0:0,0:0:0:0:
256,144,163752,6,0,L|132:92,1,127.875003902435,0|0,0:0|0:0,0:0:0:0:
100,120,164220,1,8,0:0:0:0:
40,192,164455,2,0,P|28:232|40:272,1,85.2500026016236,0|0,0:0|0:0,0:0:0:0:
124,312,164923,1,0,0:0:0:0:
216,304,165158,2,0,P|257:292|297:304,1,85.2500026016236,8|0,0:0|0:0,0:0:0:0:
388,312,165627,6,0,L|440:184,1,127.875003902435,2|0,0:0|0:0,0:0:0:0:
416,152,166095,1,8,0:0:0:0:
388,64,166330,2,0,B|344:64|344:64|308:104,1,85.2500026016236,0|0,0:0|0:0,0:0:0:0:
256,164,166798,1,0,0:0:0:0:
195,94,167033,1,8,0:0:0:0:
256,20,167267,1,0,0:0:0:0:
256,164,167502,6,0,P|184:188|112:164,2,155,4|8|0,0:0|0:0|0:0,0:0:0:0:
340,192,168673,2,0,B|333:176|333:176|341:156,2,38.75,8|0|8,0:0|0:0|0:0,0:0:0:0:
408,240,169142,2,0,B|416:260|416:260|408:280,1,38.75,8|0,0:0|0:0,0:0:0:0:
380,312,169377,5,12,0:0:0:0:
292,348,169611,2,0,B|214:369|214:305|126:345,1,170.500005203247,0|0,0:0|0:0,0:0:0:0:
32,332,170314,2,0,L|76:240,1,85.2500026016236,0|0,0:0|0:0,0:0:0:0:
4,188,170783,2,0,L|48:96,1,85.2500026016236,8|0,0:0|0:0,0:0:0:0:
104,40,171252,6,0,B|172:40|172:40|224:72,1,127.875003902435,0|0,0:0|0:0,0:0:0:0:
256,104,171720,1,8,0:0:0:0:
300,188,171955,2,0,P|312:229|300:269,1,85.2500026016236,0|0,0:0|0:0,0:0:0:0:
211,268,172423,2,0,P|199:228|212:188,1,85.2500026016236,0|8,0:0|0:0,0:0:0:0:
256,104,172892,1,0,0:0:0:0:
256,104,173009,1,0,0:0:0:0:
256,104,173127,6,0,P|332:104|396:176,1,170.500005203247,2|8,0:0|0:0,0:0:0:0:
384,264,173830,2,0,P|348:264|300:312,1,85.2500026016236,0|0,0:0|0:0,0:0:0:0:
256,368,174298,1,0,0:0:0:0:
202,291,174533,1,8,0:0:0:0:
256,212,174767,1,0,0:0:0:0:
203,292,175002,6,0,P|131:316|59:292,2,155,4|8|0,0:0|0:0|0:0,0:0:0:0:
256,212,176173,2,0,L|256:156,2,38.75,8|0|8,0:0|0:0|0:0,0:0:0:0:
308,292,176642,1,8,0:0:0:0:
392,312,176877,6,0,P|416:239|392:167,1,155,4|8,0:0|0:0,0:0:0:0:
368,84,177580,1,0,0:0:0:0:
292,124,177814,2,0,P|255:137|219:125,1,77.5,0|0,0:0|0:0,0:0:0:0:
184,48,178283,2,0,P|221:35|257:47,1,77.5,8|0,0:0|0:0,0:0:0:0:
368,84,178752,6,0,P|381:121|369:157,1,77.5,0|0,0:0|0:0,0:0:0:0:
320,228,179220,1,8,0:0:0:0:
320,228,179455,2,0,B|272:244|256:272|256:272|240:244|195:230,1,155,0|0,0:0|0:0,0:0:0:0:
142,160,180158,2,0,P|131:123|144:88,1,77.5,8|0,0:0|0:0,0:0:0:0:
212,136,180627,6,0,L|36:92,1,155,0|8,0:0|0:0,0:0:0:0:
20,172,181330,1,0,0:0:0:0:
8,260,181564,2,0,B|-7:294|-7:294|8:330,1,77.5
92,308,182033,2,0,B|107:272|107:272|92:237,1,77.5,8|0,0:0|0:0,0:0:0:0:
20,172,182502,6,0,L|152:76,1,155,4|12,0:0|0:0,0:0:0:0:
216,32,183205,1,0,0:0:0:0:
296,32,183439,1,0,0:0:0:0:
360,92,183673,1,8,0:0:0:0:
360,92,183791,1,0,0:0:0:0:
360,92,183908,2,0,L|390:124,3,38.75,8|0|8|0,0:0|0:0|0:0|0:0,0:0:0:0:
420,148,184377,6,0,P|443:220|419:292,1,155,4|8,0:0|0:0,0:0:0:0:
332,304,185080,1,0,0:0:0:0:
256,268,185314,2,0,P|219:255|183:267,1,77.5,0|0,0:0|0:0,0:0:0:0:
148,344,185783,2,0,P|185:357|221:345,1,77.5,8|0,0:0|0:0,0:0:0:0:
332,304,186252,6,0,P|345:267|333:231,1,77.5,0|0,0:0|0:0,0:0:0:0:
268,176,186720,1,8,0:0:0:0:
268,176,186955,2,0,P|236:108|268:40,1,155,0|0,0:0|0:0,0:0:0:0:
328,112,187658,1,8,0:0:0:0:
328,112,187775,1,0,0:0:0:0:
328,112,187892,1,8,0:0:0:0:
216,240,188127,6,0,B|148:240|148:240|96:240|60:288,1,155,4|8,0:0|0:0,0:0:0:0:
112,348,188830,1,0,0:0:0:0:
112,348,189064,2,0,B|180:348|180:348|232:348|268:300,1,155,0|8,0:0|0:0,0:0:0:0:
308,248,189767,1,0,0:0:0:0:
256,180,190002,5,4,0:0:0:0:
344,36,190470,1,8,0:0:0:0:
168,36,190939,2,0,L|108:116,1,77.5,0|8,0:0|0:0,0:0:0:0:
200,128,191408,2,0,L|140:208,1,77.5,8|0,0:0|0:0,0:0:0:0:
124,272,191877,5,4,0:0:0:0:
188,324,192111,2,0,P|256:356|324:324,1,155,8|4,0:0|0:0,0:0:0:0:
259,272,192814,2,0,P|191:240|123:272,1,155,8|4,0:0|0:0,0:0:0:0:
40,260,193517,6,0,P|8:192|40:124,1,155,8|8,0:0|0:0,0:0:0:0:
124,108,194220,2,0,P|160:108|212:68,1,77.5,8|8,0:0|0:0,0:0:0:0:
256,28,194689,1,8,0:0:0:0:
316,88,194923,2,0,P|349:107|388:108,1,77.5,8|8,0:0|0:0,0:0:0:0:
472,124,195392,1,4,0:0:0:0:
