osu file format v14

[General]
AudioFilename: audio.mp3
AudioLeadIn: 0
PreviewTime: 48667
Countdown: 0
SampleSet: Normal
StackLeniency: 0.7
Mode: 0
LetterboxInBreaks: 0
WidescreenStoryboard: 0

[Editor]
Bookmarks: 269,89683
DistanceSpacing: 1
BeatDivisor: 2
GridSize: 4
TimelineZoom: 1

[Metadata]
Title:Shut Up and Dance
TitleUnicode:Shut Up and Dance
Artist:WALK THE MOON
ArtistUnicode:WALK THE MOON
Creator:BoatKrab
Version:Normal
Source:
Tags:crystilonz gero new wave power pop indie rock RCA 2014 love just 2016 unlimited now talking is hard
BeatmapID:915336
BeatmapSetID:421156

[Difficulty]
HPDrainRate:4
CircleSize:3
OverallDifficulty:3
ApproachRate:4
SliderMultiplier:1
SliderTickRate:1

[Events]
//Background and Video events
0,0,"Love.jpg",0,0
Video,93,"ShutUp.avi"
//Break Periods
2,19571,25082
2,64571,65863
2,139570,145551
//Storyboard Layer 0 (Background)
//Storyboard Layer 1 (Fail)
//Storyboard Layer 2 (Pass)
//Storyboard Layer 3 (Foreground)
//Storyboard Sound Samples
Sample,61792,0,"normal-hitwhistle.wav",50
Sample,103042,0,"normal-hitwhistle.wav",50
Sample,174292,0,"normal-hitwhistle.wav",50
Sample,181792,0,"normal-hitwhistle.wav",50
Sample,189292,0,"normal-hitwhistle.wav",50

[TimingPoints]
-3129,468.75,4,2,1,40,1,0
15621,-100,4,1,0,20,0,0
16324,-100,4,1,0,20,0,0
16558,-100,4,1,0,30,0,0
17027,-100,4,1,0,50,0,0
19371,-100,4,2,0,50,0,0
39996,-100,4,2,0,20,0,0
40230,-100,4,1,0,30,0,0
40464,-100,4,1,0,40,0,0
40933,-100,4,1,0,50,0,0
49371,-100,4,1,1,50,0,1
64371,-100,4,2,0,50,0,0
79136,-100,4,2,0,50,0,0
79371,-100,4,2,0,50,0,0
81246,-100,4,1,0,20,0,0
81714,-100,4,1,0,30,0,0
82183,-100,4,1,0,50,0,0
90621,-100,4,1,1,50,0,1
105621,-100,4,1,0,50,0,0
107496,-100,4,3,0,70,0,0
109371,-100,4,1,1,50,0,1
124371,-100,4,1,0,50,0,0
146167,-100,4,1,1,20,0,0
152261,-100,4,1,0,20,0,0
153902,-100,4,1,1,20,0,0
159761,-100,4,1,0,20,0,0
161871,-100,4,1,1,50,0,1
195386,-100,4,1,1,50,0,0

[Colours]
Combo1 : 255,255,64
Combo2 : 255,128,64
Combo3 : 255,64,64

[HitObjects]
84,352,4371,6,0,P|130:367|183:351,1,100,2|0,0:0|0:0,0:0:0:0:
251,283,5308,2,0,P|298:270|345:286,1,100,2|2,0:0|0:0,0:0:0:0:
379,323,6011,1,0,0:0:0:0:
379,323,6246,6,0,L|371:223,1,100,2|2,0:0|0:0,0:0:0:0:
284,176,7183,2,0,L|276:76,1,100,2|8,0:0|1:0,0:0:0:0:
252,32,7886,1,0,0:0:0:0:
251,31,8121,6,0,P|205:15|156:24,1,100,2|0,0:0|0:0,0:0:0:0:
56,24,9058,2,0,P|65:72|98:109,1,100,2|2,0:0|0:0,0:0:0:0:
148,96,9761,1,0,0:0:0:0:
148,96,9996,6,0,L|140:195,1,100,2|2,0:0|0:0,0:0:0:0:
224,252,10933,2,0,L|231:152,1,100,2|8,0:0|1:0,0:0:0:0:
256,108,11636,1,0,0:0:0:0:
256,107,11871,6,0,P|299:84|352:88,2,100,2|0|2,0:0|0:0|0:0,0:0:0:0:
172,160,13277,2,0,P|144:170|119:167,1,50,2|0,0:0|0:0,0:0:0:0:
80,144,13746,2,0,L|88:248,2,100,2|2|2,0:0|0:0|0:0,0:0:0:0:
136,64,15152,1,8,1:0:0:0:
256,192,15621,12,0,19371,1:0:0:0:
60,299,26402,6,0,P|83:290|107:287,1,50,0|0,1:0|1:0,0:0:0:0:
152,312,26871,6,0,P|197:329|244:312,1,100,4|0,1:2|1:0,0:0:0:0:
328,256,27808,2,0,P|374:239|420:256,1,100,0|0,1:0|1:0,0:0:0:0:
460,288,28511,1,0,0:0:0:0:
460,288,28746,2,0,L|456:188,1,100,0|0,1:0|1:0,0:0:0:0:
392,112,29683,2,0,L|395:62,2,50,0|0|8,1:0|0:0|1:0,0:0:0:0:
315,176,30621,6,0,P|273:200|226:189,1,100,0|0,1:0|1:0,0:0:0:0:
188,156,31324,1,0,0:0:0:0:
188,156,31558,2,0,L|88:167,2,100,0|0|0,1:0|0:0|1:0,0:0:0:0:
256,80,32964,1,0,1:0:0:0:
340,136,33433,2,0,P|349:184|332:230,1,100,0|8,1:0|1:0,0:0:0:0:
244,276,34371,6,0,L|144:272,1,100,0|0,1:0|0:0,0:0:0:0:
100,184,35308,2,0,L|199:187,1,100,0|0,1:0|1:0,0:0:0:0:
248,196,36011,2,0,P|252:171|250:146,1,50,0|0,0:0|1:0,0:0:0:0:
180,76,36714,1,0,1:0:0:0:
272,32,37183,2,0,P|324:12|380:28,1,100,0|8,1:0|1:0,0:0:0:0:
404,52,37886,6,0,L|396:152,1,100,2|0,0:1|0:1,0:0:0:0:
372,196,38589,1,0,1:0:0:0:
444,263,39058,2,0,P|401:289|352:292,1,100,0|0,1:0|1:0,0:0:0:0:
308,272,39761,6,0,P|265:246|216:243,1,100,2|0,0:1|0:0,0:0:0:0:
176,276,40464,1,0,0:0:0:0:
116,196,40933,1,0,0:0:0:0:
192,132,41402,2,0,P|216:138|241:140,1,50,0|0,0:0|0:0,0:0:0:0:
332,96,42105,5,0,0:0:0:0:
331,95,42339,2,0,P|343:143|329:191,1,100,8|0,0:0|0:0,0:0:0:0:
256,260,43277,2,0,P|321:292|391:271,1,150,8|0,0:0|0:0,0:0:0:0:
432,240,44214,2,0,B|420:288|420:288|423:338,2,100,8|0|8,0:0|0:0|0:0,0:0:0:0:
460,196,45386,1,0,0:0:0:0:
412,108,45855,5,0,0:0:0:0:
412,108,46089,2,0,P|370:136|321:135,1,100,8|0,0:0|0:0,0:0:0:0:
248,68,47027,1,8,0:0:0:0:
248,68,47261,2,0,B|214:94|212:144|220:184|248:216|284:220|284:220|248:252|248:252|256:280|256:280|232:312|243:358,1,350,0|8,0:0|0:0,0:0:0:0:
340,332,49371,6,0,P|388:352|444:324,1,100,4|8,0:0|0:0,0:0:0:0:
456,292,50074,2,0,L|448:192,1,100,0|0,0:0|0:0,0:0:0:0:
472,148,50777,1,8,0:0:0:0:
408,68,51246,2,0,B|372:56|372:56|310:59,1,100,0|8,0:0|0:0,0:0:0:0:
272,91,51949,2,0,P|231:118|182:112,1,100,0|0,0:0|0:0,0:0:0:0:
144,80,52652,1,8,0:0:0:0:
60,136,53121,6,0,L|67:235,1,100,0|8,0:0|0:0,0:0:0:0:
107,268,53824,2,0,P|146:236|195:230,1,100
240,256,54527,1,8,0:0:0:0:
308,184,54996,6,0,L|304:84,1,100,4|8,0:3|0:0,0:0:0:0:
400,116,55933,2,0,L|404:216,1,100,4|8,0:3|0:0,0:0:0:0:
380,260,56636,1,0,0:0:0:0:
380,260,56871,6,0,P|334:243|286:254,1,100,4|8,0:0|0:0,0:0:0:0:
244,280,57574,2,0,P|197:297|149:286,1,100,0|0,0:0|0:0,0:0:0:0:
108,256,58277,1,8,0:0:0:0:
192,204,58746,2,0,L|184:104,1,100,0|8,0:0|0:0,0:0:0:0:
203,60,59449,2,0,P|251:47|299:60,1,100,0|0,0:0|0:0,0:0:0:0:
336,96,60152,1,8,0:0:0:0:
415,31,60621,6,0,P|439:101|409:167,2,150,0|8|2,0:0|0:0|0:0,0:0:0:0:
336,96,62496,1,4,0:3:0:0:
264,164,62964,1,8,0:0:0:0:
340,232,63433,2,0,L|348:344,1,100,4|8,0:3|0:0,0:0:0:0:
392,356,64136,1,0,0:0:0:0:
392,356,64371,1,0,1:0:0:0:
392,204,67183,5,0,0:0:0:0:
348,292,67652,1,8,1:0:0:0:
264,240,68121,2,0,P|215:232|170:252,1,100,4|0,1:2|1:0,0:0:0:0:
132,288,68824,1,0,0:0:0:0:
132,288,69058,2,0,L|139:188,1,100,0|0,1:2|1:0,0:0:0:0:
84,104,69996,6,0,P|59:104|34:109,2,50,0|0|0,1:2|0:0|1:0,0:0:0:0:
168,52,70933,2,0,P|192:57|217:57,2,50,0|0|8,1:0|0:0|1:0,0:0:0:0:
84,104,71871,6,0,L|76:203,1,100,0|0,1:0|1:0,0:0:0:0:
127,287,72808,2,0,P|196:311|258:273,1,150,0|0,1:0|0:0,0:0:0:0:
275,228,73746,2,0,P|325:222|371:240,1,100,0|8,1:0|1:3,0:0:0:0:
428,160,74683,2,0,P|398:119|391:70,1,100,8|4,1:3|0:3,0:0:0:0:
293,62,75621,6,0,P|273:108|234:139,1,100,0|8,1:0|1:3,0:0:0:0:
200,104,76324,1,0,0:0:0:0:
200,104,76558,2,0,L|209:203,1,100,0|0,1:0|1:0,0:0:0:0:
124,256,77496,6,0,P|99:255|74:261,2,50,0|0|0,1:0|0:0|1:0,0:0:0:0:
196,324,78433,2,0,P|243:339|291:327,1,100,0|8,1:0|1:0,0:0:0:0:
324,288,79136,6,0,L|320:188,1,100,2|0,0:1|0:0,0:0:0:0:
348,148,79839,1,0,1:0:0:0:
304,60,80308,2,0,P|258:39|210:46,1,100,0|0,1:0|1:0,0:0:0:0:
176,84,81011,2,0,P|130:104|82:97,1,100,2|0,0:1|0:0,0:0:0:0:
40,72,81714,5,0,0:0:0:0:
24,172,82183,1,0,0:0:0:0:
95,239,82652,2,0,P|120:244|145:239,1,50
211,170,83355,5,0,0:0:0:0:
211,170,83589,2,0,P|236:213|239:266,1,100,8|0,0:0|0:0,0:0:0:0:
284,352,84527,2,0,P|332:297|405:302,1,150,8|0,0:0|0:0,0:0:0:0:
452,320,85464,2,0,L|445:220,2,100,8|0|8,0:0|0:0|0:0,0:0:0:0:
432,368,86636,1,0,0:0:0:0:
348,312,87105,5,0,0:0:0:0:
348,312,87339,2,0,P|307:337|258:333,1,100,8|0,0:0|0:0,0:0:0:0:
172,280,88277,1,8,0:0:0:0:
172,280,88511,2,2,B|180:228|160:184|160:184|188:116|188:116|216:136|224:180|224:180|256:152|322:161,1,350,2|8,0:0|0:0,0:0:0:0:
307,259,90621,6,0,P|357:257|396:227,1,100,4|8,0:0|0:0,0:0:0:0:
420,184,91324,2,0,L|412:283,1,100,0|0,0:0|0:0,0:0:0:0:
408,332,92027,1,8,0:0:0:0:
316,296,92496,2,0,B|264:288|264:288|216:295,1,100,0|8,0:0|0:0,0:0:0:0:
176,320,93199,2,0,B|123:328|123:328|76:320,1,100,0|0,0:0|0:0,0:0:0:0:
36,292,93902,1,8,0:0:0:0:
76,200,94371,6,0,L|72:100,1,100,0|8,0:0|0:0,0:0:0:0:
95,56,95074,2,0,P|143:40|192:45,1,100,0|0,0:0|0:0,0:0:0:0:
236,72,95777,1,8,0:0:0:0:
328,32,96246,6,0,L|427:28,1,100,4|8,0:3|0:0,0:0:0:0:
420,128,97183,2,0,L|320:131,1,100,4|8,0:3|0:0,0:0:0:0:
232,175,98121,6,0,P|204:216|208:272,1,100,0|8,0:0|0:0,0:0:0:0:
240,304,98824,2,0,L|348:292,1,100,0|0,0:0|0:0,0:0:0:0:
384,312,99527,1,8,0:0:0:0:
448,235,99996,2,0,P|460:188|442:142,1,100,0|8,0:0|0:0,0:0:0:0:
404,112,100699,2,0,P|358:130|310:117,1,100,0|0,0:0|0:0,0:0:0:0:
276,80,101402,1,8,0:0:0:0:
200,144,101871,6,0,L|211:293,2,150,0|8|2,0:0|0:0|0:0,0:0:0:0:
116,88,103746,1,0,0:0:0:0:
40,156,104214,1,8,0:0:0:0:
76,248,104683,2,0,P|123:260|170:243,1,100,0|8,0:0|0:0,0:0:0:0:
208,212,105386,1,0,0:0:0:0:
208,212,105621,1,4,0:0:0:0:
256,192,105855,12,4,108433,0:0:0:0:
180,276,109371,6,0,P|134:292|89:272,2,100,4|8|0,0:0|0:0|0:0,0:0:0:0:
208,236,110542,2,0,P|232:240|254:252,1,50,0|8,0:0|0:0,0:0:0:0:
319,327,111246,2,0,P|388:351|456:312,2,150,0|0|8,0:0|0:0|0:0,0:0:0:0:
380,247,113121,6,0,P|423:224|473:221,2,100,0|8|0,0:0|0:0|0:0,0:0:0:0:
348,284,114292,2,0,P|323:281|299:274,1,50,0|8,0:0|0:0,0:0:0:0:
212,224,114996,2,0,B|156:232|156:232|116:220|116:220|64:228,2,150,8|8|8,0:0|0:0|0:0,0:0:0:0:
292,164,116871,6,0,L|441:170,2,150,0|8|0,0:0|0:0|0:0,0:0:0:0:
236,84,118746,2,0,P|169:53|97:72,1,150,8|8,0:0|0:0,0:0:0:0:
64,107,119683,2,0,L|75:206,1,100,0|8,0:0|0:0,0:0:0:0:
24,292,120621,5,8,0:0:0:0:
24,292,120855,2,0,P|72:308|124:292,1,100,8|8,0:0|0:0,0:0:0:0:
160,268,121558,2,0,P|207:255|254:271,1,100,8|8,0:0|0:0,0:0:0:0:
292,304,122261,2,0,L|284:204,1,100,8|8,0:0|0:0,0:0:0:0:
260,160,122964,5,8,0:0:0:0:
320,80,123433,2,0,B|348:72|348:72|418:79,1,100,8|8,0:0|0:0,0:0:0:0:
464,104,124136,1,8,0:0:0:0:
384,164,124605,5,0,0:0:0:0:
384,164,124840,2,0,P|367:212|377:261,1,100,8|0,0:0|0:0,0:0:0:0:
308,332,125777,2,0,B|264:312|264:312|160:320,1,150,8|0,0:0|0:0,0:0:0:0:
124,352,126714,2,0,P|78:369|30:358,2,100,8|0|8,0:0|0:0|0:0,0:0:0:0:
162,319,127886,1,0,0:0:0:0:
100,240,128355,5,0,0:0:0:0:
100,240,128589,2,0,P|145:220|195:224,1,100,8|0,0:0|0:0,0:0:0:0:
256,304,129527,2,0,P|311:350|382:334,1,150
420,300,130464,1,8,0:0:0:0:
380,208,130933,2,0,L|388:107,1,100,4|8,0:0|0:0,0:0:0:0:
392,60,131636,1,4,0:0:0:0:
308,116,132105,5,0,0:0:0:0:
308,116,132339,2,0,P|260:128|215:108,1,100,8|0,0:0|0:0,0:0:0:0:
167,19,133277,2,0,P|95:15|44:67,1,150,8|0,0:0|0:0,0:0:0:0:
76,108,134214,2,0,P|92:160|72:212,2,100,8|0|8,0:0|0:0|0:0,0:0:0:0:
44,68,135386,1,0,0:0:0:0:
136,28,135855,5,0,0:0:0:0:
136,28,136089,2,0,L|248:20,1,100,8|0,0:0|0:0,0:0:0:0:
320,72,137027,1,8,0:0:0:0:
320,72,137261,2,2,B|326:118|326:118|313:166|313:166|336:198|323:258|323:258|292:236|260:233|260:233|224:236|224:236|184:228|184:228|160:252|120:264|79:243,1,450,2|0,0:0|0:0,0:0:0:0:
432,324,146871,6,0,L|332:315,1,100,0|0,0:0|0:0,0:0:0:0:
272,236,147808,2,0,L|172:244,1,100,0|0,0:0|0:0,0:0:0:0:
128,268,148511,1,0,0:0:0:0:
128,268,148746,6,0,P|108:216|132:168,1,100,0|0,0:0|0:0,0:0:0:0:
196,108,149683,2,0,P|242:123|287:103,1,100,0|8,0:0|0:0,0:0:0:0:
320,68,150386,1,0,0:0:0:0:
320,68,150621,6,0,L|419:71,2,100,0|0|0,0:0|0:0|0:0,0:0:0:0:
248,135,152027,2,0,P|246:160|250:185,1,50,0|0,0:0|0:0,0:0:0:0:
284,224,152496,6,0,B|248:216|248:216|185:222,1,100,0|0,0:0|0:0,0:0:0:0:
100,276,153433,2,0,P|84:229|93:180,1,100,0|8,0:0|0:0,0:0:0:0:
124,140,154136,1,0,0:0:0:0:
124,140,154371,6,0,L|223:143,2,100,0|0|0,0:0|0:0|0:0,0:0:0:0:
48,76,155777,2,0,P|64:60|96:44,1,50,0|0,0:0|0:0,0:0:0:0:
136,56,156246,2,0,L|235:59,2,100,0|0|0,0:0|0:0|0:0,0:0:0:0:
64,128,157652,1,0,0:0:0:0:
256,192,158121,12,0,159996,0:0:0:0:
442,95,161871,6,0,B|392:84|392:84|345:93,1,100,4|8,0:0|0:0,0:0:0:0:
300,116,162574,2,0,B|253:125|253:125|202:113,1,100,0|0,0:0|0:0,0:0:0:0:
168,76,163277,1,8,0:0:0:0:
80,28,163746,2,0,P|64:74|78:121,1,100,0|8,0:0|0:0,0:0:0:0:
116,151,164449,2,0,P|130:198|114:244,1,100,0|0,0:0|0:0,0:0:0:0:
68,267,165152,1,8,0:0:0:0:
128,348,165621,6,0,L|227:341,1,100,0|8,0:0|0:0,0:0:0:0:
272,316,166324,2,0,L|371:322,1,100
416,344,167027,1,8,0:0:0:0:
468,259,167496,6,0,P|484:213|472:165,1,100,4|8,0:3|0:0,0:0:0:0:
392,108,168433,2,0,P|375:154|387:202,1,100,4|8,0:3|0:0,0:0:0:0:
408,248,169136,1,0,0:0:0:0:
408,248,169371,6,0,P|360:235|312:248,1,100,4|8,0:0|0:0,0:0:0:0:
272,280,170074,2,0,P|224:292|176:279,1,100,0|0,0:0|0:0,0:0:0:0:
136,252,170777,1,8,0:0:0:0:
180,160,171246,2,0,B|227:147|227:147|276:164,1,100,0|8,0:0|0:0,0:0:0:0:
320,192,171949,2,0,B|367:204|367:204|416:188,1,100,0|0,0:0|0:0,0:0:0:0:
452,152,172652,1,8,0:0:0:0:
364,104,173121,6,0,L|214:111,2,150,0|8|2,0:0|0:0|0:0,0:0:0:0:
452,152,174996,1,4,0:3:0:0:
484,248,175464,1,8,0:0:0:0:
404,308,175933,1,4,0:3:0:0:
323,247,176402,2,0,P|299:247|274:253,1,50,8|0,0:0|0:0,0:0:0:0:
240,292,176871,6,0,L|128:288,1,100,4|8,0:0|0:0,0:0:0:0:
43,256,177808,2,0,P|36:279|37:304,2,50,0|0|8,0:0|0:0|0:0,0:0:0:0:
111,184,178746,2,0,P|127:137|115:89,1,100,0|8,0:0|0:0,0:0:0:0:
204,44,179683,2,0,P|236:81|283:94,1,100,0|8,0:0|0:0,0:0:0:0:
328,72,180386,1,0,0:0:0:0:
328,72,180621,6,0,B|344:148|344:148|323:217,2,150,0|8|2,0:0|0:0|0:0,0:0:0:0:
260,144,182496,1,4,0:3:0:0:
184,80,182964,1,8,0:0:0:0:
120,156,183433,1,4,0:3:0:0:
196,220,183902,2,0,P|195:247|191:268,1,50,8|0,0:0|0:0,0:0:0:0:
155,304,184371,6,0,P|203:291|251:303,1,100,4|8,0:0|0:0,0:0:0:0:
340,352,185308,2,0,L|392:348,2,50,0|0|8,0:0|0:0|0:0,0:0:0:0:
340,252,186246,2,0,P|352:203|339:155,1,100,0|8,0:0|0:0,0:0:0:0:
264,88,187183,1,0,0:0:0:0:
179,139,187652,2,0,P|156:140|130:132,1,50,8|0,0:0|0:0,0:0:0:0:
87,107,188121,6,0,P|116:175|80:248,2,150,0|8|2,0:0|0:0|0:0,0:0:0:0:
12,176,189996,1,4,0:3:0:0:
86,242,190464,1,8,0:0:0:0:
167,183,190933,2,0,P|212:163|262:163,1,100,4|8,0:3|0:0,0:0:0:0:
348,216,191871,5,8,0:0:0:0:
348,216,192105,2,0,L|340:316,1,100,8|8,0:0|0:0,0:0:0:0:
304,352,192808,2,0,P|267:319|218:316,1,100,8|8,0:0|0:0,0:0:0:0:
172,336,193511,2,0,P|125:351|78:335,1,100,8|8,0:0|0:0,0:0:0:0:
44,300,194214,5,8,0:0:0:0:
124,240,194683,2,0,L|116:140,1,100,10|10,0:0|0:0,0:0:0:0:
140,96,195386,1,10,0:0:0:0:
